osu file format v14

[General]
AudioFilename: audio.mp3
AudioLeadIn: 0
PreviewTime: 149017
Countdown: 0
SampleSet: Soft
StackLeniency: 0.7
Mode: 3
LetterboxInBreaks: 0
SpecialStyle: 0
WidescreenStoryboard: 1

[Editor]
DistanceSpacing: 0.1
BeatDivisor: 4
GridSize: 8
TimelineZoom: 2.3

[Metadata]
Title:Eviternity
TitleUnicode:Eviternity
Artist:Xyris
ArtistUnicode:Xyris
Creator:Critical_Star
Version:Beyond
Source:
Tags:250step dubstep hardcore iyouka electronic instrumental itsxyris future bass uk hardcore N3xtRecords hybrid dump speed stream bracketstream bracket ln rice
BeatmapID:4065230
BeatmapSetID:1961513

[Difficulty]
HPDrainRate:7.8
CircleSize:7
OverallDifficulty:7
ApproachRate:5
SliderMultiplier:1.4
SliderTickRate:1

[Events]
//Background and Video events
0,0,"BG.jpg",0,0
//Break Periods
//Storyboard Layer 0 (Background)
//Storyboard Layer 1 (Fail)
//Storyboard Layer 2 (Pass)
//Storyboard Layer 3 (Foreground)
//Storyboard Layer 4 (Overlay)
//Storyboard Sound Samples

[TimingPoints]
5017,240,4,2,1,40,1,0
73177,-100,4,2,1,40,0,1
88537,-100,4,2,1,40,0,0
149977,-100,4,2,1,40,0,1
164377,-100,4,2,1,40,0,0
165337,-100,4,2,1,40,0,1
179737,-100,4,2,1,40,0,0

[HitObjects]
256,192,5017,128,0,7897:0:0:0:0:
36,192,7897,128,0,11737:0:0:0:0:
475,192,11737,128,0,15577:0:0:0:0:
182,192,15577,128,0,17497:0:0:0:0:
329,192,17497,128,0,19417:0:0:0:0:
109,192,19417,1,0,0:0:0:0:
182,192,19777,1,0,0:0:0:0:
256,192,20137,1,0,0:0:0:0:
36,192,20497,1,0,0:0:0:0:
256,192,20857,1,0,0:0:0:0:
182,192,21097,1,0,0:0:0:0:
402,192,21337,1,0,0:0:0:0:
329,192,21697,1,0,0:0:0:0:
256,192,22057,1,0,0:0:0:0:
182,192,22417,1,0,0:0:0:0:
109,192,22657,1,0,0:0:0:0:
256,192,22777,1,0,0:0:0:0:
182,192,22897,1,0,0:0:0:0:
329,192,23017,1,0,0:0:0:0:
256,192,23137,1,0,0:0:0:0:
475,192,23257,1,0,0:0:0:0:
402,192,23617,1,0,0:0:0:0:
329,192,23977,1,0,0:0:0:0:
256,192,24337,1,0,0:0:0:0:
182,192,24697,1,0,0:0:0:0:
329,192,24937,1,0,0:0:0:0:
36,192,25177,1,0,0:0:0:0:
109,192,25537,1,0,0:0:0:0:
182,192,25897,1,0,0:0:0:0:
256,192,26257,1,0,0:0:0:0:
402,192,26497,1,0,0:0:0:0:
256,192,26617,1,0,0:0:0:0:
329,192,26737,1,0,0:0:0:0:
182,192,26857,1,0,0:0:0:0:
256,192,26977,1,0,0:0:0:0:
36,192,27097,1,0,0:0:0:0:
109,192,27457,1,0,0:0:0:0:
182,192,27817,1,0,0:0:0:0:
36,192,28177,1,0,0:0:0:0:
256,192,28537,1,0,0:0:0:0:
182,192,28777,1,0,0:0:0:0:
402,192,29017,1,0,0:0:0:0:
329,192,29377,1,0,0:0:0:0:
256,192,29737,1,0,0:0:0:0:
182,192,30097,1,0,0:0:0:0:
109,192,30337,1,0,0:0:0:0:
256,192,30457,1,0,0:0:0:0:
182,192,30577,1,0,0:0:0:0:
329,192,30697,1,0,0:0:0:0:
256,192,30817,1,0,0:0:0:0:
475,192,30937,1,0,0:0:0:0:
402,192,31297,1,0,0:0:0:0:
329,192,31657,1,0,0:0:0:0:
256,192,32017,1,0,0:0:0:0:
182,192,32377,1,0,0:0:0:0:
329,192,32617,1,0,0:0:0:0:
36,192,32857,1,0,0:0:0:0:
109,192,33217,1,0,0:0:0:0:
182,192,33577,1,0,0:0:0:0:
256,192,33937,1,0,0:0:0:0:
256,192,34177,1,0,0:0:0:0:
36,192,34297,128,0,34657:0:0:0:70:kick.wav
475,192,34297,128,0,34657:0:0:0:70:LR4_SnareBPDT.wav
109,192,34357,128,0,34657:0:0:0:0:
402,192,34357,128,0,34657:0:0:0:0:
256,192,34417,128,0,34657:0:0:0:0:
36,192,34777,128,4,36457:0:0:0:0:
182,192,34777,1,0,0:0:0:70:kick.wav
256,192,34777,128,0,36457:0:0:0:0:
329,192,34777,1,0,0:0:0:0:
475,192,34777,128,0,36457:0:0:0:0:
402,192,36697,1,0,0:0:0:70:kick.wav
475,192,36697,1,0,0:0:0:0:
182,192,36757,1,0,0:0:0:70:kick.wav
256,192,36757,1,0,0:0:0:0:
402,192,36817,1,0,0:0:0:70:kick.wav
475,192,36817,1,0,0:0:0:0:
36,192,36937,1,0,0:0:0:70:kick.wav
109,192,36937,1,0,0:0:0:0:
256,192,36997,1,0,0:0:0:70:kick.wav
329,192,36997,1,0,0:0:0:0:
36,192,37057,1,0,0:0:0:70:kick.wav
109,192,37057,1,0,0:0:0:0:
182,192,37177,1,0,0:0:0:70:kick.wav
256,192,37177,1,0,0:0:0:0:
329,192,37177,1,0,0:0:0:0:
402,192,37297,1,0,0:0:0:70:kick.wav
475,192,37297,1,0,0:0:0:0:
182,192,37357,1,0,0:0:0:70:kick.wav
329,192,37357,1,0,0:0:0:0:
36,192,37417,1,0,0:0:0:70:kick.wav
109,192,37417,1,0,0:0:0:0:
182,192,37537,1,0,0:0:0:70:kick.wav
329,192,37537,1,0,0:0:0:0:
256,192,37657,1,0,0:0:0:70:kick.wav
475,192,37657,1,0,0:0:0:0:
36,192,37717,1,0,0:0:0:70:kick.wav
109,192,37717,1,0,0:0:0:0:
182,192,37777,1,0,0:0:0:70:kick.wav
329,192,37777,1,0,0:0:0:0:
36,192,37837,1,0,0:0:0:70:kick.wav
109,192,37837,1,0,0:0:0:0:
256,192,37897,1,0,0:0:0:70:kick.wav
475,192,37897,1,0,0:0:0:0:
36,192,38017,1,0,0:0:0:70:kick.wav
182,192,38017,1,0,0:0:0:0:
402,192,38077,1,0,0:0:0:70:kick.wav
475,192,38077,1,0,0:0:0:0:
109,192,38137,1,0,0:0:0:70:kick.wav
256,192,38137,1,0,0:0:0:0:
329,192,38257,1,0,0:0:0:70:kick.wav
475,192,38257,1,0,0:0:0:0:
36,192,38317,1,0,0:0:0:70:kick.wav
109,192,38317,1,0,0:0:0:0:
256,192,38377,1,0,0:0:0:70:kick.wav
402,192,38377,1,0,0:0:0:0:
182,192,38497,1,0,0:0:0:70:kick.wav
329,192,38497,1,0,0:0:0:0:
36,192,38617,128,0,40297:0:0:0:70:push_scratch.wav
109,192,38617,1,0,0:0:0:70:kick.wav
256,192,38617,128,0,40297:0:0:0:0:
402,192,38617,1,0,0:0:0:0:
475,192,38617,128,0,40297:0:0:0:0:
36,192,40537,1,0,0:0:0:70:kick.wav
109,192,40537,1,0,0:0:0:0:
256,192,40597,1,0,0:0:0:70:kick.wav
329,192,40597,1,0,0:0:0:0:
36,192,40657,1,0,0:0:0:70:kick.wav
109,192,40657,1,0,0:0:0:0:
402,192,40777,1,0,0:0:0:70:kick.wav
475,192,40777,1,0,0:0:0:0:
182,192,40837,1,0,0:0:0:70:kick.wav
256,192,40837,1,0,0:0:0:0:
402,192,40897,1,0,0:0:0:70:kick.wav
475,192,40897,1,0,0:0:0:0:
182,192,41017,1,0,0:0:0:70:kick.wav
256,192,41017,1,0,0:0:0:0:
329,192,41017,1,0,0:0:0:0:
36,192,41137,1,0,0:0:0:70:kick.wav
109,192,41137,1,0,0:0:0:0:
182,192,41197,1,0,0:0:0:70:kick.wav
329,192,41197,1,0,0:0:0:0:
402,192,41257,1,0,0:0:0:70:kick.wav
475,192,41257,1,0,0:0:0:0:
182,192,41377,1,0,0:0:0:70:kick.wav
329,192,41377,1,0,0:0:0:0:
36,192,41497,1,0,0:0:0:70:kick.wav
256,192,41497,1,0,0:0:0:0:
402,192,41557,1,0,0:0:0:70:kick.wav
475,192,41557,1,0,0:0:0:0:
182,192,41617,1,0,0:0:0:70:kick.wav
329,192,41617,1,0,0:0:0:0:
402,192,41677,1,0,0:0:0:70:kick.wav
475,192,41677,1,0,0:0:0:0:
36,192,41737,1,0,0:0:0:70:kick.wav
256,192,41737,1,0,0:0:0:0:
329,192,41857,1,0,0:0:0:70:kick.wav
475,192,41857,1,0,0:0:0:0:
36,192,41917,1,0,0:0:0:70:kick.wav
109,192,41917,1,0,0:0:0:0:
256,192,41977,1,0,0:0:0:70:kick.wav
402,192,41977,1,0,0:0:0:0:
36,192,42097,1,0,0:0:0:70:kick.wav
182,192,42097,1,0,0:0:0:0:
402,192,42157,1,0,0:0:0:70:kick.wav
475,192,42157,1,0,0:0:0:0:
109,192,42217,1,0,0:0:0:70:kick.wav
256,192,42217,1,0,0:0:0:0:
182,192,42337,1,0,0:0:0:70:kick.wav
329,192,42337,1,0,0:0:0:0:
36,192,42457,128,0,44137:0:0:0:70:push_scratch.wav
109,192,42457,1,0,0:0:0:70:kick.wav
256,192,42457,128,0,44137:0:0:0:0:
402,192,42457,1,0,0:0:0:0:
475,192,42457,128,0,44137:0:0:0:0:
36,192,44377,1,0,0:0:0:70:kick.wav
182,192,44377,1,0,0:0:0:0:
329,192,44437,1,0,0:0:0:70:kick.wav
475,192,44437,1,0,0:0:0:0:
109,192,44497,1,0,0:0:0:70:kick.wav
256,192,44497,1,0,0:0:0:0:
329,192,44617,1,0,0:0:0:70:kick.wav
475,192,44617,1,0,0:0:0:0:
36,192,44677,1,0,0:0:0:70:kick.wav
182,192,44677,1,0,0:0:0:0:
256,192,44737,1,0,0:0:0:70:kick.wav
402,192,44737,1,0,0:0:0:0:
36,192,44857,1,0,0:0:0:70:kick.wav
109,192,44857,1,0,0:0:0:0:
182,192,44857,1,0,0:0:0:0:
402,192,44977,1,0,0:0:0:70:kick.wav
475,192,44977,1,0,0:0:0:0:
182,192,45037,1,0,0:0:0:70:kick.wav
329,192,45037,1,0,0:0:0:0:
36,192,45097,1,0,0:0:0:70:kick.wav
109,192,45097,1,0,0:0:0:0:
256,192,45217,1,0,0:0:0:70:kick.wav
402,192,45217,1,0,0:0:0:0:
36,192,45337,1,0,0:0:0:70:kick.wav
182,192,45337,1,0,0:0:0:0:
329,192,45397,1,0,0:0:0:70:kick.wav
475,192,45397,1,0,0:0:0:0:
109,192,45457,1,0,0:0:0:70:kick.wav
256,192,45457,1,0,0:0:0:0:
329,192,45517,1,0,0:0:0:70:kick.wav
475,192,45517,1,0,0:0:0:0:
36,192,45577,1,0,0:0:0:70:kick.wav
182,192,45577,1,0,0:0:0:0:
256,192,45697,1,0,0:0:0:70:kick.wav
402,192,45697,1,0,0:0:0:0:
36,192,45757,1,0,0:0:0:70:kick.wav
182,192,45757,1,0,0:0:0:0:
329,192,45817,1,0,0:0:0:70:kick.wav
475,192,45817,1,0,0:0:0:0:
109,192,45937,1,0,0:0:0:70:kick.wav
256,192,45937,1,0,0:0:0:0:
329,192,45997,1,0,0:0:0:70:kick.wav
475,192,45997,1,0,0:0:0:0:
36,192,46057,1,0,0:0:0:70:kick.wav
182,192,46057,1,0,0:0:0:0:
109,192,46177,1,0,0:0:0:70:kick.wav
402,192,46177,1,0,0:0:0:0:
36,192,46297,128,0,47977:0:0:0:70:push_scratch.wav
182,192,46297,1,0,0:0:0:70:kick.wav
256,192,46297,128,0,47977:0:0:0:0:
329,192,46297,1,0,0:0:0:0:
475,192,46297,128,0,47977:0:0:0:0:
329,192,48217,1,0,0:0:0:70:kick.wav
475,192,48217,1,0,0:0:0:0:
36,192,48277,1,0,0:0:0:70:kick.wav
182,192,48277,1,0,0:0:0:0:
256,192,48337,1,0,0:0:0:70:kick.wav
402,192,48337,1,0,0:0:0:0:
36,192,48457,1,0,0:0:0:70:kick.wav
182,192,48457,1,0,0:0:0:0:
329,192,48517,1,0,0:0:0:70:kick.wav
475,192,48517,1,0,0:0:0:0:
109,192,48577,1,0,0:0:0:70:kick.wav
256,192,48577,1,0,0:0:0:0:
329,192,48697,1,0,0:0:0:70:kick.wav
402,192,48697,1,0,0:0:0:0:
475,192,48697,1,0,0:0:0:0:
36,192,48817,1,0,0:0:0:70:kick.wav
109,192,48817,1,0,0:0:0:0:
182,192,48877,1,0,0:0:0:70:kick.wav
329,192,48877,1,0,0:0:0:0:
402,192,48937,1,0,0:0:0:70:kick.wav
475,192,48937,1,0,0:0:0:0:
109,192,49057,1,0,0:0:0:70:kick.wav
256,192,49057,1,0,0:0:0:0:
329,192,49177,1,0,0:0:0:70:kick.wav
475,192,49177,1,0,0:0:0:0:
36,192,49237,1,0,0:0:0:70:kick.wav
182,192,49237,1,0,0:0:0:0:
256,192,49297,1,0,0:0:0:70:kick.wav
402,192,49297,1,0,0:0:0:0:
36,192,49357,1,0,0:0:0:70:kick.wav
182,192,49357,1,0,0:0:0:0:
329,192,49417,1,0,0:0:0:70:kick.wav
475,192,49417,1,0,0:0:0:0:
109,192,49537,1,0,0:0:0:70:kick.wav
256,192,49537,1,0,0:0:0:0:
329,192,49597,1,0,0:0:0:70:kick.wav
475,192,49597,1,0,0:0:0:0:
36,192,49657,1,0,0:0:0:70:kick.wav
182,192,49657,1,0,0:0:0:0:
256,192,49777,1,0,0:0:0:70:kick.wav
402,192,49777,1,0,0:0:0:0:
36,192,49837,1,0,0:0:0:70:kick.wav
182,192,49837,1,0,0:0:0:0:
329,192,49897,1,0,0:0:0:70:kick.wav
475,192,49897,1,0,0:0:0:0:
109,192,50017,1,0,0:0:0:70:kick.wav
402,192,50017,1,0,0:0:0:0:
36,192,50137,128,4,50377:0:0:0:0:
182,192,50137,128,0,50377:0:0:0:70:kick.wav
329,192,50137,128,0,50377:0:0:0:0:
475,192,50137,128,0,50377:0:0:0:0:
109,192,50377,1,0,0:0:0:0:
182,192,50497,1,4,0:0:0:0:
256,192,50497,128,0,50857:0:0:0:70:kick.wav
329,192,50497,128,0,50857:0:0:0:0:
475,192,50497,128,0,50857:0:0:0:0:
36,192,50617,128,0,50857:0:0:0:0:
109,192,50617,128,0,50857:0:0:0:0:
402,192,50857,1,0,0:0:0:0:
36,192,51097,128,4,51337:0:0:0:0:
182,192,51097,128,0,51337:0:0:0:70:kick.wav
329,192,51097,128,0,51337:0:0:0:0:
475,192,51097,128,0,51337:0:0:0:0:
256,192,51217,1,0,0:0:0:0:
402,192,51337,1,0,0:0:0:0:
36,192,51457,128,4,51817:0:0:0:0:
182,192,51457,128,0,51817:0:0:0:70:kick.wav
256,192,51457,128,0,51817:0:0:0:0:
329,192,51457,1,0,0:0:0:0:
402,192,51577,128,0,51817:0:0:0:0:
475,192,51577,128,0,51817:0:0:0:0:
109,192,51817,1,0,0:0:0:0:
256,192,51937,1,0,0:0:0:0:
36,192,52057,128,4,52297:0:0:0:0:
182,192,52057,128,0,52297:0:0:0:70:kick.wav
329,192,52057,128,0,52297:0:0:0:0:
475,192,52057,128,0,52297:0:0:0:0:
256,192,52177,1,0,0:0:0:0:
109,192,52297,1,0,0:0:0:0:
36,192,52417,128,4,52777:0:0:0:0:
182,192,52417,1,0,0:0:0:70:kick.wav
329,192,52417,128,0,52777:0:0:0:0:
475,192,52417,128,0,52777:0:0:0:0:
109,192,52537,128,0,52777:0:0:0:0:
256,192,52537,128,0,52777:0:0:0:0:
402,192,52777,1,0,0:0:0:0:
36,192,53017,128,4,53257:0:0:0:0:
182,192,53017,128,0,53257:0:0:0:70:kick.wav
329,192,53017,128,0,53257:0:0:0:0:
475,192,53017,128,0,53257:0:0:0:0:
256,192,53137,1,0,0:0:0:0:
402,192,53257,1,0,0:0:0:0:
36,192,53377,128,4,53737:0:0:0:0:
109,192,53377,128,0,53737:0:0:0:70:kick.wav
329,192,53377,1,0,0:0:0:0:
475,192,53377,128,0,53737:0:0:0:0:
256,192,53497,128,0,53737:0:0:0:0:
402,192,53497,128,0,53737:0:0:0:0:
182,192,53737,1,0,0:0:0:0:
36,192,53977,1,0,0:0:0:70:kick.wav
109,192,53977,1,0,0:0:0:0:
182,192,53977,1,0,0:0:0:0:
36,192,54157,1,0,0:0:0:70:kick.wav
109,192,54157,1,0,0:0:0:0:
182,192,54157,1,0,0:0:0:0:
182,192,54337,1,0,0:0:0:70:kick.wav
329,192,54337,1,0,0:0:0:0:
109,192,54457,1,0,0:0:0:70:kick.wav
256,192,54457,1,0,0:0:0:0:
402,192,54457,1,0,0:0:0:0:
109,192,54637,1,0,0:0:0:70:kick.wav
256,192,54637,1,0,0:0:0:0:
402,192,54637,1,0,0:0:0:0:
36,192,54817,1,0,0:0:0:70:kick.wav
182,192,54817,1,0,0:0:0:0:
329,192,54937,1,0,0:0:0:70:kick.wav
402,192,54937,1,0,0:0:0:0:
475,192,54937,1,0,0:0:0:0:
329,192,55117,1,0,0:0:0:70:kick.wav
402,192,55117,1,0,0:0:0:0:
475,192,55117,1,0,0:0:0:0:
36,192,55297,1,0,0:0:0:70:kick.wav
182,192,55297,1,0,0:0:0:0:
109,192,55417,1,0,0:0:0:70:kick.wav
256,192,55417,1,0,0:0:0:0:
402,192,55417,1,0,0:0:0:0:
109,192,55597,1,0,0:0:0:70:kick.wav
256,192,55597,1,0,0:0:0:0:
402,192,55597,1,0,0:0:0:0:
109,192,55777,1,0,0:0:0:70:kick.wav
256,192,55777,1,0,0:0:0:0:
402,192,55777,1,0,0:0:0:0:
36,192,55897,1,0,0:0:0:70:kick.wav
329,192,55897,1,0,0:0:0:0:
475,192,55897,1,0,0:0:0:0:
109,192,55957,1,0,0:0:0:70:kick.wav
256,192,55957,1,0,0:0:0:0:
182,192,56017,1,0,0:0:0:70:kick.wav
402,192,56017,1,0,0:0:0:0:
329,192,56077,1,0,0:0:0:70:kick.wav
36,192,56137,1,0,0:0:0:70:kick.wav
256,192,56137,1,0,0:0:0:0:
109,192,56197,1,0,0:0:0:70:kick.wav
402,192,56197,1,0,0:0:0:0:
182,192,56257,1,0,0:0:0:70:kick.wav
475,192,56257,1,0,0:0:0:0:
329,192,56317,1,0,0:0:0:70:kick.wav
256,192,56377,1,0,0:0:0:70:kick.wav
475,192,56377,1,0,0:0:0:0:
109,192,56437,1,0,0:0:0:70:kick.wav
402,192,56437,1,0,0:0:0:0:
36,192,56497,1,0,0:0:0:70:kick.wav
329,192,56497,1,0,0:0:0:0:
182,192,56557,1,0,0:0:0:70:kick.wav
256,192,56617,1,0,0:0:0:70:kick.wav
475,192,56617,1,0,0:0:0:0:
36,192,56677,1,0,0:0:0:70:kick.wav
402,192,56677,1,0,0:0:0:0:
182,192,56737,1,0,0:0:0:70:kick.wav
329,192,56737,1,0,0:0:0:0:
109,192,56797,1,0,0:0:0:70:kick.wav
36,192,56857,128,0,57337:0:0:0:70:push_scratch.wav
256,192,56857,128,0,57337:0:0:0:70:kick.wav
402,192,56857,1,0,0:0:0:0:
475,192,56857,1,0,0:0:0:0:
475,192,57097,128,0,57337:0:0:0:0:
402,192,57337,1,0,0:0:0:0:
329,192,57397,1,0,0:0:0:0:
109,192,57457,1,0,0:0:0:0:
182,192,57517,1,0,0:0:0:0:
402,192,57577,1,0,0:0:0:0:
329,192,57637,1,0,0:0:0:0:
109,192,57697,1,0,0:0:0:0:
182,192,57757,1,0,0:0:0:0:
36,192,57817,1,4,0:0:0:0:
256,192,57817,1,0,0:0:0:70:kick.wav
402,192,57817,1,0,0:0:0:0:
475,192,57817,1,0,0:0:0:0:
256,192,57937,1,0,0:0:0:0:
36,192,58057,1,0,0:0:0:70:kick.wav
182,192,58057,1,0,0:0:0:0:
329,192,58057,1,0,0:0:0:0:
475,192,58057,1,0,0:0:0:0:
182,192,58177,1,0,0:0:0:0:
329,192,58297,1,0,0:0:0:70:kick.wav
402,192,58297,1,0,0:0:0:0:
475,192,58297,1,0,0:0:0:0:
256,192,58357,1,0,0:0:0:0:
109,192,58417,1,0,0:0:0:0:
182,192,58417,1,0,0:0:0:0:
329,192,58477,1,0,0:0:0:0:
36,192,58537,1,0,0:0:0:70:kick.wav
402,192,58537,1,0,0:0:0:0:
475,192,58537,1,0,0:0:0:0:
109,192,58597,1,0,0:0:0:0:
256,192,58657,1,0,0:0:0:0:
329,192,58657,1,0,0:0:0:0:
182,192,58717,1,0,0:0:0:0:
36,192,58777,1,0,0:0:0:70:kick.wav
109,192,58777,1,0,0:0:0:0:
402,192,58777,1,0,0:0:0:0:
329,192,58837,1,0,0:0:0:0:
182,192,58897,1,0,0:0:0:0:
256,192,58897,1,0,0:0:0:0:
402,192,58957,1,0,0:0:0:0:
36,192,59017,1,0,0:0:0:70:kick.wav
109,192,59017,1,0,0:0:0:0:
475,192,59017,1,0,0:0:0:0:
182,192,59077,1,0,0:0:0:0:
329,192,59137,1,0,0:0:0:0:
402,192,59137,1,0,0:0:0:0:
256,192,59197,1,0,0:0:0:0:
36,192,59257,1,0,0:0:0:70:kick.wav
109,192,59257,1,0,0:0:0:0:
475,192,59257,1,0,0:0:0:0:
402,192,59317,1,0,0:0:0:0:
182,192,59377,1,0,0:0:0:0:
256,192,59377,1,0,0:0:0:0:
329,192,59437,1,0,0:0:0:0:
109,192,59497,1,0,0:0:0:70:kick.wav
402,192,59497,1,0,0:0:0:0:
475,192,59497,1,0,0:0:0:0:
182,192,59557,1,0,0:0:0:0:
256,192,59617,1,0,0:0:0:0:
329,192,59617,1,0,0:0:0:0:
109,192,59677,1,0,0:0:0:0:
36,192,59737,1,0,0:0:0:70:kick.wav
402,192,59737,1,0,0:0:0:0:
475,192,59737,1,0,0:0:0:0:
256,192,59797,1,0,0:0:0:0:
182,192,59857,1,0,0:0:0:0:
329,192,59857,1,0,0:0:0:0:
109,192,59917,1,0,0:0:0:0:
36,192,59977,1,0,0:0:0:70:kick.wav
256,192,59977,1,0,0:0:0:0:
402,192,59977,1,0,0:0:0:0:
475,192,59977,1,0,0:0:0:0:
329,192,60097,1,0,0:0:0:0:
36,192,60217,1,0,0:0:0:70:kick.wav
109,192,60217,1,0,0:0:0:0:
182,192,60217,1,0,0:0:0:0:
256,192,60277,1,0,0:0:0:0:
329,192,60337,1,0,0:0:0:0:
402,192,60337,1,0,0:0:0:0:
182,192,60397,1,0,0:0:0:0:
36,192,60457,1,0,0:0:0:70:kick.wav
109,192,60457,1,0,0:0:0:0:
475,192,60457,1,0,0:0:0:0:
402,192,60517,1,0,0:0:0:0:
182,192,60577,1,0,0:0:0:0:
256,192,60577,1,0,0:0:0:0:
329,192,60637,1,0,0:0:0:0:
109,192,60697,1,0,0:0:0:70:kick.wav
402,192,60697,1,0,0:0:0:0:
475,192,60697,1,0,0:0:0:0:
182,192,60757,1,0,0:0:0:0:
256,192,60817,1,0,0:0:0:0:
329,192,60817,1,0,0:0:0:0:
109,192,60877,1,0,0:0:0:0:
36,192,60937,1,0,0:0:0:70:kick.wav
402,192,60937,1,0,0:0:0:0:
475,192,60937,1,0,0:0:0:0:
329,192,60997,1,0,0:0:0:0:
109,192,61057,1,0,0:0:0:0:
182,192,61057,1,0,0:0:0:0:
256,192,61117,1,0,0:0:0:0:
36,192,61177,1,0,0:0:0:70:kick.wav
402,192,61177,1,0,0:0:0:0:
475,192,61177,1,0,0:0:0:0:
109,192,61237,1,0,0:0:0:0:
256,192,61297,1,0,0:0:0:0:
329,192,61297,1,0,0:0:0:0:
182,192,61357,1,0,0:0:0:0:
36,192,61417,1,0,0:0:0:70:kick.wav
109,192,61417,1,0,0:0:0:0:
402,192,61417,1,0,0:0:0:0:
475,192,61417,1,0,0:0:0:0:
329,192,61477,1,0,0:0:0:0:
182,192,61537,1,0,0:0:0:70:kick.wav
402,192,61537,1,0,0:0:0:0:
475,192,61537,1,0,0:0:0:0:
256,192,61597,1,0,0:0:0:0:
36,192,61657,1,4,0:0:0:0:
109,192,61657,1,0,0:0:0:70:kick.wav
475,192,61657,128,0,61777:0:0:0:0:
402,192,61697,128,0,61817:0:0:0:0:
329,192,61737,128,0,61857:0:0:0:0:
256,192,61777,128,0,61897:0:0:0:0:
182,192,61817,128,0,61937:0:0:0:0:
109,192,61857,128,0,61977:0:0:0:0:
36,192,61897,128,0,62017:0:0:0:0:
475,192,61897,1,0,0:0:0:0:
402,192,61957,1,0,0:0:0:0:
329,192,62017,1,0,0:0:0:0:
182,192,62077,1,0,0:0:0:0:
36,192,62137,1,0,0:0:0:70:LR4_SnareBPDT.wav
109,192,62137,1,0,0:0:0:0:
256,192,62137,128,0,62317:0:0:0:0:
329,192,62197,128,0,62377:0:0:0:0:
402,192,62257,128,0,62437:0:0:0:0:
475,192,62317,128,0,62497:0:0:0:0:
182,192,62377,1,0,0:0:0:0:
256,192,62437,1,0,0:0:0:0:
329,192,62497,1,0,0:0:0:0:
402,192,62557,1,0,0:0:0:0:
36,192,62617,1,0,0:0:0:70:kick.wav
256,192,62617,128,0,62797:0:0:0:0:
475,192,62617,1,0,0:0:0:0:
182,192,62677,128,0,62857:0:0:0:0:
109,192,62737,128,0,62917:0:0:0:0:
36,192,62797,128,0,62977:0:0:0:0:
329,192,62857,1,0,0:0:0:0:
256,192,62917,1,0,0:0:0:0:
182,192,62977,1,0,0:0:0:0:
109,192,63037,1,0,0:0:0:0:
36,192,63097,1,0,0:0:0:70:LR4_SnareBPDT.wav
256,192,63097,128,0,63277:0:0:0:0:
475,192,63097,1,0,0:0:0:0:
329,192,63157,128,0,63337:0:0:0:0:
402,192,63217,128,0,63397:0:0:0:0:
475,192,63277,128,0,63457:0:0:0:0:
109,192,63337,1,0,0:0:0:0:
182,192,63397,1,0,0:0:0:0:
256,192,63457,1,0,0:0:0:0:
329,192,63517,1,0,0:0:0:0:
36,192,63577,128,0,63697:0:0:0:70:kick.wav
402,192,63577,1,0,0:0:0:0:
475,192,63577,1,0,0:0:0:0:
109,192,63617,128,0,63737:0:0:0:0:
182,192,63657,128,0,63777:0:0:0:0:
256,192,63697,128,0,63817:0:0:0:0:
329,192,63737,128,0,63857:0:0:0:0:
402,192,63777,128,0,63897:0:0:0:0:
36,192,63817,1,0,0:0:0:0:
475,192,63817,128,0,63937:0:0:0:0:
109,192,63877,1,0,0:0:0:0:
182,192,63937,1,0,0:0:0:0:
329,192,63997,1,0,0:0:0:0:
256,192,64057,128,0,64237:0:0:0:70:LR4_SnareBPDT.wav
402,192,64057,1,0,0:0:0:0:
475,192,64057,1,0,0:0:0:0:
182,192,64117,128,0,64297:0:0:0:0:
109,192,64177,128,0,64357:0:0:0:0:
36,192,64237,128,0,64417:0:0:0:0:
329,192,64297,1,0,0:0:0:0:
256,192,64357,1,0,0:0:0:0:
182,192,64417,1,0,0:0:0:0:
109,192,64477,1,0,0:0:0:0:
36,192,64537,1,0,0:0:0:70:kick.wav
256,192,64537,128,0,64717:0:0:0:0:
475,192,64537,1,0,0:0:0:0:
329,192,64597,128,0,64777:0:0:0:0:
402,192,64657,128,0,64837:0:0:0:0:
475,192,64717,128,0,64897:0:0:0:0:
182,192,64777,1,0,0:0:0:0:
256,192,64837,1,0,0:0:0:0:
329,192,64897,1,0,0:0:0:0:
402,192,64957,1,0,0:0:0:0:
36,192,65017,1,0,0:0:0:70:LR4_SnareBPDT.wav
256,192,65017,128,0,65197:0:0:0:0:
475,192,65017,1,0,0:0:0:0:
182,192,65077,128,0,65257:0:0:0:0:
109,192,65137,128,0,65317:0:0:0:0:
36,192,65197,128,0,65377:0:0:0:0:
402,192,65257,1,0,0:0:0:0:
329,192,65317,1,0,0:0:0:0:
256,192,65377,1,0,0:0:0:0:
182,192,65437,1,0,0:0:0:0:
36,192,65497,1,4,0:0:0:0:
109,192,65497,1,0,0:0:0:70:kick.wav
402,192,65497,1,0,0:0:0:0:
475,192,65497,1,0,0:0:0:0:
402,192,65617,1,0,0:0:0:0:
36,192,65737,1,0,0:0:0:70:kick.wav
182,192,65737,1,0,0:0:0:0:
329,192,65737,1,0,0:0:0:0:
475,192,65737,1,0,0:0:0:0:
182,192,65857,1,0,0:0:0:0:
329,192,65977,1,0,0:0:0:70:kick.wav
402,192,65977,1,0,0:0:0:0:
475,192,65977,1,0,0:0:0:0:
256,192,66037,1,0,0:0:0:0:
109,192,66097,1,0,0:0:0:0:
182,192,66097,1,0,0:0:0:0:
329,192,66157,1,0,0:0:0:0:
36,192,66217,1,0,0:0:0:70:kick.wav
402,192,66217,1,0,0:0:0:0:
475,192,66217,1,0,0:0:0:0:
109,192,66277,1,0,0:0:0:0:
256,192,66337,1,0,0:0:0:0:
329,192,66337,1,0,0:0:0:0:
182,192,66397,1,0,0:0:0:0:
36,192,66457,1,0,0:0:0:70:kick.wav
109,192,66457,1,0,0:0:0:0:
475,192,66457,1,0,0:0:0:0:
329,192,66517,1,0,0:0:0:0:
182,192,66577,1,0,0:0:0:0:
256,192,66577,1,0,0:0:0:0:
402,192,66637,1,0,0:0:0:0:
36,192,66697,1,0,0:0:0:70:kick.wav
109,192,66697,1,0,0:0:0:0:
475,192,66697,1,0,0:0:0:0:
256,192,66757,1,0,0:0:0:0:
329,192,66817,1,0,0:0:0:0:
402,192,66817,1,0,0:0:0:0:
182,192,66877,1,0,0:0:0:0:
36,192,66937,1,0,0:0:0:70:kick.wav
109,192,66937,1,0,0:0:0:0:
475,192,66937,1,0,0:0:0:0:
329,192,66997,1,0,0:0:0:0:
182,192,67057,1,0,0:0:0:0:
256,192,67057,1,0,0:0:0:0:
402,192,67117,1,0,0:0:0:0:
36,192,67177,1,0,0:0:0:70:kick.wav
109,192,67177,1,0,0:0:0:0:
475,192,67177,1,0,0:0:0:0:
256,192,67237,1,0,0:0:0:0:
329,192,67297,1,0,0:0:0:0:
402,192,67297,1,0,0:0:0:0:
182,192,67357,1,0,0:0:0:0:
36,192,67417,1,0,0:0:0:70:kick.wav
256,192,67417,1,0,0:0:0:0:
475,192,67417,1,0,0:0:0:0:
402,192,67477,1,0,0:0:0:0:
109,192,67537,1,0,0:0:0:0:
182,192,67537,1,0,0:0:0:0:
256,192,67597,1,0,0:0:0:0:
36,192,67657,1,0,0:0:0:70:kick.wav
329,192,67657,1,0,0:0:0:0:
402,192,67657,1,0,0:0:0:0:
475,192,67657,1,0,0:0:0:0:
256,192,67777,1,0,0:0:0:0:
36,192,67897,1,0,0:0:0:70:kick.wav
109,192,67897,1,0,0:0:0:0:
182,192,67897,1,0,0:0:0:0:
256,192,67957,1,0,0:0:0:0:
329,192,68017,1,0,0:0:0:0:
402,192,68017,1,0,0:0:0:0:
182,192,68077,1,0,0:0:0:0:
36,192,68137,1,0,0:0:0:70:kick.wav
109,192,68137,1,0,0:0:0:0:
475,192,68137,1,0,0:0:0:0:
402,192,68197,1,0,0:0:0:0:
182,192,68257,1,0,0:0:0:0:
256,192,68257,1,0,0:0:0:0:
329,192,68317,1,0,0:0:0:0:
36,192,68377,1,0,0:0:0:70:kick.wav
402,192,68377,1,0,0:0:0:0:
475,192,68377,1,0,0:0:0:0:
182,192,68437,1,0,0:0:0:0:
256,192,68497,1,0,0:0:0:0:
329,192,68497,1,0,0:0:0:0:
109,192,68557,1,0,0:0:0:0:
36,192,68617,1,0,0:0:0:70:kick.wav
402,192,68617,1,0,0:0:0:0:
475,192,68617,1,0,0:0:0:0:
256,192,68677,1,0,0:0:0:0:
109,192,68737,1,0,0:0:0:0:
182,192,68737,1,0,0:0:0:0:
329,192,68797,1,0,0:0:0:0:
36,192,68857,1,0,0:0:0:70:kick.wav
402,192,68857,1,0,0:0:0:0:
475,192,68857,1,0,0:0:0:0:
182,192,68917,1,0,0:0:0:0:
256,192,68977,1,0,0:0:0:0:
329,192,68977,1,0,0:0:0:0:
109,192,69037,1,0,0:0:0:0:
36,192,69097,1,0,0:0:0:70:kick.wav
329,192,69097,1,0,0:0:0:0:
402,192,69097,1,0,0:0:0:0:
475,192,69097,1,0,0:0:0:0:
182,192,69157,1,0,0:0:0:0:
329,192,69217,1,0,0:0:0:70:kick.wav
402,192,69217,1,0,0:0:0:0:
475,192,69217,1,0,0:0:0:0:
256,192,69277,1,0,0:0:0:0:
36,192,69337,1,4,0:0:0:0:
182,192,69337,1,0,0:0:0:70:kick.wav
475,192,69337,128,0,69457:0:0:0:0:
402,192,69377,128,0,69497:0:0:0:0:
329,192,69417,128,0,69537:0:0:0:0:
256,192,69457,128,0,69577:0:0:0:0:
182,192,69497,128,0,69617:0:0:0:0:
109,192,69537,128,0,69657:0:0:0:0:
36,192,69577,128,0,69697:0:0:0:0:
475,192,69577,1,0,0:0:0:0:
402,192,69637,1,0,0:0:0:0:
329,192,69697,1,0,0:0:0:0:
182,192,69757,1,0,0:0:0:0:
36,192,69817,1,0,0:0:0:70:LR4_SnareBPDT.wav
109,192,69817,1,0,0:0:0:0:
256,192,69817,128,0,69997:0:0:0:0:
329,192,69877,128,0,70057:0:0:0:0:
402,192,69937,128,0,70117:0:0:0:0:
475,192,69997,128,0,70177:0:0:0:0:
182,192,70057,1,0,0:0:0:0:
256,192,70117,1,0,0:0:0:0:
329,192,70177,1,0,0:0:0:0:
402,192,70237,1,0,0:0:0:0:
36,192,70297,1,0,0:0:0:70:kick.wav
256,192,70297,128,0,70477:0:0:0:0:
475,192,70297,1,0,0:0:0:0:
182,192,70357,128,0,70537:0:0:0:0:
109,192,70417,128,0,70597:0:0:0:0:
36,192,70477,128,0,70657:0:0:0:0:
475,192,70537,1,0,0:0:0:0:
402,192,70597,1,0,0:0:0:0:
329,192,70657,1,0,0:0:0:0:
256,192,70717,1,0,0:0:0:0:
36,192,70777,128,0,70897:0:0:0:70:LR4_SnareBPDT.wav
182,192,70777,128,0,70897:0:0:0:0:
475,192,70777,128,0,71017:0:0:0:0:
402,192,70837,128,0,71017:0:0:0:0:
329,192,70897,128,0,71017:0:0:0:0:
36,192,71017,128,0,71077:0:0:0:0:
182,192,71017,128,0,71077:0:0:0:0:
329,192,71137,128,0,71197:0:0:0:0:
475,192,71137,128,0,71197:0:0:0:0:
36,192,71257,1,0,0:0:0:70:kick.wav
109,192,71257,1,0,0:0:0:0:
256,192,71257,1,0,0:0:0:0:
182,192,71377,128,0,71437:0:0:0:0:
402,192,71377,128,0,71437:0:0:0:0:
182,192,71497,128,0,71557:0:0:0:0:
402,192,71497,128,0,71557:0:0:0:0:
182,192,71617,128,0,71677:0:0:0:0:
402,192,71617,128,0,71677:0:0:0:0:
256,192,71737,128,0,71917:0:0:0:70:LR4_SnareBPDT.wav
329,192,71737,1,0,0:0:0:0:
475,192,71737,1,0,0:0:0:0:
182,192,71797,128,0,71977:0:0:0:0:
109,192,71857,128,0,72037:0:0:0:0:
36,192,71917,128,0,72097:0:0:0:0:
329,192,71977,1,0,0:0:0:0:
256,192,72037,1,0,0:0:0:0:
182,192,72097,1,0,0:0:0:0:
109,192,72157,1,0,0:0:0:0:
36,192,72217,1,0,0:0:0:70:LR4_SnareBPDT.wav
256,192,72217,128,0,72397:0:0:0:0:
475,192,72217,1,0,0:0:0:0:
329,192,72277,128,0,72457:0:0:0:0:
402,192,72337,128,0,72517:0:0:0:0:
36,192,72397,1,0,0:0:0:70:LR4_SnareBPDT.wav
109,192,72397,1,0,0:0:0:0:
475,192,72397,128,0,72577:0:0:0:0:
182,192,72457,1,0,0:0:0:0:
256,192,72517,1,0,0:0:0:0:
36,192,72577,1,0,0:0:0:70:LR4_SnareBPDT.wav
109,192,72577,1,0,0:0:0:0:
329,192,72577,1,0,0:0:0:0:
402,192,72637,1,0,0:0:0:0:
36,192,72697,1,0,0:0:0:70:LR4_SnareBPDT.wav
256,192,72697,128,0,72877:0:0:0:0:
475,192,72697,1,0,0:0:0:0:
182,192,72757,128,0,72937:0:0:0:0:
109,192,72817,128,0,72997:0:0:0:0:
36,192,72877,128,0,73057:0:0:0:70:LR4_SnareBPDT.wav
402,192,72877,1,0,0:0:0:0:
475,192,72877,1,0,0:0:0:0:
329,192,72937,1,0,0:0:0:0:
256,192,72997,1,0,0:0:0:0:
182,192,73057,1,0,0:0:0:70:LR4_SnareBPDT.wav
402,192,73057,1,0,0:0:0:0:
475,192,73057,1,0,0:0:0:0:
109,192,73117,1,0,0:0:0:0:
36,192,73177,1,4,0:0:0:0:
256,192,73177,1,0,0:0:0:70:kick.wav
402,192,73177,1,0,0:0:0:0:
475,192,73177,1,0,0:0:0:0:
182,192,73237,1,0,0:0:0:0:
109,192,73297,1,0,0:0:0:0:
329,192,73297,1,0,0:0:0:0:
402,192,73357,1,0,0:0:0:0:
36,192,73417,1,0,0:0:0:70:kick.wav
475,192,73417,1,0,0:0:0:0:
109,192,73477,1,0,0:0:0:0:
182,192,73537,1,0,0:0:0:0:
402,192,73537,1,0,0:0:0:0:
256,192,73597,1,0,0:0:0:0:
36,192,73657,1,0,0:0:0:70:kick.wav
475,192,73657,1,0,0:0:0:0:
402,192,73717,1,0,0:0:0:0:
182,192,73777,1,0,0:0:0:0:
329,192,73777,1,0,0:0:0:0:
109,192,73837,1,0,0:0:0:0:
36,192,73897,1,0,0:0:0:70:kick.wav
256,192,73897,1,0,0:0:0:0:
475,192,73897,1,0,0:0:0:0:
329,192,73957,1,0,0:0:0:0:
109,192,74017,1,0,0:0:0:0:
402,192,74017,1,0,0:0:0:0:
256,192,74077,1,0,0:0:0:0:
36,192,74137,1,0,0:0:0:70:kick.wav
329,192,74137,1,0,0:0:0:0:
475,192,74137,1,0,0:0:0:0:
182,192,74197,1,0,0:0:0:0:
109,192,74257,1,0,0:0:0:0:
402,192,74257,1,0,0:0:0:0:
36,192,74317,1,0,0:0:0:0:
256,192,74377,1,0,0:0:0:70:kick.wav
329,192,74377,1,0,0:0:0:0:
109,192,74437,1,0,0:0:0:0:
182,192,74497,1,0,0:0:0:0:
402,192,74497,1,0,0:0:0:0:
256,192,74557,1,0,0:0:0:0:
36,192,74617,1,0,0:0:0:70:kick.wav
475,192,74617,1,0,0:0:0:0:
402,192,74677,1,0,0:0:0:0:
182,192,74737,1,0,0:0:0:0:
329,192,74737,1,0,0:0:0:0:
109,192,74797,1,0,0:0:0:0:
36,192,74857,1,0,0:0:0:70:kick.wav
256,192,74857,1,0,0:0:0:0:
475,192,74857,1,0,0:0:0:0:
329,192,74917,1,0,0:0:0:0:
182,192,74977,1,0,0:0:0:0:
402,192,74977,1,0,0:0:0:0:
109,192,75037,1,0,0:0:0:0:
36,192,75097,1,0,0:0:0:70:kick.wav
329,192,75097,1,0,0:0:0:0:
475,192,75097,1,0,0:0:0:0:
182,192,75157,1,0,0:0:0:0:
256,192,75217,1,0,0:0:0:0:
402,192,75217,1,0,0:0:0:0:
109,192,75277,1,0,0:0:0:0:
36,192,75337,1,0,0:0:0:70:kick.wav
329,192,75337,1,0,0:0:0:0:
402,192,75397,1,0,0:0:0:0:
256,192,75457,1,0,0:0:0:0:
475,192,75457,1,0,0:0:0:0:
182,192,75517,1,0,0:0:0:0:
36,192,75577,1,0,0:0:0:70:kick.wav
402,192,75577,1,0,0:0:0:0:
109,192,75637,1,0,0:0:0:0:
182,192,75697,1,0,0:0:0:0:
329,192,75697,1,0,0:0:0:0:
256,192,75757,1,0,0:0:0:0:
36,192,75817,1,0,0:0:0:70:kick.wav
109,192,75817,1,0,0:0:0:0:
402,192,75817,1,0,0:0:0:0:
182,192,75877,1,0,0:0:0:0:
329,192,75937,1,0,0:0:0:0:
475,192,75937,1,0,0:0:0:0:
256,192,75997,1,0,0:0:0:0:
36,192,76057,1,0,0:0:0:70:kick.wav
182,192,76057,1,0,0:0:0:0:
402,192,76057,1,0,0:0:0:0:
329,192,76117,1,0,0:0:0:0:
109,192,76177,1,0,0:0:0:0:
475,192,76177,1,0,0:0:0:0:
402,192,76237,1,0,0:0:0:0:
36,192,76297,1,0,0:0:0:70:kick.wav
256,192,76297,1,0,0:0:0:0:
329,192,76357,1,0,0:0:0:0:
182,192,76417,1,0,0:0:0:0:
475,192,76417,1,0,0:0:0:0:
109,192,76477,1,0,0:0:0:0:
36,192,76537,1,0,0:0:0:70:kick.wav
402,192,76537,1,0,0:0:0:0:
256,192,76597,1,0,0:0:0:0:
182,192,76657,1,0,0:0:0:0:
329,192,76657,1,0,0:0:0:0:
109,192,76717,1,0,0:0:0:0:
36,192,76777,1,0,0:0:0:70:kick.wav
402,192,76777,1,0,0:0:0:0:
475,192,76777,1,0,0:0:0:0:
256,192,76837,1,0,0:0:0:0:
109,192,76897,1,0,0:0:0:70:kick.wav
182,192,76897,1,0,0:0:0:0:
402,192,76897,1,0,0:0:0:0:
329,192,76957,1,0,0:0:0:0:
36,192,77017,1,0,0:0:0:70:kick.wav
109,192,77017,1,0,0:0:0:0:
475,192,77017,1,0,0:0:0:0:
256,192,77077,1,0,0:0:0:0:
329,192,77137,1,0,0:0:0:0:
402,192,77137,1,0,0:0:0:0:
182,192,77197,1,0,0:0:0:0:
36,192,77257,1,0,0:0:0:70:kick.wav
475,192,77257,1,0,0:0:0:0:
256,192,77317,1,0,0:0:0:0:
109,192,77377,1,0,0:0:0:0:
329,192,77377,1,0,0:0:0:0:
402,192,77437,1,0,0:0:0:0:
182,192,77497,1,0,0:0:0:70:kick.wav
475,192,77497,1,0,0:0:0:0:
109,192,77557,1,0,0:0:0:0:
36,192,77617,1,0,0:0:0:0:
329,192,77617,1,0,0:0:0:0:
256,192,77677,1,0,0:0:0:0:
182,192,77737,1,0,0:0:0:70:kick.wav
402,192,77737,1,0,0:0:0:0:
475,192,77737,1,0,0:0:0:0:
329,192,77797,1,0,0:0:0:0:
109,192,77857,1,0,0:0:0:0:
256,192,77857,1,0,0:0:0:0:
402,192,77917,1,0,0:0:0:0:
36,192,77977,1,0,0:0:0:70:kick.wav
182,192,77977,1,0,0:0:0:0:
475,192,77977,1,0,0:0:0:0:
256,192,78037,1,0,0:0:0:0:
109,192,78097,1,0,0:0:0:0:
329,192,78097,1,0,0:0:0:0:
402,192,78157,1,0,0:0:0:0:
182,192,78217,1,0,0:0:0:70:kick.wav
475,192,78217,1,0,0:0:0:0:
329,192,78277,1,0,0:0:0:0:
109,192,78337,1,0,0:0:0:0:
256,192,78337,1,0,0:0:0:0:
402,192,78397,1,0,0:0:0:0:
36,192,78457,1,0,0:0:0:70:kick.wav
475,192,78457,1,0,0:0:0:0:
109,192,78517,1,0,0:0:0:0:
182,192,78577,1,0,0:0:0:0:
329,192,78577,1,0,0:0:0:0:
402,192,78637,1,0,0:0:0:0:
36,192,78697,1,0,0:0:0:70:kick.wav
256,192,78697,1,0,0:0:0:0:
475,192,78697,1,0,0:0:0:0:
109,192,78757,1,0,0:0:0:0:
329,192,78817,1,0,0:0:0:0:
402,192,78817,1,0,0:0:0:0:
256,192,78877,1,0,0:0:0:0:
36,192,78937,1,0,0:0:0:70:kick.wav
182,192,78937,1,0,0:0:0:0:
475,192,78937,1,0,0:0:0:0:
402,192,78997,1,0,0:0:0:0:
109,192,79057,1,0,0:0:0:0:
329,192,79057,1,0,0:0:0:0:
256,192,79117,1,0,0:0:0:0:
36,192,79177,1,0,0:0:0:70:kick.wav
402,192,79177,1,0,0:0:0:0:
109,192,79237,1,0,0:0:0:0:
182,192,79297,1,0,0:0:0:0:
329,192,79297,1,0,0:0:0:0:
402,192,79357,1,0,0:0:0:0:
36,192,79417,1,0,0:0:0:70:kick.wav
475,192,79417,1,0,0:0:0:0:
256,192,79477,1,0,0:0:0:0:
182,192,79537,1,0,0:0:0:0:
329,192,79537,1,0,0:0:0:0:
109,192,79597,1,0,0:0:0:0:
36,192,79657,1,0,0:0:0:70:kick.wav
256,192,79657,1,0,0:0:0:0:
402,192,79657,1,0,0:0:0:0:
475,192,79717,1,0,0:0:0:0:
182,192,79777,1,0,0:0:0:0:
329,192,79777,1,0,0:0:0:0:
109,192,79837,1,0,0:0:0:0:
256,192,79897,1,0,0:0:0:70:kick.wav
402,192,79897,1,0,0:0:0:0:
475,192,79897,1,0,0:0:0:0:
36,192,79957,1,0,0:0:0:0:
109,192,80017,1,0,0:0:0:0:
329,192,80017,1,0,0:0:0:0:
182,192,80077,1,0,0:0:0:0:
256,192,80137,1,0,0:0:0:70:kick.wav
475,192,80137,1,0,0:0:0:0:
402,192,80197,1,0,0:0:0:0:
109,192,80257,1,0,0:0:0:0:
329,192,80257,1,0,0:0:0:0:
182,192,80317,1,0,0:0:0:0:
36,192,80377,1,0,0:0:0:70:kick.wav
475,192,80377,1,0,0:0:0:0:
329,192,80437,1,0,0:0:0:0:
256,192,80497,1,0,0:0:0:0:
402,192,80497,1,0,0:0:0:0:
182,192,80557,1,0,0:0:0:0:
36,192,80617,1,0,0:0:0:70:kick.wav
109,192,80617,1,0,0:0:0:0:
475,192,80617,1,0,0:0:0:0:
256,192,80677,1,0,0:0:0:0:
36,192,80737,1,0,0:0:0:70:kick.wav
109,192,80737,1,0,0:0:0:0:
402,192,80737,1,0,0:0:0:0:
182,192,80797,1,0,0:0:0:0:
36,192,80857,1,0,0:0:0:70:kick.wav
329,192,80857,1,0,0:0:0:0:
475,192,80857,1,0,0:0:0:0:
256,192,80917,1,0,0:0:0:0:
182,192,80977,1,0,0:0:0:0:
402,192,80977,1,0,0:0:0:0:
109,192,81037,1,0,0:0:0:0:
36,192,81097,1,0,0:0:0:70:kick.wav
329,192,81097,1,0,0:0:0:0:
402,192,81157,1,0,0:0:0:0:
182,192,81217,1,0,0:0:0:0:
475,192,81217,1,0,0:0:0:0:
256,192,81277,1,0,0:0:0:0:
36,192,81337,1,0,0:0:0:70:kick.wav
329,192,81337,1,0,0:0:0:0:
109,192,81397,1,0,0:0:0:0:
182,192,81457,1,0,0:0:0:0:
402,192,81457,1,0,0:0:0:0:
256,192,81517,1,0,0:0:0:0:
36,192,81577,1,0,0:0:0:70:kick.wav
329,192,81577,1,0,0:0:0:0:
475,192,81577,1,0,0:0:0:0:
109,192,81637,1,0,0:0:0:0:
256,192,81697,1,0,0:0:0:0:
402,192,81697,1,0,0:0:0:0:
182,192,81757,1,0,0:0:0:0:
36,192,81817,1,0,0:0:0:70:kick.wav
329,192,81817,1,0,0:0:0:0:
475,192,81817,1,0,0:0:0:0:
256,192,81877,1,0,0:0:0:0:
182,192,81937,1,0,0:0:0:0:
402,192,81937,1,0,0:0:0:0:
109,192,81997,1,0,0:0:0:0:
36,192,82057,1,0,0:0:0:70:kick.wav
329,192,82057,1,0,0:0:0:0:
256,192,82117,1,0,0:0:0:0:
109,192,82177,1,0,0:0:0:0:
402,192,82177,1,0,0:0:0:0:
182,192,82237,1,0,0:0:0:0:
256,192,82297,1,0,0:0:0:70:kick.wav
475,192,82297,1,0,0:0:0:0:
329,192,82357,1,0,0:0:0:0:
36,192,82417,1,0,0:0:0:0:
402,192,82417,1,0,0:0:0:0:
109,192,82477,1,0,0:0:0:0:
182,192,82537,1,0,0:0:0:70:kick.wav
329,192,82537,1,0,0:0:0:0:
475,192,82537,1,0,0:0:0:0:
256,192,82597,1,0,0:0:0:0:
109,192,82657,1,0,0:0:0:0:
402,192,82657,1,0,0:0:0:0:
329,192,82717,1,0,0:0:0:0:
36,192,82777,1,0,0:0:0:70:kick.wav
182,192,82777,1,0,0:0:0:0:
475,192,82777,1,0,0:0:0:0:
256,192,82837,1,0,0:0:0:0:
109,192,82897,1,0,0:0:0:0:
329,192,82897,1,0,0:0:0:0:
402,192,82957,1,0,0:0:0:0:
182,192,83017,1,0,0:0:0:70:kick.wav
475,192,83017,1,0,0:0:0:0:
256,192,83077,1,0,0:0:0:0:
36,192,83137,1,0,0:0:0:0:
329,192,83137,1,0,0:0:0:0:
109,192,83197,1,0,0:0:0:0:
256,192,83257,1,0,0:0:0:70:kick.wav
475,192,83257,1,0,0:0:0:0:
182,192,83317,1,0,0:0:0:0:
109,192,83377,1,0,0:0:0:0:
402,192,83377,1,0,0:0:0:0:
36,192,83437,1,0,0:0:0:0:
182,192,83497,1,0,0:0:0:70:kick.wav
329,192,83497,1,0,0:0:0:0:
475,192,83497,1,0,0:0:0:0:
256,192,83557,1,0,0:0:0:0:
109,192,83617,1,0,0:0:0:0:
402,192,83617,1,0,0:0:0:0:
329,192,83677,1,0,0:0:0:0:
36,192,83737,1,0,0:0:0:70:kick.wav
182,192,83737,1,0,0:0:0:0:
475,192,83737,1,0,0:0:0:0:
402,192,83797,1,0,0:0:0:0:
109,192,83857,1,0,0:0:0:0:
329,192,83857,1,0,0:0:0:0:
256,192,83917,1,0,0:0:0:0:
36,192,83977,1,0,0:0:0:70:kick.wav
182,192,83977,1,0,0:0:0:0:
329,192,84037,1,0,0:0:0:0:
256,192,84097,1,0,0:0:0:0:
402,192,84097,1,0,0:0:0:0:
475,192,84157,1,0,0:0:0:0:
182,192,84217,1,0,0:0:0:70:kick.wav
329,192,84217,1,0,0:0:0:0:
109,192,84277,1,0,0:0:0:0:
36,192,84337,1,0,0:0:0:0:
256,192,84337,1,0,0:0:0:0:
329,192,84397,1,0,0:0:0:0:
182,192,84457,1,0,0:0:0:70:kick.wav
402,192,84457,1,0,0:0:0:0:
475,192,84457,1,0,0:0:0:0:
256,192,84517,1,0,0:0:0:0:
36,192,84577,1,0,0:0:0:70:kick.wav
109,192,84577,1,0,0:0:0:0:
402,192,84577,1,0,0:0:0:0:
182,192,84637,1,0,0:0:0:0:
36,192,84697,1,0,0:0:0:70:kick.wav
329,192,84697,1,0,0:0:0:0:
475,192,84697,1,0,0:0:0:0:
256,192,84757,1,0,0:0:0:0:
182,192,84817,1,0,0:0:0:0:
402,192,84817,1,0,0:0:0:0:
109,192,84877,1,0,0:0:0:0:
36,192,84937,1,0,0:0:0:70:kick.wav
329,192,84937,1,0,0:0:0:0:
256,192,84997,1,0,0:0:0:0:
109,192,85057,1,0,0:0:0:0:
475,192,85057,1,0,0:0:0:0:
402,192,85117,1,0,0:0:0:0:
36,192,85177,1,0,0:0:0:70:kick.wav
182,192,85177,1,0,0:0:0:0:
256,192,85237,1,0,0:0:0:0:
109,192,85297,1,0,0:0:0:0:
329,192,85297,1,0,0:0:0:0:
402,192,85357,1,0,0:0:0:0:
36,192,85417,1,0,0:0:0:70:kick.wav
182,192,85417,1,0,0:0:0:0:
475,192,85417,1,0,0:0:0:0:
256,192,85477,1,0,0:0:0:0:
109,192,85537,1,0,0:0:0:0:
402,192,85537,1,0,0:0:0:0:
182,192,85597,1,0,0:0:0:0:
36,192,85657,1,0,0:0:0:70:kick.wav
329,192,85657,1,0,0:0:0:0:
475,192,85657,1,0,0:0:0:0:
256,192,85717,1,0,0:0:0:0:
109,192,85777,1,0,0:0:0:0:
402,192,85777,1,0,0:0:0:0:
36,192,85837,1,0,0:0:0:0:
182,192,85897,1,0,0:0:0:70:kick.wav
329,192,85897,1,0,0:0:0:0:
256,192,85957,1,0,0:0:0:0:
109,192,86017,1,0,0:0:0:0:
402,192,86017,1,0,0:0:0:0:
475,192,86077,1,0,0:0:0:0:
36,192,86137,1,0,0:0:0:70:kick.wav
182,192,86137,1,0,0:0:0:0:
256,192,86197,1,0,0:0:0:0:
109,192,86257,1,0,0:0:0:0:
329,192,86257,1,0,0:0:0:0:
402,192,86317,1,0,0:0:0:0:
36,192,86377,1,0,0:0:0:70:kick.wav
256,192,86377,1,0,0:0:0:0:
475,192,86377,1,0,0:0:0:0:
329,192,86437,1,0,0:0:0:0:
109,192,86497,1,0,0:0:0:0:
182,192,86497,1,0,0:0:0:0:
256,192,86557,1,0,0:0:0:0:
36,192,86617,1,0,0:0:0:70:kick.wav
329,192,86617,1,0,0:0:0:0:
475,192,86617,1,0,0:0:0:0:
109,192,86677,1,0,0:0:0:0:
182,192,86737,1,0,0:0:0:0:
402,192,86737,1,0,0:0:0:0:
256,192,86797,1,0,0:0:0:0:
36,192,86857,1,0,0:0:0:70:kick.wav
329,192,86857,1,0,0:0:0:0:
109,192,86917,1,0,0:0:0:0:
256,192,86977,1,0,0:0:0:0:
402,192,86977,1,0,0:0:0:0:
182,192,87037,1,0,0:0:0:0:
36,192,87097,1,0,0:0:0:70:kick.wav
475,192,87097,1,0,0:0:0:0:
402,192,87157,1,0,0:0:0:0:
109,192,87217,1,0,0:0:0:0:
329,192,87217,1,0,0:0:0:0:
256,192,87277,1,0,0:0:0:0:
36,192,87337,1,0,0:0:0:70:kick.wav
182,192,87337,1,0,0:0:0:0:
475,192,87337,1,0,0:0:0:0:
329,192,87397,1,0,0:0:0:0:
109,192,87457,1,0,0:0:0:0:
402,192,87457,1,0,0:0:0:0:
256,192,87517,1,0,0:0:0:0:
36,192,87577,1,0,0:0:0:70:LR4_SnareBPDT.wav
182,192,87577,1,0,0:0:0:0:
329,192,87577,1,0,0:0:0:0:
475,192,87577,1,0,0:0:0:0:
36,192,87757,1,0,0:0:0:70:LR4_SnareBPDT.wav
182,192,87757,1,0,0:0:0:0:
329,192,87757,1,0,0:0:0:0:
475,192,87757,1,0,0:0:0:0:
109,192,87937,1,0,0:0:0:70:LR4_SnareBPDT.wav
402,192,87937,1,0,0:0:0:0:
36,192,88057,1,0,0:0:0:70:LR4_SnareBPDT.wav
182,192,88057,1,0,0:0:0:0:
329,192,88057,1,0,0:0:0:0:
475,192,88057,1,0,0:0:0:0:
36,192,88237,1,0,0:0:0:70:LR4_SnareBPDT.wav
182,192,88237,1,0,0:0:0:0:
329,192,88237,1,0,0:0:0:0:
475,192,88237,1,0,0:0:0:0:
109,192,88417,1,0,0:0:0:70:LR4_SnareBPDT.wav
402,192,88417,1,0,0:0:0:0:
36,192,88537,1,0,0:0:0:70:push_scratch.wav
182,192,88537,1,0,0:0:0:70:kick.wav
256,192,88537,128,0,94777:0:0:0:0:
329,192,88537,1,0,0:0:0:0:
475,192,88537,1,0,0:0:0:0:
36,192,92497,128,0,95497:0:0:0:0:
475,192,93457,1,0,0:0:0:0:
475,192,93577,128,0,93817:0:0:0:0:
475,192,93937,1,0,0:0:0:0:
475,192,94057,128,0,94297:0:0:0:0:
402,192,94177,1,0,0:0:0:0:
329,192,94297,1,0,0:0:0:0:
475,192,94417,1,0,0:0:0:0:
329,192,94537,1,0,0:0:0:0:
402,192,94777,1,0,0:0:0:0:
475,192,94777,128,0,95497:0:0:0:0:
329,192,95017,1,0,0:0:0:0:
256,192,95137,1,0,0:0:0:0:
182,192,95257,1,0,0:0:0:0:
329,192,95377,1,0,0:0:0:0:
182,192,95497,1,0,0:0:0:0:
109,192,95617,1,0,0:0:0:0:
36,192,95737,1,0,0:0:0:0:
475,192,95737,1,0,0:0:0:0:
36,192,95977,1,0,0:0:0:70:Boom.wav
182,192,95977,1,0,0:0:0:0:
329,192,95977,1,0,0:0:0:0:
475,192,95977,1,0,0:0:0:0:
36,192,96217,128,4,96337:0:0:0:0:
109,192,96217,128,0,96337:0:0:0:70:kick.wav
182,192,96217,1,0,0:0:0:0:
256,192,96217,128,0,96577:0:0:0:0:
475,192,96337,128,0,96397:0:0:0:0:
402,192,96367,128,0,96427:0:0:0:0:
329,192,96397,128,0,96457:0:0:0:0:
182,192,96457,128,0,96517:0:0:0:0:
109,192,96487,128,0,96547:0:0:0:0:
36,192,96517,128,0,96577:0:0:0:0:
329,192,96577,128,0,96637:0:0:0:0:
402,192,96607,128,0,96667:0:0:0:0:
475,192,96637,128,0,96697:0:0:0:0:
36,192,96697,128,0,96817:0:0:0:70:kick.wav
109,192,96697,128,0,96817:0:0:0:0:
182,192,96697,1,0,0:0:0:0:
256,192,96697,128,0,97057:0:0:0:0:
475,192,96817,128,0,96877:0:0:0:0:
402,192,96847,128,0,96907:0:0:0:0:
329,192,96877,128,0,96937:0:0:0:0:
182,192,96937,128,0,96997:0:0:0:0:
109,192,96967,128,0,97027:0:0:0:0:
36,192,96997,128,0,97057:0:0:0:0:
329,192,97057,128,0,97117:0:0:0:0:
402,192,97087,128,0,97147:0:0:0:0:
475,192,97117,128,0,97177:0:0:0:0:
182,192,97177,128,0,97257:0:0:0:70:kick.wav
256,192,97177,1,0,0:0:0:0:
109,192,97217,128,0,97297:0:0:0:0:
36,192,97257,128,0,97337:0:0:0:0:
402,192,97297,128,0,97377:0:0:0:0:
329,192,97337,128,0,97417:0:0:0:0:
256,192,97377,128,0,97457:0:0:0:0:
182,192,97417,128,0,97657:0:0:0:0:
329,192,97537,128,0,97657:0:0:0:0:
475,192,97537,128,0,97657:0:0:0:0:
36,192,97657,1,0,0:0:0:70:kick.wav
109,192,97657,1,0,0:0:0:0:
256,192,97657,1,0,0:0:0:0:
475,192,97777,128,0,97857:0:0:0:0:
329,192,97817,128,0,97897:0:0:0:0:
36,192,97897,128,0,97957:0:0:0:0:
109,192,97927,128,0,97987:0:0:0:0:
182,192,97957,128,0,98017:0:0:0:0:
256,192,97987,128,0,98047:0:0:0:0:
475,192,98017,1,0,0:0:0:0:
402,192,98057,1,0,0:0:0:0:
329,192,98097,1,0,0:0:0:0:
36,192,98137,128,0,98257:0:0:0:70:kick.wav
109,192,98137,128,0,98257:0:0:0:0:
182,192,98137,1,0,0:0:0:0:
256,192,98137,128,0,98497:0:0:0:0:
475,192,98257,128,0,98317:0:0:0:0:
402,192,98287,128,0,98347:0:0:0:0:
329,192,98317,128,0,98377:0:0:0:0:
182,192,98377,128,0,98437:0:0:0:0:
109,192,98407,128,0,98467:0:0:0:0:
36,192,98437,128,0,98497:0:0:0:0:
329,192,98497,128,0,98557:0:0:0:0:
402,192,98527,128,0,98587:0:0:0:0:
475,192,98557,128,0,98617:0:0:0:0:
36,192,98617,128,0,98737:0:0:0:70:kick.wav
109,192,98617,128,0,98737:0:0:0:0:
182,192,98617,1,0,0:0:0:0:
256,192,98617,128,0,98977:0:0:0:0:
475,192,98737,128,0,98797:0:0:0:0:
402,192,98767,128,0,98827:0:0:0:0:
329,192,98797,128,0,98857:0:0:0:0:
182,192,98857,128,0,98917:0:0:0:0:
109,192,98887,128,0,98947:0:0:0:0:
36,192,98917,128,0,98977:0:0:0:0:
329,192,98977,128,0,99037:0:0:0:0:
402,192,99007,128,0,99067:0:0:0:0:
475,192,99037,128,0,99097:0:0:0:0:
182,192,99097,1,0,0:0:0:70:kick.wav
256,192,99097,128,0,99217:0:0:0:0:
329,192,99137,128,0,99257:0:0:0:0:
402,192,99177,128,0,99297:0:0:0:0:
36,192,99217,128,0,99297:0:0:0:0:
475,192,99217,128,0,99337:0:0:0:0:
109,192,99257,128,0,99337:0:0:0:0:
182,192,99297,128,0,99377:0:0:0:0:
256,192,99337,128,0,99457:0:0:0:0:
109,192,99457,128,0,99577:0:0:0:0:
402,192,99457,128,0,99577:0:0:0:0:
36,192,99577,1,0,0:0:0:70:kick.wav
256,192,99577,1,0,0:0:0:0:
475,192,99577,1,0,0:0:0:0:
329,192,99697,1,0,0:0:0:0:
256,192,99737,1,0,0:0:0:0:
182,192,99777,1,0,0:0:0:0:
109,192,99817,1,0,0:0:0:0:
475,192,99817,128,0,99897:0:0:0:0:
402,192,99857,128,0,99937:0:0:0:0:
329,192,99897,128,0,99977:0:0:0:0:
36,192,99937,1,0,0:0:0:0:
109,192,99977,1,0,0:0:0:0:
182,192,100017,1,0,0:0:0:0:
256,192,100057,128,0,100417:0:0:0:70:kick.wav
329,192,100057,1,0,0:0:0:0:
402,192,100057,128,0,100177:0:0:0:0:
475,192,100057,128,0,100177:0:0:0:0:
36,192,100177,128,0,100237:0:0:0:0:
109,192,100207,128,0,100267:0:0:0:0:
182,192,100237,128,0,100297:0:0:0:0:
329,192,100297,128,0,100357:0:0:0:0:
402,192,100327,128,0,100387:0:0:0:0:
475,192,100357,128,0,100417:0:0:0:0:
182,192,100417,128,0,100477:0:0:0:0:
109,192,100447,128,0,100507:0:0:0:0:
36,192,100477,128,0,100537:0:0:0:0:
256,192,100537,128,0,100897:0:0:0:70:kick.wav
329,192,100537,1,0,0:0:0:0:
402,192,100537,128,0,100657:0:0:0:0:
475,192,100537,128,0,100657:0:0:0:0:
36,192,100657,128,0,100717:0:0:0:0:
109,192,100687,128,0,100747:0:0:0:0:
182,192,100717,128,0,100777:0:0:0:0:
329,192,100777,128,0,100837:0:0:0:0:
402,192,100807,128,0,100867:0:0:0:0:
475,192,100837,128,0,100897:0:0:0:0:
182,192,100897,128,0,100957:0:0:0:0:
109,192,100927,128,0,100987:0:0:0:0:
36,192,100957,128,0,101017:0:0:0:0:
256,192,101017,1,0,0:0:0:70:kick.wav
329,192,101017,1,0,0:0:0:0:
402,192,101017,128,0,101137:0:0:0:0:
475,192,101137,1,0,0:0:0:0:
329,192,101177,1,0,0:0:0:0:
256,192,101217,1,0,0:0:0:0:
36,192,101257,128,0,101497:0:0:0:0:
182,192,101257,1,0,0:0:0:0:
182,192,101377,128,0,101497:0:0:0:0:
256,192,101497,128,0,101737:0:0:0:70:kick.wav
329,192,101497,1,0,0:0:0:0:
475,192,101497,1,0,0:0:0:0:
329,192,101617,128,0,101737:0:0:0:0:
475,192,101617,128,0,101857:0:0:0:0:
36,192,101737,1,0,0:0:0:0:
182,192,101737,1,0,0:0:0:0:
36,192,101857,1,0,0:0:0:0:
182,192,101857,128,0,101977:0:0:0:0:
256,192,101977,128,0,102337:0:0:0:70:kick.wav
329,192,101977,1,0,0:0:0:0:
402,192,101977,128,0,102097:0:0:0:0:
475,192,101977,128,0,102097:0:0:0:0:
36,192,102097,128,0,102157:0:0:0:0:
109,192,102127,128,0,102187:0:0:0:0:
182,192,102157,128,0,102217:0:0:0:0:
329,192,102217,128,0,102277:0:0:0:0:
402,192,102247,128,0,102307:0:0:0:0:
475,192,102277,128,0,102337:0:0:0:0:
182,192,102337,128,0,102397:0:0:0:0:
109,192,102367,128,0,102427:0:0:0:0:
36,192,102397,128,0,102457:0:0:0:0:
256,192,102457,128,0,102817:0:0:0:70:kick.wav
329,192,102457,1,0,0:0:0:0:
402,192,102457,128,0,102577:0:0:0:0:
475,192,102457,128,0,102577:0:0:0:0:
36,192,102577,128,0,102637:0:0:0:0:
109,192,102607,128,0,102667:0:0:0:0:
182,192,102637,128,0,102697:0:0:0:0:
329,192,102697,128,0,102757:0:0:0:0:
402,192,102727,128,0,102787:0:0:0:0:
475,192,102757,128,0,102817:0:0:0:0:
182,192,102817,128,0,102877:0:0:0:0:
109,192,102847,128,0,102907:0:0:0:0:
36,192,102877,128,0,102937:0:0:0:0:
256,192,102937,128,0,103177:0:0:0:70:kick.wav
329,192,102937,1,0,0:0:0:0:
402,192,102937,128,0,103057:0:0:0:0:
475,192,102937,1,0,0:0:0:0:
36,192,103057,128,0,103297:0:0:0:0:
182,192,103177,128,0,103297:0:0:0:0:
475,192,103177,128,0,103417:0:0:0:0:
329,192,103297,128,0,103537:0:0:0:0:
36,192,103417,128,0,103657:0:0:0:70:kick.wav
109,192,103417,1,0,0:0:0:0:
182,192,103417,128,0,103537:0:0:0:0:
402,192,103417,1,0,0:0:0:0:
256,192,103537,128,0,103777:0:0:0:0:
109,192,103657,128,0,103777:0:0:0:0:
475,192,103657,128,0,103897:0:0:0:0:
329,192,103777,128,0,103897:0:0:0:0:
36,192,103897,128,4,104257:0:0:0:0:
109,192,103897,128,0,104017:0:0:0:70:kick.wav
182,192,103897,128,0,104017:0:0:0:0:
256,192,103897,1,0,0:0:0:0:
475,192,104017,128,0,104077:0:0:0:0:
402,192,104047,128,0,104107:0:0:0:0:
329,192,104077,128,0,104137:0:0:0:0:
182,192,104137,128,0,104197:0:0:0:0:
256,192,104167,128,0,104227:0:0:0:0:
329,192,104197,128,0,104257:0:0:0:0:
182,192,104257,128,0,104317:0:0:0:0:
109,192,104287,128,0,104347:0:0:0:0:
36,192,104317,128,0,104377:0:0:0:0:
256,192,104377,1,0,0:0:0:70:kick.wav
329,192,104377,128,0,104497:0:0:0:0:
402,192,104377,128,0,104497:0:0:0:0:
475,192,104377,128,0,104737:0:0:0:0:
36,192,104497,128,0,104557:0:0:0:0:
109,192,104527,128,0,104587:0:0:0:0:
182,192,104557,128,0,104617:0:0:0:0:
329,192,104617,128,0,104677:0:0:0:0:
256,192,104647,128,0,104707:0:0:0:0:
182,192,104677,128,0,104737:0:0:0:0:
329,192,104737,128,0,104797:0:0:0:0:
402,192,104767,128,0,104827:0:0:0:0:
475,192,104797,128,0,104857:0:0:0:0:
182,192,104857,128,0,104937:0:0:0:70:kick.wav
256,192,104857,1,0,0:0:0:0:
109,192,104897,128,0,104977:0:0:0:0:
36,192,104937,128,0,105017:0:0:0:0:
402,192,104977,128,0,105057:0:0:0:0:
329,192,105017,128,0,105097:0:0:0:0:
256,192,105057,128,0,105137:0:0:0:0:
182,192,105097,128,0,105217:0:0:0:0:
329,192,105217,128,0,105337:0:0:0:0:
475,192,105217,128,0,105337:0:0:0:0:
109,192,105337,1,0,0:0:0:70:kick.wav
256,192,105337,1,0,0:0:0:0:
402,192,105337,1,0,0:0:0:0:
36,192,105457,128,0,105537:0:0:0:0:
182,192,105497,128,0,105577:0:0:0:0:
475,192,105577,128,0,105637:0:0:0:0:
402,192,105607,128,0,105667:0:0:0:0:
329,192,105637,128,0,105697:0:0:0:0:
256,192,105667,128,0,105727:0:0:0:0:
36,192,105697,1,0,0:0:0:0:
109,192,105737,1,0,0:0:0:0:
182,192,105777,1,0,0:0:0:0:
256,192,105817,1,0,0:0:0:70:kick.wav
329,192,105817,128,0,105937:0:0:0:0:
402,192,105817,128,0,105937:0:0:0:0:
475,192,105817,128,0,106177:0:0:0:0:
36,192,105937,128,0,105997:0:0:0:0:
109,192,105967,128,0,106027:0:0:0:0:
182,192,105997,128,0,106057:0:0:0:0:
329,192,106057,128,0,106117:0:0:0:0:
256,192,106087,128,0,106147:0:0:0:0:
182,192,106117,128,0,106177:0:0:0:0:
329,192,106177,128,0,106237:0:0:0:0:
402,192,106207,128,0,106267:0:0:0:0:
475,192,106237,128,0,106297:0:0:0:0:
36,192,106297,128,0,106657:0:0:0:70:kick.wav
109,192,106297,128,0,106417:0:0:0:0:
182,192,106297,128,0,106417:0:0:0:0:
256,192,106297,1,0,0:0:0:0:
475,192,106417,128,0,106477:0:0:0:0:
402,192,106447,128,0,106507:0:0:0:0:
329,192,106477,128,0,106537:0:0:0:0:
182,192,106537,128,0,106597:0:0:0:0:
256,192,106567,128,0,106627:0:0:0:0:
329,192,106597,128,0,106657:0:0:0:0:
182,192,106657,128,0,106717:0:0:0:0:
109,192,106687,128,0,106747:0:0:0:0:
36,192,106717,128,0,106777:0:0:0:0:
256,192,106777,1,0,0:0:0:70:kick.wav
329,192,106777,128,0,106897:0:0:0:0:
402,192,106817,128,0,106937:0:0:0:0:
475,192,106857,128,0,106977:0:0:0:0:
36,192,106897,128,0,106977:0:0:0:0:
109,192,106937,128,0,107017:0:0:0:0:
182,192,106977,128,0,107057:0:0:0:0:
256,192,107017,128,0,107137:0:0:0:0:
109,192,107137,128,0,107257:0:0:0:0:
402,192,107137,128,0,107257:0:0:0:0:
36,192,107257,1,0,0:0:0:70:kick.wav
256,192,107257,1,0,0:0:0:0:
475,192,107257,1,0,0:0:0:0:
182,192,107377,1,0,0:0:0:0:
256,192,107417,1,0,0:0:0:0:
329,192,107457,1,0,0:0:0:0:
36,192,107497,128,0,107577:0:0:0:0:
402,192,107497,1,0,0:0:0:0:
109,192,107537,128,0,107617:0:0:0:0:
182,192,107577,128,0,107657:0:0:0:0:
475,192,107617,1,0,0:0:0:0:
402,192,107657,1,0,0:0:0:0:
329,192,107697,1,0,0:0:0:0:
36,192,107737,128,0,108097:0:0:0:70:kick.wav
109,192,107737,128,0,107857:0:0:0:0:
182,192,107737,128,0,107857:0:0:0:0:
256,192,107737,1,0,0:0:0:0:
475,192,107857,128,0,107917:0:0:0:0:
402,192,107887,128,0,107947:0:0:0:0:
329,192,107917,128,0,107977:0:0:0:0:
182,192,107977,128,0,108037:0:0:0:0:
256,192,108007,128,0,108067:0:0:0:0:
329,192,108037,128,0,108097:0:0:0:0:
182,192,108097,128,0,108157:0:0:0:0:
109,192,108127,128,0,108187:0:0:0:0:
36,192,108157,128,0,108217:0:0:0:0:
256,192,108217,1,0,0:0:0:70:kick.wav
329,192,108217,128,0,108337:0:0:0:0:
402,192,108217,128,0,108337:0:0:0:0:
475,192,108217,128,0,108577:0:0:0:0:
36,192,108337,128,0,108397:0:0:0:0:
109,192,108367,128,0,108427:0:0:0:0:
182,192,108397,128,0,108457:0:0:0:0:
329,192,108457,128,0,108517:0:0:0:0:
256,192,108487,128,0,108547:0:0:0:0:
182,192,108517,128,0,108577:0:0:0:0:
329,192,108577,128,0,108637:0:0:0:0:
402,192,108607,128,0,108667:0:0:0:0:
475,192,108637,128,0,108697:0:0:0:0:
36,192,108697,1,0,0:0:0:70:kick.wav
182,192,108697,1,0,0:0:0:0:
256,192,108697,128,0,108817:0:0:0:0:
109,192,108817,1,0,0:0:0:0:
182,192,108857,1,0,0:0:0:0:
256,192,108897,1,0,0:0:0:0:
329,192,108937,1,0,0:0:0:0:
475,192,108937,128,0,109177:0:0:0:0:
329,192,109057,128,0,109177:0:0:0:0:
36,192,109177,1,0,0:0:0:70:kick.wav
182,192,109177,1,0,0:0:0:0:
256,192,109177,128,0,109417:0:0:0:0:
36,192,109297,128,0,109537:0:0:0:0:
182,192,109297,128,0,109417:0:0:0:0:
329,192,109417,1,0,0:0:0:0:
182,192,109537,1,0,0:0:0:0:
329,192,109537,128,0,109657:0:0:0:0:
36,192,109657,128,0,109777:0:0:0:70:kick.wav
109,192,109657,128,0,109777:0:0:0:0:
182,192,109657,1,0,0:0:0:0:
256,192,109657,128,0,110017:0:0:0:0:
475,192,109777,128,0,109837:0:0:0:0:
402,192,109807,128,0,109867:0:0:0:0:
329,192,109837,128,0,109897:0:0:0:0:
182,192,109897,128,0,109957:0:0:0:0:
109,192,109927,128,0,109987:0:0:0:0:
36,192,109957,128,0,110017:0:0:0:0:
329,192,110017,128,0,110077:0:0:0:0:
402,192,110047,128,0,110107:0:0:0:0:
475,192,110077,128,0,110137:0:0:0:0:
36,192,110137,128,0,110257:0:0:0:70:kick.wav
109,192,110137,128,0,110257:0:0:0:0:
182,192,110137,1,0,0:0:0:0:
256,192,110137,128,0,110497:0:0:0:0:
475,192,110257,128,0,110317:0:0:0:0:
402,192,110287,128,0,110347:0:0:0:0:
329,192,110317,128,0,110377:0:0:0:0:
182,192,110377,128,0,110437:0:0:0:0:
109,192,110407,128,0,110467:0:0:0:0:
36,192,110437,128,0,110497:0:0:0:0:
329,192,110497,128,0,110557:0:0:0:0:
402,192,110527,128,0,110587:0:0:0:0:
475,192,110557,128,0,110617:0:0:0:0:
36,192,110617,128,0,110977:0:0:0:70:kick.wav
109,192,110617,128,0,110737:0:0:0:0:
182,192,110617,128,0,110737:0:0:0:0:
256,192,110617,1,0,0:0:0:0:
475,192,110737,128,0,110797:0:0:0:0:
402,192,110767,128,0,110827:0:0:0:0:
329,192,110797,128,0,110857:0:0:0:0:
182,192,110857,128,0,110917:0:0:0:0:
256,192,110887,128,0,110947:0:0:0:0:
329,192,110917,128,0,110977:0:0:0:0:
182,192,110977,128,0,111037:0:0:0:0:
109,192,111007,128,0,111067:0:0:0:0:
36,192,111037,128,0,111097:0:0:0:0:
256,192,111097,1,0,0:0:0:70:kick.wav
329,192,111097,128,0,111217:0:0:0:0:
402,192,111097,128,0,111217:0:0:0:0:
475,192,111097,128,0,111457:0:0:0:0:
36,192,111217,128,0,111277:0:0:0:0:
109,192,111247,128,0,111307:0:0:0:0:
182,192,111277,128,0,111337:0:0:0:0:
329,192,111337,128,0,111397:0:0:0:0:
256,192,111367,128,0,111427:0:0:0:0:
182,192,111397,128,0,111457:0:0:0:0:
329,192,111457,128,0,111517:0:0:0:0:
402,192,111487,128,0,111547:0:0:0:0:
475,192,111517,128,0,111577:0:0:0:0:
36,192,111577,1,0,0:0:0:70:push_scratch.wav
109,192,111577,1,0,0:0:0:70:kick.wav
182,192,111577,1,0,0:0:0:0:
256,192,111577,1,0,0:0:0:0:
109,192,111937,1,0,0:0:0:0:
256,192,112297,1,0,0:0:0:0:
36,192,112657,1,0,0:0:0:0:
256,192,113017,1,0,0:0:0:0:
182,192,113257,1,0,0:0:0:0:
402,192,113497,1,0,0:0:0:0:
329,192,113857,1,0,0:0:0:0:
256,192,114217,1,0,0:0:0:0:
182,192,114577,1,0,0:0:0:0:
109,192,114817,1,0,0:0:0:0:
256,192,114937,1,0,0:0:0:0:
182,192,115057,1,0,0:0:0:0:
329,192,115177,1,0,0:0:0:0:
256,192,115297,1,0,0:0:0:0:
475,192,115417,1,0,0:0:0:0:
402,192,115777,1,0,0:0:0:0:
329,192,116137,1,0,0:0:0:0:
256,192,116497,1,0,0:0:0:0:
182,192,116857,1,0,0:0:0:0:
329,192,117097,1,0,0:0:0:0:
36,192,117337,1,0,0:0:0:0:
109,192,117697,1,0,0:0:0:0:
182,192,118057,1,0,0:0:0:0:
256,192,118417,1,0,0:0:0:0:
402,192,118657,1,0,0:0:0:0:
256,192,118777,1,0,0:0:0:0:
329,192,118897,1,0,0:0:0:0:
182,192,119017,1,0,0:0:0:0:
256,192,119137,1,0,0:0:0:0:
36,192,119257,1,0,0:0:0:0:
109,192,119617,1,0,0:0:0:0:
182,192,119977,1,0,0:0:0:0:
36,192,120337,1,0,0:0:0:0:
256,192,120697,1,0,0:0:0:0:
182,192,120937,1,0,0:0:0:0:
402,192,121177,1,0,0:0:0:0:
329,192,121537,1,0,0:0:0:0:
256,192,121897,1,0,0:0:0:0:
182,192,122257,1,0,0:0:0:0:
109,192,122497,1,0,0:0:0:0:
256,192,122617,1,0,0:0:0:0:
182,192,122737,1,0,0:0:0:0:
329,192,122857,1,0,0:0:0:0:
256,192,122977,1,0,0:0:0:0:
475,192,123097,1,0,0:0:0:0:
402,192,123457,1,0,0:0:0:0:
329,192,123817,1,0,0:0:0:0:
256,192,124177,1,0,0:0:0:0:
182,192,124537,1,0,0:0:0:0:
329,192,124777,1,0,0:0:0:0:
36,192,125017,1,0,0:0:0:0:
109,192,125377,1,0,0:0:0:0:
182,192,125737,1,0,0:0:0:0:
256,192,126097,1,0,0:0:0:0:
256,192,126337,1,0,0:0:0:0:
36,192,126457,128,0,126817:0:0:0:70:kick.wav
475,192,126457,128,0,126817:0:0:0:70:LR4_SnareBPDT.wav
109,192,126517,128,0,126817:0:0:0:0:
402,192,126517,128,0,126817:0:0:0:0:
256,192,126577,128,0,126817:0:0:0:0:
36,192,126937,128,4,128617:0:0:0:0:
182,192,126937,1,0,0:0:0:70:kick.wav
256,192,126937,128,0,128617:0:0:0:0:
329,192,126937,1,0,0:0:0:0:
475,192,126937,128,0,128617:0:0:0:0:
36,192,128857,1,0,0:0:0:70:kick.wav
109,192,128857,1,0,0:0:0:0:
256,192,128917,1,0,0:0:0:70:kick.wav
329,192,128917,1,0,0:0:0:0:
36,192,128977,1,0,0:0:0:70:kick.wav
109,192,128977,1,0,0:0:0:0:
402,192,129097,1,0,0:0:0:70:kick.wav
475,192,129097,1,0,0:0:0:0:
182,192,129157,1,0,0:0:0:70:kick.wav
256,192,129157,1,0,0:0:0:0:
402,192,129217,1,0,0:0:0:70:kick.wav
475,192,129217,1,0,0:0:0:0:
182,192,129337,1,0,0:0:0:70:kick.wav
256,192,129337,1,0,0:0:0:0:
329,192,129337,1,0,0:0:0:0:
36,192,129457,1,0,0:0:0:70:kick.wav
109,192,129457,1,0,0:0:0:0:
182,192,129517,1,0,0:0:0:70:kick.wav
329,192,129517,1,0,0:0:0:0:
402,192,129577,1,0,0:0:0:70:kick.wav
475,192,129577,1,0,0:0:0:0:
182,192,129697,1,0,0:0:0:70:kick.wav
329,192,129697,1,0,0:0:0:0:
36,192,129817,1,0,0:0:0:70:kick.wav
109,192,129817,1,0,0:0:0:0:
329,192,129877,1,0,0:0:0:70:kick.wav
475,192,129877,1,0,0:0:0:0:
36,192,129937,1,0,0:0:0:70:kick.wav
182,192,129937,1,0,0:0:0:0:
329,192,129997,1,0,0:0:0:70:kick.wav
475,192,129997,1,0,0:0:0:0:
36,192,130057,1,0,0:0:0:70:kick.wav
109,192,130057,1,0,0:0:0:0:
256,192,130177,1,0,0:0:0:70:kick.wav
402,192,130177,1,0,0:0:0:0:
109,192,130237,1,0,0:0:0:70:kick.wav
182,192,130237,1,0,0:0:0:0:
329,192,130297,1,0,0:0:0:70:kick.wav
475,192,130297,1,0,0:0:0:0:
109,192,130417,1,0,0:0:0:70:kick.wav
256,192,130417,1,0,0:0:0:0:
329,192,130477,1,0,0:0:0:70:kick.wav
402,192,130477,1,0,0:0:0:0:
36,192,130537,1,0,0:0:0:70:kick.wav
182,192,130537,1,0,0:0:0:0:
329,192,130657,1,0,0:0:0:70:kick.wav
475,192,130657,1,0,0:0:0:0:
36,192,130777,128,0,132457:0:0:0:70:push_scratch.wav
182,192,130777,1,0,0:0:0:70:kick.wav
256,192,130777,128,0,132457:0:0:0:0:
329,192,130777,1,0,0:0:0:0:
475,192,130777,128,0,132457:0:0:0:0:
402,192,132697,1,0,0:0:0:70:kick.wav
475,192,132697,1,0,0:0:0:0:
182,192,132757,1,0,0:0:0:70:kick.wav
256,192,132757,1,0,0:0:0:0:
402,192,132817,1,0,0:0:0:70:kick.wav
475,192,132817,1,0,0:0:0:0:
36,192,132937,1,0,0:0:0:70:kick.wav
109,192,132937,1,0,0:0:0:0:
256,192,132997,1,0,0:0:0:70:kick.wav
329,192,132997,1,0,0:0:0:0:
36,192,133057,1,0,0:0:0:70:kick.wav
109,192,133057,1,0,0:0:0:0:
182,192,133177,1,0,0:0:0:70:kick.wav
256,192,133177,1,0,0:0:0:0:
329,192,133177,1,0,0:0:0:0:
402,192,133297,1,0,0:0:0:70:kick.wav
475,192,133297,1,0,0:0:0:0:
182,192,133357,1,0,0:0:0:70:kick.wav
329,192,133357,1,0,0:0:0:0:
36,192,133417,1,0,0:0:0:70:kick.wav
109,192,133417,1,0,0:0:0:0:
182,192,133537,1,0,0:0:0:70:kick.wav
329,192,133537,1,0,0:0:0:0:
402,192,133657,1,0,0:0:0:70:kick.wav
475,192,133657,1,0,0:0:0:0:
36,192,133717,1,0,0:0:0:70:kick.wav
182,192,133717,1,0,0:0:0:0:
329,192,133777,1,0,0:0:0:70:kick.wav
475,192,133777,1,0,0:0:0:0:
36,192,133837,1,0,0:0:0:70:kick.wav
182,192,133837,1,0,0:0:0:0:
402,192,133897,1,0,0:0:0:70:kick.wav
475,192,133897,1,0,0:0:0:0:
109,192,134017,1,0,0:0:0:70:kick.wav
256,192,134017,1,0,0:0:0:0:
329,192,134077,1,0,0:0:0:70:kick.wav
402,192,134077,1,0,0:0:0:0:
36,192,134137,1,0,0:0:0:70:kick.wav
182,192,134137,1,0,0:0:0:0:
256,192,134257,1,0,0:0:0:70:kick.wav
402,192,134257,1,0,0:0:0:0:
109,192,134317,1,0,0:0:0:70:kick.wav
182,192,134317,1,0,0:0:0:0:
329,192,134377,1,0,0:0:0:70:kick.wav
475,192,134377,1,0,0:0:0:0:
36,192,134497,1,0,0:0:0:70:kick.wav
182,192,134497,1,0,0:0:0:0:
36,192,134617,128,0,136297:0:0:0:70:push_scratch.wav
182,192,134617,1,0,0:0:0:70:kick.wav
256,192,134617,128,0,136297:0:0:0:0:
329,192,134617,1,0,0:0:0:0:
475,192,134617,128,0,136297:0:0:0:0:
36,192,136537,1,0,0:0:0:70:kick.wav
475,192,136537,1,0,0:0:0:0:
182,192,136597,1,0,0:0:0:70:kick.wav
402,192,136597,1,0,0:0:0:0:
36,192,136657,1,0,0:0:0:70:kick.wav
329,192,136657,1,0,0:0:0:0:
182,192,136777,1,0,0:0:0:70:kick.wav
475,192,136777,1,0,0:0:0:0:
109,192,136837,1,0,0:0:0:70:kick.wav
329,192,136837,1,0,0:0:0:0:
36,192,136897,1,0,0:0:0:70:kick.wav
475,192,136897,1,0,0:0:0:0:
109,192,137017,1,0,0:0:0:70:kick.wav
256,192,137017,1,0,0:0:0:0:
402,192,137017,1,0,0:0:0:0:
36,192,137137,1,0,0:0:0:70:kick.wav
182,192,137137,1,0,0:0:0:0:
329,192,137197,1,0,0:0:0:70:kick.wav
475,192,137197,1,0,0:0:0:0:
36,192,137257,1,0,0:0:0:70:kick.wav
182,192,137257,1,0,0:0:0:0:
109,192,137377,1,0,0:0:0:70:kick.wav
402,192,137377,1,0,0:0:0:0:
329,192,137497,1,0,0:0:0:70:kick.wav
475,192,137497,1,0,0:0:0:0:
36,192,137557,1,0,0:0:0:70:kick.wav
182,192,137557,1,0,0:0:0:0:
256,192,137617,1,0,0:0:0:70:kick.wav
402,192,137617,1,0,0:0:0:0:
36,192,137677,1,0,0:0:0:70:kick.wav
182,192,137677,1,0,0:0:0:0:
329,192,137737,1,0,0:0:0:70:kick.wav
475,192,137737,1,0,0:0:0:0:
109,192,137857,1,0,0:0:0:70:kick.wav
256,192,137857,1,0,0:0:0:0:
402,192,137917,1,0,0:0:0:70:kick.wav
475,192,137917,1,0,0:0:0:0:
36,192,137977,1,0,0:0:0:70:kick.wav
182,192,137977,1,0,0:0:0:0:
256,192,138097,1,0,0:0:0:70:kick.wav
402,192,138097,1,0,0:0:0:0:
36,192,138157,1,0,0:0:0:70:kick.wav
109,192,138157,1,0,0:0:0:0:
329,192,138217,1,0,0:0:0:70:kick.wav
475,192,138217,1,0,0:0:0:0:
36,192,138337,1,0,0:0:0:70:kick.wav
182,192,138337,1,0,0:0:0:0:
36,192,138457,128,0,140137:0:0:0:70:push_scratch.wav
182,192,138457,1,0,0:0:0:70:kick.wav
256,192,138457,128,0,140137:0:0:0:0:
329,192,138457,1,0,0:0:0:0:
475,192,138457,128,0,140137:0:0:0:0:
36,192,140377,1,0,0:0:0:70:kick.wav
475,192,140377,1,0,0:0:0:0:
109,192,140437,1,0,0:0:0:70:kick.wav
329,192,140437,1,0,0:0:0:0:
182,192,140497,1,0,0:0:0:70:kick.wav
475,192,140497,1,0,0:0:0:0:
36,192,140617,1,0,0:0:0:70:kick.wav
329,192,140617,1,0,0:0:0:0:
182,192,140677,1,0,0:0:0:70:kick.wav
402,192,140677,1,0,0:0:0:0:
36,192,140737,1,0,0:0:0:70:kick.wav
475,192,140737,1,0,0:0:0:0:
109,192,140857,1,0,0:0:0:70:kick.wav
256,192,140857,1,0,0:0:0:0:
402,192,140857,1,0,0:0:0:0:
329,192,140977,1,0,0:0:0:70:kick.wav
475,192,140977,1,0,0:0:0:0:
36,192,141037,1,0,0:0:0:70:kick.wav
182,192,141037,1,0,0:0:0:0:
329,192,141097,1,0,0:0:0:70:kick.wav
475,192,141097,1,0,0:0:0:0:
109,192,141217,1,0,0:0:0:70:kick.wav
402,192,141217,1,0,0:0:0:0:
36,192,141337,1,0,0:0:0:70:kick.wav
182,192,141337,1,0,0:0:0:0:
329,192,141397,1,0,0:0:0:70:kick.wav
475,192,141397,1,0,0:0:0:0:
109,192,141457,1,0,0:0:0:70:kick.wav
256,192,141457,1,0,0:0:0:0:
329,192,141517,1,0,0:0:0:70:kick.wav
475,192,141517,1,0,0:0:0:0:
36,192,141577,1,0,0:0:0:70:kick.wav
182,192,141577,1,0,0:0:0:0:
256,192,141697,1,0,0:0:0:70:kick.wav
402,192,141697,1,0,0:0:0:0:
36,192,141757,1,0,0:0:0:70:kick.wav
109,192,141757,1,0,0:0:0:0:
329,192,141817,1,0,0:0:0:70:kick.wav
475,192,141817,1,0,0:0:0:0:
109,192,141937,1,0,0:0:0:70:kick.wav
256,192,141937,1,0,0:0:0:0:
402,192,141997,1,0,0:0:0:70:kick.wav
475,192,141997,1,0,0:0:0:0:
36,192,142057,1,0,0:0:0:70:kick.wav
182,192,142057,1,0,0:0:0:0:
329,192,142177,1,0,0:0:0:70:kick.wav
475,192,142177,1,0,0:0:0:0:
36,192,142297,128,4,142537:0:0:0:0:
182,192,142297,128,0,142537:0:0:0:70:kick.wav
329,192,142297,128,0,142537:0:0:0:0:
475,192,142297,128,0,142537:0:0:0:0:
402,192,142537,1,0,0:0:0:0:
36,192,142657,128,4,143017:0:0:0:0:
182,192,142657,128,0,143017:0:0:0:70:kick.wav
256,192,142657,128,0,143017:0:0:0:0:
329,192,142657,1,0,0:0:0:0:
402,192,142777,128,0,143017:0:0:0:0:
475,192,142777,128,0,143017:0:0:0:0:
109,192,143017,1,0,0:0:0:0:
36,192,143257,128,4,143497:0:0:0:0:
182,192,143257,128,0,143497:0:0:0:70:kick.wav
329,192,143257,128,0,143497:0:0:0:0:
475,192,143257,128,0,143497:0:0:0:0:
256,192,143377,1,0,0:0:0:0:
109,192,143497,1,0,0:0:0:0:
182,192,143617,1,4,0:0:0:0:
256,192,143617,128,0,143977:0:0:0:70:kick.wav
329,192,143617,128,0,143977:0:0:0:0:
475,192,143617,128,0,143977:0:0:0:0:
36,192,143737,128,0,143977:0:0:0:0:
109,192,143737,128,0,143977:0:0:0:0:
402,192,143977,1,0,0:0:0:0:
256,192,144097,1,0,0:0:0:0:
36,192,144217,128,4,144457:0:0:0:0:
182,192,144217,128,0,144457:0:0:0:70:kick.wav
329,192,144217,128,0,144457:0:0:0:0:
475,192,144217,128,0,144457:0:0:0:0:
256,192,144337,1,0,0:0:0:0:
402,192,144457,1,0,0:0:0:0:
36,192,144577,128,4,144937:0:0:0:0:
182,192,144577,128,0,144937:0:0:0:70:kick.wav
329,192,144577,1,0,0:0:0:0:
475,192,144577,128,0,144937:0:0:0:0:
256,192,144697,128,0,144937:0:0:0:0:
402,192,144697,128,0,144937:0:0:0:0:
109,192,144937,1,0,0:0:0:0:
36,192,145177,128,4,145417:0:0:0:0:
182,192,145177,128,0,145417:0:0:0:70:kick.wav
329,192,145177,128,0,145417:0:0:0:0:
475,192,145177,128,0,145417:0:0:0:0:
256,192,145297,1,0,0:0:0:0:
109,192,145417,1,0,0:0:0:0:
36,192,145537,128,4,145897:0:0:0:0:
182,192,145537,1,0,0:0:0:70:kick.wav
475,192,145537,128,0,145897:0:0:0:0:
109,192,145657,128,0,145897:0:0:0:0:
256,192,145657,128,0,145897:0:0:0:0:
402,192,145897,1,0,0:0:0:0:
329,192,146137,1,0,0:0:0:70:kick.wav
402,192,146137,1,0,0:0:0:0:
475,192,146137,1,0,0:0:0:0:
329,192,146317,1,0,0:0:0:70:kick.wav
402,192,146317,1,0,0:0:0:0:
475,192,146317,1,0,0:0:0:0:
182,192,146497,1,0,0:0:0:70:kick.wav
329,192,146497,1,0,0:0:0:0:
109,192,146617,1,0,0:0:0:70:kick.wav
256,192,146617,1,0,0:0:0:0:
402,192,146617,1,0,0:0:0:0:
109,192,146797,1,0,0:0:0:70:kick.wav
256,192,146797,1,0,0:0:0:0:
402,192,146797,1,0,0:0:0:0:
329,192,146977,1,0,0:0:0:70:kick.wav
475,192,146977,1,0,0:0:0:0:
36,192,147097,1,0,0:0:0:70:kick.wav
109,192,147097,1,0,0:0:0:0:
182,192,147097,1,0,0:0:0:0:
36,192,147277,1,0,0:0:0:70:kick.wav
109,192,147277,1,0,0:0:0:0:
182,192,147277,1,0,0:0:0:0:
329,192,147457,1,0,0:0:0:70:kick.wav
475,192,147457,1,0,0:0:0:0:
109,192,147577,1,0,0:0:0:70:kick.wav
256,192,147577,1,0,0:0:0:0:
402,192,147577,1,0,0:0:0:0:
109,192,147757,1,0,0:0:0:70:kick.wav
256,192,147757,1,0,0:0:0:0:
402,192,147757,1,0,0:0:0:0:
109,192,147937,1,0,0:0:0:70:kick.wav
256,192,147937,1,0,0:0:0:0:
402,192,147937,1,0,0:0:0:0:
36,192,148057,1,0,0:0:0:70:kick.wav
182,192,148057,1,0,0:0:0:0:
475,192,148057,1,0,0:0:0:0:
256,192,148117,1,0,0:0:0:70:kick.wav
402,192,148117,1,0,0:0:0:0:
109,192,148177,1,0,0:0:0:70:kick.wav
329,192,148177,1,0,0:0:0:0:
182,192,148237,1,0,0:0:0:70:kick.wav
256,192,148297,1,0,0:0:0:70:kick.wav
475,192,148297,1,0,0:0:0:0:
109,192,148357,1,0,0:0:0:70:kick.wav
402,192,148357,1,0,0:0:0:0:
36,192,148417,1,0,0:0:0:70:kick.wav
329,192,148417,1,0,0:0:0:0:
182,192,148477,1,0,0:0:0:70:kick.wav
36,192,148537,1,0,0:0:0:70:kick.wav
256,192,148537,1,0,0:0:0:0:
109,192,148597,1,0,0:0:0:70:kick.wav
402,192,148597,1,0,0:0:0:0:
182,192,148657,1,0,0:0:0:70:kick.wav
475,192,148657,1,0,0:0:0:0:
329,192,148717,1,0,0:0:0:70:kick.wav
36,192,148777,1,0,0:0:0:70:kick.wav
256,192,148777,1,0,0:0:0:0:
109,192,148837,1,0,0:0:0:70:kick.wav
475,192,148837,1,0,0:0:0:0:
182,192,148897,1,0,0:0:0:70:kick.wav
329,192,148897,1,0,0:0:0:0:
402,192,148957,1,0,0:0:0:70:kick.wav
36,192,149017,128,0,149737:0:0:0:70:push_scratch.wav
109,192,149017,1,0,0:0:0:70:kick.wav
256,192,149017,128,0,149497:0:0:0:0:
475,192,149017,128,0,149377:0:0:0:0:
475,192,149497,128,0,149857:0:0:0:0:
329,192,149617,128,0,149857:0:0:0:0:
182,192,149737,128,0,149857:0:0:0:0:
36,192,149857,1,0,0:0:0:0:
109,192,149977,1,4,0:0:0:0:
182,192,149977,1,0,0:0:0:70:kick.wav
402,192,149977,1,0,0:0:0:0:
475,192,149977,1,0,0:0:0:0:
329,192,150037,1,0,0:0:0:0:
256,192,150097,1,0,0:0:0:0:
182,192,150157,1,0,0:0:0:0:
36,192,150217,1,0,0:0:0:70:LR4_SnareBPDT.wav
109,192,150217,1,0,0:0:0:0:
402,192,150217,1,0,0:0:0:0:
475,192,150217,1,0,0:0:0:0:
256,192,150277,1,0,0:0:0:0:
329,192,150337,1,0,0:0:0:0:
402,192,150397,1,0,0:0:0:0:
36,192,150457,1,0,0:0:0:70:kick.wav
109,192,150457,1,0,0:0:0:0:
182,192,150457,1,0,0:0:0:0:
475,192,150457,1,0,0:0:0:0:
329,192,150517,1,0,0:0:0:0:
256,192,150577,1,0,0:0:0:0:
182,192,150637,1,0,0:0:0:0:
36,192,150697,1,0,0:0:0:70:LR4_SnareBPDT.wav
109,192,150697,1,0,0:0:0:0:
402,192,150697,1,0,0:0:0:0:
475,192,150697,1,0,0:0:0:0:
256,192,150757,1,0,0:0:0:0:
182,192,150817,1,0,0:0:0:0:
329,192,150817,1,0,0:0:0:0:
402,192,150877,1,0,0:0:0:0:
36,192,150937,1,0,0:0:0:70:kick.wav
182,192,150937,1,0,0:0:0:0:
475,192,150937,1,0,0:0:0:0:
329,192,150997,1,0,0:0:0:0:
109,192,151057,1,0,0:0:0:0:
256,192,151057,1,0,0:0:0:0:
402,192,151117,1,0,0:0:0:0:
36,192,151177,1,0,0:0:0:70:LR4_SnareBPDT.wav
182,192,151177,1,0,0:0:0:0:
329,192,151177,1,0,0:0:0:0:
475,192,151237,1,0,0:0:0:0:
256,192,151297,1,0,0:0:0:0:
402,192,151297,1,0,0:0:0:0:
109,192,151357,1,0,0:0:0:0:
36,192,151417,1,0,0:0:0:70:kick.wav
329,192,151417,1,0,0:0:0:0:
475,192,151417,1,0,0:0:0:0:
182,192,151477,1,0,0:0:0:0:
256,192,151537,1,0,0:0:0:0:
402,192,151537,1,0,0:0:0:0:
475,192,151597,1,0,0:0:0:0:
36,192,151657,1,0,0:0:0:70:LR4_SnareBPDT.wav
182,192,151657,1,0,0:0:0:0:
329,192,151657,1,0,0:0:0:0:
402,192,151717,1,0,0:0:0:0:
109,192,151777,1,0,0:0:0:0:
256,192,151777,1,0,0:0:0:0:
329,192,151837,1,0,0:0:0:0:
36,192,151897,1,0,0:0:0:70:kick.wav
182,192,151897,1,0,0:0:0:0:
402,192,151897,1,0,0:0:0:0:
475,192,151897,1,0,0:0:0:0:
256,192,151957,1,0,0:0:0:0:
109,192,152017,1,0,0:0:0:0:
329,192,152017,1,0,0:0:0:0:
402,192,152077,1,0,0:0:0:0:
36,192,152137,1,0,0:0:0:70:LR4_SnareBPDT.wav
109,192,152137,1,0,0:0:0:0:
182,192,152137,1,0,0:0:0:0:
475,192,152137,1,0,0:0:0:0:
329,192,152197,1,0,0:0:0:0:
256,192,152257,1,0,0:0:0:0:
182,192,152317,1,0,0:0:0:0:
36,192,152377,1,0,0:0:0:70:kick.wav
329,192,152377,1,0,0:0:0:0:
402,192,152377,1,0,0:0:0:0:
475,192,152377,1,0,0:0:0:0:
109,192,152437,1,0,0:0:0:0:
256,192,152497,1,0,0:0:0:0:
329,192,152557,1,0,0:0:0:0:
36,192,152617,1,0,0:0:0:70:LR4_SnareBPDT.wav
109,192,152617,1,0,0:0:0:0:
402,192,152617,1,0,0:0:0:0:
475,192,152617,1,0,0:0:0:0:
182,192,152677,1,0,0:0:0:0:
256,192,152737,1,0,0:0:0:0:
329,192,152737,1,0,0:0:0:0:
109,192,152797,1,0,0:0:0:0:
36,192,152857,1,0,0:0:0:70:kick.wav
329,192,152857,1,0,0:0:0:0:
475,192,152857,1,0,0:0:0:0:
182,192,152917,1,0,0:0:0:0:
256,192,152977,1,0,0:0:0:0:
402,192,152977,1,0,0:0:0:0:
475,192,153037,1,0,0:0:0:0:
36,192,153097,1,0,0:0:0:70:LR4_SnareBPDT.wav
182,192,153097,1,0,0:0:0:0:
329,192,153097,1,0,0:0:0:0:
402,192,153157,1,0,0:0:0:0:
109,192,153217,1,0,0:0:0:0:
256,192,153217,1,0,0:0:0:0:
329,192,153277,1,0,0:0:0:0:
36,192,153337,1,0,0:0:0:70:kick.wav
182,192,153337,1,0,0:0:0:0:
402,192,153337,1,0,0:0:0:0:
475,192,153337,1,0,0:0:0:0:
256,192,153397,1,0,0:0:0:0:
329,192,153457,1,0,0:0:0:0:
402,192,153517,1,0,0:0:0:0:
36,192,153577,1,0,0:0:0:70:LR4_SnareBPDT.wav
109,192,153577,1,0,0:0:0:0:
182,192,153577,1,0,0:0:0:0:
475,192,153577,1,0,0:0:0:0:
329,192,153637,1,0,0:0:0:0:
256,192,153697,1,0,0:0:0:0:
182,192,153757,1,0,0:0:0:0:
36,192,153817,1,0,0:0:0:70:kick.wav
109,192,153817,1,0,0:0:0:0:
402,192,153817,1,0,0:0:0:0:
475,192,153817,1,0,0:0:0:0:
256,192,153877,1,0,0:0:0:0:
329,192,153937,1,0,0:0:0:0:
402,192,153997,1,0,0:0:0:0:
36,192,154057,1,0,0:0:0:70:LR4_SnareBPDT.wav
109,192,154057,1,0,0:0:0:0:
182,192,154057,1,0,0:0:0:0:
475,192,154057,1,0,0:0:0:0:
329,192,154117,1,0,0:0:0:0:
256,192,154177,1,0,0:0:0:0:
109,192,154237,1,0,0:0:0:0:
36,192,154297,1,0,0:0:0:70:kick.wav
329,192,154297,1,0,0:0:0:0:
402,192,154297,1,0,0:0:0:0:
475,192,154297,1,0,0:0:0:0:
182,192,154357,1,0,0:0:0:0:
256,192,154417,1,0,0:0:0:0:
329,192,154477,1,0,0:0:0:0:
36,192,154537,1,0,0:0:0:70:LR4_SnareBPDT.wav
109,192,154537,1,0,0:0:0:0:
402,192,154537,1,0,0:0:0:0:
475,192,154537,1,0,0:0:0:0:
256,192,154597,1,0,0:0:0:0:
182,192,154657,1,0,0:0:0:0:
329,192,154657,1,0,0:0:0:0:
109,192,154717,1,0,0:0:0:0:
36,192,154777,1,0,0:0:0:70:kick.wav
329,192,154777,1,0,0:0:0:0:
475,192,154777,1,0,0:0:0:0:
182,192,154837,1,0,0:0:0:0:
256,192,154897,1,0,0:0:0:0:
402,192,154897,1,0,0:0:0:0:
109,192,154957,1,0,0:0:0:0:
182,192,155017,1,0,0:0:0:70:LR4_SnareBPDT.wav
329,192,155017,1,0,0:0:0:0:
475,192,155017,1,0,0:0:0:0:
36,192,155077,1,0,0:0:0:0:
109,192,155137,1,0,0:0:0:0:
256,192,155137,1,0,0:0:0:0:
402,192,155197,1,0,0:0:0:0:
36,192,155257,1,0,0:0:0:70:kick.wav
182,192,155257,1,0,0:0:0:0:
475,192,155257,1,0,0:0:0:0:
329,192,155317,1,0,0:0:0:0:
109,192,155377,1,0,0:0:0:0:
256,192,155377,1,0,0:0:0:0:
36,192,155437,1,0,0:0:0:0:
182,192,155497,1,0,0:0:0:70:LR4_SnareBPDT.wav
329,192,155497,1,0,0:0:0:0:
475,192,155497,1,0,0:0:0:0:
109,192,155557,1,0,0:0:0:0:
256,192,155617,1,0,0:0:0:0:
402,192,155617,1,0,0:0:0:0:
182,192,155677,1,0,0:0:0:0:
36,192,155737,1,0,0:0:0:70:kick.wav
109,192,155737,1,0,0:0:0:0:
402,192,155737,1,0,0:0:0:0:
475,192,155737,1,0,0:0:0:0:
256,192,155797,1,0,0:0:0:0:
329,192,155857,1,0,0:0:0:0:
402,192,155917,1,0,0:0:0:0:
36,192,155977,1,0,0:0:0:70:LR4_SnareBPDT.wav
109,192,155977,1,0,0:0:0:0:
256,192,155977,1,0,0:0:0:0:
475,192,155977,1,0,0:0:0:0:
329,192,156037,1,0,0:0:0:0:
182,192,156097,1,0,0:0:0:0:
109,192,156157,1,0,0:0:0:0:
36,192,156217,1,0,0:0:0:70:kick.wav
256,192,156217,1,0,0:0:0:0:
402,192,156217,1,0,0:0:0:0:
475,192,156217,1,0,0:0:0:0:
182,192,156277,1,0,0:0:0:0:
329,192,156337,1,0,0:0:0:0:
402,192,156397,1,0,0:0:0:0:
36,192,156457,1,0,0:0:0:70:LR4_SnareBPDT.wav
109,192,156457,1,0,0:0:0:0:
182,192,156457,1,0,0:0:0:0:
475,192,156457,1,0,0:0:0:0:
256,192,156517,1,0,0:0:0:0:
329,192,156577,1,0,0:0:0:0:
402,192,156577,1,0,0:0:0:0:
182,192,156637,1,0,0:0:0:0:
36,192,156697,1,0,0:0:0:70:kick.wav
109,192,156697,1,0,0:0:0:0:
475,192,156697,1,0,0:0:0:0:
402,192,156757,1,0,0:0:0:0:
182,192,156817,1,0,0:0:0:0:
256,192,156817,1,0,0:0:0:0:
329,192,156877,1,0,0:0:0:0:
36,192,156937,1,0,0:0:0:70:LR4_SnareBPDT.wav
109,192,156937,1,0,0:0:0:0:
475,192,156937,1,0,0:0:0:0:
182,192,156997,1,0,0:0:0:0:
329,192,157057,1,0,0:0:0:0:
402,192,157057,1,0,0:0:0:0:
256,192,157117,1,0,0:0:0:0:
36,192,157177,1,0,0:0:0:70:kick.wav
182,192,157177,1,0,0:0:0:0:
475,192,157177,1,0,0:0:0:0:
329,192,157237,1,0,0:0:0:0:
109,192,157297,1,0,0:0:0:0:
402,192,157297,1,0,0:0:0:0:
256,192,157357,1,0,0:0:0:0:
182,192,157417,1,0,0:0:0:70:LR4_SnareBPDT.wav
329,192,157417,1,0,0:0:0:0:
475,192,157417,1,0,0:0:0:0:
109,192,157477,1,0,0:0:0:0:
256,192,157537,1,0,0:0:0:0:
402,192,157537,1,0,0:0:0:0:
182,192,157597,1,0,0:0:0:0:
36,192,157657,1,0,0:0:0:70:kick.wav
109,192,157657,1,0,0:0:0:0:
329,192,157657,1,0,0:0:0:0:
475,192,157657,1,0,0:0:0:0:
256,192,157717,1,0,0:0:0:0:
182,192,157777,1,0,0:0:0:0:
109,192,157837,1,0,0:0:0:0:
36,192,157897,1,0,0:0:0:70:LR4_SnareBPDT.wav
256,192,157897,1,0,0:0:0:0:
402,192,157897,1,0,0:0:0:0:
475,192,157897,1,0,0:0:0:0:
182,192,157957,1,0,0:0:0:0:
329,192,158017,1,0,0:0:0:0:
402,192,158077,1,0,0:0:0:0:
36,192,158137,1,0,0:0:0:70:kick.wav
109,192,158137,1,0,0:0:0:0:
182,192,158137,1,0,0:0:0:0:
475,192,158137,1,0,0:0:0:0:
329,192,158197,1,0,0:0:0:0:
256,192,158257,1,0,0:0:0:0:
182,192,158317,1,0,0:0:0:0:
36,192,158377,1,0,0:0:0:70:LR4_SnareBPDT.wav
109,192,158377,1,0,0:0:0:0:
402,192,158377,1,0,0:0:0:0:
475,192,158377,1,0,0:0:0:0:
256,192,158437,1,0,0:0:0:0:
182,192,158497,1,0,0:0:0:0:
329,192,158497,1,0,0:0:0:0:
402,192,158557,1,0,0:0:0:0:
36,192,158617,1,0,0:0:0:70:kick.wav
182,192,158617,1,0,0:0:0:0:
475,192,158617,1,0,0:0:0:0:
329,192,158677,1,0,0:0:0:0:
109,192,158737,1,0,0:0:0:0:
256,192,158737,1,0,0:0:0:0:
402,192,158797,1,0,0:0:0:0:
36,192,158857,1,0,0:0:0:70:LR4_SnareBPDT.wav
182,192,158857,1,0,0:0:0:0:
329,192,158857,1,0,0:0:0:0:
475,192,158917,1,0,0:0:0:0:
256,192,158977,1,0,0:0:0:0:
402,192,158977,1,0,0:0:0:0:
109,192,159037,1,0,0:0:0:0:
36,192,159097,1,0,0:0:0:70:kick.wav
329,192,159097,1,0,0:0:0:0:
475,192,159097,1,0,0:0:0:0:
182,192,159157,1,0,0:0:0:0:
256,192,159217,1,0,0:0:0:0:
402,192,159217,1,0,0:0:0:0:
475,192,159277,1,0,0:0:0:0:
36,192,159337,1,0,0:0:0:70:LR4_SnareBPDT.wav
182,192,159337,1,0,0:0:0:0:
329,192,159337,1,0,0:0:0:0:
402,192,159397,1,0,0:0:0:0:
109,192,159457,1,0,0:0:0:0:
256,192,159457,1,0,0:0:0:0:
329,192,159517,1,0,0:0:0:0:
36,192,159577,1,0,0:0:0:70:kick.wav
109,192,159577,1,0,0:0:0:0:
402,192,159577,1,0,0:0:0:0:
475,192,159577,1,0,0:0:0:0:
182,192,159637,1,0,0:0:0:0:
256,192,159697,1,0,0:0:0:0:
329,192,159697,1,0,0:0:0:0:
402,192,159757,1,0,0:0:0:0:
36,192,159817,1,0,0:0:0:70:LR4_SnareBPDT.wav
109,192,159817,1,0,0:0:0:0:
182,192,159817,1,0,0:0:0:0:
475,192,159817,1,0,0:0:0:0:
329,192,159877,1,0,0:0:0:0:
256,192,159937,1,0,0:0:0:0:
109,192,159997,1,0,0:0:0:0:
36,192,160057,1,0,0:0:0:70:kick.wav
329,192,160057,1,0,0:0:0:0:
402,192,160057,1,0,0:0:0:0:
475,192,160057,1,0,0:0:0:0:
182,192,160117,1,0,0:0:0:0:
256,192,160177,1,0,0:0:0:0:
402,192,160237,1,0,0:0:0:0:
36,192,160297,1,0,0:0:0:70:LR4_SnareBPDT.wav
109,192,160297,1,0,0:0:0:0:
182,192,160297,1,0,0:0:0:0:
475,192,160297,1,0,0:0:0:0:
329,192,160357,1,0,0:0:0:0:
109,192,160417,1,0,0:0:0:0:
256,192,160417,1,0,0:0:0:0:
402,192,160477,1,0,0:0:0:0:
36,192,160537,1,0,0:0:0:70:kick.wav
182,192,160537,1,0,0:0:0:0:
475,192,160537,1,0,0:0:0:0:
329,192,160597,1,0,0:0:0:0:
109,192,160657,1,0,0:0:0:0:
256,192,160657,1,0,0:0:0:0:
36,192,160717,1,0,0:0:0:0:
182,192,160777,1,0,0:0:0:70:LR4_SnareBPDT.wav
329,192,160777,1,0,0:0:0:0:
475,192,160777,1,0,0:0:0:0:
109,192,160837,1,0,0:0:0:0:
256,192,160897,1,0,0:0:0:0:
402,192,160897,1,0,0:0:0:0:
182,192,160957,1,0,0:0:0:0:
36,192,161017,1,0,0:0:0:70:kick.wav
109,192,161017,1,0,0:0:0:0:
402,192,161017,1,0,0:0:0:0:
475,192,161017,1,0,0:0:0:0:
256,192,161077,1,0,0:0:0:0:
329,192,161137,1,0,0:0:0:0:
402,192,161197,1,0,0:0:0:0:
36,192,161257,1,0,0:0:0:70:LR4_SnareBPDT.wav
109,192,161257,1,0,0:0:0:0:
182,192,161257,1,0,0:0:0:0:
475,192,161257,1,0,0:0:0:0:
329,192,161317,1,0,0:0:0:0:
256,192,161377,1,0,0:0:0:0:
182,192,161437,1,0,0:0:0:0:
36,192,161497,1,0,0:0:0:70:kick.wav
109,192,161497,1,0,0:0:0:0:
402,192,161497,1,0,0:0:0:0:
475,192,161497,1,0,0:0:0:0:
256,192,161557,1,0,0:0:0:0:
329,192,161617,1,0,0:0:0:0:
402,192,161677,1,0,0:0:0:0:
36,192,161737,1,0,0:0:0:70:LR4_SnareBPDT.wav
109,192,161737,1,0,0:0:0:0:
182,192,161737,1,0,0:0:0:0:
475,192,161737,1,0,0:0:0:0:
329,192,161797,1,0,0:0:0:0:
256,192,161857,1,0,0:0:0:0:
109,192,161917,1,0,0:0:0:0:
36,192,161977,1,0,0:0:0:70:kick.wav
329,192,161977,1,0,0:0:0:0:
402,192,161977,1,0,0:0:0:0:
475,192,161977,1,0,0:0:0:0:
182,192,162037,1,0,0:0:0:0:
256,192,162097,1,0,0:0:0:0:
329,192,162157,1,0,0:0:0:0:
36,192,162217,1,0,0:0:0:70:LR4_SnareBPDT.wav
109,192,162217,1,0,0:0:0:0:
402,192,162217,1,0,0:0:0:0:
475,192,162217,1,0,0:0:0:0:
256,192,162277,1,0,0:0:0:0:
182,192,162337,1,0,0:0:0:0:
329,192,162337,1,0,0:0:0:0:
109,192,162397,1,0,0:0:0:0:
36,192,162457,1,0,0:0:0:70:kick.wav
329,192,162457,1,0,0:0:0:0:
475,192,162457,1,0,0:0:0:0:
182,192,162517,1,0,0:0:0:0:
256,192,162577,1,0,0:0:0:0:
402,192,162577,1,0,0:0:0:0:
109,192,162637,1,0,0:0:0:0:
182,192,162697,1,0,0:0:0:70:LR4_SnareBPDT.wav
329,192,162697,1,0,0:0:0:0:
475,192,162697,1,0,0:0:0:0:
36,192,162757,1,0,0:0:0:0:
109,192,162817,1,0,0:0:0:0:
256,192,162817,1,0,0:0:0:0:
402,192,162877,1,0,0:0:0:0:
36,192,162937,1,0,0:0:0:70:kick.wav
182,192,162937,1,0,0:0:0:0:
475,192,162937,1,0,0:0:0:0:
329,192,162997,1,0,0:0:0:0:
109,192,163057,1,0,0:0:0:0:
256,192,163057,1,0,0:0:0:0:
36,192,163117,1,0,0:0:0:0:
182,192,163177,1,0,0:0:0:70:LR4_SnareBPDT.wav
329,192,163177,1,0,0:0:0:0:
475,192,163177,1,0,0:0:0:0:
109,192,163237,1,0,0:0:0:0:
256,192,163297,1,0,0:0:0:0:
402,192,163297,1,0,0:0:0:0:
182,192,163357,1,0,0:0:0:0:
36,192,163417,1,0,0:0:0:70:kick.wav
109,192,163417,1,0,0:0:0:0:
329,192,163417,1,0,0:0:0:0:
475,192,163417,1,0,0:0:0:0:
256,192,163477,1,0,0:0:0:0:
182,192,163537,1,0,0:0:0:0:
402,192,163537,1,0,0:0:0:0:
109,192,163597,1,0,0:0:0:0:
36,192,163657,1,0,0:0:0:70:LR4_SnareBPDT.wav
329,192,163657,1,0,0:0:0:0:
402,192,163657,1,0,0:0:0:0:
475,192,163657,1,0,0:0:0:0:
182,192,163717,1,0,0:0:0:0:
256,192,163777,1,0,0:0:0:0:
329,192,163837,1,0,0:0:0:0:
36,192,163897,1,0,0:0:0:70:kick.wav
109,192,163897,1,0,0:0:0:0:
182,192,163897,1,0,0:0:0:0:
475,192,163897,1,0,0:0:0:0:
402,192,163957,1,0,0:0:0:0:
329,192,164017,1,0,0:0:0:0:
256,192,164077,1,0,0:0:0:0:
36,192,164137,1,0,0:0:0:70:LR4_SnareBPDT.wav
109,192,164137,1,0,0:0:0:0:
402,192,164137,1,0,0:0:0:0:
475,192,164137,1,0,0:0:0:0:
182,192,164197,1,0,0:0:0:0:
329,192,164257,1,0,0:0:0:0:
402,192,164257,1,0,0:0:0:0:
256,192,164317,1,0,0:0:0:0:
36,192,164377,1,0,0:0:0:70:LR4_SnareBPDT.wav
109,192,164377,1,0,0:0:0:0:
182,192,164377,1,0,0:0:0:0:
475,192,164377,1,0,0:0:0:0:
36,192,164557,1,0,0:0:0:70:LR4_SnareBPDT.wav
109,192,164557,1,0,0:0:0:0:
329,192,164557,1,0,0:0:0:0:
475,192,164557,1,0,0:0:0:0:
182,192,164737,1,0,0:0:0:70:LR4_SnareBPDT.wav
329,192,164737,1,0,0:0:0:0:
36,192,164857,1,0,0:0:0:70:LR4_SnareBPDT.wav
256,192,164857,1,0,0:0:0:0:
402,192,164857,1,0,0:0:0:0:
475,192,164857,1,0,0:0:0:0:
109,192,165037,1,0,0:0:0:70:LR4_SnareBPDT.wav
256,192,165037,1,0,0:0:0:0:
402,192,165037,1,0,0:0:0:0:
475,192,165037,1,0,0:0:0:0:
182,192,165217,1,0,0:0:0:70:LR4_SnareBPDT.wav
329,192,165217,1,0,0:0:0:0:
36,192,165337,128,4,165397:0:0:0:0:
109,192,165337,128,0,165457:0:0:0:70:kick.wav
402,192,165337,128,0,165397:0:0:0:0:
475,192,165337,128,0,165457:0:0:0:0:
182,192,165397,128,0,165517:0:0:0:0:
256,192,165457,128,0,165577:0:0:0:0:
329,192,165517,128,0,165637:0:0:0:0:
36,192,165577,128,0,165697:0:0:0:70:LR4_SnareBPDT.wav
109,192,165577,128,0,165697:0:0:0:0:
402,192,165577,128,0,165697:0:0:0:0:
475,192,165577,128,0,165697:0:0:0:0:
256,192,165697,128,0,165817:0:0:0:0:
182,192,165757,128,0,165877:0:0:0:0:
36,192,165817,128,0,165997:0:0:0:70:kick.wav
109,192,165817,128,0,165937:0:0:0:0:
402,192,165817,128,0,165937:0:0:0:0:
475,192,165817,128,0,165877:0:0:0:0:
329,192,165877,128,0,165997:0:0:0:0:
256,192,165937,128,0,166057:0:0:0:0:
182,192,165997,128,0,166117:0:0:0:0:
36,192,166057,128,0,166117:0:0:0:70:LR4_SnareBPDT.wav
109,192,166057,128,0,166117:0:0:0:0:
402,192,166057,128,0,166117:0:0:0:0:
475,192,166057,128,0,166117:0:0:0:0:
329,192,166117,128,0,166177:0:0:0:0:
36,192,166177,128,0,166237:0:0:0:0:
109,192,166177,128,0,166237:0:0:0:0:
402,192,166177,128,0,166237:0:0:0:0:
256,192,166237,128,0,166297:0:0:0:0:
182,192,166297,128,0,166477:0:0:0:70:kick.wav
329,192,166297,128,0,166357:0:0:0:0:
475,192,166297,128,0,166357:0:0:0:0:
109,192,166417,128,0,166597:0:0:0:0:
256,192,166417,128,0,166477:0:0:0:0:
402,192,166417,128,0,166477:0:0:0:0:
36,192,166537,128,0,166717:0:0:0:70:LR4_SnareBPDT.wav
182,192,166537,128,0,166597:0:0:0:0:
329,192,166537,128,0,166597:0:0:0:0:
475,192,166537,128,0,166597:0:0:0:0:
109,192,166657,128,0,166717:0:0:0:0:
256,192,166657,128,0,166837:0:0:0:0:
402,192,166657,128,0,166717:0:0:0:0:
36,192,166777,128,0,166837:0:0:0:70:kick.wav
182,192,166777,128,0,166837:0:0:0:0:
329,192,166777,128,0,166957:0:0:0:0:
109,192,166897,128,0,166957:0:0:0:0:
256,192,166897,128,0,166957:0:0:0:0:
402,192,166897,128,0,167077:0:0:0:0:
36,192,167017,128,0,167197:0:0:0:70:LR4_SnareBPDT.wav
182,192,167017,128,0,167077:0:0:0:0:
329,192,167017,128,0,167077:0:0:0:0:
475,192,167017,128,0,167077:0:0:0:0:
182,192,167137,128,0,167197:0:0:0:0:
256,192,167137,128,0,167197:0:0:0:0:
329,192,167137,128,0,167197:0:0:0:0:
36,192,167257,128,0,167377:0:0:0:70:kick.wav
109,192,167257,128,0,167317:0:0:0:0:
402,192,167257,128,0,167377:0:0:0:0:
475,192,167257,128,0,167317:0:0:0:0:
329,192,167317,128,0,167437:0:0:0:0:
256,192,167377,128,0,167497:0:0:0:0:
182,192,167437,128,0,167557:0:0:0:0:
36,192,167497,128,0,167617:0:0:0:70:LR4_SnareBPDT.wav
109,192,167497,128,0,167617:0:0:0:0:
402,192,167497,128,0,167617:0:0:0:0:
475,192,167497,128,0,167617:0:0:0:0:
256,192,167617,128,0,167737:0:0:0:0:
329,192,167677,128,0,167797:0:0:0:0:
36,192,167737,128,0,167797:0:0:0:70:kick.wav
109,192,167737,128,0,167857:0:0:0:0:
402,192,167737,128,0,167857:0:0:0:0:
475,192,167737,128,0,167917:0:0:0:0:
182,192,167797,128,0,167917:0:0:0:0:
256,192,167857,128,0,167977:0:0:0:0:
329,192,167917,128,0,168037:0:0:0:0:
36,192,167977,128,0,168037:0:0:0:70:LR4_SnareBPDT.wav
109,192,167977,128,0,168037:0:0:0:0:
402,192,167977,128,0,168037:0:0:0:0:
475,192,167977,128,0,168037:0:0:0:0:
182,192,168037,128,0,168097:0:0:0:0:
109,192,168097,128,0,168157:0:0:0:0:
402,192,168097,128,0,168157:0:0:0:0:
475,192,168097,128,0,168157:0:0:0:0:
256,192,168157,128,0,168217:0:0:0:0:
36,192,168217,128,0,168277:0:0:0:70:kick.wav
182,192,168217,128,0,168277:0:0:0:0:
329,192,168217,128,0,168397:0:0:0:0:
109,192,168337,128,0,168397:0:0:0:0:
256,192,168337,128,0,168397:0:0:0:0:
402,192,168337,128,0,168517:0:0:0:0:
36,192,168457,128,0,168637:0:0:0:70:LR4_SnareBPDT.wav
182,192,168457,128,0,168517:0:0:0:0:
329,192,168457,128,0,168517:0:0:0:0:
475,192,168457,128,0,168517:0:0:0:0:
109,192,168577,128,0,168637:0:0:0:0:
256,192,168577,128,0,168637:0:0:0:0:
402,192,168577,128,0,168637:0:0:0:0:
36,192,168697,128,0,168817:0:0:0:70:kick.wav
109,192,168697,128,0,168757:0:0:0:0:
329,192,168697,128,0,168817:0:0:0:0:
475,192,168697,128,0,168757:0:0:0:0:
256,192,168757,128,0,168877:0:0:0:0:
182,192,168817,128,0,168937:0:0:0:0:
109,192,168877,128,0,168997:0:0:0:0:
36,192,168937,128,0,169117:0:0:0:70:LR4_SnareBPDT.wav
329,192,168937,128,0,168997:0:0:0:0:
402,192,168937,128,0,168997:0:0:0:0:
475,192,168937,128,0,168997:0:0:0:0:
182,192,169057,128,0,169117:0:0:0:0:
256,192,169057,128,0,169117:0:0:0:0:
329,192,169057,128,0,169117:0:0:0:0:
36,192,169177,128,0,169237:0:0:0:70:kick.wav
109,192,169177,128,0,169297:0:0:0:0:
402,192,169177,128,0,169237:0:0:0:0:
475,192,169177,128,0,169297:0:0:0:0:
182,192,169237,128,0,169357:0:0:0:0:
256,192,169297,128,0,169417:0:0:0:0:
329,192,169357,128,0,169477:0:0:0:0:
36,192,169417,128,0,169537:0:0:0:70:LR4_SnareBPDT.wav
109,192,169417,128,0,169537:0:0:0:0:
402,192,169417,128,0,169537:0:0:0:0:
475,192,169417,128,0,169537:0:0:0:0:
256,192,169537,128,0,169657:0:0:0:0:
182,192,169597,128,0,169717:0:0:0:0:
36,192,169657,128,0,169837:0:0:0:70:kick.wav
109,192,169657,128,0,169777:0:0:0:0:
402,192,169657,128,0,169777:0:0:0:0:
475,192,169657,128,0,169717:0:0:0:0:
329,192,169717,128,0,169837:0:0:0:0:
256,192,169777,128,0,169897:0:0:0:0:
182,192,169837,128,0,169957:0:0:0:0:
36,192,169897,128,0,169957:0:0:0:70:LR4_SnareBPDT.wav
109,192,169897,128,0,169957:0:0:0:0:
475,192,169897,128,0,169957:0:0:0:0:
329,192,169957,128,0,170017:0:0:0:0:
36,192,170017,128,0,170077:0:0:0:0:
109,192,170017,128,0,170077:0:0:0:0:
402,192,170017,128,0,170077:0:0:0:0:
256,192,170077,128,0,170137:0:0:0:0:
182,192,170137,128,0,170317:0:0:0:70:kick.wav
329,192,170137,128,0,170197:0:0:0:0:
475,192,170137,128,0,170197:0:0:0:0:
109,192,170257,128,0,170437:0:0:0:0:
256,192,170257,128,0,170317:0:0:0:0:
402,192,170257,128,0,170317:0:0:0:0:
36,192,170377,128,0,170557:0:0:0:70:LR4_SnareBPDT.wav
182,192,170377,128,0,170437:0:0:0:0:
329,192,170377,128,0,170437:0:0:0:0:
475,192,170377,128,0,170437:0:0:0:0:
109,192,170497,128,0,170557:0:0:0:0:
256,192,170497,128,0,170677:0:0:0:0:
402,192,170497,128,0,170557:0:0:0:0:
36,192,170617,128,0,170677:0:0:0:70:kick.wav
182,192,170617,128,0,170677:0:0:0:0:
329,192,170617,128,0,170797:0:0:0:0:
109,192,170737,128,0,170797:0:0:0:0:
256,192,170737,128,0,170797:0:0:0:0:
402,192,170737,128,0,170917:0:0:0:0:
36,192,170857,128,0,170917:0:0:0:70:LR4_SnareBPDT.wav
182,192,170857,128,0,170917:0:0:0:0:
329,192,170857,128,0,170917:0:0:0:0:
475,192,170857,128,0,171037:0:0:0:0:
182,192,170977,128,0,171037:0:0:0:0:
256,192,170977,128,0,171037:0:0:0:0:
329,192,170977,128,0,171037:0:0:0:0:
36,192,171097,128,0,171217:0:0:0:70:kick.wav
109,192,171097,128,0,171157:0:0:0:0:
402,192,171097,128,0,171217:0:0:0:0:
475,192,171097,128,0,171157:0:0:0:0:
329,192,171157,128,0,171277:0:0:0:0:
256,192,171217,128,0,171337:0:0:0:0:
182,192,171277,128,0,171397:0:0:0:0:
36,192,171337,128,0,171457:0:0:0:70:LR4_SnareBPDT.wav
109,192,171337,128,0,171457:0:0:0:0:
402,192,171337,128,0,171457:0:0:0:0:
475,192,171337,128,0,171457:0:0:0:0:
256,192,171457,128,0,171577:0:0:0:0:
329,192,171517,128,0,171637:0:0:0:0:
36,192,171577,128,0,171637:0:0:0:70:kick.wav
109,192,171577,128,0,171697:0:0:0:0:
402,192,171577,128,0,171697:0:0:0:0:
475,192,171577,128,0,171757:0:0:0:0:
182,192,171637,128,0,171757:0:0:0:0:
256,192,171697,128,0,171817:0:0:0:0:
329,192,171757,128,0,171877:0:0:0:0:
36,192,171817,128,0,171877:0:0:0:70:LR4_SnareBPDT.wav
402,192,171817,128,0,171877:0:0:0:0:
475,192,171817,128,0,171877:0:0:0:0:
182,192,171877,128,0,171937:0:0:0:0:
109,192,171937,128,0,171997:0:0:0:0:
402,192,171937,128,0,171997:0:0:0:0:
475,192,171937,128,0,171997:0:0:0:0:
256,192,171997,128,0,172057:0:0:0:0:
36,192,172057,128,0,172117:0:0:0:70:kick.wav
182,192,172057,128,0,172117:0:0:0:0:
329,192,172057,128,0,172237:0:0:0:0:
109,192,172177,128,0,172237:0:0:0:0:
256,192,172177,128,0,172237:0:0:0:0:
402,192,172177,128,0,172357:0:0:0:0:
36,192,172297,128,0,172357:0:0:0:70:LR4_SnareBPDT.wav
182,192,172297,128,0,172357:0:0:0:0:
329,192,172297,128,0,172357:0:0:0:0:
475,192,172297,128,0,172477:0:0:0:0:
109,192,172417,128,0,172477:0:0:0:0:
256,192,172417,128,0,172597:0:0:0:0:
402,192,172417,128,0,172477:0:0:0:0:
182,192,172537,128,0,172717:0:0:0:70:kick.wav
329,192,172537,128,0,172597:0:0:0:0:
475,192,172537,128,0,172597:0:0:0:0:
109,192,172657,128,0,172837:0:0:0:0:
256,192,172657,128,0,172717:0:0:0:0:
402,192,172657,128,0,172717:0:0:0:0:
36,192,172777,128,0,172957:0:0:0:70:LR4_SnareBPDT.wav
182,192,172777,128,0,172837:0:0:0:0:
329,192,172777,128,0,172837:0:0:0:0:
475,192,172777,128,0,172837:0:0:0:0:
329,192,172897,128,0,172957:0:0:0:0:
402,192,172897,128,0,172957:0:0:0:0:
475,192,172897,128,0,172957:0:0:0:0:
36,192,173017,128,0,173137:0:0:0:70:kick.wav
109,192,173017,128,0,173077:0:0:0:0:
256,192,173017,128,0,173137:0:0:0:0:
402,192,173017,128,0,173197:0:0:0:0:
182,192,173077,128,0,173197:0:0:0:0:
329,192,173137,128,0,173257:0:0:0:0:
475,192,173197,128,0,173317:0:0:0:0:
36,192,173257,128,0,173377:0:0:0:70:LR4_SnareBPDT.wav
109,192,173257,128,0,173377:0:0:0:0:
182,192,173257,128,0,173377:0:0:0:0:
256,192,173257,128,0,173377:0:0:0:0:
402,192,173377,128,0,173557:0:0:0:0:
329,192,173437,128,0,173497:0:0:0:0:
36,192,173497,128,0,173677:0:0:0:70:kick.wav
109,192,173497,128,0,173557:0:0:0:0:
182,192,173497,128,0,173617:0:0:0:0:
475,192,173497,128,0,173617:0:0:0:0:
256,192,173557,128,0,173677:0:0:0:0:
329,192,173617,128,0,173737:0:0:0:0:
402,192,173677,128,0,173797:0:0:0:0:
36,192,173737,128,0,173797:0:0:0:70:LR4_SnareBPDT.wav
109,192,173737,128,0,173797:0:0:0:0:
475,192,173737,128,0,173797:0:0:0:0:
182,192,173797,128,0,173857:0:0:0:0:
36,192,173857,128,0,173917:0:0:0:0:
109,192,173857,128,0,173917:0:0:0:0:
402,192,173857,128,0,173917:0:0:0:0:
256,192,173917,128,0,173977:0:0:0:0:
182,192,173977,128,0,174037:0:0:0:70:kick.wav
329,192,173977,128,0,174037:0:0:0:0:
475,192,173977,128,0,174157:0:0:0:0:
109,192,174097,128,0,174157:0:0:0:0:
256,192,174097,128,0,174157:0:0:0:0:
402,192,174097,128,0,174277:0:0:0:0:
36,192,174217,128,0,174277:0:0:0:70:LR4_SnareBPDT.wav
182,192,174217,128,0,174277:0:0:0:0:
329,192,174217,128,0,174397:0:0:0:0:
475,192,174217,128,0,174277:0:0:0:0:
36,192,174337,128,0,174517:0:0:0:0:
109,192,174337,128,0,174397:0:0:0:0:
256,192,174337,128,0,174397:0:0:0:0:
182,192,174457,128,0,174637:0:0:0:70:kick.wav
329,192,174457,128,0,174517:0:0:0:0:
475,192,174457,128,0,174517:0:0:0:0:
109,192,174577,128,0,174637:0:0:0:0:
256,192,174577,128,0,174637:0:0:0:0:
402,192,174577,128,0,174757:0:0:0:0:
36,192,174697,128,0,174757:0:0:0:70:LR4_SnareBPDT.wav
182,192,174697,128,0,174757:0:0:0:0:
329,192,174697,128,0,174757:0:0:0:0:
475,192,174697,128,0,174877:0:0:0:0:
36,192,174817,128,0,174877:0:0:0:0:
109,192,174817,128,0,174877:0:0:0:0:
182,192,174817,128,0,174877:0:0:0:0:
109,192,174937,128,0,175117:0:0:0:70:kick.wav
256,192,174937,128,0,175057:0:0:0:0:
402,192,174937,128,0,174997:0:0:0:0:
475,192,174937,128,0,175057:0:0:0:0:
329,192,174997,128,0,175117:0:0:0:0:
182,192,175057,128,0,175177:0:0:0:0:
36,192,175117,128,0,175237:0:0:0:0:
256,192,175177,128,0,175297:0:0:0:70:LR4_SnareBPDT.wav
329,192,175177,128,0,175297:0:0:0:0:
402,192,175177,128,0,175297:0:0:0:0:
475,192,175177,128,0,175297:0:0:0:0:
109,192,175297,128,0,175477:0:0:0:0:
182,192,175357,128,0,175417:0:0:0:0:
36,192,175417,128,0,175537:0:0:0:70:kick.wav
329,192,175417,128,0,175537:0:0:0:0:
402,192,175417,128,0,175477:0:0:0:0:
475,192,175417,128,0,175597:0:0:0:0:
256,192,175477,128,0,175597:0:0:0:0:
182,192,175537,128,0,175657:0:0:0:0:
109,192,175597,128,0,175717:0:0:0:0:
36,192,175657,128,0,175717:0:0:0:70:LR4_SnareBPDT.wav
402,192,175657,128,0,175717:0:0:0:0:
475,192,175657,128,0,175717:0:0:0:0:
182,192,175717,128,0,175777:0:0:0:0:
109,192,175777,128,0,175837:0:0:0:0:
402,192,175777,128,0,175837:0:0:0:0:
475,192,175777,128,0,175837:0:0:0:0:
256,192,175837,128,0,175897:0:0:0:0:
36,192,175897,128,0,175957:0:0:0:70:kick.wav
182,192,175897,128,0,175957:0:0:0:0:
329,192,175897,128,0,176077:0:0:0:0:
109,192,176017,128,0,176197:0:0:0:0:
256,192,176017,128,0,176077:0:0:0:0:
402,192,176017,128,0,176077:0:0:0:0:
36,192,176137,128,0,176197:0:0:0:70:LR4_SnareBPDT.wav
182,192,176137,128,0,176197:0:0:0:0:
329,192,176137,128,0,176197:0:0:0:0:
475,192,176137,128,0,176317:0:0:0:0:
109,192,176257,128,0,176317:0:0:0:0:
256,192,176257,128,0,176317:0:0:0:0:
402,192,176257,128,0,176317:0:0:0:0:
36,192,176377,128,0,176497:0:0:0:70:kick.wav
182,192,176377,128,0,176437:0:0:0:0:
329,192,176377,128,0,176497:0:0:0:0:
475,192,176377,128,0,176437:0:0:0:0:
256,192,176437,128,0,176557:0:0:0:0:
109,192,176497,128,0,176617:0:0:0:0:
36,192,176557,128,0,176677:0:0:0:0:
182,192,176617,128,0,176797:0:0:0:70:LR4_SnareBPDT.wav
329,192,176617,128,0,176677:0:0:0:0:
402,192,176617,128,0,176677:0:0:0:0:
475,192,176617,128,0,176677:0:0:0:0:
256,192,176737,128,0,176797:0:0:0:0:
329,192,176737,128,0,176797:0:0:0:0:
475,192,176737,128,0,176797:0:0:0:0:
36,192,176857,128,0,176977:0:0:0:70:kick.wav
109,192,176857,128,0,176917:0:0:0:0:
256,192,176857,128,0,176977:0:0:0:0:
402,192,176857,128,0,177037:0:0:0:0:
182,192,176917,128,0,177037:0:0:0:0:
329,192,176977,128,0,177097:0:0:0:0:
475,192,177037,128,0,177157:0:0:0:0:
36,192,177097,128,0,177217:0:0:0:70:LR4_SnareBPDT.wav
109,192,177097,128,0,177217:0:0:0:0:
182,192,177097,128,0,177217:0:0:0:0:
256,192,177097,128,0,177217:0:0:0:0:
402,192,177217,128,0,177397:0:0:0:0:
329,192,177277,128,0,177337:0:0:0:0:
36,192,177337,128,0,177517:0:0:0:70:kick.wav
109,192,177337,128,0,177397:0:0:0:0:
182,192,177337,128,0,177457:0:0:0:0:
475,192,177337,128,0,177457:0:0:0:0:
256,192,177397,128,0,177517:0:0:0:0:
329,192,177457,128,0,177577:0:0:0:0:
402,192,177517,128,0,177637:0:0:0:0:
36,192,177577,128,0,177637:0:0:0:70:LR4_SnareBPDT.wav
109,192,177577,128,0,177637:0:0:0:0:
475,192,177577,128,0,177637:0:0:0:0:
329,192,177637,128,0,177697:0:0:0:0:
36,192,177697,128,0,177757:0:0:0:0:
109,192,177697,128,0,177757:0:0:0:0:
402,192,177697,128,0,177757:0:0:0:0:
256,192,177757,128,0,177817:0:0:0:0:
36,192,177817,128,0,177997:0:0:0:70:kick.wav
182,192,177817,128,0,177877:0:0:0:0:
329,192,177817,128,0,177877:0:0:0:0:
109,192,177937,128,0,178117:0:0:0:0:
256,192,177937,128,0,177997:0:0:0:0:
402,192,177937,128,0,177997:0:0:0:0:
36,192,178057,128,0,178117:0:0:0:70:LR4_SnareBPDT.wav
182,192,178057,128,0,178237:0:0:0:0:
329,192,178057,128,0,178117:0:0:0:0:
475,192,178057,128,0,178117:0:0:0:0:
256,192,178177,128,0,178237:0:0:0:0:
402,192,178177,128,0,178237:0:0:0:0:
475,192,178177,128,0,178357:0:0:0:0:
36,192,178297,128,0,178357:0:0:0:70:kick.wav
182,192,178297,128,0,178357:0:0:0:0:
329,192,178297,128,0,178477:0:0:0:0:
109,192,178417,128,0,178597:0:0:0:0:
256,192,178417,128,0,178477:0:0:0:0:
402,192,178417,128,0,178477:0:0:0:0:
36,192,178537,128,0,178717:0:0:0:70:LR4_SnareBPDT.wav
182,192,178537,128,0,178597:0:0:0:0:
329,192,178537,128,0,178597:0:0:0:0:
475,192,178537,128,0,178597:0:0:0:0:
182,192,178657,128,0,178717:0:0:0:0:
256,192,178657,128,0,178717:0:0:0:0:
329,192,178657,128,0,178717:0:0:0:0:
36,192,178777,128,0,178957:0:0:0:70:kick.wav
109,192,178777,128,0,178897:0:0:0:0:
402,192,178777,128,0,178897:0:0:0:0:
475,192,178777,128,0,178837:0:0:0:0:
329,192,178837,128,0,179077:0:0:0:0:
256,192,178897,128,0,179017:0:0:0:0:
182,192,178957,128,0,179197:0:0:0:0:
36,192,179017,128,0,179137:0:0:0:70:LR4_SnareBPDT.wav
109,192,179017,128,0,179137:0:0:0:0:
402,192,179017,128,0,179137:0:0:0:0:
475,192,179017,128,0,179197:0:0:0:0:
256,192,179137,128,0,179257:0:0:0:0:
329,192,179197,128,0,179317:0:0:0:0:
36,192,179257,128,0,179317:0:0:0:70:kick.wav
109,192,179257,128,0,179377:0:0:0:0:
402,192,179257,128,0,179377:0:0:0:0:
475,192,179257,128,0,179437:0:0:0:0:
182,192,179317,128,0,179437:0:0:0:0:
256,192,179377,128,0,179497:0:0:0:0:
329,192,179437,128,0,179557:0:0:0:0:
36,192,179497,128,0,179557:0:0:0:70:LR4_SnareBPDT.wav
402,192,179497,128,0,179557:0:0:0:0:
475,192,179497,128,0,179557:0:0:0:0:
182,192,179557,128,0,179617:0:0:0:0:
109,192,179617,128,0,179677:0:0:0:0:
402,192,179617,128,0,179677:0:0:0:0:
475,192,179617,128,0,179677:0:0:0:0:
256,192,179677,128,0,179737:0:0:0:0:
36,192,179737,1,0,0:0:0:70:LR4_SnareBPDT.wav
182,192,179737,1,0,0:0:0:0:
402,192,179737,1,0,0:0:0:0:
475,192,179737,1,0,0:0:0:0:
36,192,179917,1,0,0:0:0:70:LR4_SnareBPDT.wav
182,192,179917,1,0,0:0:0:0:
402,192,179917,1,0,0:0:0:0:
475,192,179917,1,0,0:0:0:0:
182,192,180097,1,0,0:0:0:70:LR4_SnareBPDT.wav
329,192,180097,1,0,0:0:0:0:
109,192,180217,1,0,0:0:0:70:LR4_SnareBPDT.wav
256,192,180217,1,0,0:0:0:0:
402,192,180217,1,0,0:0:0:0:
475,192,180217,1,0,0:0:0:0:
109,192,180397,1,0,0:0:0:70:LR4_SnareBPDT.wav
256,192,180397,1,0,0:0:0:0:
402,192,180397,1,0,0:0:0:0:
475,192,180397,1,0,0:0:0:0:
182,192,180577,1,0,0:0:0:70:LR4_SnareBPDT.wav
329,192,180577,1,0,0:0:0:0:
36,192,180697,1,0,0:0:0:70:push_scratch.wav
182,192,180697,1,0,0:0:0:70:kick.wav
256,192,180697,1,0,0:0:0:0:
329,192,180697,1,0,0:0:0:0:
475,192,180697,1,0,0:0:0:0:
256,192,180937,1,0,0:0:0:0:
329,192,181177,1,0,0:0:0:0:
402,192,181417,1,0,0:0:0:0:
256,192,181537,1,0,0:0:0:0:
475,192,181777,1,0,0:0:0:0:
256,192,181897,1,0,0:0:0:0:
402,192,182017,1,0,0:0:0:0:
182,192,182137,1,0,0:0:0:0:
329,192,182257,1,0,0:0:0:0:
109,192,182377,1,0,0:0:0:0:
256,192,182497,1,0,0:0:0:0:
36,192,182617,1,0,0:0:0:0:
182,192,182857,1,0,0:0:0:0:
36,192,182977,1,0,0:0:0:0:
256,192,183097,1,0,0:0:0:0:
182,192,183337,1,0,0:0:0:0:
329,192,183457,1,0,0:0:0:0:
256,192,183697,1,0,0:0:0:0:
329,192,183817,1,0,0:0:0:0:
475,192,183937,1,0,0:0:0:0:
182,192,184057,1,0,0:0:0:0:
329,192,184297,1,0,0:0:0:0:
475,192,184537,1,0,0:0:0:0:
402,192,184777,1,0,0:0:0:0:
329,192,185017,1,0,0:0:0:0:
256,192,185257,1,0,0:0:0:0:
402,192,185377,1,0,0:0:0:0:
36,192,185617,1,0,0:0:0:0:
256,192,185737,1,0,0:0:0:0:
109,192,185857,1,0,0:0:0:0:
329,192,185977,1,0,0:0:0:0:
182,192,186097,1,0,0:0:0:0:
402,192,186217,1,0,0:0:0:0:
256,192,186337,1,0,0:0:0:0:
475,192,186457,1,0,0:0:0:0:
329,192,186697,1,0,0:0:0:0:
256,192,186937,1,0,0:0:0:0:
329,192,187177,1,0,0:0:0:0:
182,192,187297,1,0,0:0:0:0:
256,192,187537,1,0,0:0:0:0:
182,192,187657,1,0,0:0:0:0:
36,192,187777,1,0,0:0:0:0:
256,192,187897,1,0,0:0:0:0:
109,192,188017,1,0,0:0:0:0:
256,192,188137,1,0,0:0:0:0:
402,192,188257,1,0,0:0:0:0:
36,192,188377,1,0,0:0:0:0:
109,192,188617,1,0,0:0:0:0:
182,192,188857,1,0,0:0:0:0:
329,192,189097,1,0,0:0:0:0:
182,192,189217,1,0,0:0:0:0:
109,192,189457,1,0,0:0:0:0:
256,192,189577,1,0,0:0:0:0:
182,192,189697,1,0,0:0:0:0:
329,192,189817,1,0,0:0:0:0:
256,192,189937,1,0,0:0:0:0:
475,192,190057,1,0,0:0:0:0:
329,192,190177,1,0,0:0:0:0:
402,192,190297,1,0,0:0:0:0:
329,192,190537,1,0,0:0:0:0:
256,192,190777,1,0,0:0:0:0:
182,192,191017,1,0,0:0:0:0:
329,192,191137,1,0,0:0:0:0:
256,192,191377,1,0,0:0:0:0:
109,192,191497,1,0,0:0:0:0:
256,192,191617,1,0,0:0:0:0:
36,192,191737,1,0,0:0:0:0:
109,192,191977,1,0,0:0:0:0:
475,192,192217,1,0,0:0:0:0:
402,192,192457,1,0,0:0:0:0:
329,192,192697,1,0,0:0:0:0:
182,192,192937,1,0,0:0:0:0:
329,192,193057,1,0,0:0:0:0:
402,192,193297,1,0,0:0:0:0:
256,192,193417,1,0,0:0:0:0:
329,192,193537,1,0,0:0:0:0:
182,192,193657,1,0,0:0:0:0:
256,192,193777,1,0,0:0:0:0:
36,192,193897,1,0,0:0:0:0:
182,192,194017,1,0,0:0:0:0:
109,192,194137,1,0,0:0:0:0:
182,192,194377,1,0,0:0:0:0:
256,192,194617,1,0,0:0:0:0:
329,192,194857,1,0,0:0:0:0:
182,192,194977,1,0,0:0:0:0:
475,192,195097,1,0,0:0:0:0:
402,192,195277,1,0,0:0:0:0:
109,192,195457,1,0,0:0:0:0:
329,192,195577,1,0,0:0:0:0:
256,192,195757,1,0,0:0:0:0:
36,192,195937,1,0,0:0:0:0:
