osu file format v14

[General]
AudioFilename: audio.mp3
AudioLeadIn: 0
PreviewTime: 253270
Countdown: 0
SampleSet: Normal
StackLeniency: 0.7
Mode: 1
LetterboxInBreaks: 0
WidescreenStoryboard: 0

[Editor]
Bookmarks: 23981,26981,40481,62981,65981,71981,83981,95981,107981,113981,119981,125981,148192,171232,173152,175072,182752,196159,223139,225226,262791,266965,271139,294509
DistanceSpacing: 1.1
BeatDivisor: 16
GridSize: 32
TimelineZoom: 4.099998

[Metadata]
Title:A Cybernetic-Superluminal-Apocalyptic Post-War Divination
TitleUnicode:A Cybernetic-Superluminal-Apocalyptic Post-War Divination
Artist:Xyris
ArtistUnicode:Xyris
Creator:Hana Hayashi
Version:Celestial Visionaries of the Neo-Dystopia
Source:Resurrection Cup
Tags:electronic instrumental full flavor multigenre rc basscore hardcore psystyle psytrance hitech deathstep melodic dubstep tearout gothic trap breakcore twerkcore dnb chiptune artcore speedcore extratone
BeatmapID:4508599
BeatmapSetID:2142052

[Difficulty]
HPDrainRate:4.5
CircleSize:5
OverallDifficulty:7.5
ApproachRate:5
SliderMultiplier:1.4
SliderTickRate:1

[Events]
//Background and Video events
0,0,"103317034_p2.jpg",0,100
//Break Periods
2,212911,219858
//Storyboard Layer 0 (Background)
//Storyboard Layer 1 (Fail)
//Storyboard Layer 2 (Pass)
//Storyboard Layer 3 (Foreground)
//Storyboard Layer 4 (Overlay)
//Storyboard Sound Samples

[TimingPoints]
-13,375,32,1,0,85,1,8
11987,375,4,1,0,85,1,8
19482,-100,4,1,0,85,0,0
19669,-99.4950661218121,4,1,0,85,0,0
19857,-98.7615811347695,4,1,0,85,0,0
20044,-97.9223241120088,4,1,0,85,0,0
20138,-97.471337922609,4,1,0,85,0,0
20232,-97.0048942168146,4,1,0,85,0,0
20325,-96.53040446848,4,1,0,85,0,0
20419,-96.0394980925794,4,1,0,85,0,0
20607,-95.0295487013746,4,1,0,85,0,0
20700,-94.5185267938375,4,1,0,85,0,0
20794,-93.9957199394862,4,1,0,85,0,0
20982,-92.9346273098784,4,1,0,85,0,0
21169,-91.8636059565357,4,1,0,85,0,0
21357,-90.7761488760696,4,1,0,85,0,0
21544,-89.6878813536402,4,1,0,85,0,0
21638,-89.1394412813991,4,1,0,85,0,0
21732,-88.5905770232455,4,1,0,85,0,0
21825,-88.0474726438778,4,1,0,85,0,0
21919,-87.4987632654746,4,1,0,85,0,0
22013,-86.9505815776351,4,1,0,85,0,0
22107,-86.4031974381585,4,1,0,85,0,0
22482,-84.2320914581414,4,1,0,85,0,0
22669,-83.1597435513824,4,1,0,85,0,0
22857,-82.0903569122629,4,1,0,85,0,0
23044,-81.0363886813024,4,1,0,85,0,0
23138,-80.5105452946984,4,1,0,85,0,0
23232,-79.987488825081,4,1,0,85,0,0
23325,-79.4728309003873,4,1,0,85,0,0
23419,-78.9555882824259,4,1,0,85,0,0
23607,-77.9303026125041,4,1,0,85,0,0
23700,-77.4277816963216,4,1,0,85,0,0
23794,-76.9230769230769,4,1,0,85,0,0
23982,-62.5,4,1,0,85,0,0
24169,-63.3689961539966,4,1,0,85,0,0
24263,-63.8103705616057,4,1,0,85,0,0
24357,-64.2548192070838,4,1,0,85,0,0
24450,-64.6975860272558,4,1,0,85,0,0
24544,-65.148214259351,4,1,0,85,0,0
24732,-66.0589086613604,4,1,0,85,0,0
24919,-66.9773876623833,4,1,0,85,0,0
25013,-67.4438950492268,4,1,0,85,0,0
25107,-67.9136517288476,4,1,0,85,0,0
25200,-68.38163081576,4,1,0,85,0,0
25294,-68.8579189633473,4,1,0,85,0,0
25482,-69.8204706164793,4,1,0,85,0,0
25575,-70.3015892024354,4,1,0,85,0,0
25669,-70.7912501434545,4,1,0,85,0,0
25857,-71.7808274626462,4,1,0,85,0,0
25950,-72.2754544667705,4,1,0,85,0,0
26044,-72.7788636705779,4,1,0,85,0,0
26138,-73.2857791937622,4,1,0,85,0,0
26232,-73.7962254583553,4,1,0,85,0,0
26419,-74.8222836359997,4,1,0,85,0,0
26513,-75.3434318807273,4,1,0,85,0,0
26607,-75.8682099998691,4,1,0,85,0,0
26794,-76.9230769230769,4,1,0,85,0,0
26982,-62.5,4,1,0,85,0,0
27169,-63.3689961539966,4,1,0,85,0,0
27263,-63.8103705616057,4,1,0,85,0,0
27357,-64.2548192070838,4,1,0,85,0,0
27544,-65.148214259351,4,1,0,85,0,0
27638,-65.601981183568,4,1,0,85,0,0
27732,-66.0589086613604,4,1,0,85,0,0
27825,-66.5141070930572,4,1,0,85,0,0
27919,-66.9773876623833,4,1,0,85,0,0
28013,-67.4438950492268,4,1,0,85,0,0
28107,-67.9136517288476,4,1,0,85,0,0
28200,-68.38163081576,4,1,0,85,0,0
28294,-68.8579189633473,4,1,0,85,0,0
28482,-69.8204706164793,4,1,0,85,0,0
28575,-70.3015892024354,4,1,0,85,0,0
28669,-70.7912501434545,4,1,0,85,0,0
28857,-71.7808274626462,4,1,0,85,0,0
28950,-72.2754544667705,4,1,0,85,0,0
29044,-72.7788636705779,4,1,0,85,0,0
29138,-73.2857791937622,4,1,0,85,0,0
29232,-73.7962254583553,4,1,0,85,0,0
29419,-74.8222836359997,4,1,0,85,0,0
29513,-75.3434318807273,4,1,0,85,0,0
29607,-75.8682099998691,4,1,0,85,0,0
29794,-76.9230769230769,4,1,0,85,0,0
29982,-71.4285714285714,4,1,0,85,0,0
30075,-71.3669186213264,4,1,0,85,0,0
30169,-71.2403989497393,4,1,0,85,0,0
30263,-71.0684160205277,4,1,0,85,0,0
30357,-70.858765709214,4,1,0,85,0,0
30450,-70.6191051381656,4,1,0,85,0,0
30544,-70.347854010224,4,1,0,85,0,0
30638,-70.050285739597,4,1,0,85,0,0
30732,-69.7287889945827,4,1,0,85,0,0
30825,-69.3891869444493,4,1,0,85,0,0
30919,-69.0259842982661,4,1,0,85,0,0
31013,-68.6443618139991,4,1,0,85,0,0
31107,-68.2458160565722,4,1,0,85,0,0
31200,-67.8362068168762,4,1,0,85,0,0
31294,-67.4079913646218,4,1,0,85,0,0
31388,-66.9666850482794,4,1,0,85,0,0
31482,-66.5134033081079,4,1,0,85,0,0
31575,-66.0541863437279,4,1,0,85,0,0
31669,-65.5801367607372,4,1,0,85,0,0
31763,-65.0970673938785,4,1,0,85,0,0
31857,-64.60585805256,4,1,0,85,0,0
31950,-64.1126796538858,4,1,0,85,0,0
32044,-63.6077064791494,4,1,0,85,0,0
32138,-63.0969492969586,4,1,0,85,0,0
32232,-62.5811134691888,4,1,0,85,0,0
32325,-62.066422079316,4,1,0,85,0,0
32419,-61.5424327333791,4,1,0,85,0,0
32513,-61.0152552026206,4,1,0,85,0,0
32607,-60.4854546346853,4,1,0,85,0,0
32700,-59.9592326132905,4,1,0,85,0,0
32794,-59.4257724082216,4,1,0,85,0,0
32888,-58.8911980934385,4,1,0,85,0,0
32982,-58.3559583823279,4,1,0,85,0,0
33028,-58.0939188564012,4,1,0,85,0,0
33075,-57.8261723864571,4,1,0,85,0,0
33122,-57.5584639841239,4,1,0,85,0,0
33169,-57.2908411239747,4,1,0,85,0,0
33216,-57.0233498202816,4,1,0,85,0,0
33263,-56.7560346592103,4,1,0,85,0,0
33310,-56.4889388304184,4,1,0,85,0,0
33357,-56.2221041580789,4,1,0,85,0,0
33403,-55.961238634738,4,1,0,85,0,0
33450,-55.6950387868125,4,1,0,85,0,0
33497,-55.4292168834565,4,1,0,85,0,0
33544,-55.1638096124746,4,1,0,85,0,0
33591,-54.8988524426607,4,1,0,85,0,0
33638,-54.6343796517057,4,1,0,85,0,0
33685,-54.3704243536249,4,1,0,85,0,0
33732,-54.1070185257132,4,1,0,85,0,0
33778,-53.8497788179017,4,1,0,85,0,0
33825,-53.5875501632605,4,1,0,85,0,0
33872,-53.325959752663,4,1,0,85,0,0
33919,-53.065035298609,4,1,0,85,0,0
33966,-52.8048035042943,4,1,0,85,0,0
34013,-52.5452900878827,4,1,0,85,0,0
34060,-52.2865198063487,4,1,0,85,0,0
34107,-52.0285164788956,4,1,0,85,0,0
34153,-51.7767672602753,4,1,0,85,0,0
34200,-51.5203481650623,4,1,0,85,0,0
34247,-51.2647616418959,4,1,0,85,0,0
34294,-51.0100280025664,4,1,0,85,0,0
34341,-50.7561667315199,4,1,0,85,0,0
34388,-50.5031965068291,4,1,0,85,0,0
34435,-50.2511352207687,4,1,0,85,0,0
34482,-50,4,1,0,85,0,0
35232,-66.6666666666667,4,1,0,85,0,0
35325,-65.6081236648784,4,1,0,85,0,0
35419,-64.5552772672884,4,1,0,85,0,0
35607,-62.5,4,1,0,85,0,0
35893,-50,4,1,0,85,0,0
36357,-55.5555555555556,4,1,0,85,0,0
36432,-57.7801061958862,4,1,0,85,0,0
36507,-60.093732096142,4,1,0,85,0,0
36582,-62.5,4,1,0,85,0,0
36732,-55.5555555555556,4,1,0,85,0,0
36807,-57.7801061958862,4,1,0,85,0,0
36882,-60.093732096142,4,1,0,85,0,0
36957,-62.5,4,1,0,85,0,0
37107,-55.5555555555556,4,1,0,85,0,0
37182,-57.7801061958862,4,1,0,85,0,0
37257,-60.093732096142,4,1,0,85,0,0
37332,-62.5,4,1,0,85,0,0
37482,-55.5555555555556,4,1,0,85,0,0
37557,-57.7801061958862,4,1,0,85,0,0
37632,-60.093732096142,4,1,0,85,0,0
37707,-62.5,4,1,0,85,0,0
37857,-55.5555555555556,4,1,0,85,0,0
37932,-57.7801061958862,4,1,0,85,0,0
38007,-60.093732096142,4,1,0,85,0,0
38082,-62.5,4,1,0,85,0,0
38232,-55.5555555555556,4,1,0,85,0,0
38307,-57.773629613517,4,1,0,85,0,0
38382,-60.0802610169573,4,1,0,85,0,0
38457,-62.4789854473881,4,1,0,85,0,0
38607,-67.5675675675676,4,1,0,85,0,0
38787,-58.2164747644646,4,1,0,85,0,0
38881,-53.6729377237851,4,1,0,85,0,0
38975,-50,4,1,0,85,0,0
39068,-50.1869874013395,4,1,0,85,0,0
39162,-50.3766960344076,4,1,0,85,0,0
39209,-50.4718190963318,4,1,0,85,0,0
39256,-50.567121772991,4,1,0,85,0,0
39350,-50.7582673277746,4,1,0,85,0,0
39443,-50.9480904578569,4,1,0,85,0,0
39537,-51.1406760880901,4,1,0,85,0,0
39584,-51.2372417242138,4,1,0,85,0,0
39631,-51.3339896989922,4,1,0,85,0,0
39725,-51.5280340423565,4,1,0,85,0,0
39771,-51.6232590396437,4,1,0,85,0,0
39818,-51.7207359059908,4,1,0,85,0,0
39865,-51.8183968316099,4,1,0,85,0,0
39912,-51.9162421640481,4,1,0,85,0,0
39959,-52.0142722515089,4,1,0,85,0,0
40006,-52.1124874428534,4,1,0,85,0,0
40053,-52.2108880876012,4,1,0,85,0,0
40100,-52.309474535932,4,1,0,85,0,0
40193,-52.5050987901102,4,1,0,85,0,0
40287,-52.7035699683247,4,1,0,85,0,0
40381,-52.902791374793,4,1,0,85,0,0
40475,-53.1027658454051,4,1,0,85,0,0
40568,-53.3013568091925,4,1,0,85,0,0
40662,-53.5028378716059,4,1,0,85,0,0
40709,-53.6038638252831,4,1,0,85,0,0
40756,-53.7050805397446,4,1,0,85,0,0
40850,-53.9080876925058,4,1,0,85,0,0
40943,-54.1096903570818,4,1,0,85,0,0
41037,-54.3142269496311,4,1,0,85,0,0
41084,-54.4167849969068,4,1,0,85,0,0
41131,-54.5195366979204,4,1,0,85,0,0
41225,-54.7256225245064,4,1,0,85,0,0
41271,-54.8267567391778,4,1,0,85,0,0
41318,-54.9302825633573,4,1,0,85,0,0
41365,-55.0340038686652,4,1,0,85,0,0
41412,-55.1379210242158,4,1,0,85,0,0
41459,-55.2420343998206,4,1,0,85,0,0
41506,-55.3463443659891,4,1,0,85,0,0
41553,-55.4508512939307,4,1,0,85,0,0
41600,-55.5555555555556,4,1,0,85,0,0
41951,-50,4,1,0,85,0,0
42357,-55.5555555555556,4,1,0,85,0,0
42432,-57.7801061958862,4,1,0,85,0,0
42507,-60.093732096142,4,1,0,85,0,0
42582,-62.5,4,1,0,85,0,0
42732,-55.5555555555556,4,1,0,85,0,0
42807,-57.7801061958862,4,1,0,85,0,0
42882,-60.093732096142,4,1,0,85,0,0
42957,-62.5,4,1,0,85,0,0
43107,-55.5555555555556,4,1,0,85,0,0
43182,-57.7801061958862,4,1,0,85,0,0
43257,-60.093732096142,4,1,0,85,0,0
43332,-62.5,4,1,0,85,0,0
43482,-55.5555555555556,4,1,0,85,0,0
43557,-57.7801061958862,4,1,0,85,0,0
43632,-60.093732096142,4,1,0,85,0,0
43707,-62.5,4,1,0,85,0,0
43857,-55.5555555555556,4,1,0,85,0,0
43932,-57.7801061958862,4,1,0,85,0,0
44007,-60.093732096142,4,1,0,85,0,0
44082,-62.5,4,1,0,85,0,0
44232,-55.5555555555556,4,1,0,85,0,0
44307,-57.7801061958862,4,1,0,85,0,0
44382,-60.093732096142,4,1,0,85,0,0
44457,-62.5,4,1,0,85,0,0
44607,-60.6060606060606,4,1,0,85,0,0
44700,-57.7825408539943,4,1,0,85,0,0
44794,-55.062309699502,4,1,0,85,0,0
44975,-50,4,1,0,85,0,0
45068,-50.1869874013395,4,1,0,85,0,0
45162,-50.3766960344076,4,1,0,85,0,0
45209,-50.4718190963318,4,1,0,85,0,0
45256,-50.567121772991,4,1,0,85,0,0
45350,-50.7582673277746,4,1,0,85,0,0
45443,-50.9480904578569,4,1,0,85,0,0
45537,-51.1406760880901,4,1,0,85,0,0
45584,-51.2372417242138,4,1,0,85,0,0
45631,-51.3339896989922,4,1,0,85,0,0
45725,-51.5280340423565,4,1,0,85,0,0
45771,-51.6232590396437,4,1,0,85,0,0
45818,-51.7207359059908,4,1,0,85,0,0
45865,-51.8183968316099,4,1,0,85,0,0
45912,-51.9162421640481,4,1,0,85,0,0
45959,-52.0142722515089,4,1,0,85,0,0
46006,-52.1124874428534,4,1,0,85,0,0
46053,-52.2108880876012,4,1,0,85,0,0
46100,-52.309474535932,4,1,0,85,0,0
46193,-52.5050987901102,4,1,0,85,0,0
46287,-52.7035699683247,4,1,0,85,0,0
46381,-52.902791374793,4,1,0,85,0,0
46475,-53.1027658454051,4,1,0,85,0,0
47232,-66.6666666666667,4,1,0,85,0,0
47325,-65.6081236648784,4,1,0,85,0,0
47419,-64.5552772672884,4,1,0,85,0,0
47607,-62.5,4,1,0,85,0,0
47987,-50,4,1,0,85,0,1
48075,-51.4028082298722,4,1,0,85,0,1
48122,-52.1266569873645,4,1,0,85,0,1
48169,-52.8606989043702,4,1,0,85,0,1
48216,-53.6050775198534,4,1,0,85,0,1
48263,-54.3599383940785,4,1,0,85,0,1
48310,-55.1254291370735,4,1,0,85,0,1
48357,-55.9016994374947,4,1,0,85,0,1
48450,-57.4700867181899,4,1,0,85,0,1
48544,-59.1000580441602,4,1,0,85,0,1
48638,-60.7762587509301,4,1,0,85,0,1
48732,-62.5,4,1,0,85,0,1
48919,-55.5555555555556,4,1,0,85,0,1
49013,-57.2202468706078,4,1,0,85,0,1
49107,-58.9348197347995,4,1,0,85,0,1
49294,-62.5,4,1,0,85,0,1
49482,-57.1428571428571,4,1,0,85,0,1
49575,-58.8629885054469,4,1,0,85,0,1
49622,-59.7519021324637,4,1,0,85,0,1
49669,-60.6542396011229,4,1,0,85,0,1
49716,-61.5702036302478,4,1,0,85,0,1
49763,-62.5,4,1,0,85,0,1
49950,-66.6666666666667,4,1,0,85,0,1
50044,-64.7994654500321,4,1,0,85,0,1
50232,-61.2204881097279,4,1,0,85,0,1
50325,-59.5238095238095,4,1,0,85,0,1
50513,-66.6666666666667,4,1,0,85,0,1
50607,-64.0256318150608,4,1,0,85,0,1
50700,-60.5583419726279,4,1,0,85,0,1
50794,-56.9184469885001,4,1,0,85,0,1
50888,-53.3663446854078,4,1,0,85,0,1
50987,-50,4,1,0,85,0,0
51075,-50.3968494733827,4,1,0,85,0,0
51169,-50.8011670115276,4,1,0,85,0,0
51216,-51.004540549581,4,1,0,85,0,0
51263,-51.2087282578281,4,1,0,85,0,0
51357,-51.6195592355001,4,1,0,85,0,0
51450,-52.0292631334772,4,1,0,85,0,0
51544,-52.4466769956816,4,1,0,85,0,0
51591,-52.6566380435713,4,1,0,85,0,0
51638,-52.8674396335917,4,1,0,85,0,0
51732,-53.291577913346,4,1,0,85,0,0
51825,-53.7145526059589,4,1,0,85,0,0
51919,-54.1454869976745,4,1,0,85,0,0
52013,-54.5798786359082,4,1,0,85,0,0
52107,-55.0177552570247,4,1,0,85,0,0
52200,-55.4544306010336,4,1,0,85,0,0
52294,-55.8993234682292,4,1,0,85,0,0
52388,-56.3477855662534,4,1,0,85,0,0
52482,-56.7998455298846,4,1,0,85,0,0
52575,-57.2506653056196,4,1,0,85,0,0
52669,-57.7099687798528,4,1,0,85,0,0
52716,-57.9410004907788,4,1,0,85,0,0
52763,-58.1729570965295,4,1,0,85,0,0
52857,-58.6396598179427,4,1,0,85,0,0
52950,-59.1050821803045,4,1,0,85,0,0
53044,-59.5792630382094,4,1,0,85,0,0
53091,-59.8177781399579,4,1,0,85,0,0
53138,-60.0572480949702,4,1,0,85,0,0
53232,-60.5390678704373,4,1,0,85,0,0
53325,-61.0195658145065,4,1,0,85,0,0
53419,-61.5091059521658,4,1,0,85,0,0
53513,-62.0025735111887,4,1,0,85,0,0
53607,-62.5,4,1,0,85,0,0
53700,-60.700768821,4,1,0,85,0,0
53794,-58.9348197347995,4,1,0,85,0,0
53888,-57.2202468706078,4,1,0,85,0,0
53987,-55.5555555555556,4,1,0,85,0,1
54075,-55.2662447254528,4,1,0,85,0,1
54169,-54.8436905198601,4,1,0,85,0,1
54263,-54.3575603633161,4,1,0,85,0,1
54357,-53.8291798590923,4,1,0,85,0,1
54450,-53.2766143057943,4,1,0,85,0,1
54544,-52.6959174045885,4,1,0,85,0,1
54638,-52.0987183076136,4,1,0,85,0,1
54732,-51.4894834160704,4,1,0,85,0,1
54825,-50.8783567936639,4,1,0,85,0,1
54919,-50.2550413221723,4,1,0,85,0,1
55013,-49.6284351604471,4,1,0,85,0,1
55107,-49.0005090998113,4,1,0,85,0,1
55200,-48.3795869010395,4,1,0,85,0,1
55294,-47.7536998562781,4,1,0,85,0,1
55388,-47.1307124113731,4,1,0,85,0,1
55482,-46.5116279069767,4,1,0,85,0,1
55575,-46.8960196589585,4,1,0,85,0,1
55669,-47.4765301212683,4,1,0,85,0,1
55763,-48.1740512571288,4,1,0,85,0,1
55857,-48.9707950465576,4,1,0,85,0,1
55950,-49.8504966169561,4,1,0,85,0,1
56044,-50.8307336003132,4,1,0,85,0,1
56138,-51.904086059378,4,1,0,85,0,1
56232,-53.0741871665171,4,1,0,85,0,1
56325,-54.3323021874586,4,1,0,85,0,1
56419,-55.7123824031905,4,1,0,85,0,1
56513,-57.2100229653622,4,1,0,85,0,1
56607,-58.835528341471,4,1,0,85,0,1
56700,-60.5815671672206,4,1,0,85,0,1
56794,-62.5,4,1,0,85,0,1
56987,-55.5555555555556,4,1,0,85,0,0
57075,-56.1077703278646,4,1,0,85,0,0
57169,-56.6715008810614,4,1,0,85,0,0
57263,-57.2408953937197,4,1,0,85,0,0
57357,-57.8160107732335,4,1,0,85,0,0
57450,-58.3906941672828,4,1,0,85,0,0
57544,-58.9773618985457,4,1,0,85,0,0
57638,-59.5699240455509,4,1,0,85,0,0
57732,-60.1684398311517,4,1,0,85,0,0
57825,-60.7665060545796,4,1,0,85,0,0
57919,-61.3770442362577,4,1,0,85,0,0
58013,-61.9937166668089,4,1,0,85,0,0
58107,-62.6165849787573,4,1,0,85,0,0
58200,-63.23898543666,4,1,0,85,0,0
58294,-63.8743653142686,4,1,0,85,0,0
58388,-64.5161290322581,4,1,0,85,0,0
58463,-58.8235294117647,4,1,0,85,0,0
59232,-66.6666666666667,4,1,0,85,0,0
59325,-65.6081236648784,4,1,0,85,0,0
59419,-64.5552772672884,4,1,0,85,0,0
59607,-62.5,4,1,0,85,0,0
59987,-52.6315789473684,4,1,0,85,0,1
60044,-54.1484243760017,4,1,0,85,0,1
60107,-55.7345208454591,4,1,0,85,0,1
60169,-57.3407932555276,4,1,0,85,0,1
60232,-59.0203994635854,4,1,0,85,0,1
60294,-60.7213711029119,4,1,0,85,0,1
60362,-62.5,4,1,0,85,0,0
60549,-74.0740740740741,4,1,0,85,0,1
60591,-74.0204017619862,4,1,0,85,0,1
60638,-73.9420572168189,4,1,0,85,0,1
60685,-73.8507111024924,4,1,0,85,0,1
60732,-73.7498553980136,4,1,0,85,0,1
60919,-73.2835433405693,4,1,0,85,0,1
61013,-73.0205572168813,4,1,0,85,0,1
61107,-72.7432361087771,4,1,0,85,0,1
61294,-72.1574692100271,4,1,0,85,0,1
61388,-71.8490343592812,4,1,0,85,0,1
61482,-71.5328618194914,4,1,0,85,0,1
61575,-71.2133920410473,4,1,0,85,0,1
61622,-71.0496814176311,4,1,0,85,0,1
61669,-70.8845806964638,4,1,0,85,0,1
61716,-70.7181772190698,4,1,0,85,0,1
61763,-70.5505528680996,4,1,0,85,0,1
61857,-70.2119448758789,4,1,0,85,0,1
62044,-69.5268845371166,4,1,0,85,0,1
62138,-69.1777211429773,4,1,0,85,0,1
62232,-68.8259056874382,4,1,0,85,0,1
62325,-68.4755890233815,4,1,0,85,0,1
62419,-68.1195749723158,4,1,0,85,0,1
62607,-67.4029425396111,4,1,0,85,0,1
62653,-67.2268582058727,4,1,0,85,0,1
62700,-67.0467092382219,4,1,0,85,0,1
62747,-66.8663505731634,4,1,0,85,0,1
62799,-66.6858108371237,4,1,0,85,0,0
62987,-65.9630606860158,4,1,0,85,0,1
63044,-64.235280699415,4,1,0,85,0,1
63107,-62.525983503661,4,1,0,85,0,1
63169,-60.8882313766881,4,1,0,85,0,1
63232,-59.2679989745973,4,1,0,85,0,1
63294,-57.7155837074886,4,1,0,85,0,1
63362,-56.1797752808989,4,1,0,85,0,0
63549,-63.7998519057478,4,1,0,85,0,1
63591,-63.619711941511,4,1,0,85,0,1
63638,-63.4397578668167,4,1,0,85,0,1
63685,-63.2600039196501,4,1,0,85,0,1
63732,-63.0804638398361,4,1,0,85,0,1
63919,-62.3684967608619,4,1,0,85,0,1
64013,-62.012209543144,4,1,0,85,0,1
64107,-61.6571109545807,4,1,0,85,0,1
64294,-60.9545413611057,4,1,0,85,0,1
64388,-60.6034582401344,4,1,0,85,0,1
64482,-60.2538553419424,4,1,0,85,0,1
64575,-59.9094877718814,4,1,0,85,0,1
64622,-59.7360437350307,4,1,0,85,0,1
64669,-59.5630055283241,4,1,0,85,0,1
64716,-59.3903795412719,4,1,0,85,0,1
64763,-59.2181719201232,4,1,0,85,0,1
64857,-58.8750351874149,4,1,0,85,0,1
65044,-58.1976305753137,4,1,0,85,0,1
65138,-57.8598187411623,4,1,0,85,0,1
65232,-57.5238617835319,4,1,0,85,0,1
65325,-57.1933355385086,4,1,0,85,0,1
65419,-56.8611608697483,4,1,0,85,0,1
65607,-56.2026628182785,4,1,0,85,0,1
65653,-56.0427455013499,4,1,0,85,0,1
65700,-55.8798460572305,4,1,0,85,0,1
65747,-55.7174486502948,4,1,0,85,0,1
65799,-55.5555555555556,4,1,0,85,0,0
65987,-52.6315789473684,4,1,0,85,0,1
66044,-54.1484243760017,4,1,0,85,0,1
66107,-55.7345208454591,4,1,0,85,0,1
66169,-57.3407932555276,4,1,0,85,0,1
66232,-59.0203994635854,4,1,0,85,0,1
66294,-60.7213711029119,4,1,0,85,0,1
66362,-62.5,4,1,0,85,0,0
66549,-74.0740740740741,4,1,0,85,0,1
66591,-73.9960988988394,4,1,0,85,0,1
66638,-73.8823717587223,4,1,0,85,0,1
66685,-73.7499086778223,4,1,0,85,0,1
66732,-73.6038271959683,4,1,0,85,0,1
66919,-72.9307440396237,4,1,0,85,0,1
67013,-72.5528283764571,4,1,0,85,0,1
67107,-72.1556200477365,4,1,0,85,0,1
67294,-71.321003115695,4,1,0,85,0,1
67388,-70.8839089729647,4,1,0,85,0,1
67482,-70.4375357910081,4,1,0,85,0,1
67575,-69.9882317217629,4,1,0,85,0,1
67622,-69.75865658418,4,1,0,85,0,1
67669,-69.5275890085199,4,1,0,85,0,1
67716,-69.2951610796483,4,1,0,85,0,1
67763,-69.0614963347911,4,1,0,85,0,1
67857,-68.5909124903407,4,1,0,85,0,1
68044,-67.6446454209356,4,1,0,85,0,1
68138,-67.1653129804047,4,1,0,85,0,1
68232,-66.6843470179175,4,1,0,85,0,1
68325,-66.2074195690224,4,1,0,85,0,1
68419,-65.724756854037,4,1,0,85,0,1
68607,-64.7593161956183,4,1,0,85,0,1
68653,-64.5233407497955,4,1,0,85,0,1
68700,-64.2824227512723,4,1,0,85,0,1
68747,-64.041733934443,4,1,0,85,0,1
68799,-63.8013125407632,4,1,0,85,0,0
68987,-62.8417017532835,4,1,0,85,0,1
69044,-61.6881156840997,4,1,0,85,0,1
69107,-60.5376127210154,4,1,0,85,0,1
69169,-59.4263228490323,4,1,0,85,0,1
69232,-58.3180030411599,4,1,0,85,0,1
69294,-57.2474585776279,4,1,0,85,0,1
69362,-56.1797752808989,4,1,0,85,0,0
69549,-60.0259851530752,4,1,0,85,0,1
69591,-59.7944868499913,4,1,0,85,0,1
69638,-59.5637058810378,4,1,0,85,0,1
69685,-59.3336574878001,4,1,0,85,0,1
69732,-59.1043561432273,4,1,0,85,0,1
69919,-58.1996894837422,4,1,0,85,0,1
70013,-57.7497262535515,4,1,0,85,0,1
70107,-57.30307853249,4,1,0,85,0,1
70294,-56.4246715603099,4,1,0,85,0,1
70388,-55.9883348674338,4,1,0,85,0,1
70487,-55.5555555555556,4,1,0,85,0,0
71237,-66.6666666666667,4,1,0,85,0,1
71325,-65.6081236648784,4,1,0,85,0,1
71419,-64.5552772672884,4,1,0,85,0,1
71607,-62.5,4,1,0,85,0,1
71987,-50,4,1,0,85,0,0
72075,-50.1869874013395,4,1,0,85,0,0
72169,-50.3766960344076,4,1,0,85,0,0
72216,-50.4718190963318,4,1,0,85,0,0
72263,-50.567121772991,4,1,0,85,0,0
72357,-50.7582673277746,4,1,0,85,0,0
72450,-50.9480904578569,4,1,0,85,0,0
72544,-51.1406760880901,4,1,0,85,0,0
72591,-51.2372417242138,4,1,0,85,0,0
72638,-51.3339896989922,4,1,0,85,0,0
72732,-51.5280340423565,4,1,0,85,0,0
72778,-51.6232590396437,4,1,0,85,0,0
72825,-51.7207359059908,4,1,0,85,0,0
72872,-51.8183968316099,4,1,0,85,0,0
72919,-51.9162421640481,4,1,0,85,0,0
72966,-52.0142722515089,4,1,0,85,0,0
73013,-52.1124874428534,4,1,0,85,0,0
73060,-52.2108880876012,4,1,0,85,0,0
73107,-52.309474535932,4,1,0,85,0,0
73200,-52.5050987901102,4,1,0,85,0,0
73294,-52.7035699683247,4,1,0,85,0,0
73388,-52.902791374793,4,1,0,85,0,0
73482,-53.1027658454051,4,1,0,85,0,0
73575,-53.3013568091925,4,1,0,85,0,0
73669,-53.5028378716059,4,1,0,85,0,0
73716,-53.6038638252831,4,1,0,85,0,0
73763,-53.7050805397446,4,1,0,85,0,0
73857,-53.9080876925058,4,1,0,85,0,0
73950,-54.1096903570818,4,1,0,85,0,0
74044,-54.3142269496311,4,1,0,85,0,0
74091,-54.4167849969068,4,1,0,85,0,0
74138,-54.5195366979204,4,1,0,85,0,0
74232,-54.7256225245064,4,1,0,85,0,0
74278,-54.8267567391778,4,1,0,85,0,0
74325,-54.9302825633573,4,1,0,85,0,0
74372,-55.0340038686652,4,1,0,85,0,0
74419,-55.1379210242158,4,1,0,85,0,0
74466,-55.2420343998206,4,1,0,85,0,0
74513,-55.3463443659891,4,1,0,85,0,0
74560,-55.4508512939307,4,1,0,85,0,0
74607,-55.5555555555556,4,1,0,85,0,0
74794,-62.5,4,1,0,85,0,0
74888,-58.925565098879,4,1,0,85,0,0
74982,-55.5555555555556,4,1,0,85,0,0
75357,-55.5555555555556,4,1,0,85,0,0
75432,-57.7801061958862,4,1,0,85,0,0
75507,-60.093732096142,4,1,0,85,0,0
75582,-62.5,4,1,0,85,0,0
75732,-55.5555555555556,4,1,0,85,0,0
75807,-57.7801061958862,4,1,0,85,0,0
75882,-60.093732096142,4,1,0,85,0,0
75957,-62.5,4,1,0,85,0,0
76107,-55.5555555555556,4,1,0,85,0,0
76182,-57.7801061958862,4,1,0,85,0,0
76257,-60.093732096142,4,1,0,85,0,0
76332,-62.5,4,1,0,85,0,0
76482,-55.5555555555556,4,1,0,85,0,0
76557,-57.7801061958862,4,1,0,85,0,0
76632,-60.093732096142,4,1,0,85,0,0
76707,-62.5,4,1,0,85,0,0
76857,-55.5555555555556,4,1,0,85,0,0
76932,-57.7801061958862,4,1,0,85,0,0
77007,-60.093732096142,4,1,0,85,0,0
77082,-62.5,4,1,0,85,0,0
77232,-55.5555555555556,4,1,0,85,0,0
77307,-57.773629613517,4,1,0,85,0,0
77382,-60.0802610169573,4,1,0,85,0,0
77457,-62.4789854473881,4,1,0,85,0,0
77607,-67.5675675675676,4,1,0,85,0,0
77975,-50.0216689536389,4,1,0,85,0,0
78068,-50.1899220642365,4,1,0,85,0,0
78162,-50.360559452645,4,1,0,85,0,0
78209,-50.4460955757616,4,1,0,85,0,0
78256,-50.5317769797971,4,1,0,85,0,0
78350,-50.7035766180678,4,1,0,85,0,0
78443,-50.8741233963515,4,1,0,85,0,0
78537,-51.0470869555062,4,1,0,85,0,0
78584,-51.13378912804,4,1,0,85,0,0
78631,-51.220638561998,4,1,0,85,0,0
78725,-51.3947802150902,4,1,0,85,0,0
78771,-51.48021410098,4,1,0,85,0,0
78818,-51.5676519289007,4,1,0,85,0,0
78865,-51.6552382677372,4,1,0,85,0,0
78912,-51.7429733697318,4,1,0,85,0,0
78959,-51.8308574875548,4,1,0,85,0,0
79006,-51.9188908743058,4,1,0,85,0,0
79053,-52.0070737835142,4,1,0,85,0,0
79100,-52.0954064691401,4,1,0,85,0,0
79193,-52.2706348125688,4,1,0,85,0,0
79287,-52.448346278298,4,1,0,85,0,0
79381,-52.6266619334572,4,1,0,85,0,0
79475,-52.80558383219,4,1,0,85,0,0
79568,-52.98320093139,4,1,0,85,0,0
79662,-53.1633350034231,4,1,0,85,0,0
79709,-53.2536315691794,4,1,0,85,0,0
79756,-53.3440815013448,4,1,0,85,0,0
79850,-53.5254425073011,4,1,0,85,0,0
79943,-53.7054809263774,4,1,0,85,0,0
80037,-53.8880706302779,4,1,0,85,0,0
80084,-53.9795981409736,4,1,0,85,0,0
80131,-54.0712811088069,4,1,0,85,0,0
80225,-54.255114472495,4,1,0,85,0,0
80271,-54.3453031110957,4,1,0,85,0,0
80318,-54.4376072194741,4,1,0,85,0,0
80365,-54.5300681040215,4,1,0,85,0,0
80412,-54.6226860310182,4,1,0,85,0,0
80459,-54.7154612671967,4,1,0,85,0,0
80506,-54.8083940797428,4,1,0,85,0,0
80553,-54.9014847362958,4,1,0,85,0,0
80600,-54.9947335049497,4,1,0,85,0,0
80700,-55.1797140378319,4,1,0,85,0,0
80794,-55.3673158891456,4,1,0,85,0,0
80888,-55.5555555555556,4,1,0,85,0,0
80982,-52.6315789473684,4,1,0,85,0,0
81075,-52.4457958137601,4,1,0,85,0,0
81169,-52.1733206487461,4,1,0,85,0,0
81216,-52.0200470338914,4,1,0,85,0,0
81263,-51.8581805597232,4,1,0,85,0,0
81357,-51.5136083272973,4,1,0,85,0,0
81450,-51.1509670700574,4,1,0,85,0,0
81544,-50.7673076498179,4,1,0,85,0,0
81591,-50.5701676821546,4,1,0,85,0,0
81638,-50.3699852468598,4,1,0,85,0,0
81732,-49.9617405595011,4,1,0,85,0,0
81825,-49.5492385194193,4,1,0,85,0,0
81872,-49.3380835868559,4,1,0,85,0,0
81919,-49.1253904978712,4,1,0,85,0,0
81966,-48.9113390053115,4,1,0,85,0,0
82013,-48.6960947774506,4,1,0,85,0,0
82060,-48.4798109437873,4,1,0,85,0,0
82107,-48.2626294030353,4,1,0,85,0,0
82200,-47.8307479495425,4,1,0,85,0,0
82294,-47.3921042360682,4,1,0,85,0,0
82341,-47.17224557148,4,1,0,85,0,0
82388,-46.9521558198031,4,1,0,85,0,0
82482,-46.5116279069767,4,1,0,85,0,0
82826,-31.9488817891374,4,1,0,85,0,0
83975,-50,4,1,0,85,0,0
84174,-66.6666666666667,4,1,0,85,0,0
84737,-50,4,1,0,85,0,1
84794,-50.7990413878111,4,1,0,85,0,1
84857,-51.624051598806,4,1,0,85,0,1
84919,-52.4490466754849,4,1,0,85,0,1
84982,-53.3008540695237,4,1,0,85,0,1
85044,-54.1526458376683,4,1,0,85,0,1
85107,-55.0321208149104,4,1,0,85,0,1
85169,-55.9115796587132,4,1,0,85,0,1
85232,-56.8196208908133,4,1,0,85,0,1
85294,-57.7276454654432,4,1,0,85,0,1
85357,-58.6651808138388,4,1,0,85,0,1
85419,-59.6026989637124,4,1,0,85,0,1
85487,-60.570686427738,4,1,0,85,0,0
85857,-66.6666666666667,4,1,0,85,0,0
86232,-58.8235294117647,4,1,0,85,0,0
86294,-61.3159420604974,4,1,0,85,0,0
86357,-63.9567540784379,4,1,0,85,0,0
86419,-66.6666666666667,4,1,0,85,0,0
86607,-58.8235294117647,4,1,0,85,0,0
86669,-61.3159420604974,4,1,0,85,0,0
86732,-63.9567540784379,4,1,0,85,0,0
86794,-66.6666666666667,4,1,0,85,0,0
86940,-52.6315789473684,4,1,0,85,0,0
87174,-66.6666666666667,4,1,0,85,0,0
87732,-62.5,4,1,0,85,0,0
87737,-62.5,4,1,0,85,0,1
88032,-61.3821021424647,4,1,0,85,0,1
88107,-61.0148212507618,4,1,0,85,0,1
88332,-59.8175715986783,4,1,0,85,0,1
88407,-59.3957749930915,4,1,0,85,0,1
88482,-58.965865642659,4,1,0,85,0,1
88782,-57.1914050440213,4,1,0,85,0,1
88857,-56.7391828457778,4,1,0,85,0,1
89082,-55.3740477912509,4,1,0,85,0,1
89157,-54.9181075129795,4,1,0,85,0,1
89232,-54.4625329166307,4,1,0,85,0,1
89532,-52.651544875875,4,1,0,85,0,1
89607,-52.2032151075946,4,1,0,85,0,1
89832,-50.8728366767648,4,1,0,85,0,1
89907,-50.4348997081506,4,1,0,85,0,1
89982,-50,4,1,0,85,0,1
89987,-50,4,1,0,85,0,0
90186,-66.6666666666667,4,1,0,85,0,0
90732,-50,4,1,0,85,0,0
90825,-51.2154407593313,4,1,0,85,0,0
90872,-51.840890124022,4,1,0,85,0,0
90919,-52.473977554538,4,1,0,85,0,0
91013,-53.763440860215,4,1,0,85,0,0
91107,-52.4714794719457,4,1,0,85,0,0
91200,-51.223817762589,4,1,0,85,0,0
91294,-49.9928847410014,4,1,0,85,0,0
91388,-48.791531633013,4,1,0,85,0,0
91482,-47.6190476190476,4,1,0,85,0,0
91674,-66.6666666666667,4,1,0,85,0,0
92232,-50,4,1,0,85,0,0
92237,-50,4,1,0,85,0,1
92294,-50.9308860932946,4,1,0,85,0,1
92357,-51.8945407778107,4,1,0,85,0,1
92419,-52.8606989043702,4,1,0,85,0,1
92482,-53.8608672507971,4,1,0,85,0,1
92544,-54.8636338967282,4,1,0,85,0,1
92607,-55.9016994374947,4,1,0,85,0,1
92669,-56.9424617294528,4,1,0,85,0,1
92732,-58.0198604201597,4,1,0,85,0,1
92794,-59.1000580441602,4,1,0,85,0,1
92857,-60.2182802499373,4,1,0,85,0,1
92919,-61.339407442873,4,1,0,85,0,1
92982,-62.5,4,1,0,85,0,1
92987,-62.5,4,1,0,85,0,0
93174,-66.6666666666667,4,1,0,85,0,0
93732,-62.5,4,1,0,85,0,0
93737,-62.5,4,1,0,85,0,1
94032,-61.3821021424647,4,1,0,85,0,1
94107,-61.0148212507618,4,1,0,85,0,1
94332,-59.8175715986783,4,1,0,85,0,1
94407,-59.3957749930915,4,1,0,85,0,1
94482,-58.965865642659,4,1,0,85,0,1
94782,-57.1914050440213,4,1,0,85,0,1
94857,-56.7391828457778,4,1,0,85,0,1
95082,-55.3740477912509,4,1,0,85,0,1
95157,-54.9181075129795,4,1,0,85,0,1
95232,-54.4625329166307,4,1,0,85,0,1
95419,-53.3308181015416,4,1,0,85,0,1
95607,-52.2032151075946,4,1,0,85,0,1
95794,-51.0958349388644,4,1,0,85,0,1
95975,-50,4,1,0,85,0,1
95987,-50,4,1,0,85,0,0
96174,-66.6666666666667,4,1,0,85,0,0
96737,-50,4,1,0,85,0,1
96794,-50.7990413878111,4,1,0,85,0,1
96857,-51.624051598806,4,1,0,85,0,1
96919,-52.4490466754849,4,1,0,85,0,1
96982,-53.3008540695237,4,1,0,85,0,1
97044,-54.1526458376683,4,1,0,85,0,1
97107,-55.0321208149104,4,1,0,85,0,1
97169,-55.9115796587132,4,1,0,85,0,1
97232,-56.8196208908133,4,1,0,85,0,1
97294,-57.7276454654432,4,1,0,85,0,1
97357,-58.6651808138388,4,1,0,85,0,1
97419,-59.6026989637124,4,1,0,85,0,1
97487,-60.570686427738,4,1,0,85,0,0
97857,-66.6666666666667,4,1,0,85,0,0
98232,-58.8235294117647,4,1,0,85,0,0
98294,-61.3159420604974,4,1,0,85,0,0
98357,-63.9567540784379,4,1,0,85,0,0
98419,-66.6666666666667,4,1,0,85,0,0
98607,-58.8235294117647,4,1,0,85,0,0
98669,-61.3159420604974,4,1,0,85,0,0
98732,-63.9567540784379,4,1,0,85,0,0
98794,-66.6666666666667,4,1,0,85,0,0
98940,-52.6315789473684,4,1,0,85,0,0
99174,-66.6666666666667,4,1,0,85,0,0
99732,-62.5,4,1,0,85,0,0
99737,-62.5,4,1,0,85,0,1
100032,-61.3821021424647,4,1,0,85,0,1
100107,-61.0148212507618,4,1,0,85,0,1
100332,-59.8175715986783,4,1,0,85,0,1
100407,-59.3957749930915,4,1,0,85,0,1
100482,-58.965865642659,4,1,0,85,0,1
100782,-57.1914050440213,4,1,0,85,0,1
100857,-56.7391828457778,4,1,0,85,0,1
101082,-55.3740477912509,4,1,0,85,0,1
101157,-54.9181075129795,4,1,0,85,0,1
101232,-54.4625329166307,4,1,0,85,0,1
101532,-52.651544875875,4,1,0,85,0,1
101607,-52.2032151075946,4,1,0,85,0,1
101832,-50.8728366767648,4,1,0,85,0,1
101907,-50.4348997081506,4,1,0,85,0,1
101982,-50,4,1,0,85,0,1
101987,-50,4,1,0,85,0,0
102186,-66.6666666666667,4,1,0,85,0,0
102732,-50,4,1,0,85,0,0
102825,-51.2154407593313,4,1,0,85,0,0
102872,-51.840890124022,4,1,0,85,0,0
102919,-52.473977554538,4,1,0,85,0,0
103013,-53.763440860215,4,1,0,85,0,0
103107,-52.4714794719457,4,1,0,85,0,0
103200,-51.223817762589,4,1,0,85,0,0
103294,-49.9928847410014,4,1,0,85,0,0
103388,-48.791531633013,4,1,0,85,0,0
103482,-47.6190476190476,4,1,0,85,0,0
103674,-66.6666666666667,4,1,0,85,0,0
104232,-50,4,1,0,85,0,0
104237,-50,4,1,0,85,0,1
104294,-50.9308860932946,4,1,0,85,0,1
104357,-51.8945407778107,4,1,0,85,0,1
104419,-52.8606989043702,4,1,0,85,0,1
104482,-53.8608672507971,4,1,0,85,0,1
104544,-54.8636338967282,4,1,0,85,0,1
104607,-55.9016994374947,4,1,0,85,0,1
104669,-56.9424617294528,4,1,0,85,0,1
104732,-58.0198604201597,4,1,0,85,0,1
104794,-59.1000580441602,4,1,0,85,0,1
104857,-60.2182802499373,4,1,0,85,0,1
104919,-61.339407442873,4,1,0,85,0,1
104982,-62.5,4,1,0,85,0,1
104987,-62.5,4,1,0,85,0,0
106229,-100,4,1,0,85,0,0
106862,-40,4,1,0,85,0,0
107893,-50,4,1,0,85,0,0
108315,-66.6666666666667,4,1,0,85,0,1
108455,-60.570686427738,4,1,0,85,0,1
108607,-55.0321208149104,4,1,0,85,0,1
108737,-50,4,1,0,85,0,0
109065,-66.6666666666667,4,1,0,85,0,1
109205,-60.570686427738,4,1,0,85,0,1
109357,-55.0321208149104,4,1,0,85,0,1
109487,-50,4,1,0,85,0,0
109815,-66.6666666666667,4,1,0,85,0,1
109955,-60.570686427738,4,1,0,85,0,1
110107,-55.0321208149104,4,1,0,85,0,1
110237,-50,4,1,0,85,0,0
110424,-66.6666666666667,4,1,0,85,0,0
110951,-50,4,1,0,85,0,0
111315,-66.6666666666667,4,1,0,85,0,1
111455,-60.570686427738,4,1,0,85,0,1
111607,-55.0321208149104,4,1,0,85,0,1
111737,-50,4,1,0,85,0,0
112065,-66.6666666666667,4,1,0,85,0,1
112205,-60.570686427738,4,1,0,85,0,1
112357,-55.0321208149104,4,1,0,85,0,1
112487,-50,4,1,0,85,0,0
112857,-66.6666666666667,4,1,0,85,0,0
112982,-65.4134376095195,4,1,0,85,0,0
113107,-63.6634104980901,4,1,0,85,0,0
113232,-61.7333293246534,4,1,0,85,0,0
113294,-60.7440940607374,4,1,0,85,0,0
113357,-59.7288098467968,4,1,0,85,0,0
113419,-58.7258207110814,4,1,0,85,0,0
113482,-57.7076940481133,4,1,0,85,0,0
113544,-56.7105869261219,4,1,0,85,0,0
113607,-55.7054703929555,4,1,0,85,0,0
113669,-54.726712392775,4,1,0,85,0,0
113732,-53.744748893473,4,1,0,85,0,0
113794,-52.7923164472565,4,1,0,85,0,0
113857,-51.8399486286508,4,1,0,85,0,0
113919,-50.9188340953862,4,1,0,85,0,0
113982,-50,4,1,0,85,0,0
114315,-66.6666666666667,4,1,0,85,0,1
114455,-60.570686427738,4,1,0,85,0,1
114607,-55.0321208149104,4,1,0,85,0,1
114737,-50,4,1,0,85,0,0
115065,-66.6666666666667,4,1,0,85,0,1
115205,-60.570686427738,4,1,0,85,0,1
115357,-55.0321208149104,4,1,0,85,0,1
115487,-50,4,1,0,85,0,0
115815,-66.6666666666667,4,1,0,85,0,1
115955,-60.570686427738,4,1,0,85,0,1
116107,-55.0321208149104,4,1,0,85,0,1
116237,-50,4,1,0,85,0,0
116471,-66.6666666666667,4,1,0,85,0,0
116893,-50,4,1,0,85,0,0
117315,-66.6666666666667,4,1,0,85,0,1
117455,-60.570686427738,4,1,0,85,0,1
117607,-55.0321208149104,4,1,0,85,0,1
117737,-50,4,1,0,85,0,0
118065,-66.6666666666667,4,1,0,85,0,1
118205,-60.570686427738,4,1,0,85,0,1
118357,-55.0321208149104,4,1,0,85,0,1
118487,-50,4,1,0,85,0,0
119037,-66.6666666666667,4,1,0,85,0,0
119822,-50,4,1,0,85,0,0
120350,-66.6666666666667,4,1,0,85,0,0
120537,-63.5722508799507,4,1,0,85,0,0
120631,-62.0714402096003,4,1,0,85,0,0
120737,-57.1428571428571,4,1,0,85,0,1
120778,-56.9870713060207,4,1,0,85,0,1
120825,-56.8283374730017,4,1,0,85,0,1
120872,-56.6700457828963,4,1,0,85,0,1
120919,-56.5121950041438,4,1,0,85,0,1
120966,-56.3547839086138,4,1,0,85,0,1
121013,-56.197811271597,4,1,0,85,0,1
121060,-56.0412758717952,4,1,0,85,0,1
121107,-55.8851764913123,4,1,0,85,0,1
121153,-55.7328194090494,4,1,0,85,0,1
121200,-55.5775792142647,4,1,0,85,0,1
121247,-55.4227714310884,4,1,0,85,0,1
121294,-55.2683948550655,4,1,0,85,0,1
121341,-55.1144482850964,4,1,0,85,0,1
121388,-54.9609305234265,4,1,0,85,0,1
121482,-54.6551766506397,4,1,0,85,0,1
121528,-54.5061728580803,4,1,0,85,0,1
121575,-54.3543494086088,4,1,0,85,0,1
121622,-54.2029488536206,4,1,0,85,0,1
121669,-54.0519700151703,4,1,0,85,0,1
121716,-53.9014117185935,4,1,0,85,0,1
121763,-53.7512727924977,4,1,0,85,0,1
121810,-53.6015520687535,4,1,0,85,0,1
121857,-53.4522483824849,4,1,0,85,0,1
121903,-53.3065240756964,4,1,0,85,0,1
121950,-53.1580421709848,4,1,0,85,0,1
121997,-53.0099738530978,4,1,0,85,0,1
122044,-52.862317970016,4,1,0,85,0,1
122091,-52.7150733729285,4,1,0,85,0,1
122138,-52.5682389162247,4,1,0,85,0,1
122185,-52.4218134574847,4,1,0,85,0,1
122232,-52.275795857471,4,1,0,85,0,1
122283,-52.275795857471,4,1,0,85,0,1
122325,-51.9880649515169,4,1,0,85,0,1
122372,-51.8432555301539,4,1,0,85,0,1
122419,-51.6988494661487,4,1,0,85,0,1
122466,-51.5548456359753,4,1,0,85,0,1
122513,-51.411242919237,4,1,0,85,0,1
122560,-51.2680401986582,4,1,0,85,0,1
122607,-51.1252363600752,4,1,0,85,0,1
122653,-50.9858560748034,4,1,0,85,0,1
122700,-50.8438382420032,4,1,0,85,0,1
122747,-50.7022159907699,4,1,0,85,0,1
122794,-50.5609882192364,4,1,0,85,0,1
122841,-50.4201538286047,4,1,0,85,0,1
122888,-50.2797117231376,4,1,0,85,0,1
122935,-50.1396608101499,4,1,0,85,0,1
122987,-50,4,1,0,85,0,0
123169,-55.5555555555556,4,1,0,85,0,0
123232,-56.5791364082704,4,1,0,85,0,0
123294,-57.6048804328957,4,1,0,85,0,0
123357,-58.6662189803084,4,1,0,85,0,0
123419,-59.7298004943877,4,1,0,85,0,0
123482,-60.8302895365933,4,1,0,85,0,0
123544,-61.9331042836785,4,1,0,85,0,0
123607,-63.0741879981699,4,1,0,85,0,0
123669,-64.2176832077885,4,1,0,85,0,0
123732,-54.9450549450549,4,1,0,85,0,0
123794,-56.1497632109471,4,1,0,85,0,0
123857,-57.4009619738064,4,1,0,85,0,0
123919,-58.6595176969586,4,1,0,85,0,0
123982,-59.9666419264344,4,1,0,85,0,0
124044,-61.281451953994,4,1,0,85,0,0
124107,-62.6470013790735,4,1,0,85,0,0
124169,-64.0205801382576,4,1,0,85,0,0
124232,-65.4471662195842,4,1,0,85,0,0
124294,-66.8821405262401,4,1,0,85,0,0
124357,-68.3724914502401,4,1,0,85,0,0
124419,-69.8716055323375,4,1,0,85,0,0
124482,-71.4285714285714,4,1,0,85,0,0
124857,-62.5,4,1,0,85,0,0
124903,-61.6034887426579,4,1,0,85,0,0
125044,-58.9348197347995,4,1,0,85,0,0
125091,-58.0712057262461,4,1,0,85,0,0
125232,-55.5555555555556,4,1,0,85,0,0
125529,-64.5161290322581,4,1,0,85,0,0
125881,-50,4,1,0,85,0,0
126350,-66.6666666666667,4,1,0,85,0,0
126537,-63.5722508799507,4,1,0,85,0,0
126631,-62.0714402096003,4,1,0,85,0,0
126737,-57.1428571428571,4,1,0,85,0,1
126778,-56.9870713060207,4,1,0,85,0,1
126825,-56.8283374730017,4,1,0,85,0,1
126872,-56.6700457828963,4,1,0,85,0,1
126919,-56.5121950041438,4,1,0,85,0,1
126966,-56.3547839086138,4,1,0,85,0,1
127013,-56.197811271597,4,1,0,85,0,1
127060,-56.0412758717952,4,1,0,85,0,1
127107,-55.8851764913123,4,1,0,85,0,1
127153,-55.7328194090494,4,1,0,85,0,1
127200,-55.5775792142647,4,1,0,85,0,1
127247,-55.4227714310884,4,1,0,85,0,1
127294,-55.2683948550655,4,1,0,85,0,1
127341,-55.1144482850964,4,1,0,85,0,1
127388,-54.9609305234265,4,1,0,85,0,1
127482,-54.6551766506397,4,1,0,85,0,1
127528,-54.5061728580803,4,1,0,85,0,1
127575,-54.3543494086088,4,1,0,85,0,1
127622,-54.2029488536206,4,1,0,85,0,1
127669,-54.0519700151703,4,1,0,85,0,1
127716,-53.9014117185935,4,1,0,85,0,1
127763,-53.7512727924977,4,1,0,85,0,1
127810,-53.6015520687535,4,1,0,85,0,1
127857,-53.4522483824849,4,1,0,85,0,1
127903,-53.3065240756964,4,1,0,85,0,1
127950,-53.1580421709848,4,1,0,85,0,1
127997,-53.0099738530978,4,1,0,85,0,1
128044,-52.862317970016,4,1,0,85,0,1
128091,-52.7150733729285,4,1,0,85,0,1
128138,-52.5682389162247,4,1,0,85,0,1
128185,-52.4218134574847,4,1,0,85,0,1
128232,-52.275795857471,4,1,0,85,0,1
128283,-52.275795857471,4,1,0,85,0,1
128325,-51.9880649515169,4,1,0,85,0,1
128372,-51.8432555301539,4,1,0,85,0,1
128419,-51.6988494661487,4,1,0,85,0,1
128466,-51.5548456359753,4,1,0,85,0,1
128513,-51.411242919237,4,1,0,85,0,1
128560,-51.2680401986582,4,1,0,85,0,1
128607,-51.1252363600752,4,1,0,85,0,1
128653,-50.9858560748034,4,1,0,85,0,1
128700,-50.8438382420032,4,1,0,85,0,1
128747,-50.7022159907699,4,1,0,85,0,1
128794,-50.5609882192364,4,1,0,85,0,1
128841,-50.4201538286047,4,1,0,85,0,1
128888,-50.2797117231376,4,1,0,85,0,1
128935,-50.1396608101499,4,1,0,85,0,1
128987,-50,4,1,0,85,0,0
129169,-55.5555555555556,4,1,0,85,0,0
129232,-56.5347297819634,4,1,0,85,0,0
129294,-57.515209342485,4,1,0,85,0,0
129357,-58.528922733548,4,1,0,85,0,0
129419,-59.5439875027778,4,1,0,85,0,0
129482,-60.5934583849826,4,1,0,85,0,0
129544,-61.6443283135543,4,1,0,85,0,0
129607,-62.7308179883537,4,1,0,85,0,0
129669,-63.8187560591572,4,1,0,85,0,0
129732,-54.9450549450549,4,1,0,85,0,0
129794,-56.1497632109471,4,1,0,85,0,0
129857,-57.4009619738064,4,1,0,85,0,0
129919,-58.6595176969586,4,1,0,85,0,0
129982,-59.9666419264344,4,1,0,85,0,0
130044,-61.281451953994,4,1,0,85,0,0
130107,-62.6470013790735,4,1,0,85,0,0
130169,-64.0205801382576,4,1,0,85,0,0
130232,-65.4471662195842,4,1,0,85,0,0
130294,-66.8821405262401,4,1,0,85,0,0
130357,-68.3724914502401,4,1,0,85,0,0
130419,-69.8716055323375,4,1,0,85,0,0
130482,-71.4285714285714,4,1,0,85,0,0
130857,-86.0765094348296,4,1,0,85,0,0
131232,-103.72831667078,4,1,0,85,0,0
131607,-125,4,1,0,85,0,0
131979,750,4,1,0,100,1,0
131979,-53.763440860215,4,1,0,100,0,0
132349,-52.4305470837245,4,1,0,100,0,0
132729,681.818181818182,4,1,0,80,1,8
132729,-55.6559168295893,4,1,0,80,0,0
133064,-53.6770088886129,4,1,0,80,0,0
133410,625,4,1,0,80,1,0
133410,-56.3470494897073,4,1,0,80,0,0
133561,-55.338186075709,4,1,0,80,0,0
133717,-54.336169345965,4,1,0,80,0,0
134035,576.923076923077,4,1,0,80,1,8
134035,-56.7207510024472,4,1,0,80,0,0
134318,-54.8017553234105,4,1,0,80,0,0
134611,545.454545454546,4,1,0,90,1,0
134611,-55.9975742323439,4,1,0,90,0,0
134878,-54.204850000522,4,1,0,90,0,0
135156,530.973451327434,4,1,0,90,1,8
135156,-53.901689302524,4,1,0,90,0,0
135416,-52.2376092106307,4,1,0,90,0,0
135686,517.241379310345,4,1,0,90,1,0
135686,-51.9820998479863,4,1,0,90,0,0
135939,-50.4457047652584,4,1,0,90,0,0
136203,491.803278688525,4,1,0,90,1,8
136203,-51.4968205584972,4,1,0,90,0,0
136443,-50.0803719361413,4,1,0,90,0,0
136678,240,4,1,0,95,1,0
136678,-100,4,1,0,95,0,0
136913,-107.721734501594,4,1,0,95,0,0
137153,-116.03972084032,4,1,0,95,0,0
137393,-125,4,1,0,95,0,0
137633,-100,4,1,0,95,0,0
137873,-107.721734501594,4,1,0,95,0,0
138113,-116.03972084032,4,1,0,95,0,0
138353,-125,4,1,0,95,0,0
138593,-100,4,1,0,95,0,0
138713,-97.2492472466073,4,1,0,95,0,0
138833,-94.5741609003176,4,1,0,95,0,0
138953,-91.972659565354,4,1,0,95,0,0
139073,-89.4427190999916,4,1,0,95,0,0
139193,-86.9823710416393,4,1,0,95,0,0
139313,-84.5897010752451,4,1,0,95,0,0
139433,-82.2628475438312,4,1,0,95,0,0
139553,-80,4,1,0,95,0,0
139793,-95.2380952380952,4,1,0,95,0,0
139913,-91.3313665872478,4,1,0,95,0,0
140033,-87.5848944882895,4,1,0,95,0,0
140093,-85.7696896589091,4,1,0,95,0,0
140153,-83.9921051131616,4,1,0,95,0,0
140213,-82.2513611672792,4,1,0,95,0,0
140273,-80.5466942965105,4,1,0,95,0,0
140393,-77.2426164739486,4,1,0,95,0,0
140518,-74.0740740740741,4,1,0,95,0,1
140578,-76.9230769230769,4,1,0,95,0,1
143393,-76.9230769230769,4,1,0,95,0,1
143513,-79.1450676760721,4,1,0,95,0,1
143633,-81.4312425868504,4,1,0,95,0,1
143753,-83.783455671278,4,1,0,95,0,1
143813,-84.9849205104828,4,1,0,95,0,1
143873,-86.2036145001002,4,1,0,95,0,1
143993,-88.693681745922,4,1,0,95,0,1
144053,-89.9655598180732,4,1,0,95,0,1
144113,-91.255676774873,4,1,0,95,0,1
144173,-92.5642941641226,4,1,0,95,0,1
144233,-93.8916772842501,4,1,0,95,0,1
144293,-95.2380952380952,4,1,0,95,0,1
144358,-76.9230769230769,4,1,0,95,0,0
144473,-78.4912997956945,4,1,0,95,0,0
144593,-80.0914938670287,4,1,0,95,0,0
144713,-81.7243109306258,4,1,0,95,0,0
144833,-83.3904160680799,4,1,0,95,0,0
144893,-84.2361632025068,4,1,0,95,0,0
144953,-85.0904879199357,4,1,0,95,0,0
145073,-86.8252189621128,4,1,0,95,0,0
145193,-88.5953157879662,4,1,0,95,0,0
145313,-90.4014993960973,4,1,0,95,0,0
145433,-92.2445054840318,4,1,0,95,0,0
145553,-94.1250847478855,4,1,0,95,0,0
145673,-96.0440031881386,4,1,0,95,0,0
145793,-98.0020424216448,4,1,0,95,0,0
145913,-100,4,1,0,95,0,0
146033,-76.9230769230769,4,1,0,95,0,0
146093,-77.5563527810554,4,1,0,95,0,0
146153,-78.1948421370937,4,1,0,95,0,0
146213,-78.8385879117639,4,1,0,95,0,0
146273,-79.4876333789852,4,1,0,95,0,0
146393,-80.8017982709721,4,1,0,95,0,0
146513,-82.1376901824954,4,1,0,95,0,0
146633,-83.4956683252347,4,1,0,95,0,0
146753,-84.8760978496973,4,1,0,95,0,0
146813,-85.5748476376365,4,1,0,95,0,0
146873,-86.2793499434048,4,1,0,95,0,0
146993,-87.7058019307029,4,1,0,95,0,0
147113,-89.1558373742209,4,1,0,95,0,0
147233,-90.6298461780089,4,1,0,95,0,0
147353,-92.1282246923804,4,1,0,95,0,0
147473,-93.651375820488,4,1,0,95,0,0
147593,-95.1997091266611,4,1,0,95,0,0
147713,-96.7736409465346,4,1,0,95,0,0
147833,-98.3735944989989,4,1,0,95,0,0
147953,-90.9090909090909,4,1,0,95,0,0
148013,-87.1905963448671,4,1,0,95,0,0
148073,-83.6242010007091,4,1,0,95,0,0
148133,-80.2036834952634,4,1,0,95,0,0
148198,-76.9230769230769,4,1,0,95,0,1
151073,-76.9230769230769,4,1,0,95,0,1
151193,-79.1450676760721,4,1,0,95,0,1
151313,-81.4312425868504,4,1,0,95,0,1
151433,-83.783455671278,4,1,0,95,0,1
151493,-84.9849205104828,4,1,0,95,0,1
151553,-86.2036145001002,4,1,0,95,0,1
151673,-88.693681745922,4,1,0,95,0,1
151733,-89.9655598180732,4,1,0,95,0,1
151793,-91.255676774873,4,1,0,95,0,1
151853,-92.5642941641226,4,1,0,95,0,1
151913,-93.8916772842501,4,1,0,95,0,1
151973,-95.2380952380952,4,1,0,95,0,1
152038,-76.9230769230769,4,1,0,95,0,0
152153,-78.4912997956945,4,1,0,95,0,0
152273,-80.0914938670287,4,1,0,95,0,0
152393,-81.7243109306258,4,1,0,95,0,0
152513,-83.3904160680799,4,1,0,95,0,0
152573,-84.2361632025068,4,1,0,95,0,0
152633,-85.0904879199357,4,1,0,95,0,0
152753,-86.8252189621128,4,1,0,95,0,0
152873,-88.5953157879662,4,1,0,95,0,0
152993,-90.4014993960973,4,1,0,95,0,0
153113,-92.2445054840318,4,1,0,95,0,0
153233,-94.1250847478855,4,1,0,95,0,0
153353,-96.0440031881386,4,1,0,95,0,0
153473,-98.0020424216448,4,1,0,95,0,0
153593,-100,4,1,0,95,0,0
153713,-76.9230769230769,4,1,0,95,0,0
153773,-77.5563527810554,4,1,0,95,0,0
153833,-78.1948421370937,4,1,0,95,0,0
153893,-78.8385879117639,4,1,0,95,0,0
153953,-79.4876333789852,4,1,0,95,0,0
154073,-80.8017982709721,4,1,0,95,0,0
154193,-82.1376901824954,4,1,0,95,0,0
154313,-83.4956683252347,4,1,0,95,0,0
154433,-84.8760978496973,4,1,0,95,0,0
154493,-85.5748476376365,4,1,0,95,0,0
154553,-86.2793499434048,4,1,0,95,0,0
154673,-87.7058019307029,4,1,0,95,0,0
154793,-89.1558373742209,4,1,0,95,0,0
154913,-90.6298461780089,4,1,0,95,0,0
155033,-92.1282246923804,4,1,0,95,0,0
155153,-93.651375820488,4,1,0,95,0,0
155273,-95.1997091266611,4,1,0,95,0,0
155393,-96.7736409465346,4,1,0,95,0,0
155513,-98.3735944989989,4,1,0,95,0,0
155633,-90.9090909090909,4,1,0,95,0,0
155693,-87.1905963448671,4,1,0,95,0,0
155753,-83.6242010007091,4,1,0,95,0,0
155813,-80.2036834952634,4,1,0,95,0,0
155878,-76.9230769230769,4,1,0,95,0,1
156233,-73.0318816198439,4,1,0,95,0,1
156593,-69.3375245281536,4,1,0,95,0,1
156833,-100,4,1,0,95,0,1
156953,-65.8300484809908,4,1,0,95,0,1
157318,-62.5,4,1,0,95,0,0
157798,-76.9230769230769,4,1,0,95,0,1
158153,-73.0318816198439,4,1,0,95,0,1
158513,-69.3375245281536,4,1,0,95,0,1
158753,-100,4,1,0,95,0,1
158873,-65.8300484809908,4,1,0,95,0,1
159238,-62.5,4,1,0,95,0,0
159718,-76.9230769230769,4,1,0,95,0,1
160073,-73.0318816198439,4,1,0,95,0,1
160433,-69.3375245281536,4,1,0,95,0,1
160673,-100,4,1,0,95,0,1
160793,-65.8300484809908,4,1,0,95,0,1
161158,-62.5,4,1,0,95,0,0
161638,-76.9230769230769,4,1,0,95,0,1
161993,-73.0881682755858,4,1,0,95,0,1
162353,-69.4444444444444,4,1,0,95,0,1
162593,-89.2857142857143,4,1,0,95,0,1
162713,-88.068475487396,4,1,0,95,0,1
162773,-87.4660933160539,4,1,0,95,0,1
162833,-86.8678313963495,4,1,0,95,0,1
162953,-85.6835557756938,4,1,0,95,0,1
163073,-84.5154254728517,4,1,0,95,0,1
163133,-83.9373459134352,4,1,0,95,0,1
163193,-83.363220377502,4,1,0,95,0,1
163253,-82.7930218198098,4,1,0,95,0,1
163313,-82.2267233801039,4,1,0,95,0,1
163433,-81.1057203309872,4,1,0,95,0,1
163558,-80,4,1,0,95,0,0
163618,-200,4,1,0,95,0,0
167195,-125.106083727457,4,1,0,95,0,0
168353,-92.1528888707239,4,1,0,95,0,0
169313,-67.8796320226929,4,1,0,95,0,0
169793,-58.2578887459428,4,1,0,95,0,0
170273,-50,4,1,0,95,0,0
171233,-68.9655172413793,4,1,0,95,0,0
171353,-69.8411070659056,4,1,0,95,0,0
171473,-70.7278134247738,4,1,0,95,0,0
171533,-71.1753793398884,4,1,0,95,0,0
171593,-71.6257774540868,4,1,0,95,0,0
171713,-72.5351420818193,4,1,0,95,0,0
171833,-73.4560520505668,4,1,0,95,0,0
171893,-73.9208822717313,4,1,0,95,0,0
171953,-74.3886539405844,4,1,0,95,0,0
172013,-74.8593856706198,4,1,0,95,0,0
172073,-75.3330961931179,4,1,0,95,0,0
172133,-75.8098043578903,4,1,0,95,0,0
172193,-76.2895291340308,4,1,0,95,0,0
172313,-77.2581049977319,4,1,0,95,0,0
172373,-77.7469946267053,4,1,0,95,0,0
172433,-78.2389779514058,4,1,0,95,0,0
172553,-79.2323041195519,4,1,0,95,0,0
172673,-80.2382416088343,4,1,0,95,0,0
172793,-81.2569505332477,4,1,0,95,0,0
172853,-81.7711448743964,4,1,0,95,0,0
172913,-82.2885930396024,4,1,0,95,0,0
172973,-82.8093156190788,4,1,0,95,0,0
173033,-83.3333333333333,4,1,0,95,0,0
173153,-68.9655172413793,4,1,0,95,0,0
173273,-69.8411070659056,4,1,0,95,0,0
173393,-70.7278134247738,4,1,0,95,0,0
173453,-71.1753793398884,4,1,0,95,0,0
173513,-71.6257774540868,4,1,0,95,0,0
173633,-72.5351420818193,4,1,0,95,0,0
173753,-73.4560520505668,4,1,0,95,0,0
173813,-73.9208822717313,4,1,0,95,0,0
173873,-74.3886539405844,4,1,0,95,0,0
173933,-74.8593856706198,4,1,0,95,0,0
173993,-75.3330961931179,4,1,0,95,0,0
174053,-75.8098043578903,4,1,0,95,0,0
174113,-76.2895291340308,4,1,0,95,0,0
174233,-77.2581049977319,4,1,0,95,0,0
174293,-77.7469946267053,4,1,0,95,0,0
174353,-78.2389779514058,4,1,0,95,0,0
174473,-79.2323041195519,4,1,0,95,0,0
174593,-80.2382416088343,4,1,0,95,0,0
174713,-81.2569505332477,4,1,0,95,0,0
174773,-81.7711448743964,4,1,0,95,0,0
174833,-82.2885930396024,4,1,0,95,0,0
174893,-82.8093156190788,4,1,0,95,0,0
174953,-83.3333333333333,4,1,0,95,0,0
175073,-64.5161290322581,4,1,0,95,0,0
175193,-65.2771009033293,4,1,0,95,0,0
175313,-66.0470484863232,4,1,0,95,0,0
175373,-66.435421205277,4,1,0,95,0,0
175433,-66.8260776503364,4,1,0,95,0,0
175553,-67.6142955131983,4,1,0,95,0,0
175613,-68.0118840260906,4,1,0,95,0,0
175673,-68.4118104561998,4,1,0,95,0,0
175733,-68.814088551048,4,1,0,95,0,0
175793,-69.2187321389963,4,1,0,95,0,0
175853,-69.6257551297196,4,1,0,95,0,0
175913,-70.0351715146856,4,1,0,95,0,0
175973,-70.4469953676347,4,1,0,95,0,0
176033,-70.8612408450646,4,1,0,95,0,0
176153,-71.6970537160652,4,1,0,95,0,0
176213,-72.1186498408103,4,1,0,95,0,0
176273,-72.5427250533726,4,1,0,95,0,0
176393,-73.3983711382279,4,1,0,95,0,0
176513,-74.2641096234168,4,1,0,95,0,0
176573,-74.7008006616408,4,1,0,95,0,0
176633,-75.1400595494471,4,1,0,95,0,0
176693,-75.581901386416,4,1,0,95,0,0
176753,-76.0263413609171,4,1,0,95,0,0
176813,-76.4733947506316,4,1,0,95,0,0
176873,-76.9230769230769,4,1,0,95,0,0
176993,-64.5161290322581,4,1,0,95,0,0
177113,-65.7361000114984,4,1,0,95,0,0
177233,-66.9791400931866,4,1,0,95,0,0
177293,-67.6094470477763,4,1,0,95,0,0
177353,-68.245685503673,4,1,0,95,0,0
177473,-69.5361807181521,4,1,0,95,0,0
177533,-70.1905506942563,4,1,0,95,0,0
177593,-70.851078616644,4,1,0,95,0,0
177653,-71.5178224346465,4,1,0,95,0,0
177713,-72.1908406429268,4,1,0,95,0,0
177773,-72.8701922866118,4,1,0,95,0,0
177833,-73.5559369664724,4,1,0,95,0,0
177893,-74.2481348441524,4,1,0,95,0,0
177953,-74.9468466474463,4,1,0,95,0,0
178073,-76.3640578048258,4,1,0,95,0,0
178133,-77.0826814934565,4,1,0,95,0,0
178193,-77.808067787699,4,1,0,95,0,0
178313,-79.2793833498012,4,1,0,95,0,0
178433,-80.778520827353,4,1,0,95,0,0
178493,-81.5386868042245,4,1,0,95,0,0
178553,-82.3060063202606,4,1,0,95,0,0
178673,-83.8623758767428,4,1,0,95,0,0
178793,-85.4481756814492,4,1,0,95,0,0
178913,-76.9230769230769,4,1,0,95,0,0
179153,-100,4,1,0,95,0,0
179233,-97.9945862926755,4,1,0,95,0,0
179313,-96.0293894267264,4,1,0,95,0,0
179393,-94.1036028881028,4,1,0,95,0,0
179473,-92.2164363366987,4,1,0,95,0,0
179553,-90.3671152819964,4,1,0,95,0,0
179633,-88.5548807652176,4,1,0,95,0,0
179713,-86.7789890478471,4,1,0,95,0,0
179793,-85.038711306404,4,1,0,95,0,0
179873,-83.3333333333333,4,1,0,95,0,0
180113,-100,4,1,0,95,0,0
180193,-97.9945862926755,4,1,0,95,0,0
180273,-96.0293894267264,4,1,0,95,0,0
180353,-94.1036028881028,4,1,0,95,0,0
180433,-92.2164363366987,4,1,0,95,0,0
180513,-90.3671152819964,4,1,0,95,0,0
180593,-88.5548807652176,4,1,0,95,0,0
180673,-86.7789890478471,4,1,0,95,0,0
180753,-85.038711306404,4,1,0,95,0,0
180833,-83.3333333333333,4,1,0,95,0,0
181073,-100,4,1,0,95,0,0
181153,-94.1036028881028,4,1,0,95,0,0
181233,-88.5548807652176,4,1,0,95,0,0
181313,-83.3333333333333,4,1,0,95,0,0
181553,-100,4,1,0,95,0,0
181633,-94.1036028881028,4,1,0,95,0,0
181713,-88.5548807652176,4,1,0,95,0,0
181793,-83.3333333333333,4,1,0,95,0,0
182033,-100,4,1,0,95,0,0
182113,-97.9945862926755,4,1,0,95,0,0
182193,-96.0293894267264,4,1,0,95,0,0
182273,-94.1036028881028,4,1,0,95,0,0
182393,-91.2870929175277,4,1,0,95,0,0
182513,-88.5548807652176,4,1,0,95,0,0
182753,-68.9655172413793,4,1,0,95,0,0
182873,-70.8554014411723,4,1,0,95,0,0
182933,-71.8196766543808,4,1,0,95,0,0
182993,-72.7970747441505,4,1,0,95,0,0
183053,-73.7877743004595,4,1,0,95,0,0
183113,-74.7919563437273,4,1,0,95,0,0
183233,-76.8415043239288,4,1,0,95,0,0
183293,-77.8872447538483,4,1,0,95,0,0
183353,-78.9472167251255,4,1,0,95,0,0
183413,-80.0216139156211,4,1,0,95,0,0
183473,-81.1106326389691,4,1,0,95,0,0
183533,-82.2144718804467,4,1,0,95,0,0
183593,-83.3333333333333,4,1,0,95,0,0
183713,-76.9230769230769,4,1,0,95,0,0
183718,-76.9230769230769,4,1,0,95,0,1
183753,-77.5374370111888,4,1,0,95,0,1
183793,-78.1567037974329,4,1,0,95,0,1
183833,-78.7809164700428,4,1,0,95,0,1
183953,-80.6836263981781,4,1,0,95,0,1
183983,-81.1664413037243,4,1,0,95,0,1
184073,-82.6322904130751,4,1,0,95,0,1
184103,-83.1267662227514,4,1,0,95,0,1
184193,-84.6280183938902,4,1,0,95,0,1
184253,-85.6438855208421,4,1,0,95,0,1
184313,-86.6719470254859,4,1,0,95,0,1
184373,-87.7123492880357,4,1,0,95,0,1
184433,-88.7652404458401,4,1,0,95,0,1
184473,-89.4741801180807,4,1,0,95,0,1
184513,-90.1887818654347,4,1,0,95,0,1
184553,-90.9090909090909,4,1,0,95,0,1
184673,-74.0740740740741,4,1,0,95,0,1
184678,-74.0740740740741,4,1,0,95,0,0
184793,-76.2732233927844,4,1,0,95,0,0
184853,-77.3971617892128,4,1,0,95,0,0
184913,-78.5376621907955,4,1,0,95,0,0
184973,-79.6949686500674,4,1,0,95,0,0
185033,-80.8693288158454,4,1,0,95,0,0
185153,-83.2702191623394,4,1,0,95,0,0
185213,-84.497263102958,4,1,0,95,0,0
185273,-85.7423883798256,4,1,0,95,0,0
185333,-87.0058614338657,4,1,0,95,0,0
185393,-88.2879526321918,4,1,0,95,0,0
185453,-89.5889363259629,4,1,0,95,0,0
185513,-90.9090909090909,4,1,0,95,0,0
185633,-76.9230769230769,4,1,0,95,0,0
185638,-76.9230769230769,4,1,0,95,0,1
185673,-77.5374370111888,4,1,0,95,0,1
185713,-78.1567037974329,4,1,0,95,0,1
185753,-78.7809164700428,4,1,0,95,0,1
185873,-80.6836263981781,4,1,0,95,0,1
185903,-81.1664413037243,4,1,0,95,0,1
185993,-82.6322904130751,4,1,0,95,0,1
186023,-83.1267662227514,4,1,0,95,0,1
186113,-84.6280183938902,4,1,0,95,0,1
186173,-85.6438855208421,4,1,0,95,0,1
186233,-86.6719470254859,4,1,0,95,0,1
186353,-88.7652404458401,4,1,0,95,0,1
186393,-89.4741801180807,4,1,0,95,0,1
186433,-90.1887818654347,4,1,0,95,0,1
186473,-90.9090909090909,4,1,0,95,0,1
186523,-76.9230769230769,4,1,0,95,0,1
186598,-76.9230769230769,4,1,0,95,0,0
186713,-90.9090909090909,4,1,0,95,0,0
186833,-90.4228012694404,4,1,0,95,0,0
186893,-90.0883532803555,4,1,0,95,0,0
186953,-89.7209986855296,4,1,0,95,0,0
187013,-89.3281078869292,4,1,0,95,0,0
187073,-88.9145294385338,4,1,0,95,0,0
187113,-88.6290864235693,4,1,0,95,0,0
187153,-88.3368489229661,4,1,0,95,0,0
187193,-88.0385231853834,4,1,0,95,0,0
187253,-87.5809405941545,4,1,0,95,0,0
187313,-87.112795361943,4,1,0,95,0,0
187373,-86.6355797516213,4,1,0,95,0,0
187433,-86.1505714679241,4,1,0,95,0,0
187493,-85.6588792584284,4,1,0,95,0,0
187553,-85.1614756385895,4,1,0,95,0,0
187673,-84.1528824762014,4,1,0,95,0,0
187733,-83.6431472036249,4,1,0,95,0,0
187793,-83.1306345789245,4,1,0,95,0,0
187913,-82.0994664666623,4,1,0,95,0,0
188033,-81.0632753091187,4,1,0,95,0,0
188063,-80.8038350833547,4,1,0,95,0,0
188153,-80.0253043951685,4,1,0,95,0,0
188183,-79.7658623173041,4,1,0,95,0,0
188273,-78.9882734243907,4,1,0,95,0,0
188313,-78.6432123067071,4,1,0,95,0,0
188353,-78.2985888486959,4,1,0,95,0,0
188393,-77.9544745868413,4,1,0,95,0,0
188518,-76.9230769230769,4,1,0,95,0,1
188873,-69.9314627251146,4,1,0,95,0,1
189233,-61.7273502781741,4,1,0,95,0,1
189473,-100,4,1,0,95,0,1
189593,-54.2848975391704,4,1,0,95,0,1
189958,344.827586206897,4,1,0,100,1,8
189958,-33.3333334659708,4,1,0,100,0,0
190648,344.827586206897,4,1,0,100,1,1
190648,-50,4,1,0,100,0,1
190809,-52.1979799847613,4,1,0,100,0,1
190981,-54.4925822897909,4,1,0,100,0,1
191068,-55.6913647814477,4,1,0,100,0,1
191154,-56.9022850633699,4,1,0,100,0,1
191197,-57.5175832889841,4,1,0,100,0,1
191240,-58.1395348837209,4,1,0,100,0,1
191326,-55.5555555555556,4,1,0,100,0,1
191499,-58.0326370891564,4,1,0,100,0,1
191671,-60.6048819362234,4,1,0,100,0,1
191757,-61.9334483238255,4,1,0,100,0,1
191843,-63.2911392405063,4,1,0,100,0,1
192016,-55.5555555555556,4,1,0,100,0,1
192073,-56.7650920696425,4,1,0,100,0,1
192131,-58.0228826027061,4,1,0,100,0,1
192188,-59.2861369155961,4,1,0,100,0,1
192246,-60.5997882994935,4,1,0,100,0,1
192303,-61.9191461199887,4,1,0,100,0,1
192361,-63.2911392405063,4,1,0,100,0,1
192533,-54.3478260869565,4,1,0,100,0,1
192576,-55.0408215266447,4,1,0,100,0,1
192619,-55.7426534316343,4,1,0,100,0,1
192705,-57.1732787734269,4,1,0,100,0,1
192792,-58.6579026236213,4,1,0,100,0,1
192878,-60.1633473203414,4,1,0,100,0,1
192964,-61.7074289889529,4,1,0,100,0,1
193050,-63.2911392405063,4,1,0,100,0,1
193223,-58.8235294117647,4,1,0,100,0,1
193280,-59.5392887861835,4,1,0,100,0,1
193338,-60.2765458043301,4,1,0,100,0,1
193395,-61.0099853505196,4,1,0,100,0,1
193568,-63.2911392405063,4,1,0,100,0,1
193625,-61.7742166647422,4,1,0,100,0,1
193682,-60.2936507437717,4,1,0,100,0,1
193740,-58.8235294117647,4,1,0,100,0,1
193912,-54.3478260869565,4,1,0,100,0,1
193955,-54.9763067255875,4,1,0,100,0,1
193999,-55.6269271355961,4,1,0,100,0,1
194085,-56.9209104019201,4,1,0,100,0,1
194171,-58.244994067093,4,1,0,100,0,1
194257,-59.5998783210126,4,1,0,100,0,1
194343,-60.9862796412643,4,1,0,100,0,1
194430,-62.4216197433128,4,1,0,100,0,1
194602,-65.359477124183,4,1,0,100,0,1
194774,-62.5,4,1,0,100,0,1
194861,-62.3129564951109,4,1,0,100,0,1
194947,-61.9415436166431,4,1,0,100,0,1
195033,-61.4434532727664,4,1,0,100,0,1
195119,-60.8447368762128,4,1,0,100,0,1
195205,-60.163166403118,4,1,0,100,0,1
195292,-59.4034862049894,4,1,0,100,0,1
195378,-58.5947294570175,4,1,0,100,0,1
195464,-57.7383609945402,4,1,0,100,0,1
195550,-56.8429640296427,4,1,0,100,0,1
195637,-55.9051820733591,4,1,0,100,0,1
195723,-54.9533595620672,4,1,0,100,0,1
195809,-53.9828577342569,4,1,0,100,0,1
195981,-52.0064524951177,4,1,0,100,0,1
196154,-50,4,1,0,100,0,1
196326,-52.1979799847613,4,1,0,100,0,1
196498,-54.4925822897909,4,1,0,100,0,1
196585,-55.6913647814477,4,1,0,100,0,1
196671,-56.9022850633699,4,1,0,100,0,1
196714,-57.5175832889841,4,1,0,100,0,1
196757,-58.1395348837209,4,1,0,100,0,1
196843,-55.5555555555556,4,1,0,100,0,1
197016,-58.0326370891564,4,1,0,100,0,1
197188,-60.6048819362234,4,1,0,100,0,1
197274,-61.9334483238255,4,1,0,100,0,1
197360,-63.2911392405063,4,1,0,100,0,1
197533,-55.5555555555556,4,1,0,100,0,1
197590,-56.7650920696425,4,1,0,100,0,1
197648,-58.0228826027061,4,1,0,100,0,1
197705,-59.2861369155961,4,1,0,100,0,1
197763,-60.5997882994935,4,1,0,100,0,1
197820,-61.9191461199887,4,1,0,100,0,1
197878,-63.2911392405063,4,1,0,100,0,1
198050,-54.3478260869565,4,1,0,100,0,1
198093,-55.0408215266447,4,1,0,100,0,1
198136,-55.7426534316343,4,1,0,100,0,1
198222,-57.1732787734269,4,1,0,100,0,1
198309,-58.6579026236213,4,1,0,100,0,1
198395,-60.1633473203414,4,1,0,100,0,1
198481,-61.7074289889529,4,1,0,100,0,1
198567,-63.2911392405063,4,1,0,100,0,1
198740,-58.8235294117647,4,1,0,100,0,1
198797,-59.5392887861835,4,1,0,100,0,1
198855,-60.2765458043301,4,1,0,100,0,1
198912,-61.0099853505196,4,1,0,100,0,1
199085,-63.2911392405063,4,1,0,100,0,1
199142,-61.7742166647422,4,1,0,100,0,1
199199,-60.2936507437717,4,1,0,100,0,1
199257,-58.8235294117647,4,1,0,100,0,1
199429,-54.3478260869565,4,1,0,100,0,1
199472,-54.9763067255875,4,1,0,100,0,1
199516,-55.6269271355961,4,1,0,100,0,1
199602,-56.9209104019201,4,1,0,100,0,1
199688,-58.244994067093,4,1,0,100,0,1
199774,-59.5998783210126,4,1,0,100,0,1
199860,-60.9862796412643,4,1,0,100,0,1
199947,-62.4216197433128,4,1,0,100,0,1
200119,-65.3580171192415,4,1,0,100,0,1
200168,-65.3299316230141,4,1,0,100,0,1
200211,-65.264291060602,4,1,0,100,0,1
200291,-65.0189623082324,4,1,0,100,0,1
200378,-64.6330136187822,4,1,0,100,0,1
200464,-64.1055660711956,4,1,0,100,0,1
200550,-63.4592088022063,4,1,0,100,0,1
200636,-62.7010126819899,4,1,0,100,0,1
200700,-62.1435877745583,4,1,0,100,0,1
200722,-61.5473801548692,4,1,0,100,0,1
200809,-60.9054459330962,4,1,0,100,0,1
200895,-59.8981060521698,4,1,0,100,0,1
200981,-58.838006624862,4,1,0,100,0,1
201067,-57.7269759519098,4,1,0,100,0,1
201154,-56.5915497210849,4,1,0,100,0,1
201240,-55.4715458415159,4,1,0,100,0,1
201326,-54.3262443871311,4,1,0,100,0,1
201498,-52.1061093667201,4,1,0,100,0,1
201671,-50,4,1,0,100,0,1
201844,-52.1979799847613,4,1,0,100,0,1
202016,-54.4929431638603,4,1,0,100,0,1
202103,-56.4098100304089,4,1,0,100,0,1
202189,-58.3709055061174,4,1,0,100,0,1
202232,-59.3768736706519,4,1,0,100,0,1
202275,-60.4001787591091,4,1,0,100,0,1
202324,-61.4411195572177,4,1,0,100,0,1
202361,-62.5,4,1,0,100,0,1
202534,-58.0596024803628,4,1,0,100,0,1
202712,-60.618960605021,4,1,0,100,0,1
202755,-61.2762377295075,4,1,0,100,0,1
202798,-61.9406415551789,4,1,0,100,0,1
202878,-63.2911392405063,4,1,0,100,0,1
203051,-55.5555555555556,4,1,0,100,0,1
203108,-56.7650920696425,4,1,0,100,0,1
203166,-58.0228826027061,4,1,0,100,0,1
203223,-59.2861369155961,4,1,0,100,0,1
203281,-60.5997882994935,4,1,0,100,0,1
203338,-61.9191461199887,4,1,0,100,0,1
203396,-63.2911392405063,4,1,0,100,0,1
203568,-54.3478260869565,4,1,0,100,0,1
203617,-55.0408215266447,4,1,0,100,0,1
203660,-55.7426534316343,4,1,0,100,0,1
203703,-56.4534344767203,4,1,0,100,0,1
203746,-57.1732787734269,4,1,0,100,0,1
203833,-58.6579026236213,4,1,0,100,0,1
203919,-60.1633473203414,4,1,0,100,0,1
204005,-61.7074289889529,4,1,0,100,0,1
204085,-63.2911392405063,4,1,0,100,0,1
204258,-58.8235294117647,4,1,0,100,0,1
204315,-59.5392887861835,4,1,0,100,0,1
204373,-60.2765458043301,4,1,0,100,0,1
204430,-61.0099853505196,4,1,0,100,0,1
204603,-63.2911392405063,4,1,0,100,0,1
204660,-61.7742166647422,4,1,0,100,0,1
204717,-60.2936507437717,4,1,0,100,0,1
204775,-58.8235294117647,4,1,0,100,0,1
204947,-54.3478260869565,4,1,0,100,0,1
204996,-54.9763067255875,4,1,0,100,0,1
205040,-55.6269271355961,4,1,0,100,0,1
205082,-56.2551553805527,4,1,0,100,0,1
205126,-56.9209104019201,4,1,0,100,0,1
205212,-58.244994067093,4,1,0,100,0,1
205298,-59.5998783210126,4,1,0,100,0,1
205384,-60.9862796412643,4,1,0,100,0,1
205471,-62.4216197433128,4,1,0,100,0,1
205637,-65.359477124183,4,1,0,100,0,1
205809,-62.5,4,1,0,100,0,1
205896,-62.3129564951109,4,1,0,100,0,1
205982,-61.9415436166431,4,1,0,100,0,1
206068,-61.4434532727664,4,1,0,100,0,1
206154,-60.8447368762128,4,1,0,100,0,1
206240,-60.163166403118,4,1,0,100,0,1
206327,-59.4034862049894,4,1,0,100,0,1
206413,-58.5947294570175,4,1,0,100,0,1
206499,-57.7383609945402,4,1,0,100,0,1
206585,-56.8429640296427,4,1,0,100,0,1
206672,-55.9051820733591,4,1,0,100,0,1
206758,-54.9533595620672,4,1,0,100,0,1
206844,-53.9828577342569,4,1,0,100,0,1
207016,-52.0064524951177,4,1,0,100,0,1
207189,-50,4,1,0,100,0,1
207361,-52.1979799847613,4,1,0,100,0,1
207533,-54.5146017536654,4,1,0,100,0,1
207620,-56.3873984764926,4,1,0,100,0,1
207706,-58.3477148111799,4,1,0,100,0,1
207749,-59.3768736706519,4,1,0,100,0,1
207792,-60.4241852197615,4,1,0,100,0,1
207841,-61.4411195572177,4,1,0,100,0,1
207878,-62.5248410488446,4,1,0,100,0,1
208051,-58.0315691736305,4,1,0,100,0,1
208230,-60.634931681911,4,1,0,100,0,1
208272,-61.280632494855,4,1,0,100,0,1
208316,-61.9644572141209,4,1,0,100,0,1
208395,-63.3231348883677,4,1,0,100,0,1
208568,-55.5555555555556,4,1,0,100,0,1
208625,-56.7650920696425,4,1,0,100,0,1
208683,-58.0228826027061,4,1,0,100,0,1
208740,-59.2861369155961,4,1,0,100,0,1
208798,-60.5997882994935,4,1,0,100,0,1
208855,-61.9191461199887,4,1,0,100,0,1
208913,-63.2911392405063,4,1,0,100,0,1
209085,-54.3638427351955,4,1,0,100,0,1
209134,-55.0408215266447,4,1,0,100,0,1
209178,-55.7590811443176,4,1,0,100,0,1
209220,-56.4534344767203,4,1,0,100,0,1
209264,-57.1901281004509,4,1,0,100,0,1
209349,-58.6406208615993,4,1,0,100,0,1
209437,-60.1810778394861,4,1,0,100,0,1
209523,-61.7256145587357,4,1,0,100,0,1
209602,-63.3097915397213,4,1,0,100,0,1
209775,-65.3253200940685,4,1,0,100,0,1
209839,-65.1224369656657,4,1,0,100,0,1
209895,-64.8442742135285,4,1,0,100,0,1
209953,-64.9168617596022,4,1,0,100,0,1
209954,-64.5055002168841,4,1,0,100,0,1
210039,-63.9619337112886,4,1,0,100,0,1
210125,-63.3645842549861,4,1,0,100,0,1
210211,-62.7327961823908,4,1,0,100,0,1
210298,-62.0676887496293,4,1,0,100,0,1
210384,-61.3910790839286,4,1,0,100,0,1
210470,-60.7004117656689,4,1,0,100,0,1
210513,-60.351067901193,4,1,0,100,0,1
210556,-59.9996233240788,4,1,0,100,0,1
210599,-59.6464570131847,4,1,0,100,0,1
210643,-59.2836545963949,4,1,0,100,0,1
210729,-58.5716309501376,4,1,0,100,0,1
210815,-57.8575617459753,4,1,0,100,0,1
210901,-57.1433041942981,4,1,0,100,0,1
210987,-56.430431800518,4,1,0,100,0,1
211074,-55.7120456994461,4,1,0,100,0,1
211160,-55.0058105948426,4,1,0,100,0,1
211203,-54.6544553601062,4,1,0,100,0,1
211246,-54.3044210703136,4,1,0,100,0,1
211332,-53.6087036924418,4,1,0,100,0,1
211505,-52.2290980697545,4,1,0,100,0,1
211562,-51.7809775593175,4,1,0,100,0,1
211620,-51.3284990879984,4,1,0,100,0,1
211677,-50.887378454372,4,1,0,100,0,1
211734,-50.4498822426034,4,1,0,100,0,1
211792,-50.0085199824461,4,1,0,100,0,1
211849,-49.5785872620995,4,1,0,100,0,1
211907,-49.1450661171002,4,1,0,100,0,1
211964,-48.722961899905,4,1,0,100,0,1
212022,-48.2975126780971,4,1,0,100,0,1
212108,-45.6744337615942,4,1,0,100,0,1
212194,-43.0579932770579,4,1,0,100,0,1
212280,-40.5202398885696,4,1,0,100,0,1
212367,-38.0836447520225,4,1,0,100,0,1
212453,-35.8356475684591,4,1,0,100,0,1
212539,-33.7640161888726,4,1,0,100,0,1
212625,-31.8747271430562,4,1,0,100,0,1
212706,-50,4,1,0,100,0,1
212711,260.869565217391,4,1,0,100,1,0
212711,-39.9999984069684,4,1,0,100,0,0
212971,-200,4,1,0,100,0,0
221184,-199.519251667091,4,1,0,100,0,0
221249,-199.085993409325,4,1,0,100,0,0
221314,-198.558508057031,4,1,0,100,0,0
221445,-197.254736385955,4,1,0,100,0,0
221706,-193.894442059456,4,1,0,100,0,0
221771,-192.928769222395,4,1,0,100,0,0
221901,-190.870016728362,4,1,0,100,0,0
221966,-189.783311081509,4,1,0,100,0,0
222097,-187.491606511382,4,1,0,100,0,0
222292,-183.866943543417,4,1,0,100,0,0
222358,-182.591685543278,4,1,0,100,0,0
222488,-180.020529134589,4,1,0,100,0,0
222619,-177.362543572871,4,1,0,100,0,0
222749,-174.671864578781,4,1,0,100,0,0
222879,-171.940588809563,4,1,0,100,0,0
222945,-170.541953041684,4,1,0,100,0,0
223010,-169.15834617808,4,1,0,100,0,0
223075,-167.76982895022,4,1,0,100,0,0
223140,-166.377537538178,4,1,0,100,0,0
223271,-163.564384029023,4,1,0,100,0,0
223336,-162.166995255213,4,1,0,100,0,0
223401,-160.769814230473,4,1,0,100,0,0
223532,-157.958029984937,4,1,0,100,0,0
223662,-155.178292110268,4,1,0,100,0,0
223793,-152.393500242615,4,1,0,100,0,0
223858,-151.019388823836,4,1,0,100,0,0
223988,-148.289187539781,4,1,0,100,0,0
224053,-146.934102058689,4,1,0,100,0,0
224184,-144.225668331252,4,1,0,100,0,0
224314,-141.570425651551,4,1,0,100,0,0
224379,-140.255840710883,4,1,0,100,0,0
224445,-138.930354378268,4,1,0,100,0,0
224575,-136.348141178115,4,1,0,100,0,0
224706,-133.786078850598,4,1,0,100,0,0
224836,-131.284936607325,4,1,0,100,0,0
224966,-128.826336576946,4,1,0,100,0,0
225032,-127.594754555317,4,1,0,100,0,0
225097,-126.392930775105,4,1,0,100,0,0
225162,-125.202214176539,4,1,0,100,0,0
225227,-124.022684379735,4,1,0,100,0,0
225292,-122.854407936992,4,1,0,100,0,0
225358,-121.679728103844,4,1,0,100,0,0
225423,-120.534284288376,4,1,0,100,0,0
225488,-119.400222669359,4,1,0,100,0,0
225619,-117.149314092701,4,1,0,100,0,0
225749,-114.961423628307,4,1,0,100,0,0
225814,-113.884580293088,4,1,0,100,0,0
225880,-112.802808478091,4,1,0,100,0,0
225945,-111.748859860643,4,1,0,100,0,0
226010,-110.706221004567,4,1,0,100,0,0
226075,-109.674850265862,4,1,0,100,0,0
226140,-108.654700296313,4,1,0,100,0,0
226271,-106.63258169404,4,1,0,100,0,0
226401,-104.670255545,4,1,0,100,0,0
226466,-103.705493422041,4,1,0,100,0,0
226532,-102.73697627242,4,1,0,100,0,0
226662,-100.861650843561,4,1,0,100,0,0
226793,-99.0147632648386,4,1,0,100,0,0
226858,-98.1141226194062,4,1,0,100,0,0
226923,-97.2238110573696,4,1,0,100,0,0
226988,-96.3437365369412,4,1,0,100,0,0
227053,-95.4738053309399,4,1,0,100,0,0
227119,-94.600771216843,4,1,0,100,0,0
227184,-93.7509919666157,4,1,0,100,0,0
227249,-92.911065014552,4,1,0,100,0,0
227314,-92.0808916165893,4,1,0,100,0,0
227379,-91.2603721664039,4,1,0,100,0,0
227445,-90.4370040255281,4,1,0,100,0,0
227510,-89.635635512344,4,1,0,100,0,0
227575,-88.8436167161114,4,1,0,100,0,0
227640,-88.0608458624574,4,1,0,100,0,0
227705,-87.2872209213551,4,1,0,100,0,0
227771,-86.5109470195829,4,1,0,100,0,0
227836,-85.7554440446214,4,1,0,100,0,0
227901,-85.0087787498424,4,1,0,100,0,0
227966,-84.2708490182457,4,1,0,100,0,0
228032,-83.5303998761012,4,1,0,100,0,0
228097,-82.8097661907781,4,1,0,100,0,0
228162,-82.097561537651,4,1,0,100,0,0
228227,-81.3936849442656,4,1,0,100,0,0
228292,-80.6980358775863,4,1,0,100,0,0
228358,-80,4,1,0,100,0,0
229259,-66.6666666666667,4,1,0,100,0,0
229993,-100,4,1,0,100,0,0
231232,-68.3892450299942,4,1,0,100,0,0
231684,-69.7120289525369,4,1,0,100,0,0
231749,-70.1563325365888,4,1,0,100,0,0
231879,-71.053452943818,4,1,0,100,0,0
232010,-71.9690792437579,4,1,0,100,0,0
232140,-72.889380054029,4,1,0,100,0,0
232205,-73.3539342103766,4,1,0,100,0,0
232336,-74.2992055319574,4,1,0,100,0,0
232401,-74.7727450889904,4,1,0,100,0,0
232532,-75.7362998366578,4,1,0,100,0,0
232662,-76.7047737818439,4,1,0,100,0,0
232727,-77.1936450199536,4,1,0,100,0,0
232858,-78.1883965575654,4,1,0,100,0,0
232923,-78.686723537052,4,1,0,100,0,0
233053,-79.6929258699102,4,1,0,100,0,0
233184,-80.7198842487429,4,1,0,100,0,0
233314,-81.7520855171168,4,1,0,100,0,0
233379,-82.2731253598059,4,1,0,100,0,0
233445,-82.8055791402007,4,1,0,100,0,0
233510,-83.3333333333333,4,1,0,100,0,0
233575,-66.6666666666667,4,1,0,100,0,0
234355,-80,4,1,0,100,0,0
235662,-66.6666666666667,4,1,0,100,0,0
235792,-67.6622287854896,4,1,0,100,0,0
235858,-68.1733441354321,4,1,0,100,0,0
235988,-69.1914061194528,4,1,0,100,0,0
236053,-69.7061241853248,4,1,0,100,0,0
236184,-70.7551431089384,4,1,0,100,0,0
236249,-71.2814938864996,4,1,0,100,0,0
236379,-72.3459712127973,4,1,0,100,0,0
236445,-72.8924671981806,4,1,0,100,0,0
236575,-73.9810018845313,4,1,0,100,0,0
236705,-75.0857921293634,4,1,0,100,0,0
236836,-76.2157705603663,4,1,0,100,0,0
236901,-76.7827431977492,4,1,0,100,0,0
237032,-77.9382593243847,4,1,0,100,0,0
237097,-78.5180456352399,4,1,0,100,0,0
237227,-79.6905895134167,4,1,0,100,0,0
237292,-80.283411489483,4,1,0,100,0,0
237423,-81.4916097488041,4,1,0,100,0,0
237488,-82.0978295975854,4,1,0,100,0,0
237619,-83.3333333333333,4,1,0,100,0,0
237689,-66.6666666666667,4,1,0,100,0,0
238594,-100,4,1,0,100,0,0
239327,-72.376764009325,4,1,0,100,0,0
239966,-73.8968492763666,4,1,0,100,0,0
240032,-74.6807616487202,4,1,0,100,0,0
240097,-75.4609239807332,4,1,0,100,0,0
240227,-77.0457839886451,4,1,0,100,0,0
240358,-78.6765079368889,4,1,0,100,0,0
240488,-80.3289029038942,4,1,0,100,0,0
240553,-81.1680692813387,4,1,0,100,0,0
240684,-82.8860440692816,4,1,0,100,0,0
240749,-83.7519239559463,4,1,0,100,0,0
240879,-85.510914806593,4,1,0,100,0,0
241010,-87.3208087344931,4,1,0,100,0,0
241075,-88.2330169695403,4,1,0,100,0,0
241205,-90.0861214982914,4,1,0,100,0,0
241271,-91.0417728678883,4,1,0,100,0,0
241401,-92.9538679928374,4,1,0,100,0,0
241532,-94.9212968483884,4,1,0,100,0,0
241662,-96.9148712619824,4,1,0,100,0,0
241727,-97.9273051244828,4,1,0,100,0,0
241792,-98.9503155095808,4,1,0,100,0,0
241858,-100,4,1,0,100,0,0
241923,-83.3333333333333,4,1,0,100,0,0
242053,-87.8233180622158,4,1,0,100,0,0
242119,-90.1946340626724,4,1,0,100,0,0
242184,-92.5925925925926,4,1,0,100,0,0
242314,-83.3333333333333,4,1,0,100,0,0
242445,-87.234828092023,4,1,0,100,0,0
242510,-89.237961976286,4,1,0,100,0,0
242575,-91.2870929175277,4,1,0,100,0,0
242640,-93.3832771253542,4,1,0,100,0,0
242705,-95.5275950626348,4,1,0,100,0,0
242836,-100,4,1,0,100,0,0
242966,-83.3333333333333,4,1,0,100,0,0
243097,-87.8587777479535,4,1,0,100,0,0
243162,-90.1946340626724,4,1,0,100,0,0
243227,-92.5925925925926,4,1,0,100,0,0
243358,-83.3333333333333,4,1,0,100,0,0
243488,-87.2119647589631,4,1,0,100,0,0
243553,-89.21846130412,4,1,0,100,0,0
243619,-91.303067064427,4,1,0,100,0,0
243684,-93.4036881103274,4,1,0,100,0,0
243749,-95.5526384064967,4,1,0,100,0,0
243879,-100,4,1,0,100,0,0
244010,-83.3333333333333,4,1,0,100,0,0
244140,-82.7728341186241,4,1,0,100,0,0
244205,-82.388247862705,4,1,0,100,0,0
244336,-81.5096364287646,4,1,0,100,0,0
244401,-81.0367992839581,4,1,0,100,0,0
244532,-80.0312204283376,4,1,0,100,0,0
244597,-79.5119319002069,4,1,0,100,0,0
244727,-78.4435144846827,4,1,0,100,0,0
244792,-77.8976522003523,4,1,0,100,0,0
244923,-76.7805743821641,4,1,0,100,0,0
245053,-75.6565873011678,4,1,0,100,0,0
245184,-74.515244280622,4,1,0,100,0,0
245249,-73.9474198151976,4,1,0,100,0,0
245379,-72.8116298186395,4,1,0,100,0,0
245445,-72.2359257014175,4,1,0,100,0,0
245575,-71.1059047220832,4,1,0,100,0,0
245640,-70.5435790582472,4,1,0,100,0,0
245771,-69.4172934608565,4,1,0,100,0,0
245836,-68.8624704329562,4,1,0,100,0,0
245966,-67.761978293308,4,1,0,100,0,0
246097,-66.6666666666667,4,1,0,100,0,0
246358,-69.2407826812108,4,1,0,100,0,0
246619,-71.9142897945998,4,1,0,100,0,0
246879,-74.6801848238294,4,1,0,100,0,0
247140,-77.5637167196914,4,1,0,100,0,0
247401,-80.5585868000272,4,1,0,100,0,0
247662,-83.6690940258921,4,1,0,100,0,0
247923,-86.8997033487087,4,1,0,100,0,0
248184,-75.187969924812,4,1,0,100,0,0
248445,-80.1566710954819,4,1,0,100,0,0
248705,-85.4327736131143,4,1,0,100,0,0
248966,-91.0784895792396,4,1,0,100,0,0
249227,-97.0972954899159,4,1,0,100,0,0
249488,-103.513846518652,4,1,0,100,0,0
249749,-110.354427144676,4,1,0,100,0,0
250010,-117.647058823529,4,1,0,100,0,0
250271,-100,4,1,0,100,0,0
250336,-99.1615148685322,4,1,0,100,0,0
250401,-98.3300603102214,4,1,0,100,0,0
250466,-97.5055773747569,4,1,0,100,0,0
250532,-96.675483301224,4,1,0,100,0,0
250597,-95.8648737479686,4,1,0,100,0,0
250662,-95.0610610352915,4,1,0,100,0,0
250727,-94.2639881726951,4,1,0,100,0,0
250792,-93.4735986475386,4,1,0,100,0,0
250858,-92.6778300119568,4,1,0,100,0,0
250923,-91.9007401871396,4,1,0,100,0,0
250988,-91.1301661449616,4,1,0,100,0,0
251053,-90.3660532515542,4,1,0,100,0,0
251119,-89.5967400771461,4,1,0,100,0,0
251184,-88.8454847333194,4,1,0,100,0,0
251249,-88.10052855385,4,1,0,100,0,0
251314,-87.3618187211815,4,1,0,100,0,0
251379,-86.6293028606245,4,1,0,100,0,0
251445,-85.8918017572516,4,1,0,100,0,0
251510,-85.1716117703673,4,1,0,100,0,0
251575,-84.4574604694413,4,1,0,100,0,0
251640,-83.7492972209898,4,1,0,100,0,0
251705,-83.0470718160831,4,1,0,100,0,0
251771,-82.3400673144448,4,1,0,100,0,0
251836,-81.6496580927726,4,1,0,100,0,0
251901,-80.9650378497704,4,1,0,100,0,0
251966,-80.2861580457129,4,1,0,100,0,0
252032,-79.6026580267926,4,1,0,100,0,0
252097,-78.9352015749848,4,1,0,100,0,0
252162,-78.2733416462845,4,1,0,100,0,0
252227,-77.6170313146774,4,1,0,100,0,0
252292,-76.9662240476172,4,1,0,100,0,0
252358,-76.3109876174119,4,1,0,100,0,0
252401,-75.8870951798978,4,1,0,100,0,0
252445,-75.4557820875312,4,1,0,100,0,0
252488,-75.0366401475267,4,1,0,100,0,0
252553,-74.4074690767368,4,1,0,100,0,0
252619,-73.7740160910702,4,1,0,100,0,0
252662,-73.364216028426,4,1,0,100,0,0
252705,-72.9566923240479,4,1,0,100,0,0
252749,-72.5420345156217,4,1,0,100,0,0
252814,-71.933780342144,4,1,0,100,0,0
252879,-71.3306262894725,4,1,0,100,0,0
252923,-70.9252104156349,4,1,0,100,0,0
252966,-70.5312349048602,4,1,0,100,0,0
253010,-70.130362464518,4,1,0,100,0,0
253075,-69.5423298026086,4,1,0,100,0,0
253140,-68.9592277071374,4,1,0,100,0,0
253184,-68.5672899517251,4,1,0,100,0,0
253227,-68.1864122225952,4,1,0,100,0,0
253271,-67.798866853473,4,1,0,100,0,0
253336,-67.230383435603,4,1,0,100,0,0
253401,-66.6666666666667,4,1,0,100,0,0
254184,-76.9230769230769,4,1,0,100,0,0
254249,-74.2299554066808,4,1,0,100,0,0
254314,-71.6311216358116,4,1,0,100,0,0
254379,-69.1232745418387,4,1,0,100,0,0
254450,-66.6666666666667,4,1,0,100,0,1
254515,-78.4866270706766,4,1,0,100,0,1
254640,-79.28027993428,4,1,0,100,0,1
254705,-80.0819581761091,4,1,0,100,0,1
254836,-81.7223648191277,4,1,0,100,0,1
254966,-83.3834660216045,4,1,0,100,0,1
255032,-84.2396736889278,4,1,0,100,0,1
255097,-85.0915010733818,4,1,0,100,0,1
255162,-85.9519420939187,4,1,0,100,0,1
255227,-86.8210838511977,4,1,0,100,0,1
255292,-87.6990143266353,4,1,0,100,0,1
255358,-88.599535401925,4,1,0,100,0,1
255488,-90.4004230184393,4,1,0,100,0,1
255619,-92.2521941018214,4,1,0,100,0,1
255684,-93.1850436935955,4,1,0,100,0,1
255749,-94.1273262139773,4,1,0,100,0,1
255879,-96.0405725463127,4,1,0,100,0,1
256010,-98.0078770028024,4,1,0,100,0,1
256140,-100,4,1,0,100,0,1
256271,-79.3650793650794,4,1,0,100,0,1
256336,-78.0130665302949,4,1,0,100,0,1
256401,-76.6840857231987,4,1,0,100,0,1
256466,-75.3777445848681,4,1,0,100,0,1
256532,-74.0740740740741,4,1,0,100,0,1
256662,-78.4866270706766,4,1,0,100,0,1
256727,-79.28027993428,4,1,0,100,0,1
256792,-80.0819581761091,4,1,0,100,0,1
256923,-81.7223648191277,4,1,0,100,0,1
257053,-83.3834660216045,4,1,0,100,0,1
257119,-84.2396736889278,4,1,0,100,0,1
257184,-85.0915010733818,4,1,0,100,0,1
257249,-85.9519420939187,4,1,0,100,0,1
257314,-86.8210838511977,4,1,0,100,0,1
257379,-87.6990143266353,4,1,0,100,0,1
257445,-88.599535401925,4,1,0,100,0,1
257575,-90.4004230184393,4,1,0,100,0,1
257705,-92.2379157502355,4,1,0,100,0,1
257771,-93.1850436935955,4,1,0,100,0,1
257836,-94.1273262139773,4,1,0,100,0,1
257901,-95.0791370482712,4,1,0,100,0,1
257966,-96.0405725463127,4,1,0,100,0,1
258097,-98.0078770028024,4,1,0,100,0,1
258227,-100,4,1,0,100,0,1
258358,-83.3333333333333,4,1,0,100,0,1
258423,-82.0624749408248,4,1,0,100,0,1
258488,-80.8109975209621,4,1,0,100,0,1
258553,-79.5786055080841,4,1,0,100,0,1
258619,-78.3464823971817,4,1,0,100,0,1
258749,-75.975088737297,4,1,0,100,0,1
258814,-74.8164457875765,4,1,0,100,0,1
258879,-73.6754724912549,4,1,0,100,0,1
259010,-71.4285714285714,4,1,0,100,0,1
259140,-80,4,1,0,100,0,1
259205,-78.8789836303654,4,1,0,100,0,1
259271,-77.7567925294798,4,1,0,100,0,1
259336,-76.667209563532,4,1,0,100,0,1
259401,-75.5928946018455,4,1,0,100,0,1
259532,-73.4732627782316,4,1,0,100,0,1
259662,-82.6446280991736,4,1,0,100,0,1
259792,-84.9184876192544,4,1,0,100,0,1
259858,-86.0967455502346,4,1,0,100,0,1
259923,-87.2731288136054,4,1,0,100,0,1
260053,-89.6743355146861,4,1,0,100,0,1
260184,-92.1608480562855,4,1,0,100,0,1
260249,-93.420088211051,4,1,0,100,0,1
260314,-94.6965339992368,4,1,0,100,0,1
260379,-95.9904205100914,4,1,0,100,0,1
260445,-97.3223033242466,4,1,0,100,0,1
260575,-100,4,1,0,100,0,1
260705,-80,4,1,0,100,0,1
260836,-78.4974509433846,4,1,0,100,0,1
260901,-77.7624198563866,4,1,0,100,0,1
260966,-77.0342714221672,4,1,0,100,0,1
261032,-76.3018967239448,4,1,0,100,0,1
261097,-75.5874242740118,4,1,0,100,0,1
261227,-74.1784871693015,4,1,0,100,0,1
261292,-73.4838978112948,4,1,0,100,0,1
261358,-72.7852769703341,4,1,0,100,0,1
261423,-72.1037332946351,4,1,0,100,0,1
261488,-71.4285714285714,4,1,0,100,0,1
261619,-80,4,1,0,100,0,1
261749,-79.0014939720632,4,1,0,100,0,1
261814,-78.5069242302801,4,1,0,100,0,1
261879,-78.0154506227242,4,1,0,100,0,1
261945,-77.5195638992225,4,1,0,100,0,1
262010,-77.0342714221672,4,1,0,100,0,1
262075,-76.5520170012674,4,1,0,100,0,1
262140,-76.0727816175077,4,1,0,100,0,1
262271,-75.1160348390706,4,1,0,100,0,1
262336,-74.6457890742592,4,1,0,100,0,1
262466,-73.7141106948749,4,1,0,100,0,1
262532,-73.2455644192776,4,1,0,100,0,1
262662,-72.3313626993741,4,1,0,100,0,1
262792,-66.6666666666667,4,1,0,100,0,1
262863,-78.4856958650903,4,1,0,100,0,1
262987,-79.2788690056287,4,1,0,100,0,1
263052,-80.0800579205569,4,1,0,100,0,1
263183,-81.7194486073152,4,1,0,100,0,1
263313,-83.379501265536,4,1,0,100,0,1
263379,-84.2351608246265,4,1,0,100,0,1
263444,-85.0864378161674,4,1,0,100,0,1
263509,-85.9463177771719,4,1,0,100,0,1
263574,-86.8148876488873,4,1,0,100,0,1
263639,-87.6922352511857,4,1,0,100,0,1
263705,-88.5921530752528,4,1,0,100,0,1
263835,-90.3918181698716,4,1,0,100,0,1
263836,-90.4058024961301,4,1,0,100,0,1
263966,-92.242310148959,4,1,0,100,0,1
264031,-93.1745070547128,4,1,0,100,0,1
264096,-94.1161247031789,4,1,0,100,0,1
264226,-96.0280040129099,4,1,0,100,0,1
264357,-97.9938794072925,4,1,0,100,0,1
264487,-99.9845316054142,4,1,0,100,0,1
264618,-79.3861422546319,4,1,0,100,0,1
264683,-78.0286139047391,4,1,0,100,0,1
264748,-76.694299722564,4,1,0,100,0,1
264813,-75.3828027384353,4,1,0,100,0,1
264879,-74.0740740740741,4,1,0,100,0,1
265009,-78.2739132653868,4,1,0,100,0,1
265074,-78.9582012697329,4,1,0,100,0,1
265139,-79.6484714724049,4,1,0,100,0,1
265270,-81.0580219747926,4,1,0,100,0,1
265400,-75.742941345228,4,1,0,100,0,1
265466,-76.7149027041617,4,1,0,100,0,1
265531,-77.6843271191987,4,1,0,100,0,1
265596,-78.6660018749563,4,1,0,100,0,1
265661,-79.6600817755072,4,1,0,100,0,1
265726,-80.6667235811395,4,1,0,100,0,1
265792,-81.701868729719,4,1,0,100,0,1
265922,-88.4674966671008,4,1,0,100,0,1
265923,-83.7798019957711,4,1,0,100,0,1
266052,-85.9105835837195,4,1,0,100,0,1
266118,-87.0130198778981,4,1,0,100,0,1
266183,-88.1125786718528,4,1,0,100,0,1
266248,-89.2260322776765,4,1,0,100,0,1
266313,-90.3535562801565,4,1,0,100,0,1
266444,-92.6694302833914,4,1,0,100,0,1
266574,-95.0263028363187,4,1,0,100,0,1
266705,-97.4619451444067,4,1,0,100,0,1
266770,-98.6935440362718,4,1,0,100,0,1
266835,-99.9407062931837,4,1,0,100,0,1
266928,-71.4285714285714,4,1,0,100,0,1
267096,-78.7319580942864,4,1,0,100,0,1
267161,-76.8532018687716,4,1,0,100,0,1
267226,-75.0192778186574,4,1,0,100,0,1
267357,-71.4551170357504,4,1,0,100,0,1
267487,-80,4,1,0,100,0,1
267552,-77.8074531352808,4,1,0,100,0,1
267618,-75.6093079608154,4,1,0,100,0,1
267748,-71.4595931289178,4,1,0,100,0,1
267879,-80,4,1,0,100,0,1
268010,-71.4285714285714,4,1,0,100,0,1
268139,-80,4,1,0,100,0,1
268205,-77.7736757319933,4,1,0,100,0,1
268270,-75.6093079608154,4,1,0,100,0,1
268400,-71.4595931289178,4,1,0,100,0,1
268531,-80,4,1,0,100,0,1
268596,-77.7991373367277,4,1,0,100,0,1
268661,-75.6258511814263,4,1,0,100,0,1
268792,-71.4285714285714,4,1,0,100,0,1
268922,-80,4,1,0,100,0,1
269052,-71.4908670864405,4,1,0,100,0,1
269053,-71.4285714285714,4,1,0,100,0,1
269183,-80,4,1,0,100,0,1
269248,-78.5296822252035,4,1,0,100,0,1
269379,-75.6038504383596,4,1,0,100,0,1
269444,-74.1928219735215,4,1,0,100,0,1
269574,-71.4492775138231,4,1,0,100,0,1
269705,-80,4,1,0,100,0,1
269771,-78.4917792540658,4,1,0,100,0,1
269901,-75.6036959014079,4,1,0,100,0,1
269966,-74.1997518738637,4,1,0,100,0,1
270096,-71.4695924839917,4,1,0,100,0,1
270097,-71.448985424407,4,1,0,100,0,1
270226,-80,4,1,0,100,0,1
270292,-79.3587467909169,4,1,0,100,0,1
270357,-78.7226336528107,4,1,0,100,0,1
270422,-78.0916193845939,4,1,0,100,0,1
270487,-77.4656631154331,4,1,0,100,0,1
270618,-76.21932506013,4,1,0,100,0,1
270683,-75.608376475268,4,1,0,100,0,1
270813,-74.4011315293289,4,1,0,100,0,1
270879,-73.795619417953,4,1,0,100,0,1
271009,-72.617318907772,4,1,0,100,0,1
271140,-71.448985424407,4,1,0,100,0,1
271341,-90.9090909090909,4,1,0,100,0,0
271401,-90.7347082987259,4,1,0,100,0,0
271532,-90.1813247337788,4,1,0,100,0,0
271597,-89.8568235831714,4,1,0,100,0,0
271662,-89.5095213806758,4,1,0,100,0,0
271727,-89.143612631664,4,1,0,100,0,0
271792,-88.7621288553818,4,1,0,100,0,0
271858,-88.3612296900155,4,1,0,100,0,0
271923,-87.9549435881333,4,1,0,100,0,0
271988,-87.5388191460505,4,1,0,100,0,0
272053,-87.1141420342403,4,1,0,100,0,0
272119,-86.6753129981379,4,1,0,100,0,0
272184,-86.2365986551323,4,1,0,100,0,0
272249,-85.7922442427493,4,1,0,100,0,0
272314,-85.3429941691653,4,1,0,100,0,0
272379,-84.8895134305661,4,1,0,100,0,0
272445,-84.4253418048103,4,1,0,100,0,0
272510,-83.9650917987173,4,1,0,100,0,0
272575,-83.5022465066855,4,1,0,100,0,0
272640,-83.0372519571747,4,1,0,100,0,0
272705,-82.5705158253273,4,1,0,100,0,0
272771,-82.0952012984059,4,1,0,100,0,0
272836,-81.626059274965,4,1,0,100,0,0
272901,-81.1562131280267,4,1,0,100,0,0
272966,-80.6859537806747,4,1,0,100,0,0
273097,-86.9565217391304,4,1,0,100,0,0
273227,-85.7839715509928,4,1,0,100,0,0
273292,-85.2036389937301,4,1,0,100,0,0
273358,-84.6183951445009,4,1,0,100,0,0
273488,-83.4773730203152,4,1,0,100,0,0
273553,-82.9126447093899,4,1,0,100,0,0
273619,-82.3431371635553,4,1,0,100,0,0
273684,-81.7860820109531,4,1,0,100,0,0
273749,-81.2327953623662,4,1,0,100,0,0
273814,-80.6832517236898,4,1,0,100,0,0
273879,-80.1374257732877,4,1,0,100,0,0
273945,-79.5869805566189,4,1,0,100,0,0
274010,-79.0485709316485,4,1,0,100,0,0
274075,-78.5138036728318,4,1,0,100,0,0
274140,-77.9826541393925,4,1,0,100,0,0
274205,-77.4550978572501,4,1,0,100,0,0
274271,-76.9230769230769,4,1,0,100,0,0
274401,-83.6242010007091,4,1,0,100,0,0
274466,-84.1229632724057,4,1,0,100,0,0
274532,-84.6324426860806,4,1,0,100,0,0
274662,-85.6450048491472,4,1,0,100,0,0
274727,-86.155819860434,4,1,0,100,0,0
274792,-86.6696815406563,4,1,0,100,0,0
274858,-87.1945848110242,4,1,0,100,0,0
274923,-87.7146420274707,4,1,0,100,0,0
275053,-88.7640803379469,4,1,0,100,0,0
275119,-89.3016680529627,4,1,0,100,0,0
275184,-89.8342926077134,4,1,0,100,0,0
275249,-90.3700939106986,4,1,0,100,0,0
275314,-90.9090909090909,4,1,0,100,0,0
275445,-89.9219356207027,4,1,0,100,0,0
275575,-88.952912966687,4,1,0,100,0,0
275705,-87.9943327580825,4,1,0,100,0,0
275771,-87.5116294640904,4,1,0,100,0,0
275836,-87.0388279778489,4,1,0,100,0,0
275901,-86.5685809091947,4,1,0,100,0,0
275966,-86.1008744573055,4,1,0,100,0,0
276097,-85.1659301881964,4,1,0,100,0,0
276227,-84.2481595115197,4,1,0,100,0,0
276358,-83.3333333333333,4,1,0,100,0,0
276488,-90.9090909090909,4,1,0,100,0,0
276553,-89.8342926077134,4,1,0,100,0,0
276619,-88.7559600072161,4,1,0,100,0,0
276684,-87.7066177016344,4,1,0,100,0,0
276749,-86.6696815406563,4,1,0,100,0,0
276814,-85.6450048491472,4,1,0,100,0,0
276879,-84.6324426860806,4,1,0,100,0,0
276945,-83.6165508772962,4,1,0,100,0,0
277010,-82.6279706819466,4,1,0,100,0,0
277075,-81.6510782540591,4,1,0,100,0,0
277140,-80.685735411715,4,1,0,100,0,0
277205,-79.73180560669,4,1,0,100,0,0
277271,-78.774738958905,4,1,0,100,0,0
277336,-77.8434024470356,4,1,0,100,0,0
277401,-76.9230769230769,4,1,0,100,0,0
277532,-78.2417822029324,4,1,0,100,0,0
277597,-78.9044690363712,4,1,0,100,0,0
277662,-79.5727686489012,4,1,0,100,0,0
277792,-80.9263967687874,4,1,0,100,0,0
277858,-81.6224117799422,4,1,0,100,0,0
277923,-82.3137316358702,4,1,0,100,0,0
277988,-83.0109067848823,4,1,0,100,0,0
278053,-83.7139868197347,4,1,0,100,0,0
278184,-85.1491098131549,4,1,0,100,0,0
278250,-85.8814426610605,4,1,0,100,0,0
278315,-86.6088353620677,4,1,0,100,0,0
278380,-87.3423888834464,4,1,0,100,0,0
278445,-88.0821554056868,4,1,0,100,0,0
278575,-89.5805383882295,4,1,0,100,0,0
278640,-90.3392614342903,4,1,0,100,0,0
278705,-91.1044106603114,4,1,0,100,0,0
278836,-92.6662289359377,4,1,0,100,0,0
278901,-93.451086950304,4,1,0,100,0,0
278966,-94.2425925007768,4,1,0,100,0,0
279032,-95.0531346933088,4,1,0,100,0,0
279097,-95.8582091569113,4,1,0,100,0,0
279227,-100,4,1,0,100,0,0
279292,-97.5700934579439,4,1,0,100,0,0
279358,-95.2207223641007,4,1,0,100,0,0
279423,-93.0149679258731,4,1,0,100,0,0
279488,-90.9090909090909,4,1,0,100,0,0
279619,-100,4,1,0,100,0,0
279684,-99.7803386049863,4,1,0,100,0,0
279749,-99.4608619581002,4,1,0,100,0,0
279879,-98.6828703512975,4,1,0,100,0,0
280010,-97.7817574899221,4,1,0,100,0,0
280075,-97.304081534155,4,1,0,100,0,0
280140,-96.8104267869327,4,1,0,100,0,0
280205,-96.303174883309,4,1,0,100,0,0
280271,-95.7762229983456,4,1,0,100,0,0
280336,-95.2472106232571,4,1,0,100,0,0
280401,-94.7096499321928,4,1,0,100,0,0
280466,-94.1647661413996,4,1,0,100,0,0
280532,-93.6051115074028,4,1,0,100,0,0
280597,-93.0486078165113,4,1,0,100,0,0
280662,-92.4876670782309,4,1,0,100,0,0
280727,-91.9230479446566,4,1,0,100,0,0
280792,-91.3554338760859,4,1,0,100,0,0
280858,-90.7766584625623,4,1,0,100,0,0
280923,-90.2048282961497,4,1,0,100,0,0
280988,-89.6317008188439,4,1,0,100,0,0
281053,-89.0577414105454,4,1,0,100,0,0
281184,-87.9001579710285,4,1,0,100,0,0
281249,-87.3261235760976,4,1,0,100,0,0
281314,-86.752762388901,4,1,0,100,0,0
281445,-85.6004632519121,4,1,0,100,0,0
281575,-84.4629926557294,4,1,0,100,0,0
281640,-83.897085654063,4,1,0,100,0,0
281705,-83.3333333333333,4,1,0,100,0,0
281836,-100,4,1,0,100,0,0
281901,-99.9915124637036,4,1,0,100,0,0
281966,-99.9660620972866,4,1,0,100,0,0
282032,-99.9229017246333,4,1,0,100,0,0
282097,-99.8634012122326,4,1,0,100,0,0
282162,-99.7871221686625,4,1,0,100,0,0
282227,-99.69417389226,4,1,0,100,0,0
282292,-99.5846891275606,4,1,0,100,0,0
282358,-99.4567601883702,4,1,0,100,0,0
282423,-99.3144443954634,4,1,0,100,0,0
282488,-99.1561294354348,4,1,0,100,0,0
282553,-98.9820369650322,4,1,0,100,0,0
282619,-98.7893717903287,4,1,0,100,0,0
282684,-98.5842376260102,4,1,0,100,0,0
282749,-98.3641151548724,4,1,0,100,0,0
282814,-98.1293033665221,4,1,0,100,0,0
282879,-97.880118292788,4,1,0,100,0,0
282945,-97.6127345354004,4,1,0,100,0,0
283010,-97.3356063820285,4,1,0,100,0,0
283075,-97.0451510925295,4,1,0,100,0,0
283140,-96.7417430525004,4,1,0,100,0,0
283205,-96.4257685432184,4,1,0,100,0,0
283271,-96.0924833631992,4,1,0,100,0,0
283336,-95.7523991814493,4,1,0,100,0,0
283401,-95.400974342775,4,1,0,100,0,0
283466,-95.0386319479897,4,1,0,100,0,0
283532,-94.6599860525078,4,1,0,100,0,0
283597,-94.2769513367271,4,1,0,100,0,0
283662,-93.8878978499671,4,1,0,100,0,0
283727,-93.8675075509392,4,1,0,100,0,0
283792,-93.8064114211395,4,1,0,100,0,0
283858,-93.7029559341307,4,1,0,100,0,0
283923,-93.5606525970809,4,1,0,100,0,0
283988,-93.3787610395431,4,1,0,100,0,0
284053,-93.1579370571923,4,1,0,100,0,0
284119,-92.8946927829142,4,1,0,100,0,0
284184,-92.5979346725794,4,1,0,100,0,0
284249,-92.2650032779672,4,1,0,100,0,0
284314,-91.8970476033089,4,1,0,100,0,0
284379,-91.4953186045057,4,1,0,100,0,0
284445,-91.0542342293405,4,1,0,100,0,0
284510,-90.5886049929408,4,1,0,100,0,0
284575,-90.093491779102,4,1,0,100,0,0
284640,-89.5704537774629,4,1,0,100,0,0
284705,-89.0211005531658,4,1,0,100,0,0
284771,-88.4380665596726,4,1,0,100,0,0
284836,-87.840720126082,4,1,0,100,0,0
284901,-87.2221112487034,4,1,0,100,0,0
284966,-86.5839480538515,4,1,0,100,0,0
285032,-85.9177162054856,4,1,0,100,0,0
285097,-85.2453266500766,4,1,0,100,0,0
285162,-84.5585015059444,4,1,0,100,0,0
285227,-83.8589007642079,4,1,0,100,0,0
285292,-83.148153896109,4,1,0,100,0,0
285358,-82.4167058392783,4,1,0,100,0,0
285423,-81.6882922417512,4,1,0,100,0,0
285488,-80.9534034917594,4,1,0,100,0,0
285553,-80.2134925302826,4,1,0,100,0,0
285619,-79.4584981345321,4,1,0,100,0,0
285684,-78.7126579842895,4,1,0,100,0,0
285749,-77.9658395640799,4,1,0,100,0,0
285814,-77.2192650722867,4,1,0,100,0,0
285879,-76.4740953610379,4,1,0,100,0,0
285945,-75.7200288685445,4,1,0,100,0,0
286010,-74.980966006446,4,1,0,100,0,0
286075,-74.246433951568,4,1,0,100,0,0
286140,-73.5173463044496,4,1,0,100,0,0
286205,-72.7945567657904,4,1,0,100,0,0
286271,-72.0679090530346,4,1,0,100,0,0
286336,-71.3601698336145,4,1,0,100,0,0
286401,-70.6609544756304,4,1,0,100,0,0
286466,-69.9708912834679,4,1,0,100,0,0
286532,-69.28016925863,4,1,0,100,0,0
286597,-68.6102533248264,4,1,0,100,0,0
286662,-67.9510814165052,4,1,0,100,0,0
286727,-67.3030884180458,4,1,0,100,0,0
286792,-65.1041666666667,4,1,0,100,0,0
287326,214.285714285714,4,1,0,100,1,8
287326,-111.111111111111,4,1,0,100,0,0
287428,-102.671070860397,4,1,0,100,0,0
287535,-94.8721391245857,4,1,0,100,0,0
287658,214.285714285714,4,1,0,100,1,1
287658,-86.9565217391304,4,1,0,100,0,1
287711,-90.9090909090909,4,1,0,100,0,1
293652,-90.8821025115762,4,1,0,100,0,1
293658,-90.9090909090909,4,1,0,100,0,0
293706,-92.3510039683417,4,1,0,100,0,0
293759,-93.8157872735672,4,1,0,100,0,0
293813,-95.3321050389511,4,1,0,100,0,0
293866,-96.8441717183879,4,1,0,100,0,0
293920,-98.409436396307,4,1,0,100,0,0
293973,-99.9703127627338,4,1,0,100,0,0
294080,-105.263157894737,4,1,0,100,0,0
294134,-103.821186880755,4,1,0,100,0,0
294187,-101.782334857324,4,1,0,100,0,0
294241,-99.4542911442867,4,1,0,100,0,0
294295,-96.9951683801667,4,1,0,100,0,0
294349,-94.4737347218161,4,1,0,100,0,0
294402,-91.9810550310193,4,1,0,100,0,0
294455,-89.4992345490121,4,1,0,100,0,0
294515,-86.9565217391304,4,1,0,100,0,1
294568,-90.9090909090909,4,1,0,100,0,1
297622,-90.9090909090909,4,1,0,100,0,1
297670,-90.8440402450899,4,1,0,100,0,1
297724,-90.7471231999204,4,1,0,100,0,1
297777,-90.6361591130748,4,1,0,100,0,1
297831,-90.5113159433941,4,1,0,100,0,1
297884,-90.3795112560907,4,1,0,100,0,1
297943,-90.2372920551631,4,1,0,100,0,1
297992,-90.0881629604237,4,1,0,100,0,1
298045,-89.935880926234,4,1,0,100,0,1
298099,-89.7753471605284,4,1,0,100,0,1
298152,-89.6130231482941,4,1,0,100,0,1
298205,-89.4464083170969,4,1,0,100,0,1
298259,-89.2726118952922,4,1,0,100,0,1
298313,-89.0950697595274,4,1,0,100,0,1
298366,-88.9174545456515,4,1,0,100,0,1
298420,-88.7333178644816,4,1,0,100,0,1
298473,-88.5497013282418,4,1,0,100,0,1
298528,-88.3563409671045,4,1,0,100,0,1
298580,-88.1710688590364,4,1,0,100,0,1
298635,-87.9726815210564,4,1,0,100,0,1
298688,-87.7793016490564,4,1,0,100,0,1
298742,-87.5801903182231,4,1,0,100,0,1
298795,-87.382851828717,4,1,0,100,0,1
298849,-87.1799631393119,4,1,0,100,0,1
298903,-86.9753469284788,4,1,0,100,0,1
298956,-86.7729459173987,4,1,0,100,0,1
299009,-86.5690833373362,4,1,0,100,0,1
299063,-86.3599655600959,4,1,0,100,0,1
299116,-86.153425050031,4,1,0,100,0,1
299170,-85.9417523676516,4,1,0,100,0,1
299223,-85.7328652185491,4,1,0,100,0,1
299277,-85.518956792468,4,1,0,100,0,1
299330,-85.3080196905039,4,1,0,100,0,1
299384,-85.0921622644412,4,1,0,100,0,1
299438,-84.8754211759195,4,1,0,100,0,1
299492,-84.6578591825953,4,1,0,100,0,1
299545,-84.4435856822746,4,1,0,100,0,1
299598,-84.2286329865362,4,1,0,100,0,1
299652,-84.0089794071016,4,1,0,100,0,1
299653,-84.0049059383458,4,1,0,100,0,1
299706,-83.7887264490496,4,1,0,100,0,1
299759,-83.5720176378099,4,1,0,100,0,1
299813,-83.350722320128,4,1,0,100,0,1
299866,-83.133080584235,4,1,0,100,0,1
299919,-82.9150402947037,4,1,0,100,0,1
299973,-82.6925173530084,4,1,0,100,0,1
300027,-82.4696624716391,4,1,0,100,0,1
300080,-82.2506492930774,4,1,0,100,0,1
300135,-82.0231106988491,4,1,0,100,0,1
300187,-81.8077728386837,4,1,0,100,0,1
300242,-81.5798238419296,4,1,0,100,0,1
300294,-81.3641619461909,4,1,0,100,0,1
300349,-81.1359353169637,4,1,0,100,0,1
300402,-80.9159182973513,4,1,0,100,0,1
300456,-80.6916889637208,4,1,0,100,0,1
300509,-80.4715794953299,4,1,0,100,0,1
300510,-80.4674263479139,4,1,0,100,0,1
300563,-80.2473109316355,4,1,0,100,0,1
300616,-80.0272149509132,4,1,0,100,0,1
300670,-79.8030111821638,4,1,0,100,0,1
300723,-79.583027108714,4,1,0,100,0,1
300777,-79.3589848165433,4,1,0,100,0,1
300830,-79.1392041545339,4,1,0,100,0,1
300885,-78.9112704146969,4,1,0,100,0,1
300937,-78.6959211300823,4,1,0,100,0,1
300991,-78.4724652928425,4,1,0,100,0,1
301044,-78.2533409306186,4,1,0,100,0,1
301098,-78.0302980399957,4,1,0,100,0,1
301152,-77.8074914079539,4,1,0,100,0,1
301206,-77.5849388468141,4,1,0,100,0,1
301259,-77.366771295146,4,1,0,100,0,1
301312,-77.1488807245737,4,1,0,100,0,1
301372,-76.9230769230769,4,1,0,100,0,0
302021,-133.333333333333,4,1,0,100,0,0
303086,-50,4,1,0,100,0,1
303126,-25,4,1,0,100,0,1
303943,-100,4,1,0,100,0,0

[HitObjects]
244,182,11987,5,0,0:0:0:0:
244,182,12174,1,0,0:0:0:0:
244,182,12362,1,8,0:0:0:0:
277,199,12549,1,0,0:0:0:0:
277,199,12643,1,8,0:0:0:0:
277,199,12737,1,0,0:0:0:0:
277,199,12830,1,8,0:0:0:0:
277,199,12924,1,0,0:0:0:0:
277,199,13018,1,0,0:0:0:0:
277,199,13112,1,8,0:0:0:0:
311,214,13487,1,0,0:0:0:0:
298,212,13674,1,0,0:0:0:0:
298,212,13862,1,8,0:0:0:0:
300,212,14049,1,8,0:0:0:0:
300,212,14143,1,8,0:0:0:0:
300,212,14237,1,0,0:0:0:0:
299,212,14330,1,8,0:0:0:0:
299,212,14424,1,0,0:0:0:0:
299,212,14518,1,0,0:0:0:0:
298,212,14612,1,8,0:0:0:0:
291,216,14987,1,0,0:0:0:0:
291,216,15174,1,0,0:0:0:0:
291,216,15362,1,8,0:0:0:0:
291,216,15549,1,0,0:0:0:0:
291,216,15643,1,8,0:0:0:0:
291,216,15737,1,0,0:0:0:0:
291,216,15830,1,8,0:0:0:0:
291,216,15924,1,0,0:0:0:0:
291,216,16018,1,0,0:0:0:0:
291,216,16112,1,8,0:0:0:0:
293,224,16487,1,0,0:0:0:0:
293,224,16674,1,0,0:0:0:0:
293,224,16862,1,8,0:0:0:0:
293,224,17049,1,8,0:0:0:0:
293,224,17143,1,8,0:0:0:0:
293,224,17237,1,0,0:0:0:0:
293,224,17330,1,0,0:0:0:0:
293,224,17424,1,8,0:0:0:0:
293,224,17612,1,8,0:0:0:0:
293,224,17705,1,8,0:0:0:0:
384,244,17799,1,0,0:0:0:0:
308,243,17987,1,0,0:0:0:0:
301,230,18174,1,0,0:0:0:0:
301,231,18362,1,8,0:0:0:0:
304,235,18549,1,0,0:0:0:0:
304,235,18643,1,8,0:0:0:0:
304,235,18737,1,0,0:0:0:0:
304,235,18830,1,8,0:0:0:0:
304,235,18924,1,0,0:0:0:0:
304,235,19018,1,0,0:0:0:0:
304,235,19112,1,8,0:0:0:0:
305,243,19487,1,0,0:0:0:0:
305,243,19674,1,0,0:0:0:0:
305,243,19862,1,8,0:0:0:0:
297,245,20049,1,8,0:0:0:0:
297,245,20143,1,8,0:0:0:0:
297,245,20237,1,0,0:0:0:0:
297,245,20330,1,8,0:0:0:0:
297,245,20424,1,8,0:0:0:0:
300,252,20612,1,8,0:0:0:0:
300,252,20705,1,8,0:0:0:0:
300,252,20799,1,0,0:0:0:0:
300,252,20987,1,0,0:0:0:0:
282,270,21174,1,0,0:0:0:0:
288,264,21362,1,8,0:0:0:0:
288,264,21549,1,0,0:0:0:0:
288,264,21643,1,0,0:0:0:0:
288,264,21737,1,8,0:0:0:0:
283,262,21830,1,0,0:0:0:0:
288,264,21924,1,8,0:0:0:0:
288,264,22018,1,8,0:0:0:0:
288,264,22112,1,0,0:0:0:0:
275,207,22487,1,0,0:0:0:0:
275,207,22674,1,0,0:0:0:0:
275,207,22862,1,8,0:0:0:0:
290,225,23049,1,0,0:0:0:0:
290,225,23143,1,8,0:0:0:0:
290,225,23237,1,0,0:0:0:0:
286,214,23330,1,8,0:0:0:0:
286,214,23424,1,8,0:0:0:0:
286,214,23612,1,8,0:0:0:0:
286,214,23705,1,8,0:0:0:0:
295,227,23799,1,0,0:0:0:0:
295,227,23987,1,12,0:0:0:0:
297,230,24174,1,0,0:0:0:0:
299,220,24268,1,0,0:0:0:0:
297,230,24362,1,8,0:0:0:0:
300,228,24455,1,0,0:0:0:0:
297,230,24549,1,8,0:0:0:0:
295,227,24737,1,0,0:0:0:0:
295,227,24924,1,0,0:0:0:0:
295,227,25018,1,0,0:0:0:0:
297,230,25112,1,8,0:0:0:0:
297,230,25205,1,8,0:0:0:0:
297,230,25299,1,0,0:0:0:0:
297,230,25487,1,8,0:0:0:0:
295,238,25580,1,0,0:0:0:0:
295,227,25674,1,8,0:0:0:0:
295,227,25862,1,0,0:0:0:0:
284,238,25955,1,8,0:0:0:0:
297,230,26049,1,8,0:0:0:0:
284,238,26143,1,0,0:0:0:0:
297,230,26237,1,8,0:0:0:0:
297,230,26424,1,0,0:0:0:0:
238,219,26518,1,8,0:0:0:0:
295,227,26612,1,0,0:0:0:0:
295,227,26799,1,0,0:0:0:0:
295,227,26987,1,12,0:0:0:0:
297,230,27174,1,0,0:0:0:0:
299,220,27268,1,8,0:0:0:0:
297,230,27362,1,0,0:0:0:0:
297,230,27549,1,8,0:0:0:0:
300,228,27643,1,8,0:0:0:0:
295,227,27737,1,0,0:0:0:0:
272,226,27830,1,8,0:0:0:0:
295,227,27924,1,0,0:0:0:0:
295,227,28018,1,0,0:0:0:0:
297,230,28112,1,8,0:0:0:0:
297,230,28205,1,8,0:0:0:0:
297,230,28299,1,0,0:0:0:0:
297,230,28487,1,8,0:0:0:0:
295,238,28580,1,0,0:0:0:0:
295,227,28674,1,8,0:0:0:0:
295,227,28862,1,0,0:0:0:0:
284,238,28955,1,8,0:0:0:0:
297,230,29049,1,8,0:0:0:0:
284,238,29143,1,0,0:0:0:0:
297,230,29237,1,8,0:0:0:0:
297,230,29424,1,0,0:0:0:0:
238,219,29518,1,8,0:0:0:0:
295,227,29612,1,0,0:0:0:0:
295,227,29799,1,0,0:0:0:0:
255,162,29987,1,12,0:0:0:0:
255,162,30080,1,0,0:0:0:0:
255,162,30174,1,0,0:0:0:0:
255,162,30268,1,8,0:0:0:0:
255,162,30362,1,8,0:0:0:0:
255,162,30455,1,0,0:0:0:0:
255,162,30549,1,8,0:0:0:0:
255,162,30643,1,0,0:0:0:0:
265,200,30737,1,0,0:0:0:0:
265,200,30830,1,0,0:0:0:0:
265,200,30924,1,8,0:0:0:0:
265,200,31018,1,0,0:0:0:0:
265,200,31112,1,8,0:0:0:0:
265,200,31205,1,8,0:0:0:0:
265,200,31299,1,0,0:0:0:0:
265,200,31393,1,0,0:0:0:0:
255,162,31487,1,12,0:0:0:0:
255,162,31580,1,0,0:0:0:0:
255,162,31674,1,0,0:0:0:0:
255,162,31768,1,8,0:0:0:0:
255,162,31862,1,8,0:0:0:0:
255,162,31955,1,0,0:0:0:0:
255,162,32049,1,8,0:0:0:0:
255,162,32143,1,0,0:0:0:0:
265,200,32237,1,0,0:0:0:0:
265,200,32330,1,0,0:0:0:0:
265,200,32424,1,8,0:0:0:0:
265,200,32518,1,0,0:0:0:0:
265,200,32612,1,8,0:0:0:0:
265,200,32705,1,8,0:0:0:0:
265,200,32799,1,0,0:0:0:0:
265,200,32893,1,0,0:0:0:0:
256,196,32987,5,8,0:0:0:0:
256,196,33033,1,8,0:0:0:0:
256,196,33080,1,0,0:0:0:0:
256,196,33127,1,0,0:0:0:0:
256,196,33174,1,0,0:0:0:0:
256,196,33221,1,8,0:0:0:0:
256,196,33268,1,0,0:0:0:0:
256,196,33315,1,0,0:0:0:0:
256,196,33362,1,8,0:0:0:0:
256,196,33408,1,8,0:0:0:0:
256,196,33455,1,0,0:0:0:0:
256,196,33502,1,0,0:0:0:0:
256,196,33549,1,8,0:0:0:0:
256,196,33596,1,0,0:0:0:0:
256,196,33643,1,0,0:0:0:0:
256,196,33690,1,0,0:0:0:0:
256,196,33737,1,8,0:0:0:0:
256,196,33783,1,8,0:0:0:0:
256,196,33830,1,0,0:0:0:0:
256,196,33877,1,0,0:0:0:0:
256,196,33924,1,8,0:0:0:0:
256,196,33971,1,0,0:0:0:0:
256,196,34018,1,0,0:0:0:0:
256,196,34065,1,0,0:0:0:0:
265,195,34112,1,8,0:0:0:0:
265,195,34158,1,8,0:0:0:0:
265,195,34205,1,8,0:0:0:0:
264,195,34252,1,8,0:0:0:0:
264,195,34299,1,0,0:0:0:0:
264,195,34346,1,0,0:0:0:0:
264,195,34393,1,0,0:0:0:0:
264,195,34440,1,0,0:0:0:0:
264,195,34487,1,12,0:0:0:0:
280,202,35237,1,0,0:0:0:0:
280,202,35330,1,0,0:0:0:0:
280,202,35424,1,8,0:0:0:0:
280,202,35612,1,0,0:0:0:0:
254,186,35987,1,12,0:0:0:0:
254,186,36362,1,8,0:0:0:0:
288,224,36437,1,0,0:0:0:0:
252,204,36512,1,0,0:0:0:0:
160,224,36587,1,8,0:0:0:0:
265,219,36737,1,0,0:0:0:0:
288,224,36812,1,0,0:0:0:0:
265,219,36887,1,8,0:0:0:0:
271,225,36962,1,0,0:0:0:0:
254,186,37112,1,8,0:0:0:0:
288,224,37187,1,0,0:0:0:0:
252,204,37262,1,0,0:0:0:0:
267,222,37337,1,8,0:0:0:0:
265,219,37487,1,8,0:0:0:0:
288,224,37562,1,8,0:0:0:0:
265,219,37637,1,0,0:0:0:0:
265,219,37712,1,0,0:0:0:0:
254,186,37862,1,0,0:0:0:0:
256,192,37937,1,8,0:0:0:0:
252,204,38012,1,8,0:0:0:0:
267,222,38087,1,0,0:0:0:0:
265,219,38237,1,8,0:0:0:0:
256,192,38312,1,0,0:0:0:0:
265,219,38387,1,0,0:0:0:0:
265,219,38462,1,8,0:0:0:0:
253,179,38612,1,0,0:0:0:0:
253,179,38799,1,0,0:0:0:0:
253,179,38893,1,0,0:0:0:0:
253,188,38987,1,12,0:0:0:0:
273,223,39080,1,0,0:0:0:0:
273,223,39174,1,8,0:0:0:0:
273,223,39221,1,8,0:0:0:0:
273,223,39268,1,0,0:0:0:0:
273,223,39362,1,8,0:0:0:0:
273,223,39455,1,0,0:0:0:0:
237,184,39549,1,8,0:0:0:0:
236,183,39596,1,0,0:0:0:0:
236,183,39643,1,0,0:0:0:0:
236,183,39737,1,8,0:0:0:0:
236,183,39783,1,8,0:0:0:0:
237,184,39830,1,0,0:0:0:0:
257,205,39877,1,0,0:0:0:0:
221,209,39924,1,8,0:0:0:0:
267,212,39971,1,0,0:0:0:0:
229,207,40018,1,0,0:0:0:0:
264,222,40065,1,8,0:0:0:0:
264,222,40112,1,8,0:0:0:0:
264,222,40205,1,0,0:0:0:0:
253,219,40299,1,8,0:0:0:0:
253,219,40393,1,0,0:0:0:0:
253,219,40487,1,8,0:0:0:0:
243,183,40580,1,0,0:0:0:0:
243,183,40674,1,8,0:0:0:0:
244,207,40721,1,8,0:0:0:0:
244,207,40768,1,0,0:0:0:0:
248,221,40862,1,8,0:0:0:0:
248,221,40955,1,0,0:0:0:0:
248,221,41049,1,8,0:0:0:0:
248,221,41096,1,0,0:0:0:0:
248,221,41143,1,0,0:0:0:0:
251,206,41237,1,8,0:0:0:0:
251,206,41283,1,8,0:0:0:0:
251,206,41330,1,0,0:0:0:0:
251,206,41377,1,0,0:0:0:0:
251,206,41424,1,8,0:0:0:0:
251,206,41471,1,0,0:0:0:0:
251,206,41518,1,8,0:0:0:0:
251,206,41565,1,8,0:0:0:0:
251,206,41612,1,0,0:0:0:0:
254,186,41987,1,12,0:0:0:0:
254,186,42362,1,8,0:0:0:0:
256,224,42437,1,0,0:0:0:0:
252,204,42512,1,0,0:0:0:0:
267,222,42587,1,8,0:0:0:0:
265,219,42737,1,0,0:0:0:0:
256,224,42812,1,0,0:0:0:0:
265,219,42887,1,8,0:0:0:0:
265,219,42962,1,0,0:0:0:0:
254,186,43112,1,8,0:0:0:0:
256,224,43187,1,0,0:0:0:0:
252,204,43262,1,0,0:0:0:0:
267,222,43337,1,0,0:0:0:0:
265,219,43487,1,0,0:0:0:0:
256,224,43562,1,0,0:0:0:0:
265,219,43637,1,8,0:0:0:0:
265,219,43712,1,8,0:0:0:0:
254,186,43862,1,8,0:0:0:0:
256,224,43937,1,0,0:0:0:0:
252,204,44012,1,0,0:0:0:0:
267,222,44087,1,8,0:0:0:0:
265,219,44237,1,8,0:0:0:0:
256,224,44312,1,0,0:0:0:0:
265,219,44387,1,8,0:0:0:0:
265,219,44462,1,0,0:0:0:0:
253,179,44612,1,8,0:0:0:0:
273,209,44705,1,0,0:0:0:0:
253,179,44799,1,8,0:0:0:0:
253,188,44987,1,12,0:0:0:0:
273,223,45080,1,0,0:0:0:0:
273,223,45174,1,8,0:0:0:0:
273,223,45221,1,8,0:0:0:0:
273,223,45268,1,0,0:0:0:0:
273,223,45362,1,8,0:0:0:0:
273,223,45455,1,0,0:0:0:0:
237,184,45549,1,8,0:0:0:0:
236,183,45596,1,0,0:0:0:0:
236,183,45643,1,0,0:0:0:0:
236,183,45737,1,8,0:0:0:0:
236,183,45783,1,8,0:0:0:0:
237,184,45830,1,0,0:0:0:0:
257,205,45877,1,0,0:0:0:0:
221,209,45924,1,8,0:0:0:0:
267,212,45971,1,0,0:0:0:0:
229,207,46018,1,0,0:0:0:0:
264,222,46065,1,8,0:0:0:0:
264,222,46112,1,8,0:0:0:0:
264,222,46205,1,0,0:0:0:0:
253,219,46299,1,8,0:0:0:0:
253,219,46393,1,0,0:0:0:0:
253,219,46487,1,12,0:0:0:0:
240,224,47237,1,0,0:0:0:0:
251,224,47330,1,0,0:0:0:0:
251,224,47424,1,8,0:0:0:0:
247,225,47612,1,8,0:0:0:0:
231,204,47987,1,4,0:0:0:0:
231,204,48080,1,8,0:0:0:0:
231,204,48127,1,8,0:0:0:0:
239,219,48174,1,0,0:0:0:0:
239,219,48221,1,0,0:0:0:0:
239,219,48268,1,8,0:0:0:0:
239,219,48315,1,8,0:0:0:0:
239,219,48362,1,0,0:0:0:0:
225,207,48455,1,8,0:0:0:0:
225,206,48549,1,8,0:0:0:0:
225,206,48643,1,8,0:0:0:0:
225,206,48737,1,0,0:0:0:0:
231,216,48924,1,8,0:0:0:0:
231,216,49018,1,0,0:0:0:0:
231,216,49112,1,8,0:0:0:0:
279,234,49299,1,8,0:0:0:0:
279,234,49487,1,8,0:0:0:0:
238,230,49580,1,0,0:0:0:0:
238,230,49627,1,0,0:0:0:0:
238,230,49674,1,0,0:0:0:0:
238,229,49721,1,0,0:0:0:0:
238,229,49768,1,8,0:0:0:0:
271,240,49955,1,0,0:0:0:0:
271,240,50049,1,8,0:0:0:0:
266,224,50237,1,0,0:0:0:0:
266,224,50330,1,8,0:0:0:0:
387,285,50518,1,0,0:0:0:0:
260,235,50612,1,8,0:0:0:0:
260,235,50705,1,0,0:0:0:0:
260,235,50799,1,8,0:0:0:0:
260,235,50893,1,8,0:0:0:0:
260,235,50987,1,4,0:0:0:0:
257,186,51080,1,8,0:0:0:0:
257,186,51174,1,0,0:0:0:0:
326,172,51221,1,8,0:0:0:0:
257,186,51268,1,8,0:0:0:0:
257,186,51362,1,0,0:0:0:0:
257,186,51455,1,8,0:0:0:0:
257,186,51549,1,0,0:0:0:0:
261,196,51596,1,0,0:0:0:0:
257,186,51643,1,8,0:0:0:0:
257,186,51737,1,0,0:0:0:0:
257,186,51830,1,8,0:0:0:0:
257,186,51924,1,8,0:0:0:0:
257,186,52018,1,8,0:0:0:0:
257,186,52112,1,0,0:0:0:0:
239,176,52205,1,0,0:0:0:0:
257,186,52299,1,8,0:0:0:0:
250,185,52393,1,8,0:0:0:0:
250,185,52487,1,0,0:0:0:0:
259,197,52580,1,8,0:0:0:0:
259,197,52674,1,0,0:0:0:0:
259,197,52721,1,0,0:0:0:0:
259,197,52768,1,8,0:0:0:0:
251,195,52862,1,0,0:0:0:0:
268,210,52955,1,0,0:0:0:0:
261,207,53049,1,8,0:0:0:0:
261,207,53096,1,8,0:0:0:0:
261,207,53143,1,0,0:0:0:0:
263,206,53237,1,0,0:0:0:0:
263,206,53330,1,8,0:0:0:0:
263,206,53424,1,0,0:0:0:0:
263,206,53518,1,8,0:0:0:0:
260,214,53612,1,0,0:0:0:0:
260,213,53705,1,8,0:0:0:0:
261,218,53799,1,8,0:0:0:0:
261,218,53893,1,8,0:0:0:0:
261,218,53987,1,4,0:0:0:0:
253,210,54080,1,8,0:0:0:0:
243,202,54174,1,0,0:0:0:0:
259,201,54268,1,0,0:0:0:0:
256,201,54362,1,8,0:0:0:0:
256,199,54455,1,8,0:0:0:0:
256,199,54549,1,0,0:0:0:0:
256,199,54643,1,8,0:0:0:0:
261,218,54737,1,0,0:0:0:0:
253,210,54830,1,8,0:0:0:0:
243,202,54924,1,0,0:0:0:0:
259,201,55018,1,0,0:0:0:0:
256,201,55112,1,8,0:0:0:0:
256,199,55205,1,0,0:0:0:0:
256,199,55299,1,8,0:0:0:0:
256,199,55393,1,8,0:0:0:0:
261,218,55487,1,8,0:0:0:0:
253,210,55580,1,0,0:0:0:0:
243,202,55674,1,0,0:0:0:0:
259,201,55768,1,0,0:0:0:0:
256,201,55862,1,8,0:0:0:0:
256,199,55955,1,8,0:0:0:0:
256,199,56049,1,0,0:0:0:0:
256,199,56143,1,8,0:0:0:0:
261,218,56237,1,0,0:0:0:0:
253,210,56330,1,8,0:0:0:0:
243,202,56424,1,0,0:0:0:0:
259,201,56518,1,0,0:0:0:0:
256,201,56612,1,8,0:0:0:0:
256,199,56705,1,8,0:0:0:0:
256,199,56799,1,0,0:0:0:0:
261,218,56987,1,12,0:0:0:0:
253,210,57080,1,0,0:0:0:0:
243,202,57174,1,8,0:0:0:0:
259,201,57268,1,0,0:0:0:0:
256,201,57362,1,8,0:0:0:0:
256,199,57455,1,8,0:0:0:0:
256,199,57549,1,0,0:0:0:0:
256,199,57643,1,0,0:0:0:0:
249,210,57737,1,8,0:0:0:0:
253,210,57830,1,0,0:0:0:0:
249,209,57924,1,8,0:0:0:0:
249,209,58018,1,0,0:0:0:0:
261,218,58112,1,8,0:0:0:0:
253,210,58205,1,8,0:0:0:0:
243,202,58299,1,0,0:0:0:0:
259,201,58393,1,0,0:0:0:0:
256,201,58487,1,12,0:0:0:0:
268,209,59237,1,0,0:0:0:0:
268,209,59330,1,0,0:0:0:0:
268,209,59424,1,8,0:0:0:0:
268,209,59612,1,8,0:0:0:0:
249,190,59987,1,0,0:0:0:0:
249,190,60049,1,0,0:0:0:0:
249,190,60112,1,0,0:0:0:0:
249,190,60174,1,8,0:0:0:0:
249,190,60237,1,8,0:0:0:0:
249,190,60299,1,8,0:0:0:0:
249,190,60362,1,0,0:0:0:0:
248,177,60549,1,0,0:0:0:0:
248,177,60596,1,0,0:0:0:0:
248,177,60643,1,8,0:0:0:0:
248,177,60690,1,0,0:0:0:0:
248,177,60737,1,8,0:0:0:0:
240,188,60924,1,8,0:0:0:0:
240,188,61018,1,8,0:0:0:0:
242,194,61112,1,8,0:0:0:0:
242,194,61299,1,8,0:0:0:0:
242,194,61393,1,8,0:0:0:0:
242,194,61487,1,0,0:0:0:0:
245,193,61580,1,8,0:0:0:0:
245,193,61627,1,8,0:0:0:0:
245,193,61674,1,0,0:0:0:0:
245,193,61721,1,0,0:0:0:0:
245,193,61768,1,0,0:0:0:0:
253,194,61862,1,8,0:0:0:0:
253,194,62049,1,0,0:0:0:0:
253,194,62143,1,0,0:0:0:0:
252,196,62237,1,8,0:0:0:0:
252,177,62330,1,0,0:0:0:0:
250,179,62424,1,8,0:0:0:0:
253,194,62612,1,8,0:0:0:0:
253,194,62658,1,8,0:0:0:0:
253,194,62705,1,0,0:0:0:0:
253,194,62752,1,8,0:0:0:0:
253,194,62799,1,0,0:0:0:0:
249,190,62987,1,0,0:0:0:0:
249,190,63049,1,0,0:0:0:0:
249,190,63112,1,8,0:0:0:0:
249,190,63174,1,8,0:0:0:0:
249,190,63237,1,8,0:0:0:0:
253,194,63299,1,8,0:0:0:0:
249,190,63362,1,0,0:0:0:0:
248,177,63549,1,8,0:0:0:0:
248,177,63596,1,8,0:0:0:0:
248,177,63643,1,0,0:0:0:0:
248,177,63690,1,0,0:0:0:0:
248,177,63737,1,8,0:0:0:0:
240,188,63924,1,8,0:0:0:0:
240,188,64018,1,8,0:0:0:0:
242,194,64112,1,8,0:0:0:0:
242,194,64299,1,8,0:0:0:0:
242,194,64393,1,8,0:0:0:0:
242,194,64487,1,0,0:0:0:0:
245,193,64580,1,8,0:0:0:0:
245,193,64627,1,8,0:0:0:0:
245,193,64674,1,0,0:0:0:0:
245,193,64721,1,8,0:0:0:0:
245,193,64768,1,0,0:0:0:0:
253,194,64862,1,8,0:0:0:0:
253,194,65049,1,0,0:0:0:0:
253,194,65143,1,0,0:0:0:0:
252,196,65237,1,8,0:0:0:0:
252,177,65330,1,8,0:0:0:0:
250,179,65424,1,0,0:0:0:0:
253,194,65612,1,8,0:0:0:0:
253,194,65658,1,8,0:0:0:0:
253,194,65705,1,8,0:0:0:0:
253,194,65752,1,8,0:0:0:0:
253,194,65799,1,0,0:0:0:0:
249,190,65987,1,0,0:0:0:0:
249,190,66049,1,0,0:0:0:0:
249,190,66112,1,0,0:0:0:0:
249,190,66174,1,8,0:0:0:0:
249,190,66237,1,8,0:0:0:0:
249,190,66299,1,8,0:0:0:0:
249,190,66362,1,0,0:0:0:0:
248,177,66549,1,0,0:0:0:0:
248,177,66596,1,0,0:0:0:0:
248,177,66643,1,8,0:0:0:0:
248,177,66690,1,0,0:0:0:0:
248,177,66737,1,8,0:0:0:0:
240,188,66924,1,8,0:0:0:0:
240,188,67018,1,8,0:0:0:0:
242,194,67112,1,8,0:0:0:0:
242,194,67299,1,8,0:0:0:0:
242,194,67393,1,8,0:0:0:0:
242,194,67487,1,0,0:0:0:0:
245,193,67580,1,8,0:0:0:0:
245,193,67627,1,8,0:0:0:0:
245,193,67674,1,0,0:0:0:0:
245,193,67721,1,0,0:0:0:0:
245,193,67768,1,0,0:0:0:0:
253,194,67862,1,8,0:0:0:0:
253,194,68049,1,0,0:0:0:0:
253,194,68143,1,0,0:0:0:0:
252,196,68237,1,8,0:0:0:0:
252,177,68330,1,0,0:0:0:0:
250,179,68424,1,8,0:0:0:0:
253,194,68612,1,8,0:0:0:0:
253,194,68658,1,8,0:0:0:0:
253,194,68705,1,0,0:0:0:0:
253,194,68752,1,8,0:0:0:0:
253,194,68799,1,0,0:0:0:0:
249,190,68987,1,0,0:0:0:0:
249,190,69049,1,0,0:0:0:0:
249,190,69112,1,8,0:0:0:0:
249,190,69174,1,8,0:0:0:0:
249,190,69237,1,8,0:0:0:0:
249,190,69299,1,8,0:0:0:0:
249,190,69362,1,0,0:0:0:0:
248,177,69549,1,8,0:0:0:0:
248,177,69596,1,8,0:0:0:0:
248,177,69643,1,0,0:0:0:0:
248,177,69690,1,0,0:0:0:0:
248,177,69737,1,8,0:0:0:0:
240,188,69924,1,8,0:0:0:0:
240,188,70018,1,8,0:0:0:0:
242,194,70112,1,8,0:0:0:0:
242,194,70299,1,8,0:0:0:0:
242,194,70393,1,8,0:0:0:0:
242,194,70487,1,4,0:0:0:0:
283,183,71237,1,0,0:0:0:0:
288,183,71330,1,0,0:0:0:0:
288,183,71424,1,8,0:0:0:0:
288,183,71612,1,8,0:0:0:0:
253,188,71987,1,12,0:0:0:0:
273,223,72080,1,0,0:0:0:0:
273,223,72174,1,8,0:0:0:0:
273,223,72221,1,8,0:0:0:0:
273,223,72268,1,0,0:0:0:0:
273,223,72362,1,8,0:0:0:0:
273,223,72455,1,0,0:0:0:0:
237,184,72549,1,8,0:0:0:0:
236,183,72596,1,0,0:0:0:0:
236,183,72643,1,0,0:0:0:0:
236,183,72737,1,8,0:0:0:0:
236,183,72783,1,8,0:0:0:0:
237,184,72830,1,0,0:0:0:0:
257,205,72877,1,0,0:0:0:0:
221,209,72924,1,8,0:0:0:0:
267,212,72971,1,0,0:0:0:0:
229,207,73018,1,0,0:0:0:0:
264,222,73065,1,8,0:0:0:0:
264,222,73112,1,8,0:0:0:0:
264,222,73205,1,0,0:0:0:0:
253,219,73299,1,8,0:0:0:0:
253,219,73393,1,0,0:0:0:0:
253,219,73487,1,8,0:0:0:0:
243,183,73580,1,0,0:0:0:0:
243,183,73674,1,8,0:0:0:0:
244,207,73721,1,8,0:0:0:0:
244,207,73768,1,0,0:0:0:0:
248,221,73862,1,8,0:0:0:0:
248,221,73955,1,0,0:0:0:0:
248,221,74049,1,8,0:0:0:0:
248,221,74096,1,0,0:0:0:0:
248,221,74143,1,0,0:0:0:0:
251,206,74237,1,8,0:0:0:0:
251,206,74283,1,8,0:0:0:0:
251,206,74330,1,0,0:0:0:0:
251,206,74377,1,0,0:0:0:0:
251,206,74424,1,8,0:0:0:0:
251,206,74471,1,0,0:0:0:0:
251,206,74518,1,8,0:0:0:0:
251,206,74565,1,8,0:0:0:0:
251,206,74612,1,0,0:0:0:0:
241,175,74799,1,0,0:0:0:0:
239,230,74893,1,0,0:0:0:0:
254,186,74987,1,12,0:0:0:0:
254,186,75362,1,8,0:0:0:0:
256,224,75437,1,0,0:0:0:0:
252,204,75512,1,0,0:0:0:0:
267,222,75587,1,8,0:0:0:0:
265,219,75737,1,0,0:0:0:0:
256,224,75812,1,0,0:0:0:0:
265,219,75887,1,8,0:0:0:0:
265,219,75962,1,0,0:0:0:0:
254,186,76112,1,8,0:0:0:0:
256,224,76187,1,8,0:0:0:0:
252,204,76262,1,0,0:0:0:0:
267,222,76337,1,0,0:0:0:0:
265,219,76487,1,0,0:0:0:0:
256,224,76562,1,0,0:0:0:0:
265,219,76637,1,8,0:0:0:0:
265,219,76712,1,8,0:0:0:0:
254,186,76862,1,8,0:0:0:0:
256,224,76937,1,0,0:0:0:0:
252,204,77012,1,0,0:0:0:0:
267,222,77087,1,8,0:0:0:0:
265,219,77237,1,0,0:0:0:0:
256,224,77312,1,8,0:0:0:0:
265,219,77387,1,8,0:0:0:0:
265,219,77462,1,0,0:0:0:0:
253,179,77612,1,8,0:0:0:0:
253,188,77987,1,12,0:0:0:0:
273,223,78080,1,0,0:0:0:0:
273,223,78174,1,8,0:0:0:0:
273,223,78221,1,8,0:0:0:0:
273,223,78268,1,0,0:0:0:0:
273,223,78362,1,8,0:0:0:0:
273,223,78455,1,0,0:0:0:0:
237,184,78549,1,8,0:0:0:0:
236,183,78596,1,0,0:0:0:0:
236,183,78643,1,0,0:0:0:0:
236,183,78737,1,8,0:0:0:0:
236,183,78783,1,8,0:0:0:0:
237,184,78830,1,0,0:0:0:0:
257,205,78877,1,0,0:0:0:0:
221,209,78924,1,8,0:0:0:0:
267,212,78971,1,0,0:0:0:0:
229,207,79018,1,0,0:0:0:0:
264,222,79065,1,8,0:0:0:0:
264,222,79112,1,8,0:0:0:0:
264,222,79205,1,0,0:0:0:0:
253,219,79299,1,8,0:0:0:0:
253,219,79393,1,0,0:0:0:0:
253,219,79487,1,8,0:0:0:0:
243,183,79580,1,0,0:0:0:0:
243,183,79674,1,8,0:0:0:0:
244,207,79721,1,8,0:0:0:0:
244,207,79768,1,0,0:0:0:0:
248,221,79862,1,8,0:0:0:0:
248,221,79955,1,0,0:0:0:0:
248,221,80049,1,8,0:0:0:0:
248,221,80096,1,0,0:0:0:0:
248,221,80143,1,0,0:0:0:0:
251,206,80237,1,8,0:0:0:0:
251,206,80283,1,8,0:0:0:0:
251,206,80330,1,0,0:0:0:0:
251,206,80377,1,0,0:0:0:0:
251,206,80424,1,8,0:0:0:0:
251,206,80471,1,0,0:0:0:0:
251,206,80518,1,8,0:0:0:0:
251,206,80565,1,8,0:0:0:0:
251,206,80612,1,0,0:0:0:0:
256,224,80705,1,8,0:0:0:0:
256,225,80799,1,8,0:0:0:0:
257,224,80893,1,0,0:0:0:0:
253,219,80987,1,12,0:0:0:0:
243,183,81080,1,0,0:0:0:0:
243,183,81174,1,8,0:0:0:0:
244,207,81221,1,0,0:0:0:0:
244,207,81268,1,0,0:0:0:0:
248,221,81362,1,8,0:0:0:0:
248,221,81455,1,0,0:0:0:0:
248,221,81549,1,8,0:0:0:0:
248,221,81596,1,8,0:0:0:0:
248,221,81643,1,0,0:0:0:0:
251,206,81737,1,12,0:0:0:0:
251,206,81830,1,0,0:0:0:0:
251,206,81877,1,0,0:0:0:0:
251,206,81924,1,8,0:0:0:0:
251,206,81971,1,0,0:0:0:0:
251,206,82018,1,8,0:0:0:0:
251,206,82065,1,8,0:0:0:0:
251,206,82112,1,0,0:0:0:0:
271,207,82205,1,0,0:0:0:0:
253,200,82299,1,8,0:0:0:0:
253,200,82346,1,8,0:0:0:0:
253,200,82393,1,0,0:0:0:0:
253,200,82487,1,12,0:0:0:0:
256,192,82862,12,0,83612,0:0:0:0:
273,187,83987,5,12,0:0:0:0:
265,190,84362,1,0,0:0:0:0:
261,184,84737,1,8,0:0:0:0:
261,184,84799,1,8,0:0:0:0:
261,184,84862,1,8,0:0:0:0:
261,184,84924,1,0,0:0:0:0:
259,184,84987,1,8,0:0:0:0:
259,184,85049,1,8,0:0:0:0:
259,184,85112,1,0,0:0:0:0:
261,184,85174,1,0,0:0:0:0:
261,184,85237,1,8,0:0:0:0:
261,184,85299,1,8,0:0:0:0:
261,184,85362,1,8,0:0:0:0:
261,184,85424,1,8,0:0:0:0:
262,188,85487,1,0,0:0:0:0:
255,203,85862,1,0,0:0:0:0:
250,195,86237,1,8,0:0:0:0:
250,195,86299,1,8,0:0:0:0:
284,222,86362,1,8,0:0:0:0:
288,224,86424,1,0,0:0:0:0:
268,207,86612,1,8,0:0:0:0:
268,207,86674,1,0,0:0:0:0:
256,224,86737,1,0,0:0:0:0:
268,206,86799,1,8,0:0:0:0:
271,210,86987,1,8,0:0:0:0:
271,210,87362,1,0,0:0:0:0:
271,210,87737,1,12,0:0:0:0:
279,217,88037,1,8,0:0:0:0:
264,233,88112,1,0,0:0:0:0:
271,210,88337,1,8,0:0:0:0:
271,210,88412,1,8,0:0:0:0:
288,220,88487,1,0,0:0:0:0:
279,217,88787,1,8,0:0:0:0:
279,217,88862,1,0,0:0:0:0:
271,210,89087,1,0,0:0:0:0:
271,210,89162,1,0,0:0:0:0:
270,213,89237,1,8,0:0:0:0:
274,213,89537,1,8,0:0:0:0:
274,213,89612,1,0,0:0:0:0:
271,210,89837,1,0,0:0:0:0:
271,210,89912,1,0,0:0:0:0:
270,213,89987,1,12,0:0:0:0:
314,228,90362,1,0,0:0:0:0:
267,231,90737,1,8,0:0:0:0:
267,231,90830,1,0,0:0:0:0:
267,231,90877,1,0,0:0:0:0:
448,64,90924,1,8,0:0:0:0:
64,64,91018,1,0,0:0:0:0:
261,218,91112,1,8,0:0:0:0:
261,218,91205,1,8,0:0:0:0:
261,218,91299,1,8,0:0:0:0:
261,218,91393,1,8,0:0:0:0:
261,218,91487,1,0,0:0:0:0:
278,228,91862,1,0,0:0:0:0:
274,220,92237,1,8,0:0:0:0:
274,220,92299,1,8,0:0:0:0:
274,220,92362,1,0,0:0:0:0:
274,220,92424,1,8,0:0:0:0:
274,220,92487,1,0,0:0:0:0:
274,220,92549,1,0,0:0:0:0:
274,220,92612,1,8,0:0:0:0:
274,220,92674,1,8,0:0:0:0:
263,206,92737,1,8,0:0:0:0:
274,220,92799,1,8,0:0:0:0:
263,206,92862,1,8,0:0:0:0:
274,220,92924,1,8,0:0:0:0:
263,206,92987,1,0,0:0:0:0:
298,237,93362,1,0,0:0:0:0:
291,230,93737,1,12,0:0:0:0:
291,230,94037,1,0,0:0:0:0:
291,230,94112,1,8,0:0:0:0:
250,200,94337,1,8,0:0:0:0:
250,200,94412,1,8,0:0:0:0:
250,200,94487,1,0,0:0:0:0:
256,215,94787,1,0,0:0:0:0:
262,215,94862,1,8,0:0:0:0:
291,220,95087,1,0,0:0:0:0:
291,220,95162,1,0,0:0:0:0:
291,220,95237,1,8,0:0:0:0:
279,217,95424,1,8,0:0:0:0:
279,217,95612,1,0,0:0:0:0:
64,64,95799,1,0,0:0:0:0:
273,187,95987,5,12,0:0:0:0:
265,190,96362,1,0,0:0:0:0:
261,184,96737,1,8,0:0:0:0:
261,184,96799,1,8,0:0:0:0:
261,184,96862,1,8,0:0:0:0:
261,184,96924,1,0,0:0:0:0:
259,184,96987,1,8,0:0:0:0:
259,184,97049,1,8,0:0:0:0:
259,184,97112,1,0,0:0:0:0:
261,184,97174,1,0,0:0:0:0:
261,184,97237,1,8,0:0:0:0:
261,184,97299,1,8,0:0:0:0:
261,184,97362,1,8,0:0:0:0:
261,184,97424,1,8,0:0:0:0:
262,188,97487,1,0,0:0:0:0:
255,203,97862,1,0,0:0:0:0:
250,195,98237,1,8,0:0:0:0:
250,195,98312,1,8,0:0:0:0:
284,222,98387,1,8,0:0:0:0:
268,208,98462,1,0,0:0:0:0:
268,207,98612,1,8,0:0:0:0:
268,207,98687,1,0,0:0:0:0:
268,207,98762,1,0,0:0:0:0:
268,206,98837,1,8,0:0:0:0:
271,210,98987,1,8,0:0:0:0:
271,210,99362,1,0,0:0:0:0:
271,210,99737,1,12,0:0:0:0:
279,217,100037,1,8,0:0:0:0:
264,233,100112,1,0,0:0:0:0:
271,210,100337,1,8,0:0:0:0:
271,210,100412,1,8,0:0:0:0:
288,220,100487,1,0,0:0:0:0:
279,217,100787,1,8,0:0:0:0:
279,217,100862,1,0,0:0:0:0:
271,210,101087,1,0,0:0:0:0:
271,210,101162,1,0,0:0:0:0:
270,213,101237,1,8,0:0:0:0:
274,213,101537,1,8,0:0:0:0:
274,213,101612,1,0,0:0:0:0:
271,210,101837,1,0,0:0:0:0:
271,210,101912,1,0,0:0:0:0:
270,213,101987,1,12,0:0:0:0:
314,228,102362,1,0,0:0:0:0:
267,231,102737,1,8,0:0:0:0:
267,231,102830,1,0,0:0:0:0:
267,231,102877,1,0,0:0:0:0:
448,64,102924,1,8,0:0:0:0:
64,64,103018,1,0,0:0:0:0:
261,218,103112,1,8,0:0:0:0:
261,218,103205,1,8,0:0:0:0:
261,218,103299,1,8,0:0:0:0:
261,218,103393,1,8,0:0:0:0:
261,218,103487,1,0,0:0:0:0:
278,228,103862,1,0,0:0:0:0:
274,220,104237,1,8,0:0:0:0:
274,220,104299,1,8,0:0:0:0:
274,220,104362,1,0,0:0:0:0:
274,220,104424,1,8,0:0:0:0:
274,220,104487,1,0,0:0:0:0:
274,220,104549,1,0,0:0:0:0:
274,220,104612,1,8,0:0:0:0:
274,220,104674,1,8,0:0:0:0:
263,206,104737,1,8,0:0:0:0:
274,220,104799,1,8,0:0:0:0:
263,206,104862,1,8,0:0:0:0:
274,220,104924,1,8,0:0:0:0:
263,206,104987,1,4,0:0:0:0:
256,192,107049,12,0,107799,0:0:0:0:
250,172,107987,5,12,0:0:0:0:
260,180,108315,1,4,0:0:0:0:
260,180,108479,1,4,0:0:0:0:
260,180,108619,1,4,0:0:0:0:
260,180,108737,1,12,0:0:0:0:
270,191,109065,1,12,0:0:0:0:
270,191,109229,1,4,0:0:0:0:
270,191,109369,1,12,0:0:0:0:
270,191,109487,1,4,0:0:0:0:
270,191,109815,1,12,0:0:0:0:
297,199,109979,1,4,0:0:0:0:
297,199,110119,1,4,0:0:0:0:
297,199,110237,1,12,0:0:0:0:
288,194,110612,1,0,0:0:0:0:
250,172,110987,5,12,0:0:0:0:
260,180,111315,1,4,0:0:0:0:
260,180,111479,1,4,0:0:0:0:
260,180,111619,1,4,0:0:0:0:
260,180,111737,1,12,0:0:0:0:
270,191,112065,1,12,0:0:0:0:
270,191,112229,1,4,0:0:0:0:
270,191,112369,1,12,0:0:0:0:
270,191,112487,1,4,0:0:0:0:
270,191,112862,1,0,0:0:0:0:
297,199,112987,1,0,0:0:0:0:
297,199,113112,1,0,0:0:0:0:
297,199,113237,1,8,0:0:0:0:
290,201,113299,1,8,0:0:0:0:
290,201,113362,1,0,0:0:0:0:
290,201,113424,1,8,0:0:0:0:
290,201,113487,1,0,0:0:0:0:
290,201,113549,1,0,0:0:0:0:
290,201,113612,1,8,0:0:0:0:
290,201,113674,1,8,0:0:0:0:
290,201,113737,1,8,0:0:0:0:
290,201,113799,1,0,0:0:0:0:
290,201,113862,1,0,0:0:0:0:
290,201,113924,1,0,0:0:0:0:
250,172,113987,5,12,0:0:0:0:
260,180,114315,1,4,0:0:0:0:
260,180,114479,1,4,0:0:0:0:
260,180,114619,1,4,0:0:0:0:
260,180,114737,1,12,0:0:0:0:
270,191,115065,1,12,0:0:0:0:
270,191,115229,1,4,0:0:0:0:
270,191,115369,1,12,0:0:0:0:
270,191,115487,1,4,0:0:0:0:
270,191,115815,1,12,0:0:0:0:
297,199,115979,1,4,0:0:0:0:
297,199,116119,1,4,0:0:0:0:
297,199,116237,1,12,0:0:0:0:
288,194,116612,1,0,0:0:0:0:
250,172,116987,5,12,0:0:0:0:
260,180,117315,1,4,0:0:0:0:
260,180,117479,1,4,0:0:0:0:
260,180,117619,1,4,0:0:0:0:
260,180,117737,1,12,0:0:0:0:
270,191,118065,1,12,0:0:0:0:
270,191,118229,1,12,0:0:0:0:
270,191,118369,1,12,0:0:0:0:
270,191,118487,1,0,0:0:0:0:
256,196,119237,1,8,0:0:0:0:
256,196,119987,1,12,0:0:0:0:
256,202,120362,1,0,0:0:0:0:
277,213,120549,1,0,0:0:0:0:
277,213,120643,1,0,0:0:0:0:
277,213,120737,1,8,0:0:0:0:
264,208,120783,1,8,0:0:0:0:
263,205,120830,1,0,0:0:0:0:
280,216,120877,1,8,0:0:0:0:
280,216,120924,1,0,0:0:0:0:
280,216,120971,1,8,0:0:0:0:
288,224,121018,1,0,0:0:0:0:
288,192,121065,1,0,0:0:0:0:
288,192,121112,1,8,0:0:0:0:
288,192,121158,1,0,0:0:0:0:
288,192,121205,1,8,0:0:0:0:
288,192,121252,1,8,0:0:0:0:
288,192,121299,1,0,0:0:0:0:
288,192,121346,1,0,0:0:0:0:
288,192,121393,1,8,0:0:0:0:
288,192,121487,1,0,0:0:0:0:
288,192,121533,1,0,0:0:0:0:
288,192,121580,1,8,0:0:0:0:
288,192,121627,1,8,0:0:0:0:
288,192,121674,1,0,0:0:0:0:
288,192,121721,1,8,0:0:0:0:
288,192,121768,1,0,0:0:0:0:
288,192,121815,1,0,0:0:0:0:
288,192,121862,1,8,0:0:0:0:
288,192,121908,1,8,0:0:0:0:
288,192,121955,1,0,0:0:0:0:
288,192,122002,1,0,0:0:0:0:
288,192,122049,1,8,0:0:0:0:
288,192,122096,1,8,0:0:0:0:
288,192,122143,1,0,0:0:0:0:
288,192,122237,1,8,0:0:0:0:
288,192,122283,1,8,0:0:0:0:
256,192,122330,1,0,0:0:0:0:
256,192,122377,1,0,0:0:0:0:
256,192,122424,1,8,0:0:0:0:
256,192,122471,1,0,0:0:0:0:
256,192,122518,1,8,0:0:0:0:
256,192,122565,1,8,0:0:0:0:
256,192,122612,1,0,0:0:0:0:
256,192,122658,1,0,0:0:0:0:
256,192,122705,1,8,0:0:0:0:
256,192,122752,1,8,0:0:0:0:
256,192,122799,1,0,0:0:0:0:
256,192,122846,1,0,0:0:0:0:
256,192,122893,1,8,0:0:0:0:
256,192,122940,1,8,0:0:0:0:
256,192,122987,1,0,0:0:0:0:
256,192,123174,1,0,0:0:0:0:
256,192,123237,1,0,0:0:0:0:
256,192,123299,1,0,0:0:0:0:
256,192,123362,1,8,0:0:0:0:
256,192,123424,1,8,0:0:0:0:
256,192,123487,1,0,0:0:0:0:
256,192,123549,1,8,0:0:0:0:
256,192,123612,1,0,0:0:0:0:
256,192,123674,1,0,0:0:0:0:
256,192,123737,1,8,0:0:0:0:
256,192,123799,1,8,0:0:0:0:
256,192,123862,1,8,0:0:0:0:
256,192,123924,1,0,0:0:0:0:
256,192,123987,1,0,0:0:0:0:
256,192,124049,1,0,0:0:0:0:
256,192,124112,1,8,0:0:0:0:
256,192,124174,1,8,0:0:0:0:
256,192,124237,1,8,0:0:0:0:
256,192,124299,1,8,0:0:0:0:
256,192,124362,1,8,0:0:0:0:
256,192,124424,1,8,0:0:0:0:
256,192,124487,1,0,0:0:0:0:
256,192,124862,1,8,0:0:0:0:
256,192,124908,1,0,0:0:0:0:
256,192,125049,1,8,0:0:0:0:
256,192,125096,1,0,0:0:0:0:
256,192,125237,1,8,0:0:0:0:
256,192,125612,1,0,0:0:0:0:
256,192,125658,1,0,0:0:0:0:
256,196,125987,1,12,0:0:0:0:
256,202,126362,1,0,0:0:0:0:
277,213,126549,1,0,0:0:0:0:
277,213,126643,1,0,0:0:0:0:
277,213,126737,1,8,0:0:0:0:
264,208,126783,1,8,0:0:0:0:
263,205,126830,1,0,0:0:0:0:
280,216,126877,1,8,0:0:0:0:
280,216,126924,1,0,0:0:0:0:
280,216,126971,1,8,0:0:0:0:
288,224,127018,1,0,0:0:0:0:
288,192,127065,1,0,0:0:0:0:
288,192,127112,1,8,0:0:0:0:
288,192,127158,1,0,0:0:0:0:
288,192,127205,1,8,0:0:0:0:
288,192,127252,1,8,0:0:0:0:
288,192,127299,1,0,0:0:0:0:
288,192,127346,1,0,0:0:0:0:
288,192,127393,1,8,0:0:0:0:
288,192,127487,1,0,0:0:0:0:
288,192,127533,1,0,0:0:0:0:
288,192,127580,1,8,0:0:0:0:
288,192,127627,1,8,0:0:0:0:
288,192,127674,1,0,0:0:0:0:
288,192,127721,1,8,0:0:0:0:
288,192,127768,1,0,0:0:0:0:
288,192,127815,1,0,0:0:0:0:
288,192,127862,1,8,0:0:0:0:
288,192,127908,1,8,0:0:0:0:
288,192,127955,1,0,0:0:0:0:
288,192,128002,1,0,0:0:0:0:
288,192,128049,1,8,0:0:0:0:
288,192,128096,1,8,0:0:0:0:
288,192,128143,1,0,0:0:0:0:
288,192,128237,1,8,0:0:0:0:
288,192,128283,1,8,0:0:0:0:
256,192,128330,1,0,0:0:0:0:
256,192,128377,1,0,0:0:0:0:
256,192,128424,1,8,0:0:0:0:
256,192,128471,1,0,0:0:0:0:
256,192,128518,1,8,0:0:0:0:
256,192,128565,1,8,0:0:0:0:
256,192,128612,1,0,0:0:0:0:
256,192,128658,1,0,0:0:0:0:
256,192,128705,1,8,0:0:0:0:
256,192,128752,1,8,0:0:0:0:
256,192,128799,1,0,0:0:0:0:
256,192,128846,1,0,0:0:0:0:
256,192,128893,1,8,0:0:0:0:
256,192,128940,1,8,0:0:0:0:
256,192,128987,1,0,0:0:0:0:
256,192,129174,1,0,0:0:0:0:
256,192,129237,1,0,0:0:0:0:
256,192,129299,1,0,0:0:0:0:
256,192,129362,1,8,0:0:0:0:
256,192,129424,1,8,0:0:0:0:
256,192,129487,1,0,0:0:0:0:
256,192,129549,1,8,0:0:0:0:
256,192,129612,1,0,0:0:0:0:
256,192,129674,1,0,0:0:0:0:
256,192,129737,1,8,0:0:0:0:
256,192,129799,1,8,0:0:0:0:
256,192,129862,1,8,0:0:0:0:
256,192,129924,1,0,0:0:0:0:
256,192,129987,1,0,0:0:0:0:
256,192,130049,1,0,0:0:0:0:
256,192,130112,1,8,0:0:0:0:
256,192,130174,1,8,0:0:0:0:
256,192,130237,1,8,0:0:0:0:
256,192,130299,1,8,0:0:0:0:
256,192,130362,1,8,0:0:0:0:
256,192,130424,1,8,0:0:0:0:
256,192,130487,1,0,0:0:0:0:
256,192,130862,1,0,0:0:0:0:
256,192,131237,1,8,0:0:0:0:
256,192,131612,1,8,0:0:0:0:
256,192,131979,1,4,0:0:0:0:
256,256,132354,1,0,0:0:0:0:
256,256,132729,1,8,0:0:0:0:
256,256,133069,1,0,0:0:0:0:
256,256,133410,1,8,0:0:0:0:
256,256,133566,1,8,0:0:0:0:
256,256,133722,1,0,0:0:0:0:
256,256,134035,1,8,0:0:0:0:
256,256,134323,1,8,0:0:0:0:
256,256,134611,1,8,0:0:0:0:
288,256,134883,1,0,0:0:0:0:
288,256,135156,1,8,0:0:0:0:
288,256,135421,1,8,0:0:0:0:
288,256,135686,1,0,0:0:0:0:
256,256,135944,1,0,0:0:0:0:
256,256,136203,1,8,0:0:0:0:
256,256,136448,1,8,0:0:0:0:
256,256,136678,1,12,0:0:0:0:
256,224,136918,1,0,0:0:0:0:
256,224,137158,1,0,0:0:0:0:
256,224,137398,1,0,0:0:0:0:
256,256,137638,1,12,0:0:0:0:
256,224,137878,1,0,0:0:0:0:
256,224,138118,1,0,0:0:0:0:
256,224,138358,1,0,0:0:0:0:
256,192,138598,1,12,0:0:0:0:
256,192,138718,1,0,0:0:0:0:
256,192,138838,1,8,0:0:0:0:
256,192,138958,1,8,0:0:0:0:
256,192,139078,1,4,0:0:0:0:
256,192,139198,1,8,0:0:0:0:
256,192,139318,1,0,0:0:0:0:
256,192,139438,1,0,0:0:0:0:
256,192,139558,1,12,0:0:0:0:
256,192,139798,1,0,0:0:0:0:
256,192,139918,1,0,0:0:0:0:
256,192,140038,1,8,0:0:0:0:
256,192,140098,1,8,0:0:0:0:
256,192,140158,1,8,0:0:0:0:
256,192,140218,1,8,0:0:0:0:
256,192,140278,1,0,0:0:0:0:
256,192,140398,1,0,0:0:0:0:
256,192,140518,1,12,0:0:0:0:
256,192,140638,1,0,0:0:0:0:
256,192,140758,1,8,0:0:0:0:
256,192,140818,1,8,0:0:0:0:
256,192,140878,1,0,0:0:0:0:
256,192,140998,1,0,0:0:0:0:
256,192,141118,1,8,0:0:0:0:
256,192,141178,1,0,0:0:0:0:
256,192,141238,1,0,0:0:0:0:
256,192,141358,1,8,0:0:0:0:
256,192,141418,1,0,0:0:0:0:
256,192,141478,1,8,0:0:0:0:
256,192,141538,1,8,0:0:0:0:
256,192,141598,1,0,0:0:0:0:
256,192,141718,1,0,0:0:0:0:
256,192,141838,1,8,0:0:0:0:
256,192,141898,1,0,0:0:0:0:
256,192,141958,1,0,0:0:0:0:
256,192,142078,1,8,0:0:0:0:
256,192,142138,1,8,0:0:0:0:
256,192,142198,1,0,0:0:0:0:
256,192,142258,1,8,0:0:0:0:
256,192,142318,1,0,0:0:0:0:
256,192,142378,1,0,0:0:0:0:
256,192,142438,1,8,0:0:0:0:
256,192,142558,1,0,0:0:0:0:
256,192,142678,1,8,0:0:0:0:
256,192,142738,1,8,0:0:0:0:
256,192,142798,1,0,0:0:0:0:
256,192,142918,1,0,0:0:0:0:
256,192,143038,1,8,0:0:0:0:
256,192,143098,1,0,0:0:0:0:
256,192,143158,1,0,0:0:0:0:
256,192,143278,1,8,0:0:0:0:
256,192,143338,1,8,0:0:0:0:
256,192,143398,1,4,0:0:0:0:
288,224,143518,1,8,0:0:0:0:
256,192,143638,1,0,0:0:0:0:
256,192,143758,1,8,0:0:0:0:
256,192,143818,1,0,0:0:0:0:
256,192,143878,1,0,0:0:0:0:
256,192,143998,1,8,0:0:0:0:
256,192,144058,1,8,0:0:0:0:
256,192,144118,1,0,0:0:0:0:
256,192,144178,1,0,0:0:0:0:
256,192,144238,1,0,0:0:0:0:
256,192,144298,1,0,0:0:0:0:
256,160,144358,1,12,0:0:0:0:
256,192,144478,1,0,0:0:0:0:
256,160,144598,1,8,0:0:0:0:
256,192,144718,1,0,0:0:0:0:
256,192,144838,1,8,0:0:0:0:
256,192,144898,1,8,0:0:0:0:
256,160,144958,1,0,0:0:0:0:
256,192,145078,1,8,0:0:0:0:
256,160,145198,1,8,0:0:0:0:
256,192,145318,1,0,0:0:0:0:
256,192,145438,1,0,0:0:0:0:
256,192,145558,1,8,0:0:0:0:
256,192,145678,1,0,0:0:0:0:
256,192,145798,1,8,0:0:0:0:
256,192,145918,1,0,0:0:0:0:
256,192,146038,1,8,0:0:0:0:
256,192,146098,1,8,0:0:0:0:
256,192,146158,1,8,0:0:0:0:
256,192,146218,1,8,0:0:0:0:
256,192,146278,1,0,0:0:0:0:
256,160,146398,1,0,0:0:0:0:
256,192,146518,1,8,0:0:0:0:
256,192,146638,1,0,0:0:0:0:
256,192,146758,1,8,0:0:0:0:
288,224,146818,1,8,0:0:0:0:
288,224,146878,1,0,0:0:0:0:
256,192,146998,1,8,0:0:0:0:
256,160,147118,1,8,0:0:0:0:
256,192,147238,1,0,0:0:0:0:
256,192,147358,1,0,0:0:0:0:
256,192,147478,1,8,0:0:0:0:
256,192,147598,1,0,0:0:0:0:
224,192,147718,1,8,0:0:0:0:
256,192,147838,1,8,0:0:0:0:
256,192,147958,1,0,0:0:0:0:
256,192,148018,1,0,0:0:0:0:
256,192,148078,1,0,0:0:0:0:
256,192,148138,1,0,0:0:0:0:
256,192,148198,1,12,0:0:0:0:
256,192,148318,1,0,0:0:0:0:
256,192,148438,1,8,0:0:0:0:
256,192,148498,1,8,0:0:0:0:
256,192,148558,1,0,0:0:0:0:
256,224,148618,1,8,0:0:0:0:
256,192,148678,1,0,0:0:0:0:
256,192,148798,1,8,0:0:0:0:
256,192,148858,1,0,0:0:0:0:
256,192,148918,1,0,0:0:0:0:
256,192,149038,1,8,0:0:0:0:
256,192,149098,1,8,0:0:0:0:
256,192,149158,1,0,0:0:0:0:
256,192,149218,1,0,0:0:0:0:
256,192,149278,1,8,0:0:0:0:
256,192,149338,1,0,0:0:0:0:
256,192,149398,1,8,0:0:0:0:
256,192,149518,1,0,0:0:0:0:
256,192,149578,1,8,0:0:0:0:
256,192,149638,1,0,0:0:0:0:
256,192,149758,1,8,0:0:0:0:
256,192,149818,1,8,0:0:0:0:
256,192,149878,1,0,0:0:0:0:
256,192,149938,1,8,0:0:0:0:
256,192,149998,1,0,0:0:0:0:
256,192,150058,1,0,0:0:0:0:
256,192,150118,1,8,0:0:0:0:
288,192,150178,1,8,0:0:0:0:
256,192,150238,1,0,0:0:0:0:
256,192,150358,1,8,0:0:0:0:
256,192,150418,1,0,0:0:0:0:
256,192,150478,1,8,0:0:0:0:
288,224,150538,1,8,0:0:0:0:
256,192,150598,1,0,0:0:0:0:
256,192,150718,1,8,0:0:0:0:
256,192,150778,1,0,0:0:0:0:
256,192,150838,1,8,0:0:0:0:
160,192,150898,1,0,0:0:0:0:
256,192,150958,1,8,0:0:0:0:
256,192,151018,1,8,0:0:0:0:
256,192,151078,1,4,0:0:0:0:
288,224,151198,1,8,0:0:0:0:
256,192,151318,1,0,0:0:0:0:
256,192,151438,1,8,0:0:0:0:
256,192,151498,1,0,0:0:0:0:
256,192,151558,1,0,0:0:0:0:
256,192,151678,1,8,0:0:0:0:
256,192,151738,1,0,0:0:0:0:
256,192,151798,1,8,0:0:0:0:
256,192,151858,1,8,0:0:0:0:
256,192,151918,1,0,0:0:0:0:
256,192,151978,1,0,0:0:0:0:
256,160,152038,1,12,0:0:0:0:
256,192,152158,1,0,0:0:0:0:
256,160,152278,1,8,0:0:0:0:
256,192,152398,1,0,0:0:0:0:
256,192,152518,1,8,0:0:0:0:
256,192,152578,1,8,0:0:0:0:
256,160,152638,1,0,0:0:0:0:
256,192,152758,1,8,0:0:0:0:
256,160,152878,1,8,0:0:0:0:
256,192,152998,1,0,0:0:0:0:
256,192,153118,1,0,0:0:0:0:
256,192,153238,1,8,0:0:0:0:
256,192,153358,1,0,0:0:0:0:
256,192,153478,1,8,0:0:0:0:
256,192,153598,1,0,0:0:0:0:
256,192,153718,1,8,0:0:0:0:
256,192,153778,1,8,0:0:0:0:
256,192,153838,1,8,0:0:0:0:
256,192,153898,1,8,0:0:0:0:
256,192,153958,1,0,0:0:0:0:
256,160,154078,1,0,0:0:0:0:
256,192,154198,1,8,0:0:0:0:
256,192,154318,1,0,0:0:0:0:
256,192,154438,1,8,0:0:0:0:
288,224,154498,1,8,0:0:0:0:
288,224,154558,1,0,0:0:0:0:
256,192,154678,1,8,0:0:0:0:
256,160,154798,1,8,0:0:0:0:
256,192,154918,1,0,0:0:0:0:
256,192,155038,1,0,0:0:0:0:
256,192,155158,1,8,0:0:0:0:
256,192,155278,1,0,0:0:0:0:
224,192,155398,1,8,0:0:0:0:
256,192,155518,1,0,0:0:0:0:
256,192,155638,1,8,0:0:0:0:
256,192,155698,1,8,0:0:0:0:
256,192,155758,1,8,0:0:0:0:
256,192,155818,1,8,0:0:0:0:
256,192,155878,1,4,0:0:0:0:
256,192,156238,1,4,0:0:0:0:
256,192,156598,1,4,0:0:0:0:
256,192,156958,1,4,0:0:0:0:
256,192,157318,1,4,0:0:0:0:
256,192,157798,1,12,0:0:0:0:
256,192,158158,1,12,0:0:0:0:
256,192,158518,1,12,0:0:0:0:
256,192,158878,1,12,0:0:0:0:
256,192,159238,1,12,0:0:0:0:
256,224,159718,1,4,0:0:0:0:
256,224,160078,1,4,0:0:0:0:
256,224,160438,1,4,0:0:0:0:
256,224,160798,1,4,0:0:0:0:
256,224,161158,1,4,0:0:0:0:
256,192,161638,1,12,0:0:0:0:
256,192,161998,1,12,0:0:0:0:
256,192,162358,1,12,0:0:0:0:
224,192,162598,1,0,0:0:0:0:
247,173,162628,1,0,0:0:0:0:
256,192,162718,1,8,0:0:0:0:
256,192,162778,1,0,0:0:0:0:
256,192,162838,1,8,0:0:0:0:
264,194,162868,1,0,0:0:0:0:
256,192,162958,1,8,0:0:0:0:
262,191,162988,1,8,0:0:0:0:
256,192,163078,1,0,0:0:0:0:
256,192,163138,1,0,0:0:0:0:
256,192,163198,1,8,0:0:0:0:
256,192,163258,1,8,0:0:0:0:
256,192,163318,1,0,0:0:0:0:
256,192,163438,1,8,0:0:0:0:
256,192,163558,1,0,0:0:0:0:
256,192,167398,1,4,0:0:0:0:
256,192,168358,1,4,0:0:0:0:
256,224,169318,1,12,0:0:0:0:
256,224,169798,1,12,0:0:0:0:
256,224,170278,1,12,0:0:0:0:
256,256,171238,1,4,0:0:0:0:
256,256,171358,1,8,0:0:0:0:
256,256,171478,1,8,0:0:0:0:
256,224,171538,1,8,0:0:0:0:
256,256,171598,1,0,0:0:0:0:
256,256,171718,1,8,0:0:0:0:
256,192,171838,1,8,0:0:0:0:
256,192,171898,1,8,0:0:0:0:
256,192,171958,1,0,0:0:0:0:
256,224,172018,1,8,0:0:0:0:
256,224,172078,1,0,0:0:0:0:
256,224,172138,1,0,0:0:0:0:
256,224,172198,1,8,0:0:0:0:
256,224,172318,1,0,0:0:0:0:
256,224,172378,1,8,0:0:0:0:
256,224,172438,1,0,0:0:0:0:
256,224,172558,1,0,0:0:0:0:
256,224,172678,1,8,0:0:0:0:
256,192,172798,1,0,0:0:0:0:
256,192,172858,1,0,0:0:0:0:
256,192,172918,1,8,0:0:0:0:
256,192,172978,1,0,0:0:0:0:
256,192,173038,1,8,0:0:0:0:
256,256,173158,1,0,0:0:0:0:
256,256,173278,1,8,0:0:0:0:
256,256,173398,1,8,0:0:0:0:
256,224,173458,1,0,0:0:0:0:
256,256,173518,1,0,0:0:0:0:
256,256,173638,1,8,0:0:0:0:
256,192,173758,1,8,0:0:0:0:
256,192,173818,1,8,0:0:0:0:
256,192,173878,1,8,0:0:0:0:
256,224,173938,1,8,0:0:0:0:
256,224,173998,1,0,0:0:0:0:
256,224,174058,1,0,0:0:0:0:
256,224,174118,1,8,0:0:0:0:
256,224,174238,1,0,0:0:0:0:
256,224,174298,1,8,0:0:0:0:
256,224,174358,1,8,0:0:0:0:
256,224,174478,1,0,0:0:0:0:
256,224,174598,1,8,0:0:0:0:
256,192,174718,1,0,0:0:0:0:
256,192,174778,1,0,0:0:0:0:
256,192,174838,1,8,0:0:0:0:
256,192,174898,1,0,0:0:0:0:
256,192,174958,1,8,0:0:0:0:
256,256,175078,1,4,0:0:0:0:
256,256,175198,1,8,0:0:0:0:
256,256,175318,1,8,0:0:0:0:
256,224,175378,1,8,0:0:0:0:
256,256,175438,1,0,0:0:0:0:
256,256,175558,1,8,0:0:0:0:
256,192,175618,1,0,0:0:0:0:
256,192,175678,1,8,0:0:0:0:
256,192,175738,1,8,0:0:0:0:
256,192,175798,1,0,0:0:0:0:
256,224,175858,1,8,0:0:0:0:
256,224,175918,1,0,0:0:0:0:
256,224,175978,1,0,0:0:0:0:
256,224,176038,1,8,0:0:0:0:
256,224,176158,1,0,0:0:0:0:
256,224,176218,1,8,0:0:0:0:
256,224,176278,1,0,0:0:0:0:
256,224,176398,1,0,0:0:0:0:
256,224,176518,1,8,0:0:0:0:
224,192,176578,1,8,0:0:0:0:
256,192,176638,1,0,0:0:0:0:
256,192,176698,1,0,0:0:0:0:
256,192,176758,1,8,0:0:0:0:
256,192,176818,1,0,0:0:0:0:
256,192,176878,1,8,0:0:0:0:
256,256,176998,1,0,0:0:0:0:
256,256,177118,1,8,0:0:0:0:
256,256,177238,1,8,0:0:0:0:
256,224,177298,1,0,0:0:0:0:
256,256,177358,1,0,0:0:0:0:
256,256,177478,1,8,0:0:0:0:
256,224,177538,1,8,0:0:0:0:
256,192,177598,1,8,0:0:0:0:
256,192,177658,1,0,0:0:0:0:
256,192,177718,1,8,0:0:0:0:
256,224,177778,1,0,0:0:0:0:
256,224,177838,1,0,0:0:0:0:
256,224,177898,1,0,0:0:0:0:
256,224,177958,1,12,0:0:0:0:
256,224,178078,1,0,0:0:0:0:
256,224,178138,1,0,0:0:0:0:
256,224,178198,1,8,0:0:0:0:
256,224,178318,1,0,0:0:0:0:
256,224,178438,1,8,0:0:0:0:
256,192,178498,1,8,0:0:0:0:
256,192,178558,1,0,0:0:0:0:
256,192,178678,1,8,0:0:0:0:
256,192,178798,1,8,0:0:0:0:
256,192,178918,1,4,0:0:0:0:
256,192,179158,1,8,0:0:0:0:
256,192,179238,1,8,0:0:0:0:
256,192,179318,1,8,0:0:0:0:
256,192,179398,1,0,0:0:0:0:
256,192,179478,1,8,0:0:0:0:
256,192,179558,1,8,0:0:0:0:
256,192,179638,1,0,0:0:0:0:
256,192,179718,1,8,0:0:0:0:
256,192,179798,1,8,0:0:0:0:
256,192,179878,1,4,0:0:0:0:
256,192,180118,1,8,0:0:0:0:
256,192,180198,1,8,0:0:0:0:
256,192,180278,1,8,0:0:0:0:
256,192,180358,1,0,0:0:0:0:
256,192,180438,1,8,0:0:0:0:
256,192,180518,1,8,0:0:0:0:
256,192,180598,1,0,0:0:0:0:
256,192,180678,1,8,0:0:0:0:
256,192,180758,1,8,0:0:0:0:
256,192,180838,1,4,0:0:0:0:
256,192,181078,1,8,0:0:0:0:
256,192,181158,1,8,0:0:0:0:
256,192,181238,1,8,0:0:0:0:
256,192,181318,1,4,0:0:0:0:
256,192,181558,1,0,0:0:0:0:
256,192,181638,1,0,0:0:0:0:
256,192,181718,1,0,0:0:0:0:
256,192,181798,1,12,0:0:0:0:
256,192,182038,1,8,0:0:0:0:
256,192,182118,1,8,0:0:0:0:
256,192,182198,1,8,0:0:0:0:
256,160,182278,1,0,0:0:0:0:
256,160,182398,1,0,0:0:0:0:
256,192,182518,1,8,0:0:0:0:
256,256,182758,1,4,0:0:0:0:
256,256,182878,1,8,0:0:0:0:
275,189,182938,1,0,0:0:0:0:
256,256,182998,1,8,0:0:0:0:
256,224,183058,1,8,0:0:0:0:
256,256,183118,1,0,0:0:0:0:
256,256,183238,1,8,0:0:0:0:
192,192,183298,1,0,0:0:0:0:
256,192,183358,1,8,0:0:0:0:
288,224,183418,1,8,0:0:0:0:
256,192,183478,1,8,0:0:0:0:
256,224,183538,1,8,0:0:0:0:
256,224,183598,1,0,0:0:0:0:
256,224,183718,1,8,0:0:0:0:
256,224,183758,1,8,0:0:0:0:
256,224,183798,1,8,0:0:0:0:
256,224,183838,1,0,0:0:0:0:
256,224,183958,1,8,0:0:0:0:
256,192,183988,1,8,0:0:0:0:
256,192,184078,1,0,0:0:0:0:
256,192,184108,1,0,0:0:0:0:
256,224,184198,1,8,0:0:0:0:
224,192,184258,1,8,0:0:0:0:
256,192,184318,1,0,0:0:0:0:
256,192,184378,1,0,0:0:0:0:
256,192,184438,1,8,0:0:0:0:
256,192,184478,1,8,0:0:0:0:
256,192,184518,1,0,0:0:0:0:
256,192,184558,1,8,0:0:0:0:
256,256,184678,1,4,0:0:0:0:
256,256,184798,1,8,0:0:0:0:
256,224,184858,1,0,0:0:0:0:
256,256,184918,1,8,0:0:0:0:
256,224,184978,1,8,0:0:0:0:
256,256,185038,1,0,0:0:0:0:
256,256,185158,1,8,0:0:0:0:
192,192,185218,1,8,0:0:0:0:
256,192,185278,1,8,0:0:0:0:
256,192,185338,1,0,0:0:0:0:
256,192,185398,1,8,0:0:0:0:
256,224,185458,1,8,0:0:0:0:
256,224,185518,1,0,0:0:0:0:
256,224,185638,1,8,0:0:0:0:
256,224,185678,1,8,0:0:0:0:
256,224,185718,1,8,0:0:0:0:
256,224,185758,1,0,0:0:0:0:
256,224,185878,1,8,0:0:0:0:
224,192,185908,1,8,0:0:0:0:
256,224,185998,1,0,0:0:0:0:
224,192,186028,1,0,0:0:0:0:
256,224,186118,1,8,0:0:0:0:
256,192,186178,1,8,0:0:0:0:
256,192,186238,1,0,0:0:0:0:
288,224,186358,1,8,0:0:0:0:
256,224,186398,1,8,0:0:0:0:
224,192,186438,1,0,0:0:0:0:
255,213,186478,1,8,0:0:0:0:
256,256,186598,1,4,0:0:0:0:
256,256,186718,1,8,0:0:0:0:
256,256,186838,1,8,0:0:0:0:
256,224,186898,1,8,0:0:0:0:
256,256,186958,1,0,0:0:0:0:
224,224,187018,1,0,0:0:0:0:
256,256,187078,1,8,0:0:0:0:
288,224,187118,1,8,0:0:0:0:
263,184,187158,1,8,0:0:0:0:
256,192,187198,1,0,0:0:0:0:
288,192,187258,1,0,0:0:0:0:
256,192,187318,1,8,0:0:0:0:
256,224,187378,1,0,0:0:0:0:
256,224,187438,1,8,0:0:0:0:
256,224,187498,1,8,0:0:0:0:
256,224,187558,1,0,0:0:0:0:
256,224,187678,1,8,0:0:0:0:
256,224,187738,1,8,0:0:0:0:
256,224,187798,1,0,0:0:0:0:
256,224,187918,1,0,0:0:0:0:
256,224,188038,1,8,0:0:0:0:
224,192,188068,1,8,0:0:0:0:
256,192,188158,1,0,0:0:0:0:
268,201,188188,1,0,0:0:0:0:
256,192,188278,1,8,0:0:0:0:
256,192,188318,1,0,0:0:0:0:
256,192,188358,1,0,0:0:0:0:
288,224,188398,1,8,0:0:0:0:
256,256,188518,1,4,0:0:0:0:
224,192,188878,1,4,0:0:0:0:
320,224,189238,1,12,0:0:0:0:
320,256,189598,1,12,0:0:0:0:
320,256,189958,1,12,0:0:0:0:
256,192,190648,1,12,0:0:0:0:
288,192,190820,1,0,0:0:0:0:
288,192,190992,1,8,0:0:0:0:
256,192,191079,1,0,0:0:0:0:
288,192,191165,1,8,0:0:0:0:
320,256,191208,1,8,0:0:0:0:
288,192,191251,1,0,0:0:0:0:
288,224,191337,1,8,0:0:0:0:
256,192,191510,1,0,0:0:0:0:
256,224,191682,1,8,0:0:0:0:
288,192,191768,1,8,0:0:0:0:
288,192,191854,1,0,0:0:0:0:
288,224,192027,1,8,0:0:0:0:
288,224,192084,1,8,0:0:0:0:
288,224,192142,1,8,0:0:0:0:
288,224,192199,1,0,0:0:0:0:
288,224,192257,1,0,0:0:0:0:
288,224,192314,1,0,0:0:0:0:
288,224,192372,1,8,0:0:0:0:
288,224,192544,1,8,0:0:0:0:
256,192,192587,1,0,0:0:0:0:
288,224,192630,1,0,0:0:0:0:
288,224,192716,1,8,0:0:0:0:
288,224,192803,1,0,0:0:0:0:
288,224,192889,1,8,0:0:0:0:
288,224,192975,1,0,0:0:0:0:
288,224,193061,1,8,0:0:0:0:
256,192,193234,1,8,0:0:0:0:
256,192,193291,1,8,0:0:0:0:
256,192,193349,1,8,0:0:0:0:
256,192,193406,1,0,0:0:0:0:
288,224,193579,1,0,0:0:0:0:
288,224,193636,1,0,0:0:0:0:
288,224,193693,1,0,0:0:0:0:
288,224,193751,1,8,0:0:0:0:
288,192,193923,1,8,0:0:0:0:
288,224,193966,1,8,0:0:0:0:
288,192,194010,1,0,0:0:0:0:
288,192,194096,1,8,0:0:0:0:
288,224,194182,1,0,0:0:0:0:
288,224,194268,1,8,0:0:0:0:
288,224,194354,1,0,0:0:0:0:
288,224,194441,1,8,0:0:0:0:
320,224,194613,1,8,0:0:0:0:
288,224,194785,1,0,0:0:0:0:
288,224,194872,1,0,0:0:0:0:
288,224,194958,1,8,0:0:0:0:
288,224,195044,1,0,0:0:0:0:
288,224,195130,1,8,0:0:0:0:
288,224,195216,1,8,0:0:0:0:
288,224,195303,1,8,0:0:0:0:
288,224,195389,1,0,0:0:0:0:
288,224,195475,1,8,0:0:0:0:
288,224,195561,1,0,0:0:0:0:
288,224,195648,1,0,0:0:0:0:
288,224,195734,1,8,0:0:0:0:
288,224,195820,1,8,0:0:0:0:
192,192,195992,1,0,0:0:0:0:
256,192,196165,1,12,0:0:0:0:
288,192,196338,1,0,0:0:0:0:
288,192,196510,1,8,0:0:0:0:
256,192,196597,1,0,0:0:0:0:
288,192,196683,1,8,0:0:0:0:
256,192,196725,1,0,0:0:0:0:
288,192,196769,1,0,0:0:0:0:
288,224,196855,1,8,0:0:0:0:
256,192,197028,1,0,0:0:0:0:
256,224,197200,1,8,0:0:0:0:
288,192,197286,1,8,0:0:0:0:
288,192,197372,1,0,0:0:0:0:
288,224,197545,1,8,0:0:0:0:
288,224,197602,1,8,0:0:0:0:
288,224,197660,1,0,0:0:0:0:
288,224,197717,1,8,0:0:0:0:
288,224,197775,1,0,0:0:0:0:
288,224,197832,1,0,0:0:0:0:
288,224,197890,1,8,0:0:0:0:
288,224,198062,1,8,0:0:0:0:
288,192,198104,1,8,0:0:0:0:
288,224,198148,1,0,0:0:0:0:
288,224,198234,1,8,0:0:0:0:
288,224,198321,1,0,0:0:0:0:
288,224,198407,1,8,0:0:0:0:
288,224,198493,1,0,0:0:0:0:
288,224,198579,1,8,0:0:0:0:
256,192,198752,1,8,0:0:0:0:
256,192,198809,1,8,0:0:0:0:
256,192,198867,1,8,0:0:0:0:
256,192,198924,1,0,0:0:0:0:
288,224,199097,1,0,0:0:0:0:
288,224,199154,1,0,0:0:0:0:
288,224,199211,1,0,0:0:0:0:
288,224,199269,1,8,0:0:0:0:
288,192,199441,1,8,0:0:0:0:
288,224,199484,1,0,0:0:0:0:
256,192,199527,1,0,0:0:0:0:
288,192,199614,1,8,0:0:0:0:
288,224,199700,1,0,0:0:0:0:
288,224,199786,1,8,0:0:0:0:
288,224,199872,1,0,0:0:0:0:
288,224,199959,1,8,0:0:0:0:
320,224,200131,1,8,0:0:0:0:
288,224,200173,1,8,0:0:0:0:
288,224,200216,1,0,0:0:0:0:
288,224,200303,1,8,0:0:0:0:
288,224,200389,1,8,0:0:0:0:
288,224,200476,1,8,0:0:0:0:
288,224,200562,1,0,0:0:0:0:
288,224,200648,1,8,0:0:0:0:
288,192,200705,1,0,0:0:0:0:
288,192,200762,1,0,0:0:0:0:
224,224,200820,1,8,0:0:0:0:
288,224,200906,1,0,0:0:0:0:
288,224,200992,1,8,0:0:0:0:
288,224,201079,1,8,0:0:0:0:
288,224,201166,1,0,0:0:0:0:
288,224,201251,1,0,0:0:0:0:
288,224,201338,1,8,0:0:0:0:
288,256,201510,1,0,0:0:0:0:
256,192,201682,1,12,0:0:0:0:
288,192,201855,1,0,0:0:0:0:
288,192,202027,1,8,0:0:0:0:
256,192,202114,1,0,0:0:0:0:
288,192,202200,1,8,0:0:0:0:
320,256,202243,1,8,0:0:0:0:
288,192,202286,1,0,0:0:0:0:
278,202,202329,1,0,0:0:0:0:
288,224,202372,1,8,0:0:0:0:
256,192,202545,1,0,0:0:0:0:
256,224,202717,1,8,0:0:0:0:
273,217,202760,1,8,0:0:0:0:
288,192,202803,1,8,0:0:0:0:
288,192,202889,1,0,0:0:0:0:
288,224,203062,1,8,0:0:0:0:
288,224,203119,1,8,0:0:0:0:
288,224,203177,1,8,0:0:0:0:
288,224,203234,1,8,0:0:0:0:
288,224,203292,1,0,0:0:0:0:
288,224,203349,1,0,0:0:0:0:
288,224,203407,1,8,0:0:0:0:
64,64,203579,1,0,0:0:0:0:
256,192,203622,1,0,0:0:0:0:
448,64,203665,1,8,0:0:0:0:
283,210,203708,1,8,0:0:0:0:
64,64,203751,1,0,0:0:0:0:
288,224,203838,1,8,0:0:0:0:
288,224,203924,1,8,0:0:0:0:
288,224,204010,1,0,0:0:0:0:
288,224,204096,1,8,0:0:0:0:
256,192,204269,1,8,0:0:0:0:
256,192,204326,1,8,0:0:0:0:
256,192,204384,1,8,0:0:0:0:
256,192,204441,1,0,0:0:0:0:
288,224,204614,1,0,0:0:0:0:
288,224,204671,1,0,0:0:0:0:
288,224,204728,1,0,0:0:0:0:
288,224,204786,1,8,0:0:0:0:
288,192,204958,1,8,0:0:0:0:
288,224,205001,1,8,0:0:0:0:
288,192,205045,1,0,0:0:0:0:
336,237,205087,1,8,0:0:0:0:
288,192,205131,1,8,0:0:0:0:
288,224,205217,1,0,0:0:0:0:
288,224,205303,1,8,0:0:0:0:
288,224,205389,1,0,0:0:0:0:
288,224,205476,1,8,0:0:0:0:
320,224,205648,1,8,0:0:0:0:
288,224,205820,1,0,0:0:0:0:
288,224,205907,1,0,0:0:0:0:
288,224,205993,1,8,0:0:0:0:
288,224,206079,1,0,0:0:0:0:
288,224,206165,1,8,0:0:0:0:
288,224,206251,1,8,0:0:0:0:
288,224,206338,1,8,0:0:0:0:
288,224,206424,1,0,0:0:0:0:
288,224,206510,1,8,0:0:0:0:
288,224,206596,1,0,0:0:0:0:
288,224,206683,1,0,0:0:0:0:
288,224,206769,1,8,0:0:0:0:
288,224,206855,1,8,0:0:0:0:
192,192,207027,1,0,0:0:0:0:
256,192,207200,1,12,0:0:0:0:
288,192,207373,1,0,0:0:0:0:
288,192,207545,1,8,0:0:0:0:
256,192,207630,1,0,0:0:0:0:
288,192,207716,1,8,0:0:0:0:
256,192,207760,1,8,0:0:0:0:
288,192,207804,1,0,0:0:0:0:
323,204,207846,1,0,0:0:0:0:
288,224,207890,1,8,0:0:0:0:
256,192,208061,1,0,0:0:0:0:
256,224,208235,1,8,0:0:0:0:
281,212,208277,1,8,0:0:0:0:
288,192,208321,1,8,0:0:0:0:
288,192,208407,1,0,0:0:0:0:
288,224,208580,1,8,0:0:0:0:
288,224,208637,1,8,0:0:0:0:
288,224,208693,1,0,0:0:0:0:
288,224,208752,1,8,0:0:0:0:
288,224,208808,1,8,0:0:0:0:
288,224,208867,1,0,0:0:0:0:
288,224,208923,1,8,0:0:0:0:
288,224,209097,1,8,0:0:0:0:
288,192,209139,1,0,0:0:0:0:
288,224,209183,1,0,0:0:0:0:
273,199,209225,1,0,0:0:0:0:
288,224,209269,1,8,0:0:0:0:
288,224,209354,1,0,0:0:0:0:
288,224,209442,1,8,0:0:0:0:
288,224,209528,1,0,0:0:0:0:
288,224,209614,1,8,0:0:0:0:
256,192,209785,1,8,0:0:0:0:
256,192,209844,1,8,0:0:0:0:
256,192,209900,1,0,0:0:0:0:
256,192,209959,1,8,0:0:0:0:
288,224,210044,1,8,0:0:0:0:
256,192,210130,1,0,0:0:0:0:
288,192,210216,1,0,0:0:0:0:
288,192,210303,1,8,0:0:0:0:
288,192,210389,1,0,0:0:0:0:
288,192,210475,1,8,0:0:0:0:
288,192,210518,1,8,0:0:0:0:
288,192,210561,1,0,0:0:0:0:
214,183,210604,1,0,0:0:0:0:
288,224,210648,1,8,0:0:0:0:
288,224,210734,1,8,0:0:0:0:
288,224,210820,1,0,0:0:0:0:
288,224,210906,1,0,0:0:0:0:
288,192,210992,1,8,0:0:0:0:
288,192,211079,1,0,0:0:0:0:
288,192,211165,1,8,0:0:0:0:
288,192,211208,1,8,0:0:0:0:
288,192,211251,1,0,0:0:0:0:
256,192,211337,1,12,0:0:0:0:
288,224,211510,1,8,0:0:0:0:
288,224,211567,1,0,0:0:0:0:
288,224,211625,1,0,0:0:0:0:
288,224,211682,1,8,0:0:0:0:
288,224,211739,1,8,0:0:0:0:
288,224,211797,1,0,0:0:0:0:
288,224,211854,1,8,0:0:0:0:
288,224,211912,1,0,0:0:0:0:
288,224,211969,1,0,0:0:0:0:
288,224,212027,1,8,0:0:0:0:
288,224,212113,1,8,0:0:0:0:
288,224,212199,1,8,0:0:0:0:
288,224,212285,1,8,0:0:0:0:
288,224,212372,1,8,0:0:0:0:
288,224,212458,1,8,0:0:0:0:
288,224,212544,1,8,0:0:0:0:
288,224,212630,1,8,0:0:0:0:
288,224,212711,1,4,0:0:0:0:
256,192,221058,5,8,0:0:0:0:
256,192,221189,1,0,0:0:0:0:
256,256,221254,1,0,0:0:0:0:
256,192,221319,1,8,0:0:0:0:
256,192,221450,1,8,0:0:0:0:
288,224,221711,1,0,0:0:0:0:
288,224,221776,1,8,0:0:0:0:
288,224,221906,1,0,0:0:0:0:
288,224,221971,1,8,0:0:0:0:
288,224,222102,1,0,0:0:0:0:
256,224,222297,1,8,0:0:0:0:
256,224,222363,1,0,0:0:0:0:
288,224,222493,1,8,0:0:0:0:
288,224,222624,1,0,0:0:0:0:
288,224,222754,1,0,0:0:0:0:
288,224,222884,1,0,0:0:0:0:
288,224,222950,1,0,0:0:0:0:
288,224,223015,1,8,0:0:0:0:
288,224,223080,1,0,0:0:0:0:
256,192,223145,5,8,0:0:0:0:
256,192,223276,1,0,0:0:0:0:
256,256,223341,1,0,0:0:0:0:
256,192,223406,1,8,0:0:0:0:
256,192,223537,1,0,0:0:0:0:
256,224,223667,1,8,0:0:0:0:
288,224,223798,1,0,0:0:0:0:
288,224,223863,1,8,0:0:0:0:
288,224,223993,1,0,0:0:0:0:
288,224,224058,1,8,0:0:0:0:
288,224,224189,1,8,0:0:0:0:
224,224,224319,1,0,0:0:0:0:
256,224,224384,1,8,0:0:0:0:
256,224,224450,1,0,0:0:0:0:
288,224,224580,1,8,0:0:0:0:
288,224,224711,1,0,0:0:0:0:
288,224,224841,1,0,0:0:0:0:
288,224,224971,1,0,0:0:0:0:
288,224,225037,1,0,0:0:0:0:
288,224,225102,1,8,0:0:0:0:
288,224,225167,1,0,0:0:0:0:
256,192,225232,5,8,0:0:0:0:
320,256,225297,1,8,0:0:0:0:
256,192,225363,1,0,0:0:0:0:
256,256,225428,1,0,0:0:0:0:
256,192,225493,1,8,0:0:0:0:
256,192,225624,1,0,0:0:0:0:
256,224,225754,1,8,0:0:0:0:
288,224,225819,1,8,0:0:0:0:
288,224,225885,1,0,0:0:0:0:
288,224,225950,1,8,0:0:0:0:
288,224,226015,1,0,0:0:0:0:
288,224,226080,1,0,0:0:0:0:
288,224,226145,1,8,0:0:0:0:
288,224,226276,1,8,0:0:0:0:
224,224,226406,1,0,0:0:0:0:
256,224,226471,1,8,0:0:0:0:
256,224,226537,1,0,0:0:0:0:
288,224,226667,1,8,0:0:0:0:
288,224,226798,1,0,0:0:0:0:
288,224,226863,1,8,0:0:0:0:
288,224,226928,1,0,0:0:0:0:
256,224,226993,1,0,0:0:0:0:
288,224,227058,1,8,0:0:0:0:
288,224,227124,1,8,0:0:0:0:
288,224,227189,1,0,0:0:0:0:
288,224,227254,1,0,0:0:0:0:
288,224,227319,1,8,0:0:0:0:
288,224,227384,1,8,0:0:0:0:
288,224,227450,1,0,0:0:0:0:
288,224,227515,1,8,0:0:0:0:
320,256,227580,1,8,0:0:0:0:
288,256,227645,1,0,0:0:0:0:
320,256,227710,1,8,0:0:0:0:
224,224,227776,1,0,0:0:0:0:
256,224,227841,1,0,0:0:0:0:
256,224,227906,1,8,0:0:0:0:
256,224,227971,1,0,0:0:0:0:
256,224,228037,1,0,0:0:0:0:
320,256,228102,1,8,0:0:0:0:
288,256,228167,1,8,0:0:0:0:
288,256,228232,1,8,0:0:0:0:
288,256,228297,1,8,0:0:0:0:
288,256,228363,1,4,0:0:0:0:
248,197,229406,1,4,0:0:0:0:
248,197,229797,1,4,0:0:0:0:
254,201,231493,1,12,0:0:0:0:
246,186,231689,1,0,0:0:0:0:
245,187,231754,1,8,0:0:0:0:
245,187,231884,1,0,0:0:0:0:
247,185,232015,1,8,0:0:0:0:
246,188,232145,1,0,0:0:0:0:
246,188,232210,1,8,0:0:0:0:
250,196,232341,1,8,0:0:0:0:
250,196,232406,1,0,0:0:0:0:
245,197,232537,1,8,0:0:0:0:
254,193,232667,1,0,0:0:0:0:
254,193,232732,1,8,0:0:0:0:
254,193,232863,1,0,0:0:0:0:
254,193,232928,1,8,0:0:0:0:
254,193,233058,1,0,0:0:0:0:
250,196,233189,1,8,0:0:0:0:
252,196,233319,1,8,0:0:0:0:
254,193,233384,1,8,0:0:0:0:
254,193,233450,1,0,0:0:0:0:
240,194,233515,1,0,0:0:0:0:
240,194,233580,1,12,0:0:0:0:
265,216,233971,1,12,0:0:0:0:
275,218,234624,1,4,0:0:0:0:
275,218,235015,1,4,0:0:0:0:
262,197,235667,1,12,0:0:0:0:
276,197,235797,1,0,0:0:0:0:
275,197,235863,1,0,0:0:0:0:
276,200,235993,1,0,0:0:0:0:
276,200,236058,1,8,0:0:0:0:
286,228,236189,1,8,0:0:0:0:
286,228,236254,1,8,0:0:0:0:
271,215,236384,1,0,0:0:0:0:
271,215,236450,1,8,0:0:0:0:
272,222,236580,1,8,0:0:0:0:
272,222,236710,1,0,0:0:0:0:
286,228,236841,1,0,0:0:0:0:
286,228,236906,1,8,0:0:0:0:
281,225,237037,1,8,0:0:0:0:
281,225,237102,1,0,0:0:0:0:
292,237,237232,1,8,0:0:0:0:
292,237,237297,1,8,0:0:0:0:
279,234,237428,1,0,0:0:0:0:
279,234,237493,1,8,0:0:0:0:
279,234,237624,1,8,0:0:0:0:
279,234,237754,1,4,0:0:0:0:
290,245,238145,1,4,0:0:0:0:
250,203,239841,1,4,0:0:0:0:
250,203,239971,1,0,0:0:0:0:
250,203,240037,1,0,0:0:0:0:
250,203,240102,1,8,0:0:0:0:
250,203,240232,1,0,0:0:0:0:
250,203,240363,1,8,0:0:0:0:
206,188,240493,1,0,0:0:0:0:
206,188,240558,1,8,0:0:0:0:
250,203,240689,1,8,0:0:0:0:
250,203,240754,1,0,0:0:0:0:
238,200,240884,1,8,0:0:0:0:
238,200,241015,1,0,0:0:0:0:
238,200,241080,1,0,0:0:0:0:
256,208,241210,1,8,0:0:0:0:
256,208,241276,1,0,0:0:0:0:
242,199,241406,1,8,0:0:0:0:
242,199,241537,1,0,0:0:0:0:
234,187,241667,1,8,0:0:0:0:
234,187,241732,1,8,0:0:0:0:
234,187,241797,1,0,0:0:0:0:
234,187,241863,1,0,0:0:0:0:
234,187,241928,1,12,0:0:0:0:
242,201,242058,1,0,0:0:0:0:
242,199,242124,1,0,0:0:0:0:
242,199,242189,1,0,0:0:0:0:
242,199,242319,1,12,0:0:0:0:
242,201,242450,1,0,0:0:0:0:
242,201,242515,1,0,0:0:0:0:
242,201,242580,1,8,0:0:0:0:
233,192,242645,1,8,0:0:0:0:
233,192,242710,1,0,0:0:0:0:
242,201,242841,1,0,0:0:0:0:
242,199,242971,1,12,0:0:0:0:
252,202,243102,1,0,0:0:0:0:
250,202,243167,1,0,0:0:0:0:
250,202,243232,1,0,0:0:0:0:
250,202,243363,1,12,0:0:0:0:
247,207,243493,1,0,0:0:0:0:
247,207,243558,1,0,0:0:0:0:
247,207,243624,1,8,0:0:0:0:
247,207,243689,1,8,0:0:0:0:
247,207,243754,1,0,0:0:0:0:
252,202,243884,1,0,0:0:0:0:
250,202,244015,1,12,0:0:0:0:
272,218,244145,1,0,0:0:0:0:
272,218,244210,1,8,0:0:0:0:
267,219,244341,1,0,0:0:0:0:
267,219,244406,1,8,0:0:0:0:
267,219,244537,1,8,0:0:0:0:
267,219,244602,1,0,0:0:0:0:
267,219,244732,1,8,0:0:0:0:
267,219,244797,1,8,0:0:0:0:
269,226,244928,1,0,0:0:0:0:
269,225,245058,1,8,0:0:0:0:
269,225,245189,1,0,0:0:0:0:
269,225,245254,1,8,0:0:0:0:
269,225,245384,1,0,0:0:0:0:
269,225,245450,1,8,0:0:0:0:
269,225,245580,1,8,0:0:0:0:
269,226,245645,1,8,0:0:0:0:
268,214,245776,1,8,0:0:0:0:
268,214,245841,1,0,0:0:0:0:
262,218,245971,1,0,0:0:0:0:
262,218,246102,1,12,0:0:0:0:
258,211,246363,1,0,0:0:0:0:
334,207,246624,1,0,0:0:0:0:
334,207,246884,1,0,0:0:0:0:
334,207,247145,1,0,0:0:0:0:
334,207,247406,1,0,0:0:0:0:
334,207,247667,1,0,0:0:0:0:
334,207,247928,1,0,0:0:0:0:
334,207,248189,1,12,0:0:0:0:
334,207,248450,1,0,0:0:0:0:
334,207,248710,1,0,0:0:0:0:
334,207,248971,1,0,0:0:0:0:
334,207,249232,1,0,0:0:0:0:
334,207,249493,1,0,0:0:0:0:
334,207,249754,1,0,0:0:0:0:
334,207,250015,1,0,0:0:0:0:
251,190,250276,1,8,0:0:0:0:
251,190,250341,1,8,0:0:0:0:
251,190,250406,1,0,0:0:0:0:
251,190,250471,1,8,0:0:0:0:
251,190,250537,1,0,0:0:0:0:
251,190,250602,1,0,0:0:0:0:
251,190,250667,1,8,0:0:0:0:
251,190,250732,1,8,0:0:0:0:
251,190,250797,1,0,0:0:0:0:
251,190,250863,1,0,0:0:0:0:
251,190,250928,1,0,0:0:0:0:
255,191,250993,1,8,0:0:0:0:
255,191,251058,1,0,0:0:0:0:
255,191,251124,1,8,0:0:0:0:
255,191,251189,1,8,0:0:0:0:
255,191,251254,1,0,0:0:0:0:
255,191,251319,1,8,0:0:0:0:
255,191,251384,1,8,0:0:0:0:
255,191,251450,1,0,0:0:0:0:
255,191,251515,1,0,0:0:0:0:
251,195,251580,1,8,0:0:0:0:
251,195,251645,1,8,0:0:0:0:
251,195,251710,1,8,0:0:0:0:
251,195,251776,1,0,0:0:0:0:
251,195,251841,1,8,0:0:0:0:
251,195,251906,1,0,0:0:0:0:
251,195,251971,1,0,0:0:0:0:
251,195,252037,1,0,0:0:0:0:
251,195,252102,1,8,0:0:0:0:
251,195,252167,1,8,0:0:0:0:
251,195,252232,1,0,0:0:0:0:
251,195,252297,1,0,0:0:0:0:
251,195,252363,1,8,0:0:0:0:
251,195,252406,1,8,0:0:0:0:
229,196,252450,1,0,0:0:0:0:
251,195,252493,1,8,0:0:0:0:
251,195,252558,1,0,0:0:0:0:
251,195,252624,1,8,0:0:0:0:
251,195,252667,1,8,0:0:0:0:
242,193,252710,1,0,0:0:0:0:
251,195,252754,1,0,0:0:0:0:
251,195,252819,1,0,0:0:0:0:
251,195,252884,1,8,0:0:0:0:
251,195,252928,1,8,0:0:0:0:
236,193,252971,1,8,0:0:0:0:
251,195,253015,1,0,0:0:0:0:
251,195,253080,1,0,0:0:0:0:
251,195,253145,1,8,0:0:0:0:
251,195,253189,1,0,0:0:0:0:
251,195,253232,1,0,0:0:0:0:
251,195,253276,5,8,0:0:0:0:
251,195,253341,1,8,0:0:0:0:
251,195,253406,1,4,0:0:0:0:
262,208,254189,1,0,0:0:0:0:
262,208,254254,1,0,0:0:0:0:
262,208,254319,1,0,0:0:0:0:
262,208,254384,1,0,0:0:0:0:
256,192,254450,5,12,0:0:0:0:
256,192,254580,1,0,0:0:0:0:
256,192,254645,1,0,0:0:0:0:
256,192,254710,1,8,0:0:0:0:
256,192,254841,1,0,0:0:0:0:
256,192,254971,1,8,0:0:0:0:
256,192,255037,1,8,0:0:0:0:
256,192,255102,1,0,0:0:0:0:
256,192,255167,1,0,0:0:0:0:
256,192,255232,1,8,0:0:0:0:
256,192,255297,1,0,0:0:0:0:
256,192,255363,1,8,0:0:0:0:
256,192,255493,1,8,0:0:0:0:
256,192,255624,1,0,0:0:0:0:
256,192,255689,1,8,0:0:0:0:
256,192,255754,1,0,0:0:0:0:
256,192,255884,1,0,0:0:0:0:
256,192,256015,1,8,0:0:0:0:
256,192,256145,1,8,0:0:0:0:
256,192,256276,1,0,0:0:0:0:
256,192,256341,1,0,0:0:0:0:
256,192,256406,1,8,0:0:0:0:
256,192,256471,1,0,0:0:0:0:
256,192,256537,1,8,0:0:0:0:
288,224,256667,1,0,0:0:0:0:
320,224,256732,1,0,0:0:0:0:
320,224,256797,1,8,0:0:0:0:
288,224,256928,1,0,0:0:0:0:
288,224,257058,1,8,0:0:0:0:
288,224,257124,1,0,0:0:0:0:
320,256,257189,1,8,0:0:0:0:
320,256,257254,1,8,0:0:0:0:
320,256,257319,1,0,0:0:0:0:
320,224,257384,1,0,0:0:0:0:
320,224,257450,1,8,0:0:0:0:
288,224,257580,1,8,0:0:0:0:
320,256,257710,1,0,0:0:0:0:
320,256,257776,1,8,0:0:0:0:
320,256,257841,1,8,0:0:0:0:
288,224,257906,1,0,0:0:0:0:
288,224,257971,1,8,0:0:0:0:
320,256,258102,1,8,0:0:0:0:
320,256,258232,1,0,0:0:0:0:
320,256,258363,1,8,0:0:0:0:
320,256,258428,1,0,0:0:0:0:
320,256,258493,1,0,0:0:0:0:
320,256,258558,1,8,0:0:0:0:
320,256,258624,1,8,0:0:0:0:
192,224,258754,1,0,0:0:0:0:
192,224,258819,1,0,0:0:0:0:
224,224,258884,1,8,0:0:0:0:
352,256,259015,1,8,0:0:0:0:
288,224,259145,1,0,0:0:0:0:
288,224,259210,1,0,0:0:0:0:
288,224,259276,1,8,0:0:0:0:
288,224,259341,1,0,0:0:0:0:
288,224,259406,1,8,0:0:0:0:
288,224,259537,1,8,0:0:0:0:
288,224,259667,1,0,0:0:0:0:
288,256,259797,1,8,0:0:0:0:
288,256,259863,1,0,0:0:0:0:
288,256,259928,1,8,0:0:0:0:
288,256,260058,1,8,0:0:0:0:
288,256,260189,1,0,0:0:0:0:
288,256,260254,1,8,0:0:0:0:
288,256,260319,1,8,0:0:0:0:
288,256,260384,1,0,0:0:0:0:
288,256,260450,1,8,0:0:0:0:
320,256,260580,1,0,0:0:0:0:
320,256,260710,1,8,0:0:0:0:
320,256,260841,1,0,0:0:0:0:
325,260,260906,1,8,0:0:0:0:
325,260,260971,1,0,0:0:0:0:
346,229,261037,1,0,0:0:0:0:
358,231,261102,1,8,0:0:0:0:
293,222,261232,1,0,0:0:0:0:
293,222,261297,1,8,0:0:0:0:
314,252,261363,1,0,0:0:0:0:
293,222,261428,1,8,0:0:0:0:
314,252,261493,1,8,0:0:0:0:
220,248,261624,1,0,0:0:0:0:
296,244,261754,1,8,0:0:0:0:
204,210,261819,1,8,0:0:0:0:
296,244,261884,1,0,0:0:0:0:
278,243,261950,1,0,0:0:0:0:
278,243,262015,1,8,0:0:0:0:
311,266,262080,1,0,0:0:0:0:
311,266,262145,1,8,0:0:0:0:
288,241,262276,1,0,0:0:0:0:
288,241,262341,1,8,0:0:0:0:
288,241,262471,1,8,0:0:0:0:
288,241,262537,1,0,0:0:0:0:
303,250,262667,1,8,0:0:0:0:
256,192,262797,5,12,0:0:0:0:
256,192,262927,1,0,0:0:0:0:
256,192,262992,1,0,0:0:0:0:
256,192,263057,1,8,0:0:0:0:
256,192,263188,1,0,0:0:0:0:
256,192,263318,1,8,0:0:0:0:
256,192,263384,1,8,0:0:0:0:
256,192,263449,1,0,0:0:0:0:
256,192,263514,1,0,0:0:0:0:
256,192,263579,1,8,0:0:0:0:
256,192,263644,1,0,0:0:0:0:
256,192,263710,1,8,0:0:0:0:
256,192,263840,1,8,0:0:0:0:
256,192,263971,1,0,0:0:0:0:
256,192,264036,1,8,0:0:0:0:
256,192,264101,1,0,0:0:0:0:
256,192,264231,1,0,0:0:0:0:
256,192,264362,1,8,0:0:0:0:
256,192,264492,1,8,0:0:0:0:
256,192,264623,1,0,0:0:0:0:
256,192,264688,1,0,0:0:0:0:
256,192,264753,1,8,0:0:0:0:
256,192,264818,1,0,0:0:0:0:
256,192,264884,1,8,0:0:0:0:
288,224,265014,1,0,0:0:0:0:
320,224,265079,1,0,0:0:0:0:
320,224,265144,1,8,0:0:0:0:
288,224,265275,1,0,0:0:0:0:
288,224,265405,1,8,0:0:0:0:
288,224,265471,1,0,0:0:0:0:
320,256,265536,1,8,0:0:0:0:
320,256,265601,1,8,0:0:0:0:
320,256,265666,1,0,0:0:0:0:
320,224,265731,1,0,0:0:0:0:
320,224,265797,1,8,0:0:0:0:
288,224,265927,1,8,0:0:0:0:
320,256,266057,1,0,0:0:0:0:
320,256,266123,1,8,0:0:0:0:
320,256,266188,1,8,0:0:0:0:
288,224,266253,1,0,0:0:0:0:
288,224,266318,1,8,0:0:0:0:
320,256,266449,1,0,0:0:0:0:
320,256,266579,1,8,0:0:0:0:
320,256,266710,1,0,0:0:0:0:
320,256,266775,1,0,0:0:0:0:
320,256,266840,1,0,0:0:0:0:
320,256,266971,1,12,0:0:0:0:
192,224,267101,1,0,0:0:0:0:
192,224,267166,1,0,0:0:0:0:
224,224,267231,1,12,0:0:0:0:
352,256,267362,1,12,0:0:0:0:
288,224,267492,1,0,0:0:0:0:
288,224,267557,1,0,0:0:0:0:
288,224,267623,1,12,0:0:0:0:
288,224,267753,1,12,0:0:0:0:
288,224,267884,1,0,0:0:0:0:
288,224,268015,1,12,0:0:0:0:
288,256,268144,1,0,0:0:0:0:
288,256,268210,1,0,0:0:0:0:
288,256,268275,1,12,0:0:0:0:
288,256,268405,1,12,0:0:0:0:
288,256,268536,1,0,0:0:0:0:
288,256,268601,1,0,0:0:0:0:
288,256,268666,1,12,0:0:0:0:
288,256,268797,1,12,0:0:0:0:
320,256,268927,1,0,0:0:0:0:
320,256,269057,1,12,0:0:0:0:
320,256,269188,1,0,0:0:0:0:
325,260,269253,1,14,0:0:0:0:
346,229,269384,1,0,0:0:0:0:
358,231,269449,1,12,0:0:0:0:
293,222,269579,1,12,0:0:0:0:
314,252,269710,1,0,0:0:0:0:
293,222,269776,1,12,0:0:0:0:
194,217,269906,1,0,0:0:0:0:
220,248,269971,1,12,0:0:0:0:
296,244,270101,1,12,0:0:0:0:
296,244,270231,1,0,0:0:0:0:
278,243,270297,1,0,0:0:0:0:
278,243,270362,1,8,0:0:0:0:
311,266,270427,1,0,0:0:0:0:
311,266,270492,1,8,0:0:0:0:
288,241,270623,1,0,0:0:0:0:
288,241,270688,1,8,0:0:0:0:
288,241,270818,1,0,0:0:0:0:
288,241,270884,1,8,0:0:0:0:
303,250,271014,1,0,0:0:0:0:
259,189,271145,1,6,0:0:0:0:
287,248,271341,1,0,0:0:0:0:
288,248,271406,1,8,0:0:0:0:
288,241,271537,1,0,0:0:0:0:
288,241,271602,1,0,0:0:0:0:
288,241,271667,1,8,0:0:0:0:
290,242,271732,1,8,0:0:0:0:
290,242,271797,1,0,0:0:0:0:
290,242,271863,1,0,0:0:0:0:
290,242,271928,1,8,0:0:0:0:
290,251,271993,1,0,0:0:0:0:
290,251,272058,1,8,0:0:0:0:
290,251,272124,1,8,0:0:0:0:
288,248,272189,1,0,0:0:0:0:
303,258,272254,1,8,0:0:0:0:
303,258,272319,1,0,0:0:0:0:
303,258,272384,1,0,0:0:0:0:
298,254,272450,1,8,0:0:0:0:
298,254,272515,1,8,0:0:0:0:
298,254,272580,1,0,0:0:0:0:
298,254,272645,1,8,0:0:0:0:
298,254,272710,1,0,0:0:0:0:
310,261,272841,1,8,0:0:0:0:
310,261,272906,1,0,0:0:0:0:
303,253,272971,1,8,0:0:0:0:
243,224,273102,1,0,0:0:0:0:
292,249,273232,1,8,0:0:0:0:
292,249,273297,1,8,0:0:0:0:
292,249,273363,1,0,0:0:0:0:
252,234,273493,1,8,0:0:0:0:
252,234,273558,1,8,0:0:0:0:
289,248,273624,1,0,0:0:0:0:
289,248,273689,1,8,0:0:0:0:
289,248,273754,1,0,0:0:0:0:
292,249,273819,1,0,0:0:0:0:
279,251,273884,1,8,0:0:0:0:
279,251,273950,1,0,0:0:0:0:
279,251,274015,1,8,0:0:0:0:
279,251,274080,1,8,0:0:0:0:
279,251,274145,1,0,0:0:0:0:
279,251,274210,1,0,0:0:0:0:
285,252,274276,1,8,0:0:0:0:
291,255,274406,1,0,0:0:0:0:
291,255,274471,1,8,0:0:0:0:
291,255,274537,1,8,0:0:0:0:
284,249,274667,1,0,0:0:0:0:
284,249,274732,1,8,0:0:0:0:
280,199,274797,1,8,0:0:0:0:
280,199,274863,1,0,0:0:0:0:
280,199,274928,1,0,0:0:0:0:
283,208,275058,1,8,0:0:0:0:
283,208,275124,1,8,0:0:0:0:
283,208,275189,1,0,0:0:0:0:
283,208,275254,1,0,0:0:0:0:
283,208,275319,1,8,0:0:0:0:
293,232,275450,1,0,0:0:0:0:
293,232,275580,1,8,0:0:0:0:
288,224,275710,1,8,0:0:0:0:
288,224,275776,1,0,0:0:0:0:
288,224,275841,1,8,0:0:0:0:
288,224,275906,1,8,0:0:0:0:
288,224,275971,1,0,0:0:0:0:
294,246,276102,1,8,0:0:0:0:
294,246,276232,1,8,0:0:0:0:
284,234,276363,1,0,0:0:0:0:
284,234,276493,1,8,0:0:0:0:
283,256,276558,1,0,0:0:0:0:
284,234,276624,1,8,0:0:0:0:
285,199,276689,1,8,0:0:0:0:
279,179,276754,1,0,0:0:0:0:
279,179,276819,1,0,0:0:0:0:
278,183,276884,1,8,0:0:0:0:
282,228,276950,1,0,0:0:0:0:
282,228,277015,1,8,0:0:0:0:
282,228,277080,1,8,0:0:0:0:
282,228,277145,1,8,0:0:0:0:
280,228,277210,1,0,0:0:0:0:
280,228,277276,1,8,0:0:0:0:
280,228,277341,1,0,0:0:0:0:
280,228,277406,1,8,0:0:0:0:
282,228,277537,1,0,0:0:0:0:
282,228,277602,1,8,0:0:0:0:
282,228,277667,1,8,0:0:0:0:
282,228,277797,1,8,0:0:0:0:
282,228,277863,1,0,0:0:0:0:
282,228,277928,1,8,0:0:0:0:
296,245,277993,1,0,0:0:0:0:
296,245,278058,1,0,0:0:0:0:
282,228,278189,1,8,0:0:0:0:
282,228,278255,1,0,0:0:0:0:
282,228,278320,1,8,0:0:0:0:
296,245,278385,1,8,0:0:0:0:
296,245,278450,1,0,0:0:0:0:
246,227,278580,1,0,0:0:0:0:
246,227,278645,1,8,0:0:0:0:
246,227,278710,1,8,0:0:0:0:
283,244,278841,1,8,0:0:0:0:
283,244,278906,1,0,0:0:0:0:
295,247,278971,1,0,0:0:0:0:
295,247,279037,1,8,0:0:0:0:
295,247,279102,1,0,0:0:0:0:
255,223,279232,1,8,0:0:0:0:
270,239,279297,1,8,0:0:0:0:
270,239,279363,1,0,0:0:0:0:
270,239,279428,1,0,0:0:0:0:
270,240,279493,1,12,0:0:0:0:
283,237,279624,1,0,0:0:0:0:
283,237,279689,1,0,0:0:0:0:
283,236,279754,1,8,0:0:0:0:
263,234,279884,1,0,0:0:0:0:
274,240,280015,1,8,0:0:0:0:
274,240,280080,1,8,0:0:0:0:
274,240,280145,1,0,0:0:0:0:
274,240,280210,1,8,0:0:0:0:
270,240,280276,1,0,0:0:0:0:
274,239,280341,1,0,0:0:0:0:
274,239,280406,1,8,0:0:0:0:
274,239,280471,1,0,0:0:0:0:
274,239,280537,1,8,0:0:0:0:
280,245,280602,1,8,0:0:0:0:
280,245,280667,1,0,0:0:0:0:
280,245,280732,1,0,0:0:0:0:
280,245,280797,1,8,0:0:0:0:
280,245,280863,1,0,0:0:0:0:
280,245,280928,1,0,0:0:0:0:
280,245,280993,1,0,0:0:0:0:
280,245,281058,1,8,0:0:0:0:
278,245,281189,1,0,0:0:0:0:
278,245,281254,1,8,0:0:0:0:
278,245,281319,1,8,0:0:0:0:
281,251,281450,1,0,0:0:0:0:
290,256,281580,1,8,0:0:0:0:
285,262,281645,1,0,0:0:0:0:
285,262,281710,1,0,0:0:0:0:
276,261,281841,1,8,0:0:0:0:
276,261,281906,1,0,0:0:0:0:
276,261,281971,1,8,0:0:0:0:
276,261,282037,1,8,0:0:0:0:
276,261,282102,1,0,0:0:0:0:
276,261,282167,1,0,0:0:0:0:
276,261,282232,1,8,0:0:0:0:
276,261,282297,1,0,0:0:0:0:
285,266,282363,1,8,0:0:0:0:
285,262,282428,1,8,0:0:0:0:
285,262,282493,1,0,0:0:0:0:
285,266,282558,1,8,0:0:0:0:
285,266,282624,1,8,0:0:0:0:
281,262,282689,1,0,0:0:0:0:
281,262,282754,1,0,0:0:0:0:
281,262,282819,1,0,0:0:0:0:
281,262,282884,1,8,0:0:0:0:
278,265,282950,1,0,0:0:0:0:
278,265,283015,1,8,0:0:0:0:
278,265,283080,1,8,0:0:0:0:
278,265,283145,1,0,0:0:0:0:
278,265,283210,1,0,0:0:0:0:
278,265,283276,1,8,0:0:0:0:
278,276,283341,1,0,0:0:0:0:
278,265,283406,1,8,0:0:0:0:
271,235,283471,1,8,0:0:0:0:
271,235,283537,1,0,0:0:0:0:
271,235,283602,1,0,0:0:0:0:
271,235,283667,1,8,0:0:0:0:
264,243,283732,1,8,0:0:0:0:
265,244,283797,1,8,0:0:0:0:
265,244,283863,1,8,0:0:0:0:
265,244,283928,1,0,0:0:0:0:
265,244,283993,1,0,0:0:0:0:
265,244,284058,1,0,0:0:0:0:
265,244,284124,1,0,0:0:0:0:
265,244,284189,1,8,0:0:0:0:
265,244,284254,1,8,0:0:0:0:
265,244,284319,1,0,0:0:0:0:
265,244,284384,1,0,0:0:0:0:
265,244,284450,1,8,0:0:0:0:
264,243,284515,1,0,0:0:0:0:
265,244,284580,1,0,0:0:0:0:
265,244,284645,1,0,0:0:0:0:
265,244,284710,1,8,0:0:0:0:
265,244,284776,1,8,0:0:0:0:
265,244,284841,1,8,0:0:0:0:
265,244,284906,1,8,0:0:0:0:
265,244,284971,1,0,0:0:0:0:
265,244,285037,1,0,0:0:0:0:
265,244,285102,1,0,0:0:0:0:
265,244,285167,1,0,0:0:0:0:
265,244,285232,1,8,0:0:0:0:
264,243,285297,1,8,0:0:0:0:
265,244,285363,1,0,0:0:0:0:
265,244,285428,1,8,0:0:0:0:
265,244,285493,1,8,0:0:0:0:
265,244,285558,1,0,0:0:0:0:
265,244,285624,1,8,0:0:0:0:
265,244,285689,1,0,0:0:0:0:
265,244,285754,1,8,0:0:0:0:
270,259,285819,1,8,0:0:0:0:
270,259,285884,1,8,0:0:0:0:
270,259,285950,1,0,0:0:0:0:
270,259,286015,1,8,0:0:0:0:
270,259,286080,1,0,0:0:0:0:
270,259,286145,5,0,0:0:0:0:
270,259,286210,1,0,0:0:0:0:
289,243,286276,1,8,0:0:0:0:
289,243,286341,1,8,0:0:0:0:
289,243,286406,1,0,0:0:0:0:
289,243,286471,1,0,0:0:0:0:
289,243,286537,1,8,0:0:0:0:
289,243,286602,1,0,0:0:0:0:
289,243,286667,1,0,0:0:0:0:
289,243,286732,1,0,0:0:0:0:
289,244,286797,1,12,0:0:0:0:
308,230,287326,5,8,0:0:0:0:
313,241,287433,1,8,0:0:0:0:
313,241,287540,1,0,0:0:0:0:
313,241,287658,5,12,0:0:0:0:
262,191,287765,1,0,0:0:0:0:
262,191,287872,1,8,0:0:0:0:
262,191,287925,1,0,0:0:0:0:
262,191,287979,1,8,0:0:0:0:
251,181,288086,1,0,0:0:0:0:
250,181,288140,1,0,0:0:0:0:
250,180,288193,1,8,0:0:0:0:
250,180,288247,1,0,0:0:0:0:
248,180,288300,1,8,0:0:0:0:
248,180,288408,1,0,0:0:0:0:
248,180,288461,1,0,0:0:0:0:
262,191,288515,1,8,0:0:0:0:
292,223,288622,1,8,0:0:0:0:
266,192,288729,1,0,0:0:0:0:
266,192,288783,1,8,0:0:0:0:
266,192,288836,1,8,0:0:0:0:
266,192,288890,1,0,0:0:0:0:
266,192,288943,1,8,0:0:0:0:
264,191,289050,1,8,0:0:0:0:
264,191,289104,1,8,0:0:0:0:
222,166,289158,1,0,0:0:0:0:
238,185,289211,1,0,0:0:0:0:
240,187,289265,1,8,0:0:0:0:
240,187,289318,1,0,0:0:0:0:
313,241,289372,5,8,0:0:0:0:
262,191,289479,1,0,0:0:0:0:
213,191,289533,1,8,0:0:0:0:
262,191,289586,1,8,0:0:0:0:
262,191,289639,1,0,0:0:0:0:
262,191,289693,1,8,0:0:0:0:
251,181,289800,1,0,0:0:0:0:
250,181,289854,1,0,0:0:0:0:
250,180,289907,1,8,0:0:0:0:
250,180,289961,1,0,0:0:0:0:
248,180,290014,1,8,0:0:0:0:
248,180,290122,1,0,0:0:0:0:
248,180,290175,1,0,0:0:0:0:
262,191,290229,1,8,0:0:0:0:
292,223,290336,1,8,0:0:0:0:
266,192,290443,1,0,0:0:0:0:
266,192,290497,1,8,0:0:0:0:
266,192,290550,1,8,0:0:0:0:
266,192,290604,1,0,0:0:0:0:
266,192,290657,1,8,0:0:0:0:
264,191,290764,1,8,0:0:0:0:
264,191,290818,1,0,0:0:0:0:
222,166,290872,1,8,0:0:0:0:
238,185,290925,1,8,0:0:0:0:
240,187,290979,1,0,0:0:0:0:
240,187,291032,1,0,0:0:0:0:
313,241,291086,5,8,0:0:0:0:
254,201,291140,1,8,0:0:0:0:
262,191,291193,1,0,0:0:0:0:
262,191,291300,1,8,0:0:0:0:
262,191,291353,1,0,0:0:0:0:
262,191,291407,1,8,0:0:0:0:
254,201,291461,1,8,0:0:0:0:
251,181,291514,1,0,0:0:0:0:
250,180,291621,1,0,0:0:0:0:
248,180,291728,1,8,0:0:0:0:
264,202,291783,1,8,0:0:0:0:
248,180,291836,1,0,0:0:0:0:
262,191,291943,1,8,0:0:0:0:
263,209,291997,1,8,0:0:0:0:
292,223,292050,1,0,0:0:0:0:
254,190,292104,1,8,0:0:0:0:
266,192,292157,1,0,0:0:0:0:
266,192,292264,1,0,0:0:0:0:
266,192,292371,1,8,0:0:0:0:
266,192,292425,1,8,0:0:0:0:
264,191,292478,1,0,0:0:0:0:
264,191,292532,1,8,0:0:0:0:
222,166,292586,1,0,0:0:0:0:
238,185,292640,1,0,0:0:0:0:
240,187,292693,1,8,0:0:0:0:
240,187,292746,1,0,0:0:0:0:
313,241,292800,5,8,0:0:0:0:
254,201,292854,1,8,0:0:0:0:
262,191,292907,1,0,0:0:0:0:
262,191,293014,1,8,0:0:0:0:
262,191,293067,1,0,0:0:0:0:
262,191,293121,1,8,0:0:0:0:
254,201,293175,1,8,0:0:0:0:
251,181,293228,1,0,0:0:0:0:
250,180,293335,1,0,0:0:0:0:
248,180,293442,1,8,0:0:0:0:
264,202,293497,1,8,0:0:0:0:
248,180,293550,1,0,0:0:0:0:
262,191,293657,1,8,0:0:0:0:
263,209,293711,1,8,0:0:0:0:
292,223,293764,1,0,0:0:0:0:
241,189,293818,1,0,0:0:0:0:
266,192,293871,1,8,0:0:0:0:
254,190,293925,1,0,0:0:0:0:
266,192,293978,1,8,0:0:0:0:
266,192,294085,1,8,0:0:0:0:
266,192,294139,1,8,0:0:0:0:
264,191,294192,1,0,0:0:0:0:
264,191,294246,1,0,0:0:0:0:
222,166,294300,1,8,0:0:0:0:
238,185,294354,1,0,0:0:0:0:
240,187,294407,1,0,0:0:0:0:
240,187,294460,1,0,0:0:0:0:
313,241,294515,5,12,0:0:0:0:
262,191,294622,1,0,0:0:0:0:
262,191,294729,1,8,0:0:0:0:
262,191,294782,1,0,0:0:0:0:
262,191,294836,1,8,0:0:0:0:
251,181,294943,1,0,0:0:0:0:
250,181,294997,1,0,0:0:0:0:
250,180,295050,1,8,0:0:0:0:
250,180,295104,1,0,0:0:0:0:
248,180,295157,1,8,0:0:0:0:
248,180,295265,1,0,0:0:0:0:
248,180,295318,1,0,0:0:0:0:
262,191,295372,1,8,0:0:0:0:
292,223,295479,1,8,0:0:0:0:
266,192,295586,1,0,0:0:0:0:
266,192,295640,1,8,0:0:0:0:
266,192,295693,1,8,0:0:0:0:
266,192,295747,1,0,0:0:0:0:
266,192,295800,1,8,0:0:0:0:
264,191,295907,1,8,0:0:0:0:
264,191,295961,1,8,0:0:0:0:
222,166,296015,1,0,0:0:0:0:
238,185,296068,1,0,0:0:0:0:
240,187,296122,1,8,0:0:0:0:
240,187,296175,1,0,0:0:0:0:
313,241,296229,5,8,0:0:0:0:
262,191,296336,1,0,0:0:0:0:
213,191,296390,1,8,0:0:0:0:
262,191,296443,1,8,0:0:0:0:
262,191,296496,1,0,0:0:0:0:
262,191,296550,1,8,0:0:0:0:
251,181,296657,1,0,0:0:0:0:
250,181,296711,1,0,0:0:0:0:
250,180,296764,1,8,0:0:0:0:
250,180,296818,1,0,0:0:0:0:
248,180,296871,1,8,0:0:0:0:
248,180,296979,1,0,0:0:0:0:
248,180,297032,1,0,0:0:0:0:
262,191,297086,1,8,0:0:0:0:
292,223,297193,1,8,0:0:0:0:
266,192,297300,1,0,0:0:0:0:
266,192,297354,1,8,0:0:0:0:
266,192,297407,1,8,0:0:0:0:
266,192,297461,1,0,0:0:0:0:
266,192,297514,1,8,0:0:0:0:
264,191,297621,1,0,0:0:0:0:
264,191,297675,1,0,0:0:0:0:
222,166,297729,1,8,0:0:0:0:
238,185,297782,1,0,0:0:0:0:
240,187,297836,1,8,0:0:0:0:
240,187,297889,1,0,0:0:0:0:
313,241,297943,5,8,0:0:0:0:
254,201,297997,1,8,0:0:0:0:
262,191,298050,1,0,0:0:0:0:
268,225,298104,1,0,0:0:0:0:
262,191,298157,1,8,0:0:0:0:
262,191,298210,1,0,0:0:0:0:
262,191,298264,1,8,0:0:0:0:
254,201,298318,1,8,0:0:0:0:
251,181,298371,1,0,0:0:0:0:
270,216,298425,1,0,0:0:0:0:
250,180,298478,1,8,0:0:0:0:
265,218,298533,1,0,0:0:0:0:
248,180,298585,1,8,0:0:0:0:
264,202,298640,1,8,0:0:0:0:
248,180,298693,1,0,0:0:0:0:
264,216,298747,1,0,0:0:0:0:
262,191,298800,1,8,0:0:0:0:
263,209,298854,1,0,0:0:0:0:
292,223,298908,1,8,0:0:0:0:
254,190,298961,1,8,0:0:0:0:
266,192,299014,1,0,0:0:0:0:
264,216,299068,1,0,0:0:0:0:
266,192,299121,1,8,0:0:0:0:
264,216,299175,1,0,0:0:0:0:
266,192,299228,1,8,0:0:0:0:
266,192,299282,1,8,0:0:0:0:
264,191,299335,1,0,0:0:0:0:
264,191,299389,1,8,0:0:0:0:
222,166,299443,1,0,0:0:0:0:
238,185,299497,1,0,0:0:0:0:
240,187,299550,1,8,0:0:0:0:
240,187,299603,1,0,0:0:0:0:
313,241,299657,5,8,0:0:0:0:
254,201,299711,1,8,0:0:0:0:
262,191,299764,1,0,0:0:0:0:
264,216,299818,1,0,0:0:0:0:
262,191,299871,1,8,0:0:0:0:
262,191,299924,1,0,0:0:0:0:
262,191,299978,1,8,0:0:0:0:
254,201,300032,1,8,0:0:0:0:
251,181,300085,1,0,0:0:0:0:
264,216,300140,1,0,0:0:0:0:
250,180,300192,1,8,0:0:0:0:
264,216,300247,1,0,0:0:0:0:
248,180,300299,1,8,0:0:0:0:
264,202,300354,1,8,0:0:0:0:
248,180,300407,1,0,0:0:0:0:
264,216,300461,1,0,0:0:0:0:
262,191,300514,1,8,0:0:0:0:
263,209,300568,1,0,0:0:0:0:
292,223,300621,1,8,0:0:0:0:
241,189,300675,1,8,0:0:0:0:
266,192,300728,1,0,0:0:0:0:
254,190,300782,1,0,0:0:0:0:
266,192,300835,1,8,0:0:0:0:
264,216,300890,1,0,0:0:0:0:
266,192,300942,1,8,0:0:0:0:
266,192,300996,1,8,0:0:0:0:
264,191,301049,1,0,0:0:0:0:
264,191,301103,1,0,0:0:0:0:
222,166,301157,1,8,0:0:0:0:
238,185,301211,1,0,0:0:0:0:
240,187,301264,1,0,0:0:0:0:
240,187,301317,1,0,0:0:0:0:
252,196,301372,1,12,0:0:0:0:
260,189,303086,1,4,0:0:0:0:
256,192,303140,12,4,303943,0:0:0:0:
