osu file format v14

[General]
AudioFilename: audio.mp3
AudioLeadIn: 0
PreviewTime: 47941
Countdown: 0
SampleSet: Soft
StackLeniency: 0.7
Mode: 0
LetterboxInBreaks: 0
WidescreenStoryboard: 1

[Editor]
Bookmarks: 63736
DistanceSpacing: 1.2
BeatDivisor: 4
GridSize: 8
TimelineZoom: 3.199998

[Metadata]
Title:China-Future
TitleUnicode:China-Future
Artist:Xu Meng Yuan
ArtistUnicode:徐梦圆
Creator:-Eriri-
Version:Ts8zs' Hard
Source:
Tags:Pata-Mon ts8zs Future Bass
BeatmapID:1386395
BeatmapSetID:634591

[Difficulty]
HPDrainRate:6
CircleSize:3
OverallDifficulty:6
ApproachRate:7
SliderMultiplier:1.6
SliderTickRate:1

[Events]
//Background and Video events
0,0,"36673037_p0.jpg",0,0
//Break Periods
//Storyboard Layer 0 (Background)
//Storyboard Layer 1 (Fail)
//Storyboard Layer 2 (Pass)
//Storyboard Layer 3 (Foreground)
//Storyboard Sound Samples

[TimingPoints]
35,375,4,2,8,50,1,0
12035,-100,4,2,8,50,0,0
24035,-100,4,2,8,50,0,0
48035,-100,4,2,8,50,0,1
72035,-100,4,2,8,5,0,0
84035,-100,4,2,8,50,0,0
96035,-100,4,2,8,50,0,0
120035,-100,4,2,8,50,0,1
144035,-100,4,2,8,5,0,0

[Colours]
Combo1 : 240,240,240
Combo2 : 255,128,0
Combo3 : 255,0,0
Combo4 : 255,0,128

[HitObjects]
128,184,35,6,0,P|192:184|248:80,1,160,0|0,0:0|0:0,0:0:0:0:
160,96,597,1,2,0:0:0:0:
64,112,785,2,0,P|32:167|94:267,1,160,8|0,0:0|0:0,0:0:0:0:
256,248,1535,6,0,L|352:240,1,80
368,336,1910,2,0,L|272:328,1,80,0|2,0:0|0:0,0:0:0:0:
192,320,2285,2,0,P|160:264|208:168,1,160,8|0,0:0|0:0,0:0:0:0:
368,112,3035,6,0,P|304:136|224:80,1,160,2|0,0:0|0:0,0:0:0:0:
312,40,3597,1,2,0:0:0:0:
408,24,3785,2,0,P|460:67|452:164,1,160,8|0,0:0|0:0,0:0:0:0:
280,232,4535,6,0,L|200:238,1,80,0|0,0:0|0:0,0:0:0:0:
232,320,4910,2,0,L|311:326,1,80,0|2,0:0|0:0,0:0:0:0:
136,310,5285,2,0,P|102:239|135:169,1,160,8|0,0:0|0:0,0:0:0:0:
288,56,6035,6,0,B|336:104|336:104|384:88|424:112,1,160,2|0,0:0|0:0,0:0:0:0:
376,192,6597,1,2,0:0:0:0:
328,280,6785,2,0,B|368:304|416:288|416:288|464:336,1,160,8|0,0:0|0:0,0:0:0:0:
272,360,7535,6,0,L|192:344,1,80,0|0,0:0|0:0,0:0:0:0:
216,248,7910,2,0,L|137:263,1,80,0|2,0:0|0:0,0:0:0:0:
64,328,8285,2,0,P|37:255|77:189,1,160,8|0,0:0|0:0,0:0:0:0:
240,80,9035,6,0,P|168:88|80:80,1,160,2|0,0:0|0:0,0:0:0:0:
104,176,9597,1,2,0:0:0:0:
200,168,9785,2,0,P|272:160|360:168,1,160,8|0,0:0|0:0,0:0:0:0:
488,24,10535,6,0,L|480:104,1,80,0|0,0:0|0:0,0:0:0:0:
384,88,10910,2,0,L|392:168,1,80,0|2,0:0|0:0,0:0:0:0:
464,232,11285,2,0,P|384:264|304:208,1,160,8|0,0:0|0:0,0:0:0:0:
304,216,12035,5,2,0:0:0:0:
120,168,12410,2,0,P|112:232|152:320,2,160,0|8|0,0:0|0:0|0:0,0:0:0:0:
192,344,13535,6,0,L|224:256,1,80,0|0,0:0|0:0,0:0:0:0:
288,344,13910,2,0,L|320:264,1,80,0|2,0:0|0:0,0:0:0:0:
384,344,14285,2,0,B|416:264|416:264|416:184,1,160,8|0,0:0|0:0,0:0:0:0:
416,144,15035,5,2,0:0:0:0:
240,216,15410,2,0,P|224:120|248:56,2,160,0|8|0,0:0|0:0|0:0,0:0:0:0:
280,24,16535,6,0,L|200:56,1,80,0|0,0:0|0:0,0:0:0:0:
264,128,16910,2,0,L|184:160,1,80,0|2,0:0|0:0,0:0:0:0:
256,224,17285,2,0,B|176:256|176:256|136:248|104:216,1,160,8|0,0:0|0:0,0:0:0:0:
80,192,18035,5,2,0:0:0:0:
264,128,18410,2,0,P|280:216|248:296,2,160,0|8|0,0:0|0:0|0:0,0:0:0:0:
72,88,19535,6,0,L|160:72,1,80,0|0,0:0|0:0,0:0:0:0:
144,168,19910,2,0,L|232:152,1,80,0|2,0:0|0:0,0:0:0:0:
264,240,20285,2,0,P|320:168|312:104,1,160,8|0,0:0|0:0,0:0:0:0:
288,56,21035,5,2,0:0:0:0:
232,240,21410,2,0,P|304:248|392:224,2,160,0|8|0,0:0|0:0|0:0,0:0:0:0:
176,48,22535,6,0,L|208:128,1,80,0|0,0:0|0:0,0:0:0:0:
112,160,22910,2,0,L|144:240,1,80,0|2,0:0|0:0,0:0:0:0:
56,280,23285,2,0,B|88:360|88:360|136:328|184:336,1,160,8|0,0:0|0:0,0:0:0:0:
200,336,24035,6,0,P|248:256|224:192,1,160,6|0,0:0|0:0,0:0:0:0:
160,128,24597,1,2,0:0:0:0:
112,48,24785,2,0,P|64:128|88:192,1,160,8|0,0:0|0:0,0:0:0:0:
152,256,25347,1,2,0:0:0:0:
152,256,25535,6,0,L|320:232,1,160
440,72,26285,2,0,L|281:94,1,160,8|0,0:0|0:0,0:0:0:0:
96,40,27035,6,0,P|88:120|144:200,1,160,2|0,0:0|0:0,0:0:0:0:
216,224,27597,1,2,0:0:0:0:
312,240,27785,2,0,P|320:160|264:80,1,160,8|0,0:0|0:0,0:0:0:0:
200,40,28347,5,2,0:0:0:0:
200,40,28535,2,0,L|184:120,1,80
88,128,28910,2,0,L|104:208,1,80,0|2,0:0|0:0,0:0:0:0:
128,296,29285,5,8,0:0:0:0:
200,232,29472,1,0,0:0:0:0:
184,136,29660,1,0,0:0:0:0:
264,80,29847,1,0,0:0:0:0:
288,176,30035,6,0,P|336:240|432:240,1,160,2|0,0:0|0:0,0:0:0:0:
384,152,30597,1,2,0:0:0:0:
320,80,30785,2,0,P|240:89|192:172,1,160,8|0,0:0|0:0,0:0:0:0:
288,176,31347,1,2,0:0:0:0:
384,152,31535,6,0,P|415:78|367:-4,1,160,0|0,0:0|0:0,0:0:0:0:
288,176,32285,2,0,P|335:240|431:240,1,160,8|0,0:0|0:0,0:0:0:0:
312,80,33035,6,0,P|232:89|184:172,1,160,2|0,0:0|0:0,0:0:0:0:
216,240,33597,1,2,0:0:0:0:
216,240,33785,2,0,P|168:301|91:310,1,160,8|0,0:0|0:0,0:0:0:0:
120,216,34347,5,2,0:0:0:0:
120,216,34535,2,0,P|80:224|40:216,1,80
80,128,34910,2,0,P|120:120|160:128,1,80,0|2,0:0|0:0,0:0:0:0:
216,208,35285,5,8,0:0:0:0:
240,304,35472,1,0,0:0:0:0:
336,304,35660,1,0,0:0:0:0:
352,208,35847,1,0,0:0:0:0:
280,144,36035,6,0,P|352:112|424:144,1,160,2|0,0:0|0:0,0:0:0:0:
352,208,36597,1,2,0:0:0:0:
264,240,36785,2,0,P|200:193|192:115,1,160,8|0,0:0|0:0,0:0:0:0:
280,144,37347,1,2,0:0:0:0:
352,208,37535,1,0,0:0:0:0:
352,208,38097,5,2,0:0:0:0:
344,304,38285,2,0,P|304:328|256:336,2,80,8|0|0,0:0|0:0|0:0,0:0:0:0:
264,240,38847,1,0,0:0:0:0:
280,144,39035,6,0,P|352:112|424:144,1,160,2|0,0:0|0:0,0:0:0:0:
352,208,39597,1,2,0:0:0:0:
424,272,39785,2,0,P|352:304|280:272,1,160,8|0,0:0|0:0,0:0:0:0:
352,208,40347,1,2,0:0:0:0:
280,144,40535,1,0,0:0:0:0:
264,240,41097,5,2,0:0:0:0:
344,304,41285,2,0,P|304:328|256:336,2,80,8|0|0,0:0|0:0|0:0,0:0:0:0:
352,208,41847,1,0,0:0:0:0:
280,144,42035,6,0,P|352:112|424:144,1,160,2|0,0:0|0:0,0:0:0:0:
352,208,42597,1,2,0:0:0:0:
264,240,42785,2,0,P|200:193|192:115,1,160,8|0,0:0|0:0,0:0:0:0:
280,144,43347,1,2,0:0:0:0:
352,208,43535,5,0,0:0:0:0:
344,304,43722,1,0,0:0:0:0:
248,328,43910,2,0,L|168:352,1,80,2|0,0:0|0:0,0:0:0:0:
56,384,44285,1,8,0:0:0:0:
72,288,44472,1,2,0:0:0:0:
168,256,44660,2,0,L|248:232,1,80,2|0,0:0|0:0,0:0:0:0:
280,144,45035,6,0,P|352:112|424:144,1,160,2|0,0:0|0:0,0:0:0:0:
352,208,45597,1,2,0:0:0:0:
424,272,45785,2,0,P|352:304|280:272,1,160,10|0,0:0|0:0,0:0:0:0:
352,208,46347,1,2,0:0:0:0:
280,144,46535,5,2,0:0:0:0:
264,240,46722,1,2,0:0:0:0:
176,272,46910,2,0,L|80:312,1,80,2|2,0:0|0:0,0:0:0:0:
112,208,47285,1,10,0:0:0:0:
128,120,47472,1,0,0:0:0:0:
208,168,47660,2,0,L|296:136,1,80
352,208,48035,6,0,P|343:286|280:332,1,160,6|0,0:0|0:0,0:0:0:0:
192,376,48597,2,0,P|182:337|191:299,1,80,2|8,0:0|0:0,0:0:0:0:
264,240,48972,1,0,0:0:0:0:
176,200,49160,2,0,P|137:191|98:201,1,80,0|2,0:0|0:0,0:0:0:0:
136,288,49535,1,0,0:0:0:0:
232,280,49722,6,0,P|259:250|270:211,2,80,0|0|2,0:0|0:0|0:0,0:0:0:0:
136,288,50285,2,0,L|176:368,1,80,8|0,0:0|0:0,0:0:0:0:
176,200,50660,2,0,L|140:128,1,80,0|0,0:0|0:0,0:0:0:0:
80,208,51035,6,0,P|40:272|64:352,1,160,2|0,0:0|0:0,0:0:0:0:
136,288,51597,1,2,0:0:0:0:
216,344,51785,2,0,P|232:304|224:256,1,80,8|0,0:0|0:0,0:0:0:0:
183,120,52160,2,0,P|167:156|171:196,1,80,0|2,0:0|0:0,0:0:0:0:
264,168,52535,1,0,0:0:0:0:
272,72,52722,6,0,P|248:40|212:23,2,80,0|0|2,0:0|0:0|0:0,0:0:0:0:
264,168,53285,2,0,L|344:216,1,80,8|0,0:0|0:0,0:0:0:0:
376,128,53660,2,0,L|456:176,1,80,0|0,0:0|0:0,0:0:0:0:
432,264,54035,6,0,P|370:311|293:300,1,160,2|0,0:0|0:0,0:0:0:0:
209,341,54597,2,0,P|199:302|208:264,1,80,2|8,0:0|0:0,0:0:0:0:
288,208,54972,1,0,0:0:0:0:
200,176,55160,2,0,P|161:167|122:177,1,80,0|2,0:0|0:0,0:0:0:0:
160,264,55535,1,0,0:0:0:0:
256,256,55722,6,0,P|283:226|294:187,2,80,0|0|2,0:0|0:0|0:0,0:0:0:0:
160,264,56285,2,0,L|200:344,1,80,8|0,0:0|0:0,0:0:0:0:
200,176,56660,2,0,L|164:104,1,80,0|0,0:0|0:0,0:0:0:0:
104,184,57035,6,0,P|64:248|88:328,1,160,2|0,0:0|0:0,0:0:0:0:
160,264,57597,1,2,0:0:0:0:
216,344,57785,2,0,P|256:280|232:200,1,160,8|0,0:0|0:0,0:0:0:0:
160,264,58347,1,2,0:0:0:0:
104,184,58535,6,0,L|24:176,1,80,0|0,0:0|0:0,0:0:0:0:
120,104,58910,2,0,L|128:24,1,80,0|2,0:0|0:0,0:0:0:0:
200,120,59285,2,0,L|280:128,1,80,8|0,0:0|0:0,0:0:0:0:
192,200,59660,2,0,L|184:280,1,80,0|0,0:0|0:0,0:0:0:0:
120,352,60035,6,0,P|208:376|264:336,1,160,2|0,0:0|0:0,0:0:0:0:
184,279,60597,1,2,0:0:0:0:
184,279,60785,2,0,P|272:303|328:263,1,160,8|0,0:0|0:0,0:0:0:0:
248,208,61347,1,2,0:0:0:0:
248,208,61535,2,0,P|336:232|392:192,1,160,0|0,0:0|0:0,0:0:0:0:
208,120,62285,2,0,P|120:96|64:136,1,160,8|0,0:0|0:0,0:0:0:0:
248,208,63035,6,0,P|280:184|288:64,1,160,2|0,0:0|0:0,0:0:0:0:
208,120,63597,1,2,0:0:0:0:
152,200,63785,2,0,P|156:239|240:304,1,120,8|0,0:0|0:0,0:0:0:0:
248,208,64347,1,2,0:0:0:0:
208,120,64535,6,0,P|171:104|103:115,1,80,0|0,0:0|0:0,0:0:0:0:
32,96,64910,2,0,P|36:135|80:188,1,80,0|2,0:0|0:0,0:0:0:0:
100,257,65285,2,0,P|131:233|155:169,1,80,8|0,0:0|0:0,0:0:0:0:
208,120,65660,2,0,L|248:216,1,80,0|0,0:0|0:0,0:0:0:0:
304,264,66035,6,0,P|216:288|160:248,1,160,2|0,0:0|0:0,0:0:0:0:
240,191,66597,1,2,0:0:0:0:
240,191,66785,2,0,P|152:215|96:175,1,160,8|0,0:0|0:0,0:0:0:0:
176,120,67347,1,2,0:0:0:0:
176,120,67535,2,0,P|88:144|32:104,1,160,0|0,0:0|0:0,0:0:0:0:
208,32,68285,2,0,P|296:8|352:48,1,160,8|0,0:0|0:0,0:0:0:0:
312,232,69035,6,0,P|336:264|448:280,1,160,2|0,0:0|0:0,0:0:0:0:
400,192,69597,1,2,0:0:0:0:
321,136,69785,2,0,P|282:140|216:240,1,160,8|0,0:0|0:0,0:0:0:0:
312,232,70347,1,2,0:0:0:0:
400,192,70535,6,0,P|416:155|405:87,1,80,0|0,0:0|0:0,0:0:0:0:
424,16,70910,2,0,P|385:20|332:64,1,80,0|2,0:0|0:0,0:0:0:0:
263,84,71285,2,0,P|287:115|351:139,1,80,8|0,0:0|0:0,0:0:0:0:
400,192,71660,2,0,P|344:224|248:200,1,160,0|2,0:0|0:0,0:0:0:0:
400,192,72597,5,2,0:0:0:0:
464,120,72785,2,0,P|496:175|434:275,1,160,8|0,0:0|0:0,0:0:0:0:
256,248,73535,6,0,L|160:240,1,80
144,336,73910,2,0,L|240:328,1,80,0|2,0:0|0:0,0:0:0:0:
320,320,74285,2,0,P|352:264|304:168,1,160,8|0,0:0|0:0,0:0:0:0:
144,112,75035,6,0,P|208:136|288:80,1,160,2|0,0:0|0:0,0:0:0:0:
200,40,75597,1,2,0:0:0:0:
104,24,75785,2,0,P|52:67|60:164,1,160,8|0,0:0|0:0,0:0:0:0:
232,232,76535,6,0,L|312:238,1,80,0|0,0:0|0:0,0:0:0:0:
280,320,76910,2,0,L|201:326,1,80,0|2,0:0|0:0,0:0:0:0:
376,310,77285,2,0,P|410:239|377:169,1,160,8|0,0:0|0:0,0:0:0:0:
224,56,78035,6,0,B|176:104|176:104|128:88|88:112,1,160,2|0,0:0|0:0,0:0:0:0:
136,192,78597,1,2,0:0:0:0:
184,280,78785,2,0,B|144:304|96:288|96:288|48:336,1,160,8|0,0:0|0:0,0:0:0:0:
240,360,79535,6,0,L|320:344,1,80,0|0,0:0|0:0,0:0:0:0:
296,248,79910,2,0,L|375:263,1,80,0|2,0:0|0:0,0:0:0:0:
448,328,80285,2,0,P|475:255|435:189,1,160,8|0,0:0|0:0,0:0:0:0:
272,80,81035,6,0,P|344:88|432:80,1,160,2|0,0:0|0:0,0:0:0:0:
408,176,81597,1,2,0:0:0:0:
312,168,81785,2,0,P|240:160|152:168,1,160,8|0,0:0|0:0,0:0:0:0:
24,24,82535,6,0,L|32:104,1,80,0|0,0:0|0:0,0:0:0:0:
128,88,82910,2,0,L|120:168,1,80,0|2,0:0|0:0,0:0:0:0:
48,232,83285,2,0,P|128:264|208:208,1,160,8|0,0:0|0:0,0:0:0:0:
208,216,84035,5,2,0:0:0:0:
392,168,84410,2,0,P|400:232|360:320,2,160,0|8|0,0:0|0:0|0:0,0:0:0:0:
320,344,85535,6,0,L|288:256,1,80,0|0,0:0|0:0,0:0:0:0:
224,344,85910,2,0,L|192:264,1,80,0|2,0:0|0:0,0:0:0:0:
128,344,86285,2,0,B|96:264|96:264|96:184,1,160,8|0,0:0|0:0,0:0:0:0:
96,144,87035,5,2,0:0:0:0:
272,216,87410,2,0,P|288:120|264:56,2,160,0|8|0,0:0|0:0|0:0,0:0:0:0:
232,24,88535,6,0,L|312:56,1,80,0|0,0:0|0:0,0:0:0:0:
248,128,88910,2,0,L|328:160,1,80,0|2,0:0|0:0,0:0:0:0:
256,224,89285,2,0,B|336:256|336:256|376:248|408:216,1,160,8|0,0:0|0:0,0:0:0:0:
432,192,90035,5,2,0:0:0:0:
248,128,90410,2,0,P|232:216|264:296,2,160,0|8|0,0:0|0:0|0:0,0:0:0:0:
440,88,91535,6,0,L|352:72,1,80,0|0,0:0|0:0,0:0:0:0:
368,168,91910,2,0,L|280:152,1,80,0|2,0:0|0:0,0:0:0:0:
248,240,92285,2,0,P|192:168|200:104,1,160,8|0,0:0|0:0,0:0:0:0:
224,56,93035,5,2,0:0:0:0:
280,240,93410,2,0,P|208:248|120:224,2,160,0|8|0,0:0|0:0|0:0,0:0:0:0:
336,48,94535,6,0,L|304:128,1,80,0|0,0:0|0:0,0:0:0:0:
400,160,94910,2,0,L|368:240,1,80,0|2,0:0|0:0,0:0:0:0:
456,280,95285,2,0,B|424:360|424:360|376:328|328:336,1,160,8|0,0:0|0:0,0:0:0:0:
312,336,96035,6,0,P|264:256|288:192,1,160,6|0,0:0|0:0,0:0:0:0:
352,128,96597,1,2,0:0:0:0:
400,48,96785,2,0,P|448:128|424:192,1,160,8|0,0:0|0:0,0:0:0:0:
360,256,97347,1,2,0:0:0:0:
360,256,97535,6,0,L|192:232,1,160
72,72,98285,2,0,L|231:94,1,160,8|0,0:0|0:0,0:0:0:0:
416,40,99035,6,0,P|424:120|368:200,1,160,2|0,0:0|0:0,0:0:0:0:
296,224,99597,1,2,0:0:0:0:
200,240,99785,2,0,P|192:160|248:80,1,160,8|0,0:0|0:0,0:0:0:0:
312,40,100347,5,2,0:0:0:0:
312,40,100535,2,0,L|328:120,1,80
424,128,100910,2,0,L|408:208,1,80,0|2,0:0|0:0,0:0:0:0:
384,296,101285,5,8,0:0:0:0:
312,232,101472,1,0,0:0:0:0:
328,136,101660,1,0,0:0:0:0:
248,80,101847,1,0,0:0:0:0:
224,176,102035,6,0,P|176:240|80:240,1,160,2|0,0:0|0:0,0:0:0:0:
128,152,102597,1,2,0:0:0:0:
192,80,102785,2,0,P|272:89|320:172,1,160,8|0,0:0|0:0,0:0:0:0:
224,176,103347,1,2,0:0:0:0:
128,152,103535,6,0,P|97:78|145:-4,1,160,0|0,0:0|0:0,0:0:0:0:
224,176,104285,2,0,P|177:240|81:240,1,160,8|0,0:0|0:0,0:0:0:0:
200,80,105035,6,0,P|280:89|328:172,1,160,2|0,0:0|0:0,0:0:0:0:
296,240,105597,1,2,0:0:0:0:
296,240,105785,2,0,P|344:301|421:310,1,160,8|0,0:0|0:0,0:0:0:0:
392,216,106347,5,2,0:0:0:0:
392,216,106535,2,0,P|432:224|472:216,1,80
432,128,106910,2,0,P|392:120|352:128,1,80,0|2,0:0|0:0,0:0:0:0:
296,208,107285,5,8,0:0:0:0:
272,304,107472,1,0,0:0:0:0:
176,304,107660,1,0,0:0:0:0:
160,208,107847,1,0,0:0:0:0:
232,144,108035,6,0,P|160:112|88:144,1,160,2|0,0:0|0:0,0:0:0:0:
160,208,108597,1,2,0:0:0:0:
248,240,108785,2,0,P|312:193|320:115,1,160,8|0,0:0|0:0,0:0:0:0:
232,144,109347,1,2,0:0:0:0:
160,208,109535,1,0,0:0:0:0:
160,208,110097,5,2,0:0:0:0:
168,304,110285,2,0,P|208:328|256:336,2,80,8|0|0,0:0|0:0|0:0,0:0:0:0:
248,240,110847,1,0,0:0:0:0:
232,144,111035,6,0,P|160:112|88:144,1,160,2|0,0:0|0:0,0:0:0:0:
160,208,111597,1,2,0:0:0:0:
88,272,111785,2,0,P|160:304|232:272,1,160,8|0,0:0|0:0,0:0:0:0:
160,208,112347,1,2,0:0:0:0:
232,144,112535,1,0,0:0:0:0:
232,144,113097,5,2,0:0:0:0:
160,208,113285,2,0,P|136:248|128:296,2,80,8|0|0,0:0|0:0|0:0,0:0:0:0:
248,240,113847,1,0,0:0:0:0:
232,144,114035,6,0,P|160:112|88:144,1,160,2|0,0:0|0:0,0:0:0:0:
160,208,114597,1,2,0:0:0:0:
248,240,114785,2,0,P|312:193|320:115,1,160,8|0,0:0|0:0,0:0:0:0:
232,144,115347,1,2,0:0:0:0:
160,208,115535,5,0,0:0:0:0:
168,304,115722,1,0,0:0:0:0:
264,328,115910,2,0,L|344:352,1,80,2|0,0:0|0:0,0:0:0:0:
456,384,116285,1,8,0:0:0:0:
440,288,116472,1,2,0:0:0:0:
344,256,116660,2,0,L|264:232,1,80,2|0,0:0|0:0,0:0:0:0:
232,144,117035,6,0,P|160:112|88:144,1,160,2|0,0:0|0:0,0:0:0:0:
160,208,117597,1,2,0:0:0:0:
88,272,117785,2,0,P|160:304|232:272,1,160,10|0,0:0|0:0,0:0:0:0:
160,208,118347,1,2,0:0:0:0:
232,144,118535,5,2,0:0:0:0:
248,240,118722,1,2,0:0:0:0:
336,272,118910,2,0,L|432:312,1,80,2|2,0:0|0:0,0:0:0:0:
400,208,119285,1,10,0:0:0:0:
384,120,119472,1,0,0:0:0:0:
304,168,119660,2,0,L|216:136,1,80
160,208,120035,6,0,P|169:286|232:332,1,160,6|0,0:0|0:0,0:0:0:0:
320,376,120597,2,0,P|330:337|321:299,1,80,2|8,0:0|0:0,0:0:0:0:
248,240,120972,1,0,0:0:0:0:
336,200,121160,2,0,P|375:191|414:201,1,80,0|2,0:0|0:0,0:0:0:0:
376,288,121535,1,0,0:0:0:0:
280,280,121722,6,0,P|253:250|242:211,2,80,0|0|2,0:0|0:0|0:0,0:0:0:0:
376,288,122285,2,0,L|336:368,1,80,8|0,0:0|0:0,0:0:0:0:
336,200,122660,2,0,L|372:128,1,80,0|0,0:0|0:0,0:0:0:0:
432,208,123035,6,0,P|472:272|448:352,1,160,2|0,0:0|0:0,0:0:0:0:
376,288,123597,1,2,0:0:0:0:
296,344,123785,2,0,P|280:304|288:256,1,80,8|0,0:0|0:0,0:0:0:0:
329,120,124160,2,0,P|345:156|341:196,1,80,0|2,0:0|0:0,0:0:0:0:
248,168,124535,1,0,0:0:0:0:
240,72,124722,6,0,P|264:40|300:23,2,80,0|0|2,0:0|0:0|0:0,0:0:0:0:
248,168,125285,2,0,L|168:216,1,80,8|0,0:0|0:0,0:0:0:0:
136,128,125660,2,0,L|56:176,1,80,0|0,0:0|0:0,0:0:0:0:
80,264,126035,6,0,P|142:311|219:300,1,160,2|0,0:0|0:0,0:0:0:0:
303,341,126597,2,0,P|313:302|304:264,1,80,2|8,0:0|0:0,0:0:0:0:
224,208,126972,1,0,0:0:0:0:
312,176,127160,2,0,P|351:167|390:177,1,80,0|2,0:0|0:0,0:0:0:0:
352,264,127535,1,0,0:0:0:0:
256,256,127722,6,0,P|229:226|218:187,2,80,0|0|2,0:0|0:0|0:0,0:0:0:0:
352,264,128285,2,0,L|312:344,1,80,8|0,0:0|0:0,0:0:0:0:
312,176,128660,2,0,L|348:104,1,80,0|0,0:0|0:0,0:0:0:0:
408,184,129035,6,0,P|448:248|424:328,1,160,2|0,0:0|0:0,0:0:0:0:
352,264,129597,1,2,0:0:0:0:
296,344,129785,2,0,P|256:280|280:200,1,160,8|0,0:0|0:0,0:0:0:0:
352,264,130347,1,2,0:0:0:0:
408,184,130535,6,0,L|488:176,1,80,0|0,0:0|0:0,0:0:0:0:
392,104,130910,2,0,L|384:24,1,80,0|2,0:0|0:0,0:0:0:0:
312,120,131285,2,0,L|232:128,1,80,8|0,0:0|0:0,0:0:0:0:
320,200,131660,2,0,L|328:280,1,80,0|0,0:0|0:0,0:0:0:0:
392,352,132035,6,0,P|304:376|248:336,1,160,2|0,0:0|0:0,0:0:0:0:
328,279,132597,1,2,0:0:0:0:
328,279,132785,2,0,P|240:303|184:263,1,160,8|0,0:0|0:0,0:0:0:0:
264,208,133347,1,2,0:0:0:0:
264,208,133535,2,0,P|176:232|120:192,1,160,0|0,0:0|0:0,0:0:0:0:
304,120,134285,2,0,P|392:96|448:136,1,160,8|0,0:0|0:0,0:0:0:0:
264,208,135035,6,0,P|232:184|224:64,1,160,2|0,0:0|0:0,0:0:0:0:
304,120,135597,1,2,0:0:0:0:
360,200,135785,2,0,P|356:239|272:304,1,120,8|0,0:0|0:0,0:0:0:0:
264,208,136347,1,2,0:0:0:0:
304,120,136535,6,0,P|341:104|409:115,1,80,0|0,0:0|0:0,0:0:0:0:
480,96,136910,2,0,P|476:135|432:188,1,80,0|2,0:0|0:0,0:0:0:0:
412,257,137285,2,0,P|381:233|357:169,1,80,8|0,0:0|0:0,0:0:0:0:
304,120,137660,2,0,L|264:216,1,80,0|0,0:0|0:0,0:0:0:0:
208,264,138035,6,0,P|296:288|352:248,1,160,2|0,0:0|0:0,0:0:0:0:
272,191,138597,1,2,0:0:0:0:
272,191,138785,2,0,P|360:215|416:175,1,160,8|0,0:0|0:0,0:0:0:0:
336,120,139347,1,2,0:0:0:0:
336,120,139535,2,0,P|424:144|480:104,1,160,0|0,0:0|0:0,0:0:0:0:
304,32,140285,2,0,P|216:8|160:48,1,160,8|0,0:0|0:0,0:0:0:0:
200,232,141035,6,0,P|176:264|64:280,1,160,2|0,0:0|0:0,0:0:0:0:
112,192,141597,1,2,0:0:0:0:
191,136,141785,2,0,P|230:140|296:240,1,160,8|0,0:0|0:0,0:0:0:0:
200,232,142347,1,2,0:0:0:0:
112,192,142535,6,0,P|96:155|107:87,1,80,0|0,0:0|0:0,0:0:0:0:
88,16,142910,2,0,P|127:20|180:64,1,80,0|2,0:0|0:0,0:0:0:0:
249,84,143285,2,0,P|225:115|161:139,1,80,8|0,0:0|0:0,0:0:0:0:
112,192,143660,2,0,P|168:224|264:200,1,160,0|2,0:0|0:0,0:0:0:0:
112,192,144597,5,2,0:0:0:0:
48,120,144785,2,0,P|16:175|78:275,1,160,8|0,0:0|0:0,0:0:0:0:
