osu file format v14

[General]
AudioFilename: audio.mp3
AudioLeadIn: 0
PreviewTime: 47941
Countdown: 0
SampleSet: Soft
StackLeniency: 0.4
Mode: 0
LetterboxInBreaks: 0
WidescreenStoryboard: 1

[Editor]
Bookmarks: 35999,107997
DistanceSpacing: 1.5
BeatDivisor: 4
GridSize: 16
TimelineZoom: 3.199999

[Metadata]
Title:China-Future
TitleUnicode:China-Future
Artist:Xu Meng Yuan
ArtistUnicode:徐梦圆
Creator:-Eriri-
Version:Ts8zs' Expert
Source:
Tags:Pata-Mon ts8zs Future Bass
BeatmapID:1386396
BeatmapSetID:634591

[Difficulty]
HPDrainRate:7
CircleSize:4
OverallDifficulty:7
ApproachRate:9.2
SliderMultiplier:1.6
SliderTickRate:1

[Events]
//Background and Video events
0,0,"36673037_p0.jpg",0,0
//Break Periods
//Storyboard Layer 0 (Background)
//Storyboard Layer 1 (Fail)
//Storyboard Layer 2 (Pass)
//Storyboard Layer 3 (Foreground)
//Storyboard Sound Samples

[TimingPoints]
35,375,4,2,8,50,1,0
48035,-200,4,2,8,50,0,1
72035,-100,4,2,8,50,0,0
120035,-200,4,2,8,50,0,1
144035,-100,4,2,8,50,0,0

[Colours]
Combo1 : 233,231,126
Combo2 : 236,53,38
Combo3 : 153,109,77
Combo4 : 255,28,141

[HitObjects]
88,128,35,6,0,P|126:137|165:132,1,80
336,96,410,2,0,P|399:95|431:111,1,80,8|0,0:0|0:0,0:0:0:0:
448,208,785,2,0,P|385:209|353:193,1,80,0|0,0:0|0:0,0:0:0:0:
176,48,1160,2,0,L|192:160,1,80,8|0,0:0|0:0,0:0:0:0:
283,306,1535,6,0,L|264:312,1,20
160,272,1722,1,0,0:0:0:0:
376,352,1910,1,8,0:0:0:0:
344,128,2097,1,0,0:0:0:0:
283,306,2285,2,0,L|264:312,1,20
32,336,2472,1,0,0:0:0:0:
112,376,2660,2,0,L|192:352,1,80,8|0,0:0|0:0,0:0:0:0:
384,256,3035,6,0,P|345:246|306:251,1,80,0|0,0:0|0:0,0:0:0:0:
48,272,3410,6,0,L|29:278,1,20
152,288,3597,1,0,0:0:0:0:
112,176,3785,2,0,P|175:175|207:191,1,80
304,352,4160,2,0,L|288:240,1,80,8|0,0:0|0:0,0:0:0:0:
248,72,4535,6,0,L|215:82,1,20,0|0,0:0|0:0,0:0:0:0:
352,112,4722,1,0,0:0:0:0:
136,32,4910,1,8,0:0:0:0:
192,240,5097,1,0,0:0:0:0:
128,128,5285,2,0,L|224:152,1,80,0|0,0:0|0:0,0:0:0:0:
0,280,5660,2,0,L|96:256,1,80,8|0,0:0|0:0,0:0:0:0:
80,128,6035,6,0,P|118:137|157:132,1,80,0|0,0:0|0:0,0:0:0:0:
336,96,6410,2,0,P|399:95|431:111,1,80,8|0,0:0|0:0,0:0:0:0:
448,208,6785,2,0,P|385:209|353:193,1,80,0|0,0:0|0:0,0:0:0:0:
176,48,7160,2,0,L|192:160,1,80,8|0,0:0|0:0,0:0:0:0:
272,312,7535,6,0,L|253:318,1,20,0|0,0:0|0:0,0:0:0:0:
160,272,7722,1,0,0:0:0:0:
376,352,7910,1,8,0:0:0:0:
344,128,8097,1,0,0:0:0:0:
283,306,8285,2,0,L|264:312,1,20
32,336,8472,1,0,0:0:0:0:
112,376,8660,2,0,L|192:352,1,80,8|0,0:0|0:0,0:0:0:0:
384,256,9035,6,0,P|345:246|306:251,1,80,0|0,0:0|0:0,0:0:0:0:
48,272,9410,6,0,L|29:278,1,20
152,288,9597,1,0,0:0:0:0:
112,176,9785,2,0,P|175:175|207:191,1,80
304,352,10160,2,0,L|288:240,1,80,8|0,0:0|0:0,0:0:0:0:
248,72,10535,6,0,L|215:82,1,20,0|0,0:0|0:0,0:0:0:0:
352,112,10722,1,0,0:0:0:0:
136,32,10910,1,8,0:0:0:0:
192,240,11097,1,0,0:0:0:0:
128,128,11285,2,0,L|224:152,1,80,0|0,0:0|0:0,0:0:0:0:
0,280,11660,2,0,L|96:256,1,80,8|0,0:0|0:0,0:0:0:0:
80,128,12035,6,0,B|96:144|96:144|176:128,1,80,2|0,0:0|0:0,0:0:0:0:
336,96,12410,2,0,P|399:95|431:111,1,80,8|0,0:0|0:0,0:0:0:0:
448,208,12785,2,0,P|385:209|353:193,1,80,0|0,0:0|0:0,0:0:0:0:
176,48,13160,2,0,L|192:160,1,80,8|0,0:0|0:0,0:0:0:0:
264,320,13535,6,0,L|245:326,1,20
152,288,13722,1,0,0:0:0:0:
376,352,13910,1,8,0:0:0:0:
320,144,14097,1,0,0:0:0:0:
264,320,14285,2,0,L|245:326,1,20
32,320,14472,1,0,0:0:0:0:
128,192,14660,2,0,L|208:168,1,80,8|0,0:0|0:0,0:0:0:0:
448,240,15035,6,0,B|432:224|432:224|352:240,1,80,2|0,0:0|0:0,0:0:0:0:
208,256,15410,2,0,L|189:262,1,20,8|0,0:0|0:0,0:0:0:0:
304,288,15597,1,0,0:0:0:0:
56,176,15785,2,0,P|119:175|151:191,1,80,0|0,0:0|0:0,0:0:0:0:
304,352,16160,2,0,L|288:240,1,80,8|0,0:0|0:0,0:0:0:0:
248,72,16535,6,0,L|215:82,1,20,0|0,0:0|0:0,0:0:0:0:
352,112,16722,1,0,0:0:0:0:
136,32,16910,1,8,0:0:0:0:
192,240,17097,1,0,0:0:0:0:
128,128,17285,2,0,L|224:152,1,80,0|0,0:0|0:0,0:0:0:0:
0,280,17660,2,0,L|96:256,1,80,8|0,0:0|0:0,0:0:0:0:
80,128,18035,6,0,B|96:144|96:144|176:128,1,80,2|0,0:0|0:0,0:0:0:0:
336,96,18410,2,0,P|399:95|431:111,1,80,8|0,0:0|0:0,0:0:0:0:
448,208,18785,2,0,P|385:209|353:193,1,80,0|0,0:0|0:0,0:0:0:0:
176,48,19160,2,0,L|192:160,1,80,8|0,0:0|0:0,0:0:0:0:
264,320,19535,6,0,L|245:326,1,20,0|0,0:0|0:0,0:0:0:0:
152,288,19722,1,0,0:0:0:0:
376,352,19910,1,8,0:0:0:0:
320,144,20097,1,0,0:0:0:0:
264,320,20285,2,0,L|245:326,1,20
32,320,20472,1,0,0:0:0:0:
128,192,20660,2,0,L|208:168,1,80,8|0,0:0|0:0,0:0:0:0:
448,240,21035,6,0,B|432:224|432:224|352:240,1,80,2|0,0:0|0:0,0:0:0:0:
152,288,21410,1,8,0:0:0:0:
152,288,21457,2,0,P|113:289|81:273,1,60,0|0,0:0|0:0,0:0:0:0:
56,176,21785,2,0,P|119:175|151:191,1,80,0|0,0:0|0:0,0:0:0:0:
304,352,22160,6,0,L|288:240,1,80,8|0,0:0|0:0,0:0:0:0:
248,72,22535,2,0,L|215:82,1,20,0|0,0:0|0:0,0:0:0:0:
352,112,22722,1,0,0:0:0:0:
136,32,22910,1,8,0:0:0:0:
192,240,23097,1,0,0:0:0:0:
128,128,23285,2,0,L|224:152,1,80,0|0,0:0|0:0,0:0:0:0:
0,280,23660,2,0,L|96:256,1,80,8|0,0:0|0:0,0:0:0:0:
80,128,24035,6,0,B|96:144|96:144|176:128,1,80,6|0,0:0|0:0,0:0:0:0:
336,96,24410,1,8,0:0:0:0:
264,312,24597,1,2,0:0:0:0:
448,208,24785,2,0,P|385:209|353:193,1,80,0|0,0:0|0:0,0:0:0:0:
208,72,25160,1,8,0:0:0:0:
56,232,25347,1,2,0:0:0:0:
283,306,25535,6,0,L|264:312,1,20,0|0,0:0|0:0,0:0:0:0:
152,288,25722,1,0,0:0:0:0:
376,352,25910,1,10,0:0:0:0:
320,144,26097,1,0,0:0:0:0:
283,306,26285,2,0,L|264:312,1,20
51,306,26472,1,0,0:0:0:0:
147,178,26660,2,0,L|227:154,1,80,8|0,0:0|0:0,0:0:0:0:
448,240,27035,6,0,B|432:224|432:224|352:240,1,80,2|0,0:0|0:0,0:0:0:0:
176,280,27410,2,0,L|143:290,1,20,8|0,0:0|0:0,0:0:0:0:
272,256,27597,1,2,0:0:0:0:
64,176,27785,2,0,P|127:175|159:191,1,80,0|0,0:0|0:0,0:0:0:0:
272,256,28160,1,8,0:0:0:0:
64,176,28347,1,2,0:0:0:0:
248,72,28535,6,0,L|215:82,1,20,0|0,0:0|0:0,0:0:0:0:
352,112,28722,1,0,0:0:0:0:
136,32,28910,1,10,0:0:0:0:
192,240,29097,1,0,0:0:0:0:
352,216,29285,1,0,0:0:0:0:
136,136,29472,1,0,0:0:0:0:
192,344,29660,1,8,0:0:0:0:
336,96,29847,1,0,0:0:0:0:
80,128,30035,6,0,B|96:144|96:144|176:128,1,80,2|0,0:0|0:0,0:0:0:0:
336,96,30410,1,8,0:0:0:0:
264,312,30597,1,2,0:0:0:0:
448,208,30785,2,0,P|385:209|353:193,1,80,0|0,0:0|0:0,0:0:0:0:
240,128,31160,2,0,L|256:240,1,80,8|2,0:0|0:0,0:0:0:0:
283,306,31535,6,0,L|264:312,1,20,0|0,0:0|0:0,0:0:0:0:
152,288,31722,1,0,0:0:0:0:
376,352,31910,1,10,0:0:0:0:
320,144,32097,1,0,0:0:0:0:
283,306,32285,2,0,L|264:312,1,20
51,306,32472,1,0,0:0:0:0:
147,178,32660,2,0,L|227:154,1,80,8|0,0:0|0:0,0:0:0:0:
448,240,33035,6,0,B|432:224|432:224|352:240,1,80,2|0,0:0|0:0,0:0:0:0:
272,256,33410,2,0,L|239:266,1,20,8|0,0:0|0:0,0:0:0:0:
96,272,33597,1,2,0:0:0:0:
64,176,33785,2,0,P|127:175|159:191,1,80,0|0,0:0|0:0,0:0:0:0:
272,256,34160,2,0,L|256:144,1,80,8|2,0:0|0:0,0:0:0:0:
248,72,34535,6,0,L|215:82,1,20,0|0,0:0|0:0,0:0:0:0:
352,112,34722,1,0,0:0:0:0:
192,240,34910,1,8,0:0:0:0:
136,32,35097,1,0,0:0:0:0:
296,208,35285,1,0,0:0:0:0:
136,336,35472,1,0,0:0:0:0:
80,128,35660,1,8,0:0:0:0:
336,96,35847,1,0,0:0:0:0:
80,128,36035,6,0,B|96:144|96:144|176:128,1,80,2|0,0:0|0:0,0:0:0:0:
336,96,36410,1,8,0:0:0:0:
264,312,36597,1,2,0:0:0:0:
448,208,36785,1,0,0:0:0:0:
360,8,36972,1,0,0:0:0:0:
240,128,37160,1,8,0:0:0:0:
448,208,37347,1,2,0:0:0:0:
264,312,37535,6,0,L|245:318,1,20,0|0,0:0|0:0,0:0:0:0:
160,272,37722,1,0,0:0:0:0:
376,352,37910,1,10,0:0:0:0:
320,144,38097,1,0,0:0:0:0:
375,235,38285,2,0,L|342:245,1,20,0|0,0:0|0:0,0:0:0:0:
232,184,38472,1,0,0:0:0:0:
408,112,38660,1,8,0:0:0:0:
264,312,38847,1,0,0:0:0:0:
448,240,39035,6,0,B|432:224|432:224|352:240,1,80,2|0,0:0|0:0,0:0:0:0:
80,304,39410,2,0,L|60:309,1,20,8|0,0:0|0:0,0:0:0:0:
192,272,39597,1,2,0:0:0:0:
96,192,39785,2,0,L|76:197,1,20,0|0,0:0|0:0,0:0:0:0:
208,160,39972,1,0,0:0:0:0:
352,128,40160,2,0,L|332:133,1,20,8|0,0:0|0:0,0:0:0:0:
464,96,40347,1,2,0:0:0:0:
224,56,40535,6,0,L|191:66,1,20
336,24,40722,1,0,0:0:0:0:
64,32,40910,1,10,0:0:0:0:
192,240,41097,1,0,0:0:0:0:
128,128,41285,1,0,0:0:0:0:
352,112,41472,1,0,0:0:0:0:
368,336,41660,1,8,0:0:0:0:
144,352,41847,1,0,0:0:0:0:
80,128,42035,6,0,B|96:144|96:144|176:128,1,80,2|0,0:0|0:0,0:0:0:0:
336,96,42410,1,10,0:0:0:0:
224,40,42597,1,0,0:0:0:0:
448,208,42785,2,0,P|385:209|353:193,1,80,2|0,0:0|0:0,0:0:0:0:
240,128,43160,1,10,0:0:0:0:
464,48,43347,1,0,0:0:0:0:
264,312,43535,6,0,L|297:302,1,20,2|0,0:0|0:0,0:0:0:0:
248,72,43722,2,0,L|215:82,1,20,0|0,0:0|0:0,0:0:0:0:
376,184,43910,2,0,L|366:151,1,20,10|0,0:0|0:0,0:0:0:0:
136,200,44097,2,0,L|146:233,1,20,0|0,0:0|0:0,0:0:0:0:
208,336,44285,6,0,L|175:346,1,20,2|0,0:0|0:0,0:0:0:0:
320,304,44472,1,0,0:0:0:0:
304,64,44660,2,0,L|271:74,1,20,10|0,0:0|0:0,0:0:0:0:
176,96,44847,1,0,0:0:0:0:
448,240,45035,6,0,B|432:224|432:224|352:240,1,80,2|2,0:0|0:0,0:0:0:0:
160,312,45410,2,0,L|127:322,1,20,10|0,0:0|0:0,0:0:0:0:
32,280,45597,1,2,0:0:0:0:
352,112,45785,6,0,L|319:122,1,20,2|0,0:0|0:0,0:0:0:0:
224,72,45972,1,2,0:0:0:0:
416,320,46160,2,0,L|383:330,1,20,10|0,0:0|0:0,0:0:0:0:
288,288,46347,1,2,0:0:0:0:
96,128,46535,6,0,L|63:138,1,20,2|0,0:0|0:0,0:0:0:0:
272,64,46722,1,2,0:0:0:0:
80,264,46910,1,10,0:0:0:0:
400,144,47097,1,2,0:0:0:0:
192,352,47285,5,2,0:0:0:0:
368,288,47472,1,8,0:0:0:0:
0,288,47660,1,8,0:0:0:0:
480,112,47847,1,8,0:0:0:0:
200,96,48035,6,0,P|240:104|280:88,1,80,6|0,0:0|0:0,0:0:0:0:
232,16,48597,1,0,0:0:0:0:
192,232,48785,2,0,L|184:280,1,40,8|0,0:0|0:0,0:0:0:0:
384,336,49160,2,0,L|376:288,1,40,2|2,0:0|0:0,0:0:0:0:
144,384,49535,5,2,0:0:0:0:
120,168,49722,1,0,0:0:0:0:
216,312,49910,1,0,0:0:0:0:
240,96,50097,1,0,0:0:0:0:
208,224,50285,1,8,0:0:0:0:
192,8,50472,1,0,0:0:0:0:
152,328,50660,1,0,0:0:0:0:
232,144,50847,1,0,0:0:0:0:
88,120,51035,6,0,P|48:120|0:128,1,80,2|0,0:0|0:0,0:0:0:0:
216,208,51597,1,2,0:0:0:0:
144,40,51785,2,0,P|128:32|88:24,1,40,10|0,0:0|0:0,0:0:0:0:
368,152,52160,2,0,P|384:160|424:168,1,40,2|0,0:0|0:0,0:0:0:0:
256,80,52535,5,2,0:0:0:0:
280,272,52722,1,0,0:0:0:0:
288,112,52910,1,0,0:0:0:0:
248,352,53097,1,0,0:0:0:0:
200,184,53285,1,8,0:0:0:0:
224,32,53472,1,0,0:0:0:0:
280,328,53660,1,0,0:0:0:0:
304,160,53847,1,0,0:0:0:0:
272,240,54035,6,0,P|312:248|352:232,1,80,2|0,0:0|0:0,0:0:0:0:
304,160,54597,1,0,0:0:0:0:
328,32,54785,2,0,L|320:80,1,40,8|0,0:0|0:0,0:0:0:0:
360,240,55160,2,0,L|366:279,1,40,2|2,0:0|0:0,0:0:0:0:
304,160,55535,5,2,0:0:0:0:
288,368,55722,1,2,0:0:0:0:
232,208,55910,1,0,0:0:0:0:
264,72,56097,1,0,0:0:0:0:
248,256,56285,1,8,0:0:0:0:
192,8,56472,1,0,0:0:0:0:
192,328,56660,1,0,0:0:0:0:
224,168,56847,1,0,0:0:0:0:
88,120,57035,6,0,P|48:120|0:128,1,80,2|0,0:0|0:0,0:0:0:0:
360,280,57597,1,2,0:0:0:0:
168,216,57785,2,0,P|128:216|80:224,1,80,8|0,0:0|0:0,0:0:0:0:
472,336,58347,1,0,0:0:0:0:
320,136,58535,6,0,P|312:112|312:88,1,40,2|0,0:0|0:0,0:0:0:0:
304,368,58910,2,0,P|312:344|312:320,1,40,2|0,0:0|0:0,0:0:0:0:
400,96,59285,2,0,P|403:77|409:58,1,40,8|0,0:0|0:0,0:0:0:0:
224,320,59660,2,0,P|221:300|215:281,1,40,0|0,0:0|0:0,0:0:0:0:
56,208,60035,5,2,0:0:0:0:
312,256,60222,2,0,L|360:264,1,40,0|0,0:0|0:0,0:0:0:0:
56,208,60597,1,0,0:0:0:0:
424,80,60785,5,10,0:0:0:0:
208,120,60972,2,0,L|160:128,1,40
424,80,61347,1,0,0:0:0:0:
112,32,61535,5,2,0:0:0:0:
328,40,61722,1,2,0:0:0:0:
104,128,61910,2,0,P|84:121|56:120,1,40,0|0,0:0|0:0,0:0:0:0:
256,168,62285,1,8,0:0:0:0:
408,128,62472,2,0,P|432:120|456:120,1,40,0|0,0:0|0:0,0:0:0:0:
112,208,62847,1,0,0:0:0:0:
376,264,63035,6,0,P|400:264|432:256,1,40,2|0,0:0|0:0,0:0:0:0:
136,248,63410,1,0,0:0:0:0:
368,176,63597,1,2,0:0:0:0:
112,168,63785,6,0,P|88:168|56:160,1,40,8|0,0:0|0:0,0:0:0:0:
400,88,64160,1,0,0:0:0:0:
104,80,64347,1,0,0:0:0:0:
136,304,64535,6,0,P|126:288|120:264,1,40,2|0,0:0|0:0,0:0:0:0:
352,184,64910,2,0,P|353:202|346:226,1,40,2|0,0:0|0:0,0:0:0:0:
248,336,65285,1,8,0:0:0:0:
264,120,65472,1,0,0:0:0:0:
232,48,65660,1,0,0:0:0:0:
248,240,65847,1,0,0:0:0:0:
96,216,66035,5,2,0:0:0:0:
352,264,66222,2,0,L|400:272,1,40,0|0,0:0|0:0,0:0:0:0:
96,216,66597,1,0,0:0:0:0:
440,104,66785,5,8,0:0:0:0:
224,144,66972,2,0,L|176:152,1,40,0|0,0:0|0:0,0:0:0:0:
440,104,67347,1,0,0:0:0:0:
96,216,67535,5,2,0:0:0:0:
264,264,67722,1,2,0:0:0:0:
448,192,67910,2,0,P|428:185|400:184,1,40,0|0,0:0|0:0,0:0:0:0:
72,160,68285,1,8,0:0:0:0:
360,112,68472,2,0,P|384:104|408:104,1,40,0|0,0:0|0:0,0:0:0:0:
72,160,68847,1,0,0:0:0:0:
392,288,69035,6,0,P|416:288|448:280,1,40,2|0,0:0|0:0,0:0:0:0:
200,248,69410,1,0,0:0:0:0:
400,208,69597,1,2,0:0:0:0:
136,136,69785,6,0,P|112:136|80:128,1,40,10|0,0:0|0:0,0:0:0:0:
328,96,70160,1,0,0:0:0:0:
128,48,70347,1,0,0:0:0:0:
256,152,70535,6,0,P|246:136|240:112,1,40,2|0,0:0|0:0,0:0:0:0:
176,272,70910,2,0,P|175:254|182:230,1,40,2|0,0:0|0:0,0:0:0:0:
256,352,71285,1,8,0:0:0:0:
232,32,71472,1,0,0:0:0:0:
304,232,71660,1,0,0:0:0:0:
336,96,71847,1,0,0:0:0:0:
88,128,72035,6,0,P|126:137|165:132,1,80
336,96,72410,2,0,P|399:95|431:111,1,80,8|0,0:0|0:0,0:0:0:0:
448,208,72785,2,0,P|385:209|353:193,1,80,0|0,0:0|0:0,0:0:0:0:
176,48,73160,2,0,L|192:160,1,80,8|0,0:0|0:0,0:0:0:0:
283,306,73535,6,0,L|264:312,1,20
160,272,73722,1,0,0:0:0:0:
376,352,73910,1,8,0:0:0:0:
344,128,74097,1,0,0:0:0:0:
283,306,74285,2,0,L|264:312,1,20
32,336,74472,1,0,0:0:0:0:
112,376,74660,2,0,L|192:352,1,80,8|0,0:0|0:0,0:0:0:0:
336,240,75035,6,0,P|297:230|258:235,1,80
32,368,75410,6,0,L|13:374,1,20
112,288,75597,1,0,0:0:0:0:
80,176,75785,2,0,P|143:175|175:191,1,80,0|0,0:0|0:0,0:0:0:0:
304,352,76160,2,0,L|288:240,1,80,8|0,0:0|0:0,0:0:0:0:
248,72,76535,6,0,L|215:82,1,20,0|0,0:0|0:0,0:0:0:0:
352,112,76722,1,0,0:0:0:0:
136,32,76910,1,8,0:0:0:0:
192,240,77097,1,0,0:0:0:0:
128,128,77285,2,0,L|224:152,1,80,0|0,0:0|0:0,0:0:0:0:
0,280,77660,2,0,L|96:256,1,80,8|0,0:0|0:0,0:0:0:0:
80,128,78035,6,0,P|118:137|157:132,1,80,0|0,0:0|0:0,0:0:0:0:
336,96,78410,2,0,P|399:95|431:111,1,80,8|0,0:0|0:0,0:0:0:0:
448,208,78785,2,0,P|385:209|353:193,1,80,0|0,0:0|0:0,0:0:0:0:
176,48,79160,2,0,L|192:160,1,80,8|0,0:0|0:0,0:0:0:0:
272,320,79535,6,0,L|253:326,1,20
160,272,79722,1,0,0:0:0:0:
384,352,79910,1,8,0:0:0:0:
344,128,80097,1,0,0:0:0:0:
272,320,80285,2,0,L|253:326,1,20
32,336,80472,1,0,0:0:0:0:
112,376,80660,2,0,L|192:352,1,80,8|0,0:0|0:0,0:0:0:0:
384,256,81035,6,0,P|345:246|306:251,1,80,0|0,0:0|0:0,0:0:0:0:
176,280,81410,1,8,0:0:0:0:
176,280,81457,2,0,P|137:281|105:265,1,60,0|0,0:0|0:0,0:0:0:0:
72,176,81785,2,0,P|135:175|167:191,1,80,0|0,0:0|0:0,0:0:0:0:
304,352,82160,2,0,L|288:240,1,80,8|0,0:0|0:0,0:0:0:0:
248,72,82535,6,0,L|215:82,1,20,0|0,0:0|0:0,0:0:0:0:
352,112,82722,1,0,0:0:0:0:
136,32,82910,1,8,0:0:0:0:
192,240,83097,1,0,0:0:0:0:
128,128,83285,2,0,L|224:152,1,80,0|0,0:0|0:0,0:0:0:0:
0,280,83660,2,0,L|96:256,1,80,8|0,0:0|0:0,0:0:0:0:
80,128,84035,6,0,B|96:144|96:144|176:128,1,80,2|0,0:0|0:0,0:0:0:0:
336,96,84410,2,0,P|399:95|431:111,1,80,8|0,0:0|0:0,0:0:0:0:
448,208,84785,2,0,P|385:209|353:193,1,80,0|0,0:0|0:0,0:0:0:0:
176,48,85160,2,0,L|192:160,1,80,8|0,0:0|0:0,0:0:0:0:
264,320,85535,6,0,L|245:326,1,20
152,288,85722,1,0,0:0:0:0:
384,352,85910,1,8,0:0:0:0:
320,144,86097,1,0,0:0:0:0:
264,320,86285,2,0,L|245:326,1,20
32,320,86472,1,0,0:0:0:0:
128,192,86660,2,0,L|208:168,1,80,8|0,0:0|0:0,0:0:0:0:
448,240,87035,6,0,B|432:224|432:224|352:240,1,80,2|0,0:0|0:0,0:0:0:0:
208,256,87410,2,0,L|189:262,1,20,8|0,0:0|0:0,0:0:0:0:
304,288,87597,1,0,0:0:0:0:
56,176,87785,2,0,P|119:175|151:191,1,80,0|0,0:0|0:0,0:0:0:0:
304,352,88160,2,0,L|288:240,1,80,8|0,0:0|0:0,0:0:0:0:
248,72,88535,6,0,L|215:82,1,20,0|0,0:0|0:0,0:0:0:0:
352,112,88722,1,0,0:0:0:0:
136,32,88910,1,8,0:0:0:0:
192,240,89097,5,0,0:0:0:0:
128,128,89285,2,0,L|224:152,1,80,0|0,0:0|0:0,0:0:0:0:
0,280,89660,2,0,L|96:256,1,80,8|0,0:0|0:0,0:0:0:0:
80,128,90035,6,0,B|96:144|96:144|176:128,1,80,2|0,0:0|0:0,0:0:0:0:
336,96,90410,2,0,P|399:95|431:111,1,80,8|0,0:0|0:0,0:0:0:0:
448,208,90785,2,0,P|385:209|353:193,1,80,0|0,0:0|0:0,0:0:0:0:
176,48,91160,2,0,L|192:160,1,80,8|0,0:0|0:0,0:0:0:0:
264,320,91535,6,0,L|245:326,1,20,0|0,0:0|0:0,0:0:0:0:
152,288,91722,1,0,0:0:0:0:
376,352,91910,1,8,0:0:0:0:
320,144,92097,1,0,0:0:0:0:
264,320,92285,2,0,L|245:326,1,20
32,320,92472,1,0,0:0:0:0:
128,192,92660,2,0,L|208:168,1,80,8|0,0:0|0:0,0:0:0:0:
448,240,93035,6,0,B|432:224|432:224|352:240,1,80,2|0,0:0|0:0,0:0:0:0:
152,288,93410,1,8,0:0:0:0:
152,288,93457,2,0,P|113:289|81:273,1,60,0|0,0:0|0:0,0:0:0:0:
56,176,93785,2,0,P|119:175|151:191,1,80,0|0,0:0|0:0,0:0:0:0:
304,352,94160,6,0,L|288:240,1,80,8|0,0:0|0:0,0:0:0:0:
248,72,94535,2,0,L|215:82,1,20,0|0,0:0|0:0,0:0:0:0:
352,112,94722,1,0,0:0:0:0:
136,32,94910,1,8,0:0:0:0:
192,240,95097,1,0,0:0:0:0:
128,128,95285,2,0,L|224:152,1,80,0|0,0:0|0:0,0:0:0:0:
0,280,95660,2,0,L|96:256,1,80,8|0,0:0|0:0,0:0:0:0:
80,128,96035,6,0,B|96:144|96:144|176:128,1,80,6|0,0:0|0:0,0:0:0:0:
336,96,96410,1,8,0:0:0:0:
264,312,96597,1,2,0:0:0:0:
448,208,96785,2,0,P|385:209|353:193,1,80,0|0,0:0|0:0,0:0:0:0:
208,72,97160,1,8,0:0:0:0:
56,232,97347,1,2,0:0:0:0:
283,306,97535,6,0,L|264:312,1,20,0|0,0:0|0:0,0:0:0:0:
152,288,97722,1,0,0:0:0:0:
376,352,97910,1,10,0:0:0:0:
320,144,98097,1,0,0:0:0:0:
283,306,98285,2,0,L|264:312,1,20
51,306,98472,1,0,0:0:0:0:
147,178,98660,2,0,L|227:154,1,80,8|0,0:0|0:0,0:0:0:0:
448,240,99035,6,0,B|432:224|432:224|352:240,1,80,2|0,0:0|0:0,0:0:0:0:
176,280,99410,2,0,L|143:290,1,20,8|0,0:0|0:0,0:0:0:0:
272,256,99597,1,2,0:0:0:0:
64,176,99785,2,0,P|127:175|159:191,1,80,0|0,0:0|0:0,0:0:0:0:
272,256,100160,1,8,0:0:0:0:
64,176,100347,1,2,0:0:0:0:
248,72,100535,6,0,L|215:82,1,20,0|0,0:0|0:0,0:0:0:0:
352,112,100722,1,0,0:0:0:0:
136,32,100910,1,10,0:0:0:0:
192,240,101097,1,0,0:0:0:0:
352,216,101285,1,0,0:0:0:0:
136,136,101472,1,0,0:0:0:0:
192,344,101660,1,8,0:0:0:0:
336,96,101847,1,0,0:0:0:0:
80,128,102035,6,0,B|96:144|96:144|176:128,1,80,2|0,0:0|0:0,0:0:0:0:
336,96,102410,1,8,0:0:0:0:
264,312,102597,1,2,0:0:0:0:
448,208,102785,2,0,P|385:209|353:193,1,80,0|0,0:0|0:0,0:0:0:0:
240,128,103160,2,0,L|256:240,1,80,8|2,0:0|0:0,0:0:0:0:
283,306,103535,6,0,L|264:312,1,20,0|0,0:0|0:0,0:0:0:0:
152,288,103722,1,0,0:0:0:0:
376,352,103910,1,10,0:0:0:0:
320,144,104097,5,0,0:0:0:0:
283,306,104285,2,0,L|264:312,1,20
51,306,104472,1,0,0:0:0:0:
147,178,104660,2,0,L|227:154,1,80,8|0,0:0|0:0,0:0:0:0:
448,240,105035,6,0,B|432:224|432:224|352:240,1,80,2|0,0:0|0:0,0:0:0:0:
272,256,105410,2,0,L|239:266,1,20,8|0,0:0|0:0,0:0:0:0:
96,272,105597,1,2,0:0:0:0:
64,176,105785,2,0,P|127:175|159:191,1,80,0|0,0:0|0:0,0:0:0:0:
272,256,106160,2,0,L|256:144,1,80,8|2,0:0|0:0,0:0:0:0:
248,72,106535,6,0,L|215:82,1,20,0|0,0:0|0:0,0:0:0:0:
352,112,106722,1,0,0:0:0:0:
192,240,106910,1,8,0:0:0:0:
136,32,107097,1,0,0:0:0:0:
296,208,107285,1,0,0:0:0:0:
136,336,107472,5,0,0:0:0:0:
80,128,107660,1,8,0:0:0:0:
336,96,107847,1,0,0:0:0:0:
80,256,108035,6,0,B|96:240|96:240|176:256,1,80,2|0,0:0|0:0,0:0:0:0:
336,288,108410,1,8,0:0:0:0:
264,72,108597,1,2,0:0:0:0:
448,176,108785,1,0,0:0:0:0:
360,376,108972,1,0,0:0:0:0:
240,256,109160,1,8,0:0:0:0:
448,176,109347,1,2,0:0:0:0:
264,72,109535,6,0,L|245:66,1,20,0|0,0:0|0:0,0:0:0:0:
160,112,109722,1,0,0:0:0:0:
376,32,109910,1,10,0:0:0:0:
320,240,110097,1,0,0:0:0:0:
375,149,110285,2,0,L|342:139,1,20,0|0,0:0|0:0,0:0:0:0:
232,200,110472,1,0,0:0:0:0:
408,272,110660,1,8,0:0:0:0:
264,72,110847,1,0,0:0:0:0:
448,144,111035,6,0,B|432:160|432:160|352:144,1,80,2|0,0:0|0:0,0:0:0:0:
160,112,111410,6,0,L|140:107,1,20,8|0,0:0|0:0,0:0:0:0:
272,128,111597,1,2,0:0:0:0:
352,240,111785,2,0,L|332:235,1,20,0|0,0:0|0:0,0:0:0:0:
448,272,111972,1,0,0:0:0:0:
112,192,112160,2,0,L|92:187,1,20,8|0,0:0|0:0,0:0:0:0:
216,216,112347,1,2,0:0:0:0:
224,328,112535,6,0,L|191:318,1,20,0|0,0:0|0:0,0:0:0:0:
320,352,112722,1,0,0:0:0:0:
64,352,112910,1,10,0:0:0:0:
192,144,113097,1,0,0:0:0:0:
128,256,113285,1,0,0:0:0:0:
352,272,113472,1,0,0:0:0:0:
368,48,113660,1,8,0:0:0:0:
144,32,113847,1,0,0:0:0:0:
80,256,114035,6,0,B|96:240|96:240|176:256,1,80,2|0,0:0|0:0,0:0:0:0:
336,288,114410,1,10,0:0:0:0:
224,344,114597,1,0,0:0:0:0:
448,176,114785,6,0,P|385:175|353:191,1,80,2|0,0:0|0:0,0:0:0:0:
240,256,115160,1,10,0:0:0:0:
464,336,115347,1,0,0:0:0:0:
264,72,115535,6,0,L|297:82,1,20,2|0,0:0|0:0,0:0:0:0:
248,312,115722,2,0,L|215:302,1,20,0|0,0:0|0:0,0:0:0:0:
376,200,115910,2,0,L|366:233,1,20,8|0,0:0|0:0,0:0:0:0:
136,184,116097,2,0,L|146:151,1,20,0|0,0:0|0:0,0:0:0:0:
416,160,116285,6,0,L|406:193,1,20
384,288,116472,1,0,0:0:0:0:
96,192,116660,2,0,L|86:225,1,20,8|0,0:0|0:0,0:0:0:0:
128,96,116847,1,0,0:0:0:0:
448,144,117035,6,0,B|432:160|432:160|352:144,1,80,2|2,0:0|0:0,0:0:0:0:
160,72,117410,2,2,L|127:62,1,20,10|0,0:0|0:0,0:0:0:0:
48,32,117597,1,2,0:0:0:0:
336,336,117785,2,0,L|303:326,1,20,2|0,0:0|0:0,0:0:0:0:
224,312,117972,1,2,0:0:0:0:
416,64,118160,2,0,L|383:54,1,20,10|0,0:0|0:0,0:0:0:0:
304,32,118347,1,2,0:0:0:0:
96,264,118535,6,0,L|63:254,1,20,2|0,0:0|0:0,0:0:0:0:
272,320,118722,1,2,0:0:0:0:
80,120,118910,1,10,0:0:0:0:
400,264,119097,1,2,0:0:0:0:
184,32,119285,5,2,0:0:0:0:
392,136,119472,1,10,0:0:0:0:
0,72,119660,1,8,0:0:0:0:
488,328,119847,1,8,0:0:0:0:
200,288,120035,6,0,P|240:280|280:296,1,80,6|0,0:0|0:0,0:0:0:0:
232,368,120597,1,0,0:0:0:0:
192,152,120785,2,0,L|184:104,1,40,8|0,0:0|0:0,0:0:0:0:
384,48,121160,2,0,L|376:96,1,40,2|2,0:0|0:0,0:0:0:0:
272,344,121535,5,2,0:0:0:0:
272,72,121722,1,0,0:0:0:0:
240,232,121910,1,0,0:0:0:0:
232,32,122097,1,0,0:0:0:0:
208,160,122285,1,8,0:0:0:0:
192,376,122472,1,0,0:0:0:0:
256,56,122660,1,0,0:0:0:0:
232,240,122847,1,0,0:0:0:0:
88,264,123035,6,0,P|48:264|0:256,1,80,2|0,0:0|0:0,0:0:0:0:
216,176,123597,1,2,0:0:0:0:
144,344,123785,2,0,P|128:352|88:360,1,40,10|0,0:0|0:0,0:0:0:0:
368,232,124160,2,0,P|384:224|424:216,1,40,2|0,0:0|0:0,0:0:0:0:
256,304,124535,5,2,0:0:0:0:
280,112,124722,1,0,0:0:0:0:
288,272,124910,1,0,0:0:0:0:
248,32,125097,1,0,0:0:0:0:
232,160,125285,1,8,0:0:0:0:
232,368,125472,1,0,0:0:0:0:
280,56,125660,1,0,0:0:0:0:
304,216,125847,1,0,0:0:0:0:
200,288,126035,6,0,P|240:280|280:296,1,80,2|0,0:0|0:0,0:0:0:0:
232,368,126597,1,0,0:0:0:0:
192,152,126785,2,0,L|184:104,1,40,8|0,0:0|0:0,0:0:0:0:
384,48,127066,1,0,0:0:0:0:
384,48,127160,2,0,L|376:96,1,40,2|0,0:0|0:0,0:0:0:0:
224,16,127535,5,2,0:0:0:0:
224,232,127722,1,0,0:0:0:0:
208,96,127910,1,0,0:0:0:0:
152,264,128097,1,0,0:0:0:0:
208,360,128285,1,8,0:0:0:0:
160,176,128472,1,0,0:0:0:0:
176,32,128660,1,0,0:0:0:0:
232,240,128847,1,0,0:0:0:0:
88,264,129035,6,0,P|48:264|0:256,1,80,2|0,0:0|0:0,0:0:0:0:
360,104,129597,1,2,0:0:0:0:
168,168,129785,2,0,P|128:168|80:160,1,80,8|0,0:0|0:0,0:0:0:0:
472,48,130347,1,2,0:0:0:0:
392,176,130535,6,0,P|384:200|384:224,1,40,2|0,0:0|0:0,0:0:0:0:
336,24,130910,2,0,P|344:48|344:72,1,40,0|0,0:0|0:0,0:0:0:0:
247,250,131285,2,0,P|250:269|256:288,1,40,8|0,0:0|0:0,0:0:0:0:
216,56,131660,2,0,P|213:76|207:95,1,40,0|0,0:0|0:0,0:0:0:0:
56,176,132035,5,2,0:0:0:0:
312,128,132222,2,0,L|360:120,1,40,0|0,0:0|0:0,0:0:0:0:
56,176,132597,1,0,0:0:0:0:
424,304,132785,5,10,0:0:0:0:
208,264,132972,2,0,L|160:256,1,40,0|0,0:0|0:0,0:0:0:0:
424,304,133347,1,2,0:0:0:0:
96,328,133535,5,2,0:0:0:0:
264,352,133722,1,2,0:0:0:0:
432,216,133910,2,0,P|412:223|384:224,1,40,0|0,0:0|0:0,0:0:0:0:
56,248,134285,1,8,0:0:0:0:
264,352,134472,2,0,P|288:360|312:360,1,40,0|0,0:0|0:0,0:0:0:0:
184,160,134847,1,0,0:0:0:0:
376,120,135035,6,0,P|400:120|432:128,1,40,2|0,0:0|0:0,0:0:0:0:
184,160,135410,1,0,0:0:0:0:
376,248,135597,1,2,0:0:0:0:
120,272,135785,6,0,P|96:272|64:280,1,40,10|0,0:0|0:0,0:0:0:0:
368,176,136160,1,2,0:0:0:0:
112,368,136347,1,2,0:0:0:0:
224,292,136535,6,0,P|229:272|240:256,1,40,2|0,0:0|0:0,0:0:0:0:
192,64,136910,2,0,P|193:46|186:22,1,40,2|0,0:0|0:0,0:0:0:0:
160,192,137285,1,8,0:0:0:0:
160,304,137472,1,0,0:0:0:0:
264,96,137660,1,0,0:0:0:0:
216,368,137847,1,0,0:0:0:0:
72,152,138035,5,2,0:0:0:0:
328,104,138222,2,0,L|376:96,1,40,0|0,0:0|0:0,0:0:0:0:
72,152,138597,1,0,0:0:0:0:
440,280,138785,5,10,0:0:0:0:
224,240,138972,2,0,L|176:232,1,40,0|0,0:0|0:0,0:0:0:0:
440,280,139347,1,0,0:0:0:0:
136,312,139535,5,2,0:0:0:0:
312,256,139722,1,2,0:0:0:0:
448,192,139910,2,0,P|428:199|400:200,1,40,0|0,0:0|0:0,0:0:0:0:
72,224,140285,1,8,0:0:0:0:
280,328,140472,2,0,P|304:336|328:336,1,40,0|0,0:0|0:0,0:0:0:0:
200,136,140847,1,0,0:0:0:0:
392,96,141035,6,0,P|416:96|448:104,1,40,2|0,0:0|0:0,0:0:0:0:
200,136,141410,1,0,0:0:0:0:
408,184,141597,1,0,0:0:0:0:
136,248,141785,6,0,P|112:248|80:256,1,40,10|0,0:0|0:0,0:0:0:0:
392,288,142160,1,2,0:0:0:0:
128,344,142347,1,0,0:0:0:0:
208,88,142535,6,0,P|198:104|192:128,1,40,2|0,0:0|0:0,0:0:0:0:
304,336,142910,2,0,P|309:355|308:375,1,40,2|0,0:0|0:0,0:0:0:0:
192,296,143285,1,8,0:0:0:0:
208,88,143472,1,0,0:0:0:0:
160,16,143660,1,0,0:0:0:0:
176,192,143847,1,0,0:0:0:0:
328,96,144035,5,8,0:0:0:0:
