osu file format v14

[General]
AudioFilename: audio.mp3
AudioLeadIn: 0
PreviewTime: 47941
Countdown: 0
SampleSet: Soft
StackLeniency: 0.7
Mode: 0
LetterboxInBreaks: 0
WidescreenStoryboard: 0

[Editor]
Bookmarks: 23995,47990,71985,95980,119975,143970
DistanceSpacing: 1
BeatDivisor: 2
GridSize: 4
TimelineZoom: 0.9999994

[Metadata]
Title:China-Future
TitleUnicode:China-Future
Artist:Xu Meng Yuan
ArtistUnicode:徐梦圆
Creator:-Eriri-
Version:Pata-Mon's Normal
Source:
Tags:Pata-Mon ts8zs Future Bass
BeatmapID:1369572
BeatmapSetID:634591

[Difficulty]
HPDrainRate:4
CircleSize:3
OverallDifficulty:4
ApproachRate:5
SliderMultiplier:1.1
SliderTickRate:1

[Events]
//Background and Video events
0,0,"bg.jpg",0,0
//Break Periods
//Storyboard Layer 0 (Background)
//Storyboard Layer 1 (Fail)
//Storyboard Layer 2 (Pass)
//Storyboard Layer 3 (Foreground)
//Storyboard Sound Samples

[TimingPoints]
35,375,4,2,1,20,1,0
12035,-100,4,2,1,25,0,0
24035,-100,4,2,1,30,0,0
46535,-100,4,2,1,50,0,0
47660,-100,4,2,1,30,0,0
48035,-100,4,2,1,40,0,1
72035,-100,4,2,1,20,0,0
84035,-100,4,2,1,25,0,0
96035,-100,4,2,1,30,0,0
118535,-100,4,2,1,50,0,0
119660,-100,4,2,1,30,0,0
120035,-100,4,2,1,40,0,1
144035,-100,4,2,1,20,0,0

[Colours]
Combo1 : 233,231,126
Combo2 : 236,53,38
Combo3 : 153,109,77
Combo4 : 255,28,141

[HitObjects]
256,212,35,5,0,0:0:0:0:
356,258,410,2,0,P|420:260|498:240,2,110,2|0|2,0:0|0:0|0:0,0:0:0:0:
256,212,1535,2,0,L|260:117,1,55,2|0,0:0|0:0,0:0:0:0:
304,126,1910,2,0,L|300:31,1,55,0|2,0:0|0:0,0:0:0:0:
267,27,2285,2,0,P|212:17|158:20,1,110,0|2,0:0|0:0,0:0:0:0:
58,67,3035,5,0,0:0:0:0:
92,172,3410,2,0,P|101:222|101:281,2,110,2|0|2,0:0|0:0|0:0,0:0:0:0:
58,67,4535,2,0,L|153:63,1,55,2|0,0:0|0:0,0:0:0:0:
161,90,4910,2,0,L|256:94,1,55,0|2,0:0|0:0,0:0:0:0:
261,61,5285,2,0,P|312:52|406:57,1,110,0|2,0:0|0:0,0:0:0:0:
472,93,6035,5,0,0:0:0:0:
407,182,6410,2,0,L|405:344,1,110,2|0,0:0|0:0,0:0:0:0:
334,376,7160,1,2,0:0:0:0:
234,329,7535,2,0,L|135:324,1,55,2|0,0:0|0:0,0:0:0:0:
126,343,7910,2,0,L|27:338,1,55,0|2,0:0|0:0,0:0:0:0:
32,301,8285,2,0,P|18:253|25:164,1,110,0|2,0:0|0:0,0:0:0:0:
63,92,9035,5,0,0:0:0:0:
171,109,9410,2,0,L|305:101,1,110,2|0,0:0|0:0,0:0:0:0:
386,70,10160,1,2,0:0:0:0:
475,133,10535,2,0,L|481:234,1,55,2|0,0:0|0:0,0:0:0:0:
452,236,10910,2,0,L|458:337,1,55,0|2,0:0|0:0,0:0:0:0:
429,339,11285,2,0,P|376:355|321:356,1,110,0|2,0:0|0:0,0:0:0:0:
224,304,12035,5,4,0:3:0:0:
127,356,12410,2,0,P|72:354|19:338,1,110,2|0,0:0|0:0,0:0:0:0:
0,230,13160,1,2,0:0:0:0:
66,142,13535,2,0,L|60:62,2,55,2|0|0,0:0|0:0|0:0,0:0:0:0:
111,173,14097,1,2,0:0:0:0:
111,173,14285,2,0,P|170:171|256:153,1,110,0|2,0:0|0:0,0:0:0:0:
309,99,15035,5,4,0:3:0:0:
398,163,15410,1,2,0:0:0:0:
364,268,15785,1,2,0:0:0:0:
254,268,16160,1,2,0:0:0:0:
220,163,16535,2,0,L|131:155,2,55,2|0|0,0:0|0:0|0:0,0:0:0:0:
260,125,17097,1,2,0:0:0:0:
260,125,17285,2,0,P|261:74|255:10,1,110,0|2,0:0|0:0,0:0:0:0:
149,43,18035,5,4,0:3:0:0:
43,15,18410,1,2,0:0:0:0:
71,121,18785,1,2,0:0:0:0:
43,227,19160,1,2,0:0:0:0:
149,199,19535,2,0,L|220:212,2,55,2|0|0,0:0|0:0|0:0,0:0:0:0:
133,252,20097,1,2,0:0:0:0:
133,252,20285,2,0,P|136:320|162:389,1,110,0|2,0:0|0:0,0:0:0:0:
255,382,21035,5,4,0:3:0:0:
357,341,21410,1,2,0:0:0:0:
357,231,21785,1,2,0:0:0:0:
459,190,22160,1,2,0:0:0:0:
459,80,22535,2,0,L|540:55,2,55,2|0|0,0:0|0:0|0:0,0:0:0:0:
407,100,23097,1,2,0:0:0:0:
407,100,23285,2,0,P|348:100|267:90,1,110,0|2,0:0|0:0,0:0:0:0:
288,205,24035,6,0,P|347:205|428:215,2,110,4|2|2,0:3|0:0|0:0,0:0:0:0:
234,216,24972,2,0,L|231:292,2,55,2|2|4,0:0|0:0|0:3,0:0:0:0:
191,181,25535,2,0,P|170:127|175:41,1,110,2|4,0:0|0:3,0:0:0:0:
270,36,26285,2,0,P|291:90|286:176,1,110,2|2,0:0|0:0,0:0:0:0:
397,178,27035,6,0,P|453:174|546:154,2,110,4|2|2,0:3|0:0|0:0,0:0:0:0:
293,142,28160,2,0,P|260:137|212:138,1,55,2|4,0:0|0:3,0:0:0:0:
190,162,28535,2,0,P|134:158|41:138,1,110,2|4,0:0|0:3,0:0:0:0:
31,124,29097,1,2,0:0:0:0:
31,124,29285,2,0,L|33:258,1,110,2|2,0:0|0:0,0:0:0:0:
133,277,30035,6,0,P|187:267|242:263,2,110,4|2|2,0:3|0:0|0:0,0:0:0:0:
95,317,30972,2,0,L|101:385,2,55,2|2|4,0:0|0:0|0:3,0:0:0:0:
46,290,31535,2,0,P|28:233|23:165,1,110,2|4,0:0|0:3,0:0:0:0:
71,83,32285,2,0,L|228:87,1,110,2|2,0:0|0:0,0:0:0:0:
272,148,33035,6,0,L|429:144,2,110,4|2|2,0:3|0:0|0:0,0:0:0:0:
185,216,34160,2,0,P|182:253|187:297,1,55,2|4,0:0|0:3,0:0:0:0:
206,320,34535,2,0,L|363:316,1,110,2|4,0:0|0:3,0:0:0:0:
371,313,35097,1,2,0:0:0:0:
371,313,35285,2,0,P|379:249|377:182,1,110,2|2,0:0|0:0,0:0:0:0:
356,95,36035,5,4,0:3:0:0:
249,123,36410,2,0,L|167:119,1,55,2|4,0:0|0:3,0:0:0:0:
138,117,36785,1,2,0:0:0:0:
90,216,37160,2,0,L|172:220,1,55,2|4,0:0|0:3,0:0:0:0:
201,222,37535,2,0,P|248:256|320:260,1,110,2|4,0:0|0:3,0:0:0:0:
353,258,38097,1,2,0:0:0:0:
353,258,38285,2,0,L|499:253,1,110,2|2,0:0|0:0,0:0:0:0:
488,147,39035,5,2,0:0:0:0:
405,74,39410,2,0,L|323:70,1,55,2|4,0:0|0:3,0:0:0:0:
294,68,39785,1,2,0:0:0:0:
217,146,40160,2,0,L|135:142,1,55,2|4,0:0|0:3,0:0:0:0:
106,140,40535,2,0,P|84:193|86:293,1,110,2|4,0:0|0:3,0:0:0:0:
87,299,41097,1,2,0:0:0:0:
87,299,41285,2,0,L|231:306,1,110,2|2,0:0|0:0,0:0:0:0:
305,325,42035,5,4,0:3:0:0:
269,221,42410,1,4,0:3:0:0:
305,117,42785,1,4,0:3:0:0:
269,13,43160,1,4,0:3:0:0:
377,34,43535,2,0,P|403:68|412:145,1,110,4|4,0:3|0:3,0:0:0:0:
394,184,44097,1,2,0:0:0:0:
394,184,44285,2,0,P|400:238|431:283,1,110,4|4,0:3|0:3,0:0:0:0:
373,377,45035,6,0,L|298:369,1,55,4|4,0:3|0:3,0:0:0:0:
275,336,45410,2,0,L|200:328,1,55,4|4,0:3|0:3,0:0:0:0:
174,361,45785,2,0,L|99:353,1,55,4|4,0:3|0:3,0:0:0:0:
76,320,46160,2,0,L|1:312,1,55,4|4,0:3|0:3,0:0:0:0:
0,263,46535,2,0,P|1:193|34:144,2,110,4|4|4,0:3|0:3|0:3,0:0:0:0:
105,229,47660,1,2,0:0:0:0:
210,263,48035,6,0,P|293:273|419:248,1,165,6|2,0:0|0:0,0:0:0:0:
425,245,48785,1,2,1:2:0:0:
467,143,49160,2,0,L|459:52,1,55,2|4,0:0|0:3,0:0:0:0:
416,56,49535,2,0,P|355:46|262:46,1,110,2|4,0:0|0:3,0:0:0:0:
217,107,50285,2,0,P|156:117|63:117,1,110,0|0,1:0|0:0,0:0:0:0:
5,78,51035,6,0,L|20:261,1,165,2|2,0:0|0:0,0:0:0:0:
24,297,51785,1,2,1:2:0:0:
128,262,52160,2,0,P|155:258|201:260,1,55,2|4,0:0|0:3,0:0:0:0:
229,288,52535,2,0,L|357:282,1,110,2|4,0:0|0:3,0:0:0:0:
361,174,53285,2,0,L|233:180,1,110,0|0,1:0|0:0,0:0:0:0:
223,72,54035,6,0,L|389:64,1,165,2|2,0:0|0:0,0:0:0:0:
441,75,54785,2,0,P|454:132|455:191,1,110,2|2,1:2|0:0,0:0:0:0:
435,235,55347,1,2,0:0:0:0:
435,235,55535,2,0,L|449:311,2,55,4|4|0,0:3|0:3|0:0,0:0:0:0:
327,208,56285,2,0,P|271:202|180:206,1,110,0|0,1:0|0:0,0:0:0:0:
166,300,57035,6,0,P|107:193|143:121,1,165,2|2,0:0|0:0,0:0:0:0:
145,112,57785,2,0,P|201:106|292:110,1,110,2|0,1:2|0:0,0:0:0:0:
307,121,58347,1,2,0:0:0:0:
307,121,58535,1,4,0:3:0:0:
398,182,58910,1,4,0:3:0:0:
459,91,59285,1,0,1:0:0:0:
368,30,59660,1,2,0:0:0:0:
307,121,60035,6,0,P|231:137|137:142,1,165,2|2,0:0|0:0,0:0:0:0:
91,125,60785,2,0,L|93:234,1,110,2|2,1:2|0:0,0:0:0:0:
125,280,61347,1,2,0:0:0:0:
125,280,61535,2,0,L|120:384,2,55,4|4|0,0:3|0:3|0:0,0:0:0:0:
215,217,62285,2,0,P|267:207|366:207,1,110,0|0,1:0|0:0,0:0:0:0:
429,235,63035,6,0,L|435:120,1,110,2|0,0:0|0:0,0:0:0:0:
436,70,63597,1,2,0:0:0:0:
436,70,63785,2,0,P|384:60|285:60,1,110,2|2,1:2|0:0,0:0:0:0:
273,70,64347,1,4,0:3:0:0:
273,70,64535,1,2,0:0:0:0:
280,179,64910,1,4,0:3:0:0:
175,211,65285,2,0,P|120:208|66:197,1,110,0|0,1:0|0:0,0:0:0:0:
60,87,66035,6,0,P|142:91|223:106,1,165,2|2,0:0|0:0,0:0:0:0:
271,132,66785,2,0,L|426:124,1,110,2|2,1:2|0:0,0:0:0:0:
430,102,67347,1,2,0:0:0:0:
430,102,67535,2,0,L|536:110,2,55,4|4|0,0:3|0:3|0:0,0:0:0:0:
417,211,68285,2,0,P|418:262|430:357,1,110,0|0,1:0|0:0,0:0:0:0:
318,353,69035,6,0,P|263:359|174:356,1,110,2|0,0:0|0:0,0:0:0:0:
171,317,69597,1,2,0:0:0:0:
171,317,69785,2,0,P|116:311|27:314,1,110,2|0,1:2|0:0,0:0:0:0:
6,317,70347,1,2,0:0:0:0:
6,317,70535,1,4,0:3:0:0:
35,210,70910,1,4,0:3:0:0:
6,103,71285,2,0,P|61:97|150:100,1,110,0|0,1:0|0:0,0:0:0:0:
221,126,72035,5,6,0:0:0:0:
327,96,72410,2,0,P|381:96|436:102,2,110,2|0|2,0:0|0:0|0:0,0:0:0:0:
221,126,73535,2,0,L|226:221,1,55,2|0,0:0|0:0,0:0:0:0:
269,211,73910,2,0,L|264:306,1,55,0|2,0:0|0:0,0:0:0:0:
234,311,74285,2,0,P|186:320|93:319,1,110,0|2,0:0|0:0,0:0:0:0:
27,270,75035,5,0,0:0:0:0:
63,166,75410,2,0,L|54:57,2,110,2|0|2,0:0|0:0|0:0,0:0:0:0:
27,270,76535,2,0,L|117:274,1,55,2|0,0:0|0:0,0:0:0:0:
130,247,76910,2,0,L|220:243,1,55,0|2,0:0|0:0,0:0:0:0:
228,278,77285,2,0,P|280:288|376:271,1,110,0|2,0:0|0:0,0:0:0:0:
425,218,78035,5,0,0:0:0:0:
375,119,78410,2,0,L|385:-2,1,110,2|0,0:0|0:0,0:0:0:0:
280,46,79160,1,2,0:0:0:0:
176,9,79535,2,0,L|107:13,1,55,2|0,0:0|0:0,0:0:0:0:
82,52,79910,2,0,L|13:48,1,55,0|2,0:0|0:0,0:0:0:0:
0,97,80285,2,0,P|1:158|11:220,1,110,0|2,0:0|0:0,0:0:0:0:
43,310,81035,5,0,0:0:0:0:
147,276,81410,2,0,L|305:268,1,110,2|0,0:0|0:0,0:0:0:0:
367,268,82160,1,2,0:0:0:0:
440,185,82535,2,0,L|444:82,1,55,2|0,0:0|0:0,0:0:0:0:
393,104,82910,2,0,L|389:1,1,55,0|2,0:0|0:0,0:0:0:0:
339,28,83285,2,0,P|289:18|210:17,1,110,0|2,0:0|0:0,0:0:0:0:
125,50,84035,5,4,0:3:0:0:
155,155,84410,2,0,L|166:295,1,110,2|0,0:0|0:0,0:0:0:0:
199,368,85160,1,2,0:0:0:0:
303,334,85535,2,0,L|368:338,2,55,2|0|0,0:0|0:0|0:0,0:0:0:0:
270,289,86097,1,2,0:0:0:0:
270,289,86285,2,0,P|272:233|286:149,1,110,0|2,0:0|0:0,0:0:0:0:
310,73,87035,5,4,0:3:0:0:
203,100,87410,1,2,0:0:0:0:
173,205,87785,1,2,0:0:0:0:
66,232,88160,1,2,0:0:0:0:
143,311,88535,2,0,L|137:397,2,55,2|0|0,0:0|0:0|0:0,0:0:0:0:
196,297,89097,1,2,0:0:0:0:
196,297,89285,2,0,P|243:297|332:306,1,110,0|2,0:0|0:0,0:0:0:0:
413,326,90035,5,4,0:3:0:0:
380,221,90410,1,2,0:0:0:0:
445,132,90785,1,2,0:0:0:0:
412,27,91160,1,2,0:0:0:0:
302,13,91535,2,0,L|209:19,2,55,2|0|0,0:0|0:0|0:0,0:0:0:0:
313,66,92097,1,2,0:0:0:0:
313,66,92285,2,0,P|311:135|301:222,1,110,0|2,0:0|0:0,0:0:0:0:
273,281,93035,5,4,0:3:0:0:
163,281,93410,1,2,0:0:0:0:
129,176,93785,1,2,0:0:0:0:
218,112,94160,1,2,0:0:0:0:
307,176,94535,2,0,L|381:171,2,55,2|0|0,0:0|0:0|0:0,0:0:0:0:
267,214,95097,1,2,0:0:0:0:
267,214,95285,2,0,L|126:210,1,110,0|2,0:0|0:0,0:0:0:0:
130,103,96035,6,0,L|271:107,2,110,4|2|2,0:3|0:0|0:0,0:0:0:0:
80,128,96972,2,0,L|6:133,2,55,2|2|4,0:0|0:0|0:3,0:0:0:0:
91,182,97535,2,0,P|97:245|94:334,1,110,2|4,0:0|0:3,0:0:0:0:
203,319,98285,2,0,P|209:256|206:167,1,110,2|2,0:0|0:0,0:0:0:0:
208,99,99035,6,0,L|64:76,2,110,4|2|2,0:3|0:0|0:0,0:0:0:0:
311,61,100160,2,0,P|338:56|387:56,1,55,2|4,0:0|0:3,0:0:0:0:
417,72,100535,2,0,L|411:206,1,110,2|4,0:0|0:3,0:0:0:0:
376,223,101097,1,2,0:0:0:0:
376,223,101285,2,0,L|382:357,1,110,2|2,0:0|0:0,0:0:0:0:
270,325,102035,6,0,P|217:326|137:341,2,110,4|2|2,0:3|0:0|0:0,0:0:0:0:
293,275,102972,2,0,L|281:203,2,55,2|2|4,0:0|0:0|0:3,0:0:0:0:
348,275,103535,2,0,P|357:248|374:168,1,110,2|4,0:0|0:3,0:0:0:0:
340,63,104285,2,0,L|210:70,1,110,2|2,0:0|0:0,0:0:0:0:
143,137,105035,6,0,L|13:130,2,110,4|2|2,0:3|0:0|0:0,0:0:0:0:
245,178,106160,2,0,P|249:216|249:274,1,55,2|4,0:0|0:3,0:0:0:0:
244,287,106535,2,0,L|374:280,1,110,2|4,0:0|0:3,0:0:0:0:
389,238,107097,1,2,0:0:0:0:
389,238,107285,2,0,L|519:245,1,110,2|2,0:0|0:0,0:0:0:0:
481,135,108035,5,4,0:3:0:0:
463,26,108410,2,0,L|398:22,1,55,2|4,0:0|0:3,0:0:0:0:
353,20,108785,1,2,0:0:0:0:
267,88,109160,2,0,L|202:84,1,55,2|4,0:0|0:3,0:0:0:0:
157,82,109535,2,0,P|142:135|140:189,1,110,2|4,0:0|0:3,0:0:0:0:
140,244,110097,1,2,0:0:0:0:
140,244,110285,2,0,P|142:298|156:351,1,110,2|2,0:0|0:0,0:0:0:0:
264,329,111035,5,2,0:0:0:0:
372,351,111410,2,0,L|375:296,1,55,2|4,0:0|0:3,0:0:0:0:
381,241,111785,1,2,0:0:0:0:
306,160,112160,2,0,L|309:105,1,55,2|4,0:0|0:3,0:0:0:0:
315,50,112535,2,0,P|369:39|461:39,1,110,2|4,0:0|0:3,0:0:0:0:
457,80,113097,1,2,0:0:0:0:
457,80,113285,2,0,L|449:189,1,110,2|2,0:0|0:0,0:0:0:0:
440,299,114035,5,4,0:3:0:0:
343,352,114410,1,4,0:3:0:0:
246,299,114785,1,4,0:3:0:0:
149,352,115160,1,4,0:3:0:0:
52,299,115535,2,0,P|44:252|41:173,1,110,4|4,0:3|0:3,0:0:0:0:
85,158,116097,1,2,0:0:0:0:
85,158,116285,2,0,P|93:111|96:32,1,110,4|4,0:3|0:3,0:0:0:0:
200,12,117035,6,0,L|288:16,1,55,4|4,0:3|0:3,0:0:0:0:
298,48,117410,2,0,L|386:44,1,55,4|4,0:3|0:3,0:0:0:0:
408,44,117785,2,0,L|412:132,1,55,4|4,0:3|0:3,0:0:0:0:
444,142,118160,2,0,L|440:230,1,55,4|4,0:3|0:3,0:0:0:0:
408,240,118535,2,0,L|412:356,2,110,4|4|4,0:3|0:3|0:3,0:0:0:0:
324,168,119660,1,2,0:0:0:0:
220,204,120035,6,0,P|137:203|16:170,1,165,6|2,0:0|0:0,0:0:0:0:
7,162,120785,1,2,1:2:0:0:
10,52,121160,2,0,L|77:48,1,55,2|4,0:0|0:3,0:0:0:0:
104,10,121535,2,0,P|157:21|212:22,1,110,2|4,0:0|0:3,0:0:0:0:
322,6,122285,2,0,P|376:6|430:17,1,110,0|0,1:0|0:0,0:0:0:0:
512,91,123035,6,0,P|507:167|508:303,1,165,2|2,0:0|0:0,0:0:0:0:
508,310,123785,1,2,1:2:0:0:
405,350,124160,2,0,P|378:350|329:340,1,55,2|4,0:0|0:3,0:0:0:0:
307,310,124535,2,0,L|197:315,1,110,2|4,0:0|0:3,0:0:0:0:
109,382,125285,2,0,L|0:376,1,110,0|0,1:0|0:0,0:0:0:0:
46,277,126035,6,0,P|53:170|34:66,1,165,2|2,0:0|0:0,0:0:0:0:
29,60,126785,2,0,L|138:54,1,110,2|2,1:2|0:0,0:0:0:0:
179,91,127347,1,2,0:0:0:0:
179,91,127535,2,0,L|233:94,2,55,4|4|0,0:3|0:3|0:0,0:0:0:0:
124,185,128285,2,0,P|128:252|145:337,1,110,0|0,1:0|0:0,0:0:0:0:
234,340,129035,6,0,P|301:327|406:328,1,165,2|2,0:0|0:0,0:0:0:0:
451,340,129785,2,0,P|459:285|461:230,1,110,2|0,1:2|0:0,0:0:0:0:
457,175,130347,1,2,0:0:0:0:
457,175,130535,1,4,0:3:0:0:
353,139,130910,1,4,0:3:0:0:
249,103,131285,1,0,1:0:0:0:
145,139,131660,1,2,0:0:0:0:
41,175,132035,6,0,P|43:247|55:364,1,165,2|2,0:0|0:0,0:0:0:0:
103,319,132785,2,0,P|154:318|212:325,1,110,2|2,1:2|0:0,0:0:0:0:
257,358,133347,1,2,0:0:0:0:
257,358,133535,2,0,L|311:355,2,55,4|4|0,0:3|0:3|0:0,0:0:0:0:
249,249,134285,2,0,P|249:173|263:92,1,110,0|0,1:0|0:0,0:0:0:0:
302,40,135035,6,0,L|411:46,1,110,2|0,0:0|0:0,0:0:0:0:
433,96,135597,1,2,0:0:0:0:
433,96,135785,2,0,P|433:172|419:253,1,110,2|2,1:2|0:0,0:0:0:0:
419,259,136347,1,4,0:3:0:0:
419,259,136535,1,2,0:0:0:0:
315,223,136910,1,4,0:3:0:0:
211,259,137285,2,0,P|151:257|85:239,1,110,0|0,1:0|0:0,0:0:0:0:
5,194,138035,6,0,P|23:120|35:22,1,165,2|2,0:0|0:0,0:0:0:0:
87,17,138785,2,0,P|147:19|213:37,1,110,2|2,1:2|0:0,0:0:0:0:
238,65,139347,1,2,0:0:0:0:
238,65,139535,2,0,L|336:61,2,55,4|4|0,0:3|0:3|0:0,0:0:0:0:
187,163,140285,2,0,P|187:231|200:304,1,110,0|0,1:0|0:0,0:0:0:0:
302,272,141035,6,0,P|308:217|307:162,1,110,2|0,0:0|0:0,0:0:0:0:
298,107,141597,1,2,0:0:0:0:
298,107,141785,2,0,L|426:110,1,110,2|0,1:2|0:0,0:0:0:0:
463,112,142347,1,2,0:0:0:0:
463,112,142535,1,4,0:3:0:0:
438,219,142910,1,4,0:3:0:0:
463,326,143285,2,0,L|335:329,1,110,0|0,1:0|0:0,0:0:0:0:
249,290,144035,5,0,0:0:0:0:
146,328,144410,2,0,L|18:331,2,110,2|0|2,0:0|0:0|0:0,0:0:0:0:
249,290,145535,2,0,L|254:200,1,55,2|0,0:0|0:0,0:0:0:0:
213,195,145910,2,0,L|208:105,1,55,0|2,0:0|0:0,0:0:0:0:
245,97,146285,2,0,P|286:89|389:88,1,110,0|2,0:0|0:0,0:0:0:0:
462,105,147035,5,0,0:0:0:0:
442,212,147410,2,0,P|444:266|453:321,2,110,2|0|2,0:0|0:0|0:0,0:0:0:0:
462,105,148535,2,0,L|378:100,1,55,2|0,0:0|0:0,0:0:0:0:
363,136,148910,2,0,L|279:141,1,55,0|2,0:0|0:0,0:0:0:0:
264,105,149285,2,0,P|223:97|120:96,1,110,0|2,0:0|0:0,0:0:0:0:
47,113,150035,5,0,0:0:0:0:
67,220,150410,2,0,P|65:274|56:329,1,110,2|0,0:0|0:0,0:0:0:0:
153,380,151160,1,2,0:0:0:0:
250,329,151535,2,0,L|345:324,1,55,2|0,0:0|0:0,0:0:0:0:
347,360,151910,2,0,L|442:365,1,55,0|2,0:0|0:0,0:0:0:0:
442,325,152285,2,0,P|451:286|453:186,1,110,0|2,0:0|0:0,0:0:0:0:
409,116,153035,5,0,0:0:0:0:
303,146,153410,2,0,P|246:150|193:146,1,110,2|0,0:0|0:0,0:0:0:0:
87,116,154160,1,2,0:0:0:0:
16,200,154535,2,0,L|21:291,1,55,2|0,0:0|0:0,0:0:0:0:
68,280,154910,2,0,L|63:371,1,55,0|2,0:0|0:0,0:0:0:0:
114,360,155285,2,0,P|171:364|224:360,1,110,0|2,0:0|0:0,0:0:0:0:
