osu file format v14

[General]
AudioFilename: audio.mp3
AudioLeadIn: 0
PreviewTime: 47941
Countdown: 0
SampleSet: Soft
StackLeniency: 0.4
Mode: 0
LetterboxInBreaks: 0
WidescreenStoryboard: 0

[Editor]
Bookmarks: 35999,107997
DistanceSpacing: 2.8
BeatDivisor: 4
GridSize: 8
TimelineZoom: 3.599998

[Metadata]
Title:China-Future
TitleUnicode:China-Future
Artist:Xu Meng Yuan
ArtistUnicode:徐梦圆
Creator:-Eriri-
Version:Insane
Source:
Tags:Pata-Mon ts8zs Future Bass
BeatmapID:1355381
BeatmapSetID:634591

[Difficulty]
HPDrainRate:6.4
CircleSize:3
OverallDifficulty:8
ApproachRate:9
SliderMultiplier:1.7
SliderTickRate:1

[Events]
//Background and Video events
0,0,"bg.jpg",0,0
//Break Periods
2,72235,82235
//Storyboard Layer 0 (Background)
//Storyboard Layer 1 (Fail)
//Storyboard Layer 2 (Pass)
//Storyboard Layer 3 (Foreground)
//Storyboard Sound Samples

[TimingPoints]
35,375,4,1,1,5,1,0
35,-133.333333333333,4,2,1,5,0,0
597,-133.333333333333,4,2,1,5,0,0
6035,-153.846153846154,4,2,1,15,0,0
6410,-133.333333333333,4,2,1,15,0,0
12035,-100,4,2,1,40,0,0
24035,-100,4,2,1,40,0,0
42035,-100,4,2,1,50,0,0
46535,-100,4,2,1,60,0,0
47410,-100,4,2,1,30,0,0
48035,-133.333333333333,4,3,1,60,0,1
48597,-100,4,3,1,60,0,1
51739,-100,4,3,1,60,0,1
54035,-133.333333333333,4,3,1,60,0,1
57035,-133.333333333333,4,3,1,60,0,1
57410,-100,4,3,1,60,0,1
60035,-133.333333333333,4,3,1,60,0,1
60785,-100,4,3,1,60,0,1
63035,-133.333333333333,4,3,1,60,0,1
63785,-100,4,3,1,60,0,1
64535,-133.333333333333,4,3,1,60,0,1
65285,-100,4,3,1,60,0,1
66035,-133.333333333333,4,3,1,60,0,1
66785,-100,4,3,1,60,0,1
69035,-133.333333333333,4,3,1,60,0,1
72035,-100,4,3,1,50,0,0
84035,-100,4,2,1,40,0,0
96035,-100,4,2,1,40,0,0
114035,-100,4,2,1,60,0,0
119347,-100,4,2,1,30,0,0
120035,-90.9090909090909,4,3,1,60,0,1
120785,-100,4,3,1,60,0,1
123035,-90.9090909090909,4,3,1,60,0,1
123410,-100,4,3,1,60,0,1
126035,-90.9090909090909,4,3,1,60,0,1
126785,-100,4,3,1,60,0,1
131660,-200,4,3,1,60,0,1
132035,-90.9090909090909,4,3,1,60,0,1
142535,-133.333333333333,4,3,1,60,0,1
144035,-200,4,2,1,5,0,0
155847,-200,4,2,1,10,0,0

[Colours]
Combo1 : 233,231,126
Combo2 : 236,53,38
Combo3 : 153,109,77
Combo4 : 255,28,141

[HitObjects]
36,76,35,6,0,P|28:116|80:204,1,127.500004863739,0|0,0:0|0:0,0:0:0:0:
152,248,597,1,0,0:0:0:0:
241,192,785,2,0,P|299:184|367:192,1,127.500004863739,0|0,0:0|0:0,0:0:0:0:
152,248,1535,6,0,P|108:248|72:236,2,63.7500024318696,0|0|0,0:0|0:0|0:0,0:0:0:0:
241,192,2097,1,0,0:0:0:0:
288,345,2285,2,0,B|291:300|328:251|328:251|334:262|339:291,1,127.500004863739,0|0,0:0|0:0,0:0:0:0:
440,356,3035,6,0,P|404:370|373:374,1,63.7500024318696,0|0,0:0|0:0,0:0:0:0:
335,273,3410,2,0,L|303:263,3,21.2500008106232,0|0|0|0,0:0|0:0|0:0|0:0,0:0:0:0:
479,246,3785,2,0,B|492:211|473:178|473:178|417:177|406:202,1,127.500004863739,0|0,0:0|0:0,0:0:0:0:
337,109,4535,5,0,0:0:0:0:
201,213,4722,1,0,0:0:0:0:
257,45,4910,1,0,0:0:0:0:
311,213,5097,1,0,0:0:0:0:
175,109,5285,2,0,P|119:141|95:197,1,127.500004863739,0|0,0:0|0:0,0:0:0:0:
217,328,6035,6,0,P|192:347|157:353,1,55.2499974708558,0|0,0:0|0:0,0:0:0:0:
299,277,6410,2,0,P|313:323|307:354,1,63.7500024318696,0|0,0:0|0:0,0:0:0:0:
303,181,6785,2,0,P|366:212|396:273,1,127.500004863739,0|0,0:0|0:0,0:0:0:0:
201,181,7535,5,0,0:0:0:0:
335,86,7722,1,0,0:0:0:0:
254,24,7910,1,0,0:0:0:0:
302,182,8097,1,0,0:0:0:0:
99,114,8285,2,0,B|99:112|76:108|76:108|123:80|175:85,1,127.500004863739
201,181,9035,6,0,P|192:216|176:248,1,63.7500024318696,0|0,0:0|0:0,0:0:0:0:
56,192,9410,2,0,L|21:180,3,21.2500008106232,0|0|0|0,0:0|0:0|0:0|0:0,0:0:0:0:
40,304,9785,2,0,P|72:304|112:288,1,63.7500024318696,0|0,0:0|0:0,0:0:0:0:
200,344,10160,1,0,0:0:0:0:
240,128,10535,5,0,0:0:0:0:
184,256,10722,1,0,0:0:0:0:
56,192,10910,1,0,0:0:0:0:
192,296,11097,1,0,0:0:0:0:
248,104,11285,1,0,0:0:0:0:
80,288,11660,1,0,0:0:0:0:
355,57,12035,6,0,B|383:154|326:145|358:234,1,170,8|0,0:0|0:0,0:0:0:0:
306,307,12597,2,0,B|233:304|191:272|191:272|217:333,1,170
402,369,13160,2,0,P|454:357|486:333,1,85
194,184,13535,6,0,P|142:196|110:220,1,85
20,266,13910,1,0,0:0:0:0:
115,48,14097,2,0,B|143:139|76:109|122:231,1,170
238,338,14660,2,0,P|227:302|187:269,1,85,0|2,2:0|2:0,0:0:0:0:
11,374,15035,6,8,B|68:376|114:321|114:321|140:341|137:362,1,170,8|0,0:0|0:0,0:0:0:0:
20,266,15597,2,0,B|-3:163|51:192|40:102,1,170
140,76,16160,2,0,P|118:31|63:3,1,85
192,271,16535,6,0,P|214:316|269:344,1,85
426,198,16910,1,0,0:0:0:0:
261,185,17097,2,0,B|177:187|159:256|159:256|199:274,1,170
339,108,17660,2,0,P|300:86|229:92,1,85,0|2,0:0|0:0,0:0:0:0:
426,198,18035,6,0,B|408:298|450:272|429:375,1,170,8|0,0:0|0:0,0:0:0:0:
167,343,18597,2,0,B|234:300|289:304|289:304|355:323,1,170
429,282,19160,2,0,P|436:243|423:192,1,85
302,25,19535,6,0,P|293:72|310:125,1,85
426,198,19910,1,0,0:0:0:0:
445,44,20097,2,0,P|361:51|300:108,1,170
190,175,20660,2,0,P|126:173|87:135,1,85,0|2,0:0|0:0,0:0:0:0:
22,7,21035,6,0,B|106:18|69:81|177:88,1,170,8|0,0:0|0:0,0:0:0:0:
426,198,21597,2,0,B|395:164|395:164|337:187|386:296,1,170
364,367,22160,2,0,P|428:356|457:332,1,85
485,269,22535,1,8,0:0:0:0:
290,307,22722,1,8,0:0:0:0:
426,198,22910,1,2,0:0:0:0:
269,316,23097,1,0,0:0:0:0:
218,226,23285,2,0,B|225:311|200:358|200:358|157:335,1,170,8|2,0:0|0:0,0:0:0:0:
336,84,24035,6,0,L|252:102,1,85,8|0,0:0|0:0,0:0:0:0:
440,60,24410,1,0,1:0:0:0:
395,170,24597,2,0,L|299:190,1,85,0|8,0:0|0:0,0:0:0:0:
208,208,24972,5,0,0:0:0:0:
268,280,25160,1,0,1:0:0:0:
236,368,25347,1,0,0:0:0:0:
368,324,25535,2,0,P|424:316|472:292,1,85,8|0,0:0|0:0,0:0:0:0:
128,159,25910,2,0,P|72:167|24:191,1,85,0|0,1:0|0:0,0:0:0:0:
311,187,26285,2,0,P|334:151|345:110,1,85,8|0,0:0|0:0,0:0:0:0:
129,260,26660,2,0,P|118:301|123:342,1,85,0|0,1:0|0:0,0:0:0:0:
233,117,27035,6,0,P|214:79|183:49,1,85,8|0,0:0|0:0,0:0:0:0:
183,49,27410,1,0,1:0:0:0:
303,315,27597,2,0,P|351:323|407:307,1,85,0|8,0:0|0:0,0:0:0:0:
386,316,27972,1,0,0:0:0:0:
488,112,28160,1,0,1:0:0:0:
488,112,28347,2,0,P|454:52|418:29,1,85,0|8,0:0|0:0,0:0:0:0:
344,228,28722,5,0,0:0:0:0:
256,124,28910,1,0,1:0:0:0:
168,228,29097,1,0,0:0:0:0:
112,120,29285,5,8,0:0:0:0:
256,20,29472,1,0,0:0:0:0:
400,120,29660,1,0,1:0:0:0:
256,228,29847,1,0,0:0:0:0:
112,120,30035,6,0,L|196:130,1,85,8|0,0:0|0:0,0:0:0:0:
11,112,30410,1,0,1:0:0:0:
31,214,30597,2,0,L|115:226,1,85,0|8,0:0|0:0,0:0:0:0:
310,302,30972,5,0,0:0:0:0:
339,202,31160,1,0,1:0:0:0:
257,141,31347,1,0,0:0:0:0:
187,301,31535,2,0,P|196:349|218:382,1,85,8|0,0:0|0:3,0:0:0:0:
436,213,31910,2,0,P|429:171|407:134,1,85,0|0,1:0|0:0,0:0:0:0:
182,208,32285,2,0,L|82:218,1,85,8|0,0:0|0:0,0:0:0:0:
310,302,32660,2,8,L|425:315,1,85,0|0,1:0|0:0,0:0:0:0:
146,114,33035,6,0,P|239:127|285:207,1,170,8|0,0:0|1:0,0:0:0:0:
190,302,33597,2,0,L|106:315,1,85,0|8,0:0|0:0,0:0:0:0:
106,315,33972,1,0,0:0:0:0:
40,164,34160,1,0,1:0:0:0:
40,164,34347,2,0,P|32:96|48:56,1,85,0|8,0:0|0:0,0:0:0:0:
168,228,34722,1,0,0:0:0:0:
256,124,34910,1,0,1:0:0:0:
344,228,35097,1,0,0:0:0:0:
400,120,35285,5,8,0:0:0:0:
256,20,35472,1,0,0:0:0:0:
112,120,35660,1,0,1:0:0:0:
256,228,35847,1,0,0:0:0:0:
120,252,36035,6,0,L|28:272,1,85,8|0,0:0|0:0,0:0:0:0:
200,156,36410,1,0,1:0:0:0:
256,316,36597,6,0,L|164:336,1,85,0|8,0:0|0:0,0:0:0:0:
348,356,36972,1,0,0:0:0:0:
344,228,37160,1,0,1:0:0:0:
429,298,37347,2,0,L|513:280,1,85,0|8,1:0|0:0,0:0:0:0:
224,196,37722,1,0,0:0:0:0:
344,228,37910,1,0,1:0:0:0:
256,316,38097,1,0,0:0:0:0:
184,72,38285,5,8,0:0:0:0:
320,208,38472,1,0,0:0:0:0:
328,72,38660,1,0,1:0:0:0:
192,208,38847,1,0,0:0:0:0:
355,56,39035,6,0,L|451:44,1,85,8|0,0:0|0:0,0:0:0:0:
512,128,39410,1,0,1:0:0:0:
344,192,39597,6,0,L|449:178,1,85,0|8,1:0|0:0,0:0:0:0:
208,292,39972,1,0,0:0:0:0:
260,128,40160,1,0,1:0:0:0:
310,289,40347,1,0,0:0:0:0:
174,188,40535,1,8,0:0:0:0:
344,192,40722,1,0,0:0:0:0:
192,52,40910,5,0,1:0:0:0:
357,170,41097,1,0,0:0:0:0:
198,26,41285,5,8,0:0:0:0:
96,232,41472,1,0,0:0:0:0:
256,124,41660,5,0,1:0:0:0:
200,264,41847,1,0,0:0:0:0:
316,224,42035,6,0,P|348:272|360:324,1,85,8|0,0:0|0:0,0:0:0:0:
48,104,42410,2,0,P|20:56|20:0,1,85,8|0,1:0|0:0,0:0:0:0:
144,356,42785,1,8,0:0:0:0:
240,132,42972,1,0,0:0:0:0:
24,252,43160,1,8,1:0:0:0:
264,296,43347,1,0,0:0:0:0:
123,67,43535,6,0,P|75:83|31:123,1,85,8|0,0:0|0:0,0:0:0:0:
400,128,43910,2,0,P|448:112|492:72,1,85,8|0,1:0|0:0,0:0:0:0:
126,163,44285,1,8,0:0:0:0:
392,36,44472,1,0,0:0:0:0:
197,224,44660,1,8,1:0:0:0:
256,8,44847,1,0,0:0:0:0:
272,281,45035,5,8,0:0:0:0:
396,128,45222,1,8,0:0:0:0:
256,8,45410,1,8,1:0:0:0:
126,163,45597,5,8,0:0:0:0:
256,8,45785,1,8,0:0:0:0:
197,224,45972,1,8,0:0:0:0:
327,69,46160,1,8,1:0:0:0:
272,281,46347,1,8,0:0:0:0:
396,128,46535,6,0,L|417:81,1,42.5,8|0,0:0|0:0,0:0:0:0:
272,281,46722,2,0,L|254:319,1,42.5,8|0,0:0|0:0,0:0:0:0:
327,69,46910,2,0,L|343:29,1,42.5,8|0,1:0|0:0,0:0:0:0:
197,224,47097,2,0,L|177:261,1,42.5,8|0,0:0|0:0,0:0:0:0:
256,8,47285,2,0,L|239:45,9,28.3333333333333,8|0|0|0|0|0|0|0|0|0,1:0|0:0|0:0|0:0|0:0|0:0|0:0|0:0|0:0|0:0,0:0:0:0:
436,264,48035,6,0,B|458:282|468:321|468:321|432:353|390:340,1,127.500004863739,4|0,0:0|0:0,0:0:0:0:
264,68,48597,1,0,0:0:0:0:
320,220,48785,1,2,0:0:0:0:
196,192,48972,1,0,0:0:0:0:
196,192,49066,1,0,0:0:0:0:
196,192,49160,1,8,0:0:0:0:
408,120,49347,1,8,0:0:0:0:
408,120,49535,2,0,P|444:148|460:204,1,85,0|0,0:0|0:0,0:0:0:0:
256,340,49910,5,0,0:0:0:0:
160,300,50097,2,0,L|124:292,2,28.3333333333333,0|0|0,0:0|0:0|0:0,0:0:0:0:
256,244,50285,1,2,0:0:0:0:
176,384,50472,1,0,0:0:0:0:
256,224,50660,1,0,0:0:0:0:
336,384,50847,1,0,0:0:0:0:
256,139,51035,5,4,0:0:0:0:
256,139,51410,2,0,B|256:176|256:224,1,85,0|4,0:0|0:0,0:0:0:0:
216,24,51785,1,2,0:0:0:0:
88,168,51972,1,0,0:0:0:0:
88,168,52066,1,0,0:0:0:0:
88,168,52160,1,8,0:0:0:0:
183,217,52347,1,8,0:0:0:0:
94,56,52535,1,8,0:0:0:0:
40,296,52722,6,0,L|16:312,2,28.3333333333333,0|0|0,0:0|0:0|0:0,0:0:0:0:
136,304,52910,1,8,0:0:0:0:
183,217,53097,1,0,0:0:0:0:
32,200,53285,1,2,0:0:0:0:
172,112,53472,1,0,0:0:0:0:
94,56,53660,1,0,0:0:0:0:
32,200,53847,1,0,0:0:0:0:
256,74,54035,6,0,B|264:112|256:142|256:142|248:170|256:202,1,127.500004863739,4|0,0:0|0:0,0:0:0:0:
372,288,54597,1,0,0:0:0:0:
256,200,54785,1,2,0:0:0:0:
416,112,54972,1,0,0:0:0:0:
416,112,55066,1,0,0:0:0:0:
416,112,55160,1,8,0:0:0:0:
108,112,55347,1,8,0:0:0:0:
256,200,55535,2,0,P|256:232|256:288,1,63.7500024318696,0|0,0:0|0:0,0:0:0:0:
152,312,55910,5,0,0:0:0:0:
40,240,56097,2,0,L|16:228,2,21.2500008106232,0|0|0,0:0|0:0|0:0,0:0:0:0:
146,220,56285,1,2,0:0:0:0:
256,200,56472,1,0,0:0:0:0:
366,181,56660,1,0,0:0:0:0:
476,161,56847,1,0,0:0:0:0:
256,200,57035,5,4,0:0:0:0:
256,200,57410,2,0,L|162:221,1,85,0|4,0:0|0:0,0:0:0:0:
476,161,57785,1,2,0:0:0:0:
476,161,57972,5,0,0:0:0:0:
476,161,58066,1,0,0:0:0:0:
476,161,58160,2,0,L|380:177,1,85,0|0,0:0|0:0,0:0:0:0:
172,219,58535,6,0,L|89:236,1,85,8|0,0:0|0:0,0:0:0:0:
284,29,58910,2,0,P|272:97|244:129,1,85,8|0,0:0|0:0,0:0:0:0:
250,361,59285,2,0,P|258:297|282:257,1,85,2|0,0:0|0:0,0:0:0:0:
366,189,59660,2,0,L|450:176,1,85
112,65,60035,6,0,B|71:73|39:120|39:120|62:126|84:119,1,127.500004863739,4|0,0:0|0:0,0:0:0:0:
180,152,60597,1,0,0:0:0:0:
279,117,60785,2,0,B|305:79|274:33|274:33|221:28|182:84,1,170,2|0,0:0|0:0,0:0:0:0:
72,121,61347,1,0,0:0:0:0:
200,60,61535,5,8,0:0:0:0:
187,256,61722,2,0,P|264:278|259:210,1,170,8|0,0:0|0:0,0:0:0:0:
280,107,62285,1,2,0:0:0:0:
262,213,62472,1,0,0:0:0:0:
180,152,62660,1,0,0:0:0:0:
361,178,62847,1,0,0:0:0:0:
101,212,63035,6,0,L|117:338,1,127.500004863739,4|0,0:0|0:0,0:0:0:0:
180,152,63597,1,4,0:0:0:0:
356,284,63785,2,0,P|439:258|466:172,1,170,2|0,0:0|0:0,0:0:0:0:
451,91,64347,1,0,0:0:0:0:
250,360,64535,2,0,L|266:280,1,63.7500024318696,8|0,0:0|0:0,0:0:0:0:
276,25,64910,2,0,L|260:105,1,63.7500024318696,8|0,0:0|0:0,0:0:0:0:
240,180,65285,5,2,0:0:0:0:
361,91,65472,1,0,0:0:0:0:
390,181,65660,1,0,0:0:0:0:
313,233,65847,1,0,0:0:0:0:
104,172,66035,6,0,B|68:156|20:172|20:172|36:204|60:220,1,127.500004863739,4|0,0:0|0:0,0:0:0:0:
148,264,66597,1,0,0:0:0:0:
284,108,66785,2,0,P|340:96|400:108,1,85,2|0,0:0|0:0,0:0:0:0:
398,189,67066,1,0,0:0:0:0:
398,189,67160,1,0,0:0:0:0:
321,241,67347,1,0,0:0:0:0:
248,188,67535,5,8,0:0:0:0:
290,330,67722,1,8,0:0:0:0:
290,330,67910,2,0,P|234:326|186:334,1,85,0|0,0:0|0:0,0:0:0:0:
396,304,68285,1,2,3:0:0:0:
407,210,68472,1,0,3:0:0:0:
321,241,68660,1,0,3:0:0:0:
396,304,68847,1,0,3:0:0:0:
216,104,69035,6,0,B|168:72|132:72|132:72|132:104|152:116,1,127.500004863739,4|0,0:0|0:0,0:0:0:0:
248,200,69597,1,4,0:0:0:0:
180,280,69785,1,2,0:0:0:0:
140,196,69972,1,0,0:0:0:0:
140,196,70066,1,0,0:0:0:0:
140,196,70160,5,8,0:0:0:0:
348,244,70347,1,8,0:0:0:0:
420,52,70535,2,0,P|365:87|334:151,1,127.500004863739,4|0,0:0|0:0,0:0:0:0:
292,316,71097,1,0,0:0:0:0:
32,172,71285,5,2,0:0:0:0:
136,196,71472,1,0,0:0:0:0:
244,220,71660,1,0,0:0:0:0:
348,244,71847,1,0,0:0:0:0:
452,268,72035,1,0,0:0:0:0:
121,192,84035,6,0,B|149:289|92:280|124:369,1,170,8|0,0:0|0:0,0:0:0:0:
139,87,84597,2,0,B|68:80|31:138|31:138|50:61,1,170
217,116,85160,2,0,P|179:95|139:86,1,85
212,329,85535,6,0,P|247:351|289:358,1,85
452,363,85910,1,0,0:0:0:0:
288,193,86097,2,0,B|316:284|249:254|295:376,1,170
378,169,86660,2,0,P|364:134|324:106,1,85,0|2,2:0|2:0,0:0:0:0:
190,244,87035,6,8,B|133:246|87:191|87:191|61:211|64:232,1,170,8|0,0:0|0:0,0:0:0:0:
288,193,87597,2,0,B|313:246|313:246|296:316|236:350,1,170
183,140,88160,2,0,P|173:98|189:54,1,85
432,64,88535,6,0,P|444:104|434:144,1,85
304,277,88910,1,0,0:0:0:0:
309,15,89097,2,0,B|285:116|345:88|306:211,1,170
183,140,89660,6,0,P|144:118|73:124,1,85,0|2,0:0|0:0,0:0:0:0:
2,344,90035,6,0,B|108:322|89:250|181:294,1,170,8|0,0:0|0:0,0:0:0:0:
241,351,90597,2,0,B|367:369|367:369|429:331,1,170
512,266,91160,2,0,P|519:227|506:176,1,85
302,25,91535,6,0,P|293:72|310:125,1,85
416,226,91910,1,0,0:0:0:0:
445,44,92097,2,0,P|361:51|300:108,1,170
190,175,92660,2,0,P|126:173|87:135,1,85,0|2,0:0|0:0,0:0:0:0:
16,135,93035,6,0,B|41:114|41:114|78:122|96:172|41:255,1,170,8|0,0:0|0:0,0:0:0:0:
317,384,93597,2,0,B|335:313|284:254|228:255,1,170
154,311,94160,2,0,P|129:338|74:356,1,85
163,216,94535,5,8,0:0:0:0:
72,260,94722,1,8,0:0:0:0:
226,59,94910,1,0,0:0:0:0:
138,114,95097,1,0,0:0:0:0:
303,134,95285,2,0,B|355:134|387:118|387:118|427:134|475:134,1,170,8|0,0:0|0:0,0:0:0:0:
168,356,96035,6,0,L|268:340,1,85,8|0,0:0|0:0,0:0:0:0:
251,342,96410,1,0,1:0:0:0:
312,256,96597,2,0,L|400:240,1,85,0|8,0:0|0:0,0:0:0:0:
436,332,96972,1,0,0:0:0:0:
497,244,97160,1,0,1:0:0:0:
465,144,97347,1,0,0:0:0:0:
176,104,97535,6,0,P|124:120|96:148,1,85,8|0,0:0|0:0,0:0:0:0:
369,114,97910,2,0,P|405:86|425:46,1,85,0|0,1:0|0:0,0:0:0:0:
192,248,98285,2,0,P|144:292|136:328,1,85,8|0,0:0|0:0,0:0:0:0:
264,96,98660,2,0,P|274:55|260:4,1,85,0|0,1:0|0:0,0:0:0:0:
328,216,99035,2,0,P|372:248|424:260,1,85,8|0,0:0|0:0,0:0:0:0:
400,257,99410,1,0,1:0:0:0:
156,123,99597,6,0,P|108:145|67:192,1,85,0|8,0:0|0:0,0:0:0:0:
83,166,99972,1,0,0:0:0:0:
312,108,100160,1,0,1:0:0:0:
312,108,100347,2,0,L|412:100,1,85,0|8,0:0|0:0,0:0:0:0:
252,312,100722,5,0,0:0:0:0:
328,248,100910,1,0,1:0:0:0:
348,344,101097,1,0,0:0:0:0:
340,201,101285,1,8,0:0:0:0:
200,320,101472,1,0,0:0:0:0:
340,201,101660,1,0,1:0:0:0:
372,384,101847,1,0,0:0:0:0:
84,184,102035,6,0,L|-16:168,1,85,8|0,0:0|0:0,0:0:0:0:
0,170,102410,1,0,1:0:0:0:
112,92,102597,2,0,L|8:76,1,85,0|8,0:0|0:0,0:0:0:0:
260,180,102972,1,0,0:0:0:0:
296,272,103160,1,0,1:0:0:0:
256,360,103347,1,0,0:0:0:0:
208,88,103535,6,0,P|224:40|248:12,1,85,8|0,0:0|0:0,0:0:0:0:
184,276,103910,2,0,P|152:308|92:328,1,85,0|0,1:0|0:0,0:0:0:0:
368,168,104285,2,0,P|416:164|464:172,1,85,8|0,0:0|0:0,0:0:0:0:
108,180,104660,2,0,P|44:172|8:140,1,85,0|0,1:0|0:0,0:0:0:0:
264,224,105035,2,0,P|296:264|272:380,1,170,8|0,0:0|1:0,0:0:0:0:
316,128,105597,6,0,P|356:160|376:208,1,85,0|8,0:0|0:0,0:0:0:0:
372,189,105972,1,0,0:0:0:0:
192,96,106160,1,0,1:0:0:0:
192,96,106347,2,0,L|100:88,1,85,0|8,0:0|0:0,0:0:0:0:
41,302,106722,5,0,0:0:0:0:
158,178,106910,1,0,1:0:0:0:
216,344,107097,1,0,0:0:0:0:
152,208,107285,1,8,0:0:0:0:
64,280,107472,1,0,0:0:0:0:
152,208,107660,1,0,1:0:0:0:
204,312,107847,1,0,0:0:0:0:
336,169,108035,6,0,L|424:164,1,85,8|0,0:0|0:0,0:0:0:0:
256,232,108410,1,0,1:0:0:0:
260,56,108597,6,0,L|356:47,1,85,0|8,1:0|0:0,0:0:0:0:
196,136,108972,1,0,0:0:0:0:
152,32,109160,1,0,1:0:0:0:
88,112,109347,2,0,L|3:112,1,85,0|8,0:0|0:0,0:0:0:0:
196,136,109722,1,0,0:0:0:0:
260,232,109910,1,0,1:0:0:0:
182,315,110097,1,0,0:0:0:0:
260,232,110285,5,8,0:0:0:0:
336,140,110472,1,0,0:0:0:0:
326,336,110660,1,0,1:0:0:0:
196,136,110847,1,0,0:0:0:0:
326,336,111035,6,0,L|422:344,1,85,8|0,0:0|0:0,0:0:0:0:
512,269,111410,1,0,1:0:0:0:
420,147,111597,6,0,L|336:140,1,85,0|8,1:0|0:0,0:0:0:0:
200,232,111972,1,0,0:0:0:0:
256,72,112160,1,0,1:0:0:0:
304,232,112347,1,0,0:0:0:0:
176,140,112535,1,8,0:0:0:0:
336,140,112722,1,0,0:0:0:0:
152,116,112910,5,0,1:0:0:0:
360,116,113097,1,0,0:0:0:0:
200,40,113285,5,8,0:0:0:0:
192,228,113472,1,0,0:0:0:0:
308,40,113660,1,0,1:0:0:0:
316,224,113847,1,0,0:0:0:0:
60,304,114035,6,0,P|90:343|140:358,1,85,8|0,0:0|0:0,0:0:0:0:
396,184,114410,2,0,P|359:147|317:134,1,85,8|8,1:0|0:0,0:0:0:0:
60,172,114785,1,8,0:0:0:0:
308,40,114972,1,0,0:0:0:0:
140,264,115160,1,8,1:0:0:0:
144,24,115347,1,8,2:0:0:0:
232,308,115535,6,0,P|200:348|136:364,1,85,8|0,0:0|0:0,0:0:0:0:
262,106,115910,2,8,P|286:54|322:34,1,85,8|8,1:0|0:0,0:0:0:0:
140,264,116285,1,8,0:0:0:0:
352,120,116472,1,8,0:0:0:0:
120,176,116660,1,8,1:0:0:0:
368,212,116847,1,8,0:0:0:0:
168,88,117035,5,8,0:0:0:0:
208,336,117222,1,8,0:0:0:0:
368,212,117410,1,8,1:0:0:0:
220,364,117597,5,8,0:0:0:0:
384,212,117785,1,8,0:0:0:0:
120,176,117972,1,8,0:0:0:0:
400,212,118160,1,8,1:0:0:0:
140,264,118347,1,8,1:0:0:0:
304,344,118535,6,0,L|332:388,1,42.5,8|0,0:0|0:0,0:0:0:0:
352,120,118722,2,0,L|372:68,1,42.5,8|0,0:0|0:0,0:0:0:0:
384,304,118910,2,0,L|416:348,1,42.5,8|0,1:0|0:0,0:0:0:0:
262,106,119097,2,0,L|278:58,1,42.5,8|0,0:0|0:0,0:0:0:0:
140,264,119285,2,0,L|161:307,9,28.3333333333333,8|8|0|0|0|0|0|0|0|0,1:0|0:0|0:0|0:0|0:0|0:0|0:0|0:0|0:0|0:0,0:0:0:0:
335,80,120035,6,0,B|367:44|423:70|423:70|445:131|395:170,1,187.000005706787,4|0,0:0|0:0,0:0:0:0:
264,316,120597,1,4,0:0:0:0:
340,216,120785,1,2,0:0:0:0:
432,312,120972,1,0,0:0:0:0:
432,312,121066,1,0,0:0:0:0:
432,312,121160,1,8,0:0:0:0:
209,213,121347,1,8,0:0:0:0:
209,213,121535,2,0,P|177:169|169:109,1,85,8|0,0:0|0:0,0:0:0:0:
296,24,121910,5,0,0:0:0:0:
392,108,122097,2,0,L|428:108,2,28.3333333333333,0|0|0,0:0|0:0|0:0,0:0:0:0:
260,140,122285,1,2,0:0:0:0:
392,108,122472,1,0,0:0:0:0:
205,60,122660,1,0,0:0:0:0:
370,200,122847,1,0,0:0:0:0:
164,312,123035,5,4,0:0:0:0:
164,312,123410,2,0,P|204:336|259:335,1,85,0|4,0:0|0:0,0:0:0:0:
332,376,123785,1,2,0:0:0:0:
233,245,123972,1,0,0:0:0:0:
233,245,124066,1,0,0:0:0:0:
233,245,124160,1,8,0:0:0:0:
347,287,124347,1,8,0:0:0:0:
164,312,124535,1,8,0:0:0:0:
324,60,124722,6,0,L|300:44,2,28.3333333333333,0|0|0,0:0|0:0|0:0,0:0:0:0:
420,48,124910,1,8,0:0:0:0:
472,124,125097,1,0,0:0:0:0:
320,152,125285,1,2,0:0:0:0:
404,196,125472,1,0,0:0:0:0:
376,288,125660,1,0,0:0:0:0:
280,288,125847,1,0,0:0:0:0:
80,128,126035,6,0,B|50:96|59:41|59:41|96:32|128:40|164:69,1,187.000005706787,4|0,0:0|0:0,0:0:0:0:
144,244,126597,1,0,0:0:0:0:
256,192,126785,1,2,0:0:0:0:
128,112,126972,1,0,0:0:0:0:
128,112,127066,1,0,0:0:0:0:
128,112,127160,1,8,0:0:0:0:
380,112,127347,1,8,0:0:0:0:
256,192,127535,2,0,L|256:280,1,85,8|0,0:0|0:0,0:0:0:0:
336,352,127910,5,8,0:0:0:0:
484,232,128097,2,0,L|508:217,2,28.3333333333333,0|0|0,0:0|0:0|0:0,0:0:0:0:
367,212,128285,1,2,0:0:0:0:
256,192,128472,1,0,0:0:0:0:
146,173,128660,1,0,0:0:0:0:
36,153,128847,1,0,0:0:0:0:
256,192,129035,5,4,0:0:0:0:
256,192,129410,2,0,L|166:213,1,85,0|4,0:0|0:0,0:0:0:0:
476,156,129785,1,2,0:0:0:0:
476,156,129972,5,0,0:0:0:0:
476,156,130066,1,0,0:0:0:0:
476,156,130160,2,0,L|393:170,1,85,0|8,0:0|0:0,0:0:0:0:
92,228,130535,6,0,L|189:208,1,85,0|8,0:0|0:0,0:0:0:0:
368,12,130910,2,0,P|356:80|328:112,1,85,0|0,0:0|0:0,0:0:0:0:
195,124,131285,2,0,P|172:88|165:46,1,85,2|0,0:0|0:0,0:0:0:0:
332,244,131660,2,0,P|316:268|296:284,1,42.5,8|0,0:0|0:0,0:0:0:0:
180,292,132035,6,0,B|112:318|85:360|85:360|112:344|152:344,1,187.000005706787,4|0,0:0|0:0,0:0:0:0:
252,192,132597,1,4,0:0:0:0:
397,261,132785,2,0,B|461:305|469:353|469:353|428:376|392:368|384:352,1,187.000005706787,2|0,0:0|0:0,0:0:0:0:
352,168,133347,1,0,0:0:0:0:
252,192,133535,5,8,0:0:0:0:
332,44,133722,2,0,B|368:4|436:-8|436:-8|456:44|440:76,1,187.000005706787,8|0,0:0|0:0,0:0:0:0:
252,192,134285,1,2,0:0:0:0:
218,92,134472,1,0,0:0:0:0:
148,173,134660,1,0,0:0:0:0:
252,192,134847,1,0,0:0:0:0:
331,101,135035,6,0,P|371:173|331:281,1,187.000005706787,4|0,0:0|0:0,0:0:0:0:
256,330,135597,1,4,0:0:0:0:
480,230,135785,2,0,P|441:324|341:379,1,187.000005706787,2|0,0:0|0:0,0:0:0:0:
176,272,136347,1,4,0:0:0:0:
238,99,136535,2,0,P|231:53|204:16,1,93.5000028533936,8|0,0:0|0:0,0:0:0:0:
73,267,136910,2,0,P|93:211|137:187,1,93.5000028533936,8|0,0:0|0:0,0:0:0:0:
324,160,137285,5,2,0:0:0:0:
176,272,137472,1,0,0:0:0:0:
148,96,137660,1,0,0:0:0:0:
324,160,137847,1,0,0:0:0:0:
119,192,138035,6,0,B|43:244|42:302|42:302|68:287|101:274,1,187.000005706787,4|0,0:0|0:0,0:0:0:0:
205,357,138597,1,4,0:0:0:0:
296,256,138785,2,0,P|356:264|412:300,1,93.5000028533936,2|0,0:0|0:0,0:0:0:0:
438,351,139066,1,0,0:0:0:0:
438,351,139160,5,0,0:0:0:0:
474,239,139347,1,8,0:0:0:0:
318,351,139535,1,8,0:0:0:0:
396,136,139722,1,8,0:0:0:0:
396,136,139910,2,0,P|340:88|292:80,1,93.5000028533936,0|0,0:0|0:0,0:0:0:0:
168,68,140285,5,2,0:0:0:0:
82,136,140472,1,0,0:0:0:0:
184,175,140660,1,0,0:0:0:0:
168,68,140847,1,0,0:0:0:0:
88,256,141035,6,0,B|48:296|60:352|60:352|140:352|164:316,1,187.000005706787,4|0,0:0|0:0,0:0:0:0:
252,248,141597,1,4,0:0:0:0:
316,328,141785,1,2,0:0:0:0:
392,260,141972,1,0,0:0:0:0:
392,260,142066,1,0,0:0:0:0:
392,260,142160,5,8,0:0:0:0:
284,128,142347,1,8,0:0:0:0:
440,48,142535,2,0,P|424:120|368:168,1,127.500004863739,8|0,0:0|0:0,0:0:0:0:
264,280,143097,1,0,0:0:0:0:
40,160,143285,5,2,0:0:0:0:
134,176,143472,1,0,0:0:0:0:
229,193,143660,1,0,0:0:0:0:
323,210,143847,1,0,0:0:0:0:
134,176,144035,1,4,0:0:0:0:
