osu file format v14

[General]
AudioFilename: audio.mp3
AudioLeadIn: 0
PreviewTime: 47941
Countdown: 0
SampleSet: None
StackLeniency: 0.7
Mode: 0
LetterboxInBreaks: 0
WidescreenStoryboard: 1

[Editor]
Bookmarks: 35999
DistanceSpacing: 1
BeatDivisor: 4
GridSize: 4
TimelineZoom: 2.699999

[Metadata]
Title:China-Future
TitleUnicode:China-Future
Artist:Xu Meng Yuan
ArtistUnicode:徐梦圆
Creator:-Eriri-
Version:Easy
Source:
Tags:Pata-Mon ts8zs Future Bass
BeatmapID:1354960
BeatmapSetID:634591

[Difficulty]
HPDrainRate:2
CircleSize:2
OverallDifficulty:2
ApproachRate:3
SliderMultiplier:0.9
SliderTickRate:1

[Events]
//Background and Video events
0,0,"bg.jpg",0,0
//Break Periods
2,72235,82475
//Storyboard Layer 0 (Background)
//Storyboard Layer 1 (Fail)
//Storyboard Layer 2 (Pass)
//Storyboard Layer 3 (Foreground)
//Storyboard Sound Samples

[TimingPoints]
35,375,4,1,1,5,1,0
6035,-100,4,2,1,15,0,0
12035,-100,4,2,1,40,0,0
24035,-100,4,2,1,40,0,0
42035,-100,4,2,1,50,0,0
46535,-100,4,2,1,60,0,0
47410,-100,4,2,1,30,0,0
48035,-100,4,3,1,60,0,1
72035,-100,4,3,1,50,0,0
84035,-100,4,2,1,40,0,0
96035,-100,4,2,1,40,0,0
114035,-100,4,2,1,60,0,0
119347,-100,4,2,1,30,0,0
120035,-100,4,3,1,60,0,1
144035,-100,4,2,1,5,0,0
155847,-100,4,2,1,10,0,0

[Colours]
Combo1 : 233,231,126
Combo2 : 236,53,38
Combo3 : 153,109,77
Combo4 : 255,28,141

[HitObjects]
148,224,35,6,0,P|212:232|248:216,1,90,0|0,0:0|0:0,0:0:0:0:
300,160,785,2,0,P|376:156|404:168,1,90,0|0,0:0|0:0,0:0:0:0:
460,216,1535,2,0,P|476:284|436:340,1,135,0|0,0:0|0:0,0:0:0:0:
324,268,2660,1,0,0:0:0:0:
280,348,3035,6,0,L|184:364,1,90,0|0,0:0|0:0,0:0:0:0:
116,312,3785,2,0,P|105:256|124:208,1,90,0|0,0:0|0:0,0:0:0:0:
88,140,4535,2,0,P|160:128|232:112,1,135,0|0,0:0|0:0,0:0:0:0:
332,192,5660,1,0,0:0:0:0:
400,252,6035,6,0,L|496:244,1,90,0|0,0:0|0:0,0:0:0:0:
508,156,6785,2,0,P|516:116|492:68,1,90,0|0,0:0|0:0,0:0:0:0:
420,24,7535,2,0,P|344:24|288:72,1,135,0|0,0:0|0:0,0:0:0:0:
164,32,8660,1,0,0:0:0:0:
88,80,9035,6,0,P|56:124|60:168,1,90,0|0,0:0|0:0,0:0:0:0:
100,236,9785,2,0,L|204:228,1,90,0|0,0:0|0:0,0:0:0:0:
260,284,10535,2,0,P|328:276|368:220,1,135,0|0,0:0|0:0,0:0:0:0:
272,132,11660,1,0,0:0:0:0:
304,52,12035,6,0,B|356:68|400:40|400:40|456:36|488:68|504:88|500:132|480:160,1,270,8|0,0:0|0:0,0:0:0:0:
432,220,13535,2,0,B|368:192|304:244|304:244|240:188|176:220,1,270,0|0,0:0|2:0,0:0:0:0:
92,232,15035,6,0,P|60:96|164:64,1,270,8|0,0:0|0:0,0:0:0:0:
216,132,16535,2,0,B|264:124|264:124|296:140|296:140|340:128|340:128|380:144|380:144|416:124|476:152,1,270,0|0,0:0|0:0,0:0:0:0:
444,236,18035,6,0,P|332:296|220:220,1,270,8|0,0:0|0:0,0:0:0:0:
200,140,19535,2,0,P|92:60|32:156,1,270,0|0,0:0|0:0,0:0:0:0:
44,236,21035,2,0,B|48:300|80:332|80:332|140:320|152:280,1,180,8|0,0:0|0:0,0:0:0:0:
216,244,22160,1,0,0:0:0:0:
304,260,22535,2,0,P|320:204|284:124,1,135,8|0,0:0|0:0,0:0:0:0:
184,56,23660,1,2,0:0:0:0:
116,116,24035,6,0,P|100:180|144:284,1,180,8|8,0:0|0:0,0:0:0:0:
216,332,25160,1,0,1:0:0:0:
304,308,25535,2,0,P|352:308|396:332,2,90,8|0|8,0:0|1:0|0:0,0:0:0:0:
240,244,26660,1,0,1:0:0:0:
320,208,27035,6,0,P|436:192|476:136,1,180,8|8,0:0|0:0,0:0:0:0:
444,60,28160,1,0,1:0:0:0:
372,116,28535,2,0,L|276:100,1,90,8|0,0:0|1:0,0:0:0:0:
204,60,29285,1,8,0:0:0:0:
84,140,30035,6,0,P|88:244|152:288,1,180,8|8,0:0|0:0,0:0:0:0:
224,328,31160,1,0,1:0:0:0:
292,268,31535,2,0,L|384:292,2,90,8|0|8,0:0|1:0|0:0,0:0:0:0:
281,178,32660,2,0,P|293:138|279:75,1,90,0|8,1:0|0:0,0:0:0:0:
204,128,33410,6,0,B|140:132|120:112|88:88|88:88|96:108|96:124|92:152,1,180,0|0,1:0|1:0,0:0:0:0:
60,224,34535,1,8,0:0:0:0:
56,312,34910,2,0,L|152:340,1,90,0|8,1:0|0:0,0:0:0:0:
320,304,36035,6,0,P|228:248|308:140,1,270,8|0,0:0|1:0,0:0:0:0:
392,160,37535,1,8,0:0:0:0:
276,24,38285,1,8,0:0:0:0:
108,84,39035,6,0,P|68:164|156:324,1,270,8|0,0:0|1:0,0:0:0:0:
228,344,40535,1,8,0:0:0:0:
396,276,41285,1,8,0:0:0:0:
264,156,42035,6,0,L|164:140,1,90,8|8,0:0|1:0,0:0:0:0:
132,220,42785,2,0,L|24:204,1,90,8|8,0:0|1:0,0:0:0:0:
16,120,43535,2,0,P|36:56|136:24,1,180,8|8,0:0|0:0,0:0:0:0:
224,40,44660,1,8,1:0:0:0:
308,72,45035,6,0,P|364:104|384:132,1,90,8|8,0:0|1:0,0:0:0:0:
412,208,45785,2,0,P|420:268|396:308,1,90,8|8,0:0|1:0,0:0:0:0:
320,304,46535,2,0,B|264:340|216:308|216:308|180:320|180:320|144:312,1,180,8|8,0:0|1:0,0:0:0:0:
19,189,48035,6,0,P|12:143|62:66,2,135,4|0|8,0:0|0:0|0:0,0:0:0:0:
57,270,49535,1,0,0:0:0:0:
121,207,49910,2,0,L|217:215,1,90,0|2,0:0|0:0,0:0:0:0:
363,119,51035,6,0,P|428:130|465:187,2,135,4|4|8,0:0|0:0|0:0,0:0:0:0:
378,207,52535,1,8,0:0:0:0:
320,276,52910,2,0,L|216:260,1,90,8|2,0:0|0:0,0:0:0:0:
105,132,54035,6,0,B|145:140|145:140|193:132|193:132|257:148,2,135,4|0|8,0:0|0:0|0:0,0:0:0:0:
140,49,55535,2,0,L|48:25,1,90,0|0,0:0|0:0,0:0:0:0:
10,105,56285,1,2,0:0:0:0:
155,210,57035,6,0,P|186:253|184:304,1,90,4|0,0:0|0:0,0:0:0:0:
131,359,57785,2,0,P|78:364|35:337,1,90,2|0,0:0|0:0,0:0:0:0:
16,263,58535,2,0,P|37:214|82:190,1,90,8|8,0:0|0:0,0:0:0:0:
101,278,59285,1,2,0:0:0:0:
266,335,60035,6,0,P|330:359|394:335,2,135,4|0|0,0:0|0:0|0:0,0:0:0:0:
330,271,61535,2,0,L|338:163,1,90,8|0,0:0|0:0,0:0:0:0:
289,104,62285,1,2,0:0:0:0:
459,46,63035,6,0,P|479:98|469:138,1,90,4|0,0:0|0:0,0:0:0:0:
433,208,63785,2,0,L|425:311,1,90,2|0,0:0|0:0,0:0:0:0:
353,351,64535,2,0,P|302:331|251:336,2,90,8|8|2,0:0|0:0|0:0,0:0:0:0:
204,249,66035,6,0,B|163:260|163:260|123:240|123:240|75:248,2,135,4|0|0,0:0|0:0|0:0,0:0:0:0:
174,163,67535,2,0,L|262:145,1,90,8|0,0:0|0:0,0:0:0:0:
316,73,68285,1,2,3:0:0:0:
322,252,69035,6,0,P|390:220|462:232,2,135,4|4|8,0:0|0:0|0:0,0:0:0:0:
273,328,70535,2,0,B|209:324|209:324|181:312,1,90,4|0,0:0|0:0,0:0:0:0:
101,280,71285,1,2,0:0:0:0:
255,187,72035,1,0,0:0:0:0:
256,192,84035,12,8,90035,0:0:0:0:
256,192,93222,12,8,96035,0:0:0:0:
456,168,97535,6,0,P|468:216|452:272,1,90,8|0,0:0|1:0,0:0:0:0:
372,272,98285,2,0,P|328:320|300:328,1,90,8|0,0:0|1:0,0:0:0:0:
224,288,99035,1,8,0:0:0:0:
152,232,99410,2,0,P|128:152|172:60,1,180,0|0,1:0|1:0,0:0:0:0:
252,40,100535,1,8,0:0:0:0:
327,89,100910,2,0,P|351:181|295:253,1,180,0|0,1:0|1:0,0:0:0:0:
226,288,102035,6,0,B|138:264|138:264|46:284,1,180,8|8,0:0|0:0,0:0:0:0:
7,203,103160,1,0,1:0:0:0:
68,132,103535,2,0,L|52:40,2,90,8|0|8,0:0|1:0|0:0,0:0:0:0:
156,160,104660,1,0,1:0:0:0:
232,116,105035,2,0,B|324:92|324:92|416:128,1,180,8|8,0:0|0:0,0:0:0:0:
456,196,106160,1,0,1:0:0:0:
411,276,106535,6,0,P|382:308|336:324,1,90,8|0,0:0|1:0,0:0:0:0:
252,308,107285,1,8,0:0:0:0:
136,172,108035,6,0,P|260:124|280:224,1,270,8|0,0:0|1:0,0:0:0:0:
228,300,109535,1,8,0:0:0:0:
384,212,110285,1,8,0:0:0:0:
316,48,111035,6,0,B|250:83|194:59|194:59|186:43|186:43|114:23|62:43,1,270,8|0,0:0|1:0,0:0:0:0:
16,120,112535,1,8,0:0:0:0:
68,292,113285,1,8,0:0:0:0:
236,228,114035,6,0,L|324:242,1,90,8|8,0:0|1:0,0:0:0:0:
324,332,114785,2,0,L|216:316,1,90,8|8,0:0|1:0,0:0:0:0:
148,296,115535,2,0,P|136:252|188:132,1,180,8|8,0:0|0:0,0:0:0:0:
272,104,116660,1,8,1:0:0:0:
356,132,117035,6,0,L|456:128,1,90,8|8,0:0|1:0,0:0:0:0:
496,204,117785,2,0,P|504:264|480:304,1,90,8|8,0:0|1:0,0:0:0:0:
404,292,118535,2,0,B|360:304|316:284|316:284|272:304|224:292,1,180,8|8,0:0|1:0,0:0:0:0:
112,360,120035,6,0,P|52:340|16:272,2,135,4|4|8,0:0|0:0|0:0,0:0:0:0:
194,322,121535,1,8,0:0:0:0:
281,301,121910,2,0,B|389:297,1,90,0|2,0:0|0:0,0:0:0:0:
499,170,123035,6,0,P|519:109|498:40,2,135,4|4|8,0:0|0:0|0:0,0:0:0:0:
412,196,124535,1,8,0:0:0:0:
355,125,124910,2,0,L|251:113,1,90,8|2,0:0|0:0,0:0:0:0:
142,246,126035,6,0,B|158:330|230:338,2,135,4|0|8,0:0|0:0|0:0,0:0:0:0:
168,164,127535,2,0,L|161:64,1,90,8|8,0:0|0:0,0:0:0:0:
238,28,128285,1,2,0:0:0:0:
394,116,129035,6,0,L|406:208,1,90,4|0,0:0|0:0,0:0:0:0:
319,230,129785,2,0,L|331:322,1,90,2|0,0:0|0:0,0:0:0:0:
245,347,130535,2,0,P|194:351|148:329,1,90,0|0,0:0|0:0,0:0:0:0:
84,286,131285,1,2,0:0:0:0:
163,124,132035,6,0,P|187:188|159:256,2,135,4|4|0,0:0|0:0|0:0,0:0:0:0:
207,45,133535,2,0,L|296:51,1,90,8|0,0:0|0:0,0:0:0:0:
383,28,134285,1,2,0:0:0:0:
468,186,135035,6,0,P|489:257|461:323,2,135,4|4|0,0:0|0:0|0:0,0:0:0:0:
379,166,136535,2,0,L|272:155,1,90,8|8,0:0|0:0,0:0:0:0:
238,230,137285,1,2,0:0:0:0:
160,67,138035,6,0,B|110:64|110:64|72:79|72:79|24:71,2,135,4|4|0,0:0|0:0|0:0,0:0:0:0:
238,111,139535,2,0,L|225:203,1,90,8|0,0:0|0:0,0:0:0:0:
279,272,140285,1,2,0:0:0:0:
414,153,141035,6,0,P|458:197|466:277,2,135,4|4|8,0:0|0:0|0:0,0:0:0:0:
332,114,142535,2,0,B|346:11,1,90,8|0,0:0|0:0,0:0:0:0:
254,27,143285,1,2,0:0:0:0:
254,207,144035,1,4,0:0:0:0:
