osu file format v14

[General]
AudioFilename: audio.mp3
AudioLeadIn: 0
PreviewTime: 32608
Countdown: 0
SampleSet: Soft
StackLeniency: 0.7
Mode: 0
LetterboxInBreaks: 0
WidescreenStoryboard: 1

[Editor]
Bookmarks: 124371,180841,192135,254253,282478
DistanceSpacing: 2
BeatDivisor: 16
GridSize: 8
TimelineZoom: 3.199999

[Metadata]
Title:Supernova
TitleUnicode:Supernova
Artist:Xtrullor
ArtistUnicode:Xtrullor
Creator:XFroceS
Version:Explosion
Source:
Tags:Dubstep epic geometry dash collab eggsgone
BeatmapID:1537639
BeatmapSetID:728326

[Difficulty]
HPDrainRate:6
CircleSize:4.2
OverallDifficulty:7
ApproachRate:9.3
SliderMultiplier:1.6
SliderTickRate:1

[Events]
//Background and Video events
0,0,"Help.png",0,0
//Break Periods
2,17385,21312
2,79396,101231
2,207866,214172
2,257279,259348
//Storyboard Layer 0 (Background)
//Storyboard Layer 1 (Fail)
//Storyboard Layer 2 (Pass)
//Storyboard Layer 3 (Foreground)
//Storyboard Sound Samples

[TimingPoints]
138,352.941176470588,4,2,1,75,1,0
11432,-133.333333333333,4,2,1,75,0,0
23432,-133.333333333333,4,2,1,50,0,0
23520,-133.333333333333,4,2,1,5,0,0
23608,-133.333333333333,4,2,1,75,0,0
23696,-133.333333333333,4,2,1,5,0,0
23785,-133.333333333333,4,2,1,75,0,0
26255,-133.333333333333,4,2,1,25,0,0
26343,-133.333333333333,4,2,1,5,0,0
26432,-133.333333333333,4,2,1,50,0,0
26520,-133.333333333333,4,2,1,5,0,0
26608,-133.333333333333,4,2,1,75,0,0
26696,-133.333333333333,4,2,1,5,0,0
26785,-133.333333333333,4,2,1,100,0,0
26873,-133.333333333333,4,2,1,5,0,0
26961,-133.333333333333,4,2,1,100,0,0
27314,-133.333333333333,4,2,1,25,0,0
28373,-153.846153846153,4,2,1,50,0,0
29079,-153.846153846153,4,2,1,55,0,0
29785,-153.846153846153,4,2,1,60,0,0
30490,-153.846153846153,4,2,1,65,0,0
31196,-153.846153846154,4,3,1,75,0,0
34020,-100,4,2,1,75,0,1
39667,-153.846153846153,4,2,1,75,0,0
42490,-200,4,2,1,75,0,0
44608,-133.333333333333,4,2,1,75,0,0
44961,-200,4,2,2,75,0,0
45314,-100,4,2,1,75,0,1
50961,-153.846153846154,4,2,1,75,0,0
56608,-100,4,2,1,75,0,1
60490,-125,4,2,1,75,0,1
60843,-100,4,2,1,75,0,1
62233,-100,4,2,1,75,0,0
62255,-100,4,2,1,75,0,1
62277,-100,4,2,1,75,0,0
67902,-100,4,2,1,75,0,1
73527,-100,4,2,1,75,0,0
73549,-100,4,2,1,75,0,1
77785,-100,4,2,1,75,0,0
101785,-166.666666666667,4,2,1,25,0,0
104608,-166.666666666667,4,2,1,35,0,0
113079,-125,4,2,1,35,0,0
124373,-55.5555555555556,4,2,0,90,0,0
125079,-83.3333333333333,4,2,0,90,0,0
126490,-55.5555555555556,4,2,0,90,0,0
130373,-83.3333333333333,4,2,0,90,0,0
131432,-55.5555555555556,4,2,0,90,0,0
131608,-83.3333333333333,4,2,0,90,0,0
132843,-55.5555555555556,4,2,0,90,0,0
136726,-83.3333333333333,4,2,0,90,0,0
138490,-55.5555555555556,4,2,0,90,0,0
142196,-83.3333333333333,4,2,0,90,0,0
144137,-55.5555555555556,4,2,0,90,0,0
147667,-83.3333333333333,4,2,0,90,0,0
149079,-55.5555555555556,4,2,0,90,0,0
150137,-83.3333333333333,4,2,0,90,0,0
150490,-55.5555555555556,4,2,0,90,0,0
150843,-83.3333333333333,4,2,0,90,0,0
151196,-55.5555555555556,4,2,0,90,0,0
151549,-83.3333333333333,4,2,0,90,0,0
151902,-55.5555555555556,4,2,0,90,0,0
152255,-83.3333333333333,4,2,0,90,0,0
154020,-55.5555555555556,4,2,0,90,0,0
154196,-83.3333333333333,4,2,0,90,0,0
155432,-55.5555555555556,4,2,0,90,0,0
158961,-83.3333333333333,4,2,0,90,0,0
161079,-55.5555555555556,4,2,0,90,0,0
164785,-83.3333333333333,4,2,0,90,0,0
166726,-55.5555555555556,4,2,0,90,0,0
168843,-83.3333333333333,4,2,0,90,0,0
169549,-100,4,2,1,90,0,0
180843,-100,4,2,1,75,0,1
192137,-100,4,2,1,75,0,0
194961,-50,4,2,0,90,0,0
214726,-83.3333333333333,4,2,0,90,0,0
226020,-83.3333333333333,4,2,0,90,0,0
237314,-55.5555555555556,4,3,1,90,0,1
237336,-55.5555555555556,4,3,1,90,0,0

[Colours]
Combo1 : 111,41,254
Combo2 : 255,204,0
Combo3 : 13,162,242

[HitObjects]
160,136,11432,6,0,P|136:192|168:264,1,120.000004577637,2|0,0:0|0:0,0:0:0:0:
151,246,12137,2,0,L|224:256,1,60.0000022888184,2|0,0:0|0:0,0:0:0:0:
256,112,12490,1,0,0:0:0:0:
288,256,12667,1,0,0:0:0:0:
256,112,12843,6,0,P|248:64|288:0,1,120.000004577637,2|0,0:0|0:0,0:0:0:0:
282,4,13549,2,0,L|360:16,1,60.0000022888184,2|0,0:0|0:0,0:0:0:0:
426,98,13902,2,0,L|498:129,1,60.0000022888184
440,232,14255,6,0,P|408:256|304:256,1,120.000004577637,2|0,0:0|0:0,0:0:0:0:
330,265,14961,2,0,L|256:240,1,60.0000022888184
256,96,15314,1,0,0:0:0:0:
192,232,15490,1,0,0:0:0:0:
320,152,15667,6,0,P|342:92|312:32,1,120.000004577637,2|0,0:0|0:0,0:0:0:0:
322,42,16373,2,0,L|244:31,1,60.0000022888184
177,118,16726,2,0,L|104:86,1,60.0000022888184
256,216,17079,5,8,0:0:0:0:
120,192,22726,6,0,P|176:176|256:200,1,120.000004577637,2|0,0:0|0:0,0:0:0:0:
344,232,23255,1,0,0:0:0:0:
400,128,23432,2,0,P|385:127|370:129,1,30.0000011444092
314,73,23608,2,0,P|299:75|285:81,1,30.0000011444092
224,40,23785,2,0,P|208:80|216:112,1,60.0000022888184
312,208,24137,5,0,0:0:0:0:
160,192,24314,1,0,0:0:0:0:
376,280,24490,5,0,0:0:0:0:
224,264,24667,1,0,0:0:0:0:
296,128,24843,2,0,P|363:144|397:201,1,120.000004577637,2|0,0:0|0:0,0:0:0:0:
224,264,25549,6,0,P|157:248|123:191,1,120.000004577637,2|0,0:0|0:0,0:0:0:0:
232,144,26079,1,0,0:0:0:0:
304,240,26255,2,0,P|318:241|333:239,1,30.0000011444092
390,294,26432,2,0,P|404:292|418:286,1,30.0000011444092
479,327,26608,2,0,P|493:300|493:271,1,60.0000022888184
448,128,26961,5,2,0:0:0:0:
440,120,27314,1,0,0:0:0:0:
296,152,27490,1,0,0:0:0:0:
352,80,27667,1,0,0:0:0:0:
368,200,27843,1,0,0:0:0:0:
264,136,28020,1,0,0:0:0:0:
368,200,28196,1,0,0:0:0:0:
240,280,28373,6,0,L|192:288,1,45.4999979171754,2|0,0:0|0:0,0:0:0:0:
72,232,28704,2,0,L|136:240,1,51.999997619629
240,176,29057,2,0,L|176:184,1,51.999997619629
72,128,29410,2,0,L|136:136,1,51.999997619629
256,48,29762,5,0,0:0:0:0:
320,192,29939,1,0,0:0:0:0:
384,48,30115,1,0,0:0:0:0:
232,207,30292,1,0,0:0:0:0:
317,15,30468,1,0,0:0:0:0:
402,207,30645,1,0,0:0:0:0:
240,120,30821,1,0,0:0:0:0:
400,32,30998,1,0,0:0:0:0:
256,192,31196,12,0,32608,0:0:0:0:
136,136,32961,6,0,L|208:144,1,51.999997619629
360,200,33314,2,0,L|288:192,1,51.999997619629
256,72,33667,1,0,0:0:0:0:
88,296,34020,6,0,P|64:208|88:136,1,160,4|0,0:0|0:0,0:0:0:0:
192,32,34549,1,0,0:0:0:0:
232,208,34726,2,0,L|312:216,1,80,8|0,0:0|0:0,0:0:0:0:
464,176,35079,2,0,L|384:168,1,80
328,328,35432,6,0,P|280:296|232:208,1,160,4|0,0:0|0:0,0:0:0:0:
208,48,35961,1,0,0:0:0:0:
384,88,36137,2,0,L|368:168,1,80
488,232,36468,2,0,L|434:293,1,80,2|0,0:0|0:0,0:0:0:0:
264,208,36843,6,0,P|208:216|120:160,1,160,4|0,0:0|0:0,0:0:0:0:
40,32,37373,1,0,0:0:0:0:
176,112,37549,2,0,L|144:200,1,80,8|0,0:0|0:0,0:0:0:0:
256,320,37902,2,0,L|288:232,1,80
384,120,38255,6,0,P|400:176|360:272,1,160,4|0,0:0|0:0,0:0:0:0:
144,176,38785,1,8,0:0:0:0:
304,184,38961,2,0,B|304:176|307:187|288:224|248:248,1,80,2|0,0:0|0:0,0:0:0:0:
218,168,39314,2,0,B|223:162|218:173|178:184|133:173,1,80,2|0,0:0|0:0,0:0:0:0:
263,96,39667,6,0,P|294:132|300:196,1,103.999995239258,4|0,0:0|0:0,0:0:0:0:
301,186,40373,2,0,L|368:200,1,51.999997619629,8|0,0:0|0:0,0:0:0:0:
448,112,40726,2,0,L|434:179,1,51.999997619629
304,272,41079,5,4,0:0:0:0:
176,112,41432,1,2,0:0:0:0:
112,192,41608,1,0,0:0:0:0:
240,32,41785,1,8,0:0:0:0:
176,112,41961,1,0,0:0:0:0:
112,192,42137,1,0,0:0:0:0:
96,72,42314,1,0,0:0:0:0:
256,152,42490,6,0,P|296:160|344:152,1,80,4|0,0:0|0:0,0:0:0:0:
472,64,43196,1,8,0:0:0:0:
472,64,43902,5,4,0:0:0:0:
472,64,44432,1,2,0:0:0:0:
448,208,44608,1,2,0:0:0:0:
480,32,44785,1,2,0:0:0:0:
440,240,44961,2,0,L|427:295,1,40,8|8,0:0|0:0,0:0:0:0:
280,336,45314,6,0,P|240:344|160:248,1,160,4|0,0:0|0:0,0:0:0:0:
160,112,45843,1,0,0:0:0:0:
312,248,46020,2,0,P|336:200|330:151,1,80,8|0,0:0|0:0,0:0:0:0:
256,192,46373,2,0,P|252:135|227:95,1,80
352,8,46726,6,0,L|512:40,1,160,4|0,0:0|0:0,0:0:0:0:
472,200,47255,1,0,0:0:0:0:
288,120,47432,2,0,P|248:112|112:280,1,280,4|0,0:0|0:0,0:0:0:0:
264,187,48137,6,0,P|206:199|300:287,1,280,8|0,0:0|0:0,0:0:0:0:
368,218,48843,2,0,P|416:208|464:216,1,80,8|0,0:0|0:0,0:0:0:0:
504,136,49196,2,0,P|451:125|408:125,1,80
264,152,49549,6,0,P|208:168|96:96,1,200,4|0,0:0|0:0,0:0:0:0:
208,48,50079,1,0,0:0:0:0:
128,232,50255,1,2,0:0:0:0:
280,272,50432,1,0,0:0:0:0:
184,344,50608,1,2,0:0:0:0:
144,280,50785,1,0,0:0:0:0:
320,336,50961,6,0,L|440:344,1,103.999995239258,4|0,0:0|0:0,0:0:0:0:
423,342,51667,2,0,L|440:280,1,51.999997619629,8|0,0:0|0:0,0:0:0:0:
416,160,52020,2,0,L|399:222,1,51.999997619629
272,240,52373,5,4,0:0:0:0:
120,200,52726,1,2,0:0:0:0:
160,72,52902,1,0,0:0:0:0:
112,224,53079,1,8,0:0:0:0:
152,104,53255,1,0,0:0:0:0:
56,144,53432,1,0,0:0:0:0:
24,232,53608,1,0,0:0:0:0:
200,208,53785,6,0,L|256:200,2,51.999997619629,2|0|0,0:0|0:0|0:0,0:0:0:0:
256,120,54314,1,0,0:0:0:0:
329,193,54490,2,0,L|385:185,2,51.999997619629,2|0|0,0:0|0:0|0:0,0:0:0:0:
200,64,55020,1,2,0:0:0:0:
190,54,55108,1,2,0:0:0:0:
181,45,55196,5,4,0:0:0:0:
181,45,55726,1,2,0:0:0:0:
160,224,55902,2,0,B|192:216|192:216|160:296,1,103.999995239258,8|0,0:0|0:0,0:0:0:0:
296,304,56432,1,0,0:0:0:0:
400,232,56608,6,0,P|424:184|392:80,1,160,4|0,0:0|0:0,0:0:0:0:
264,0,57137,1,0,0:0:0:0:
477,79,57314,2,0,L|381:87,1,80,8|0,0:0|0:0,0:0:0:0:
312,248,57667,2,0,L|408:240,1,80
240,192,58020,6,0,L|72:205,1,160,4|0,0:0|0:0,0:0:0:0:
208,112,58549,1,0,0:0:0:0:
112,288,58726,2,0,L|208:280,1,80,4|0,0:0|0:0,0:0:0:0:
352,304,59079,2,0,L|256:312,1,80,0|2,0:0|0:0,0:0:0:0:
120,128,59432,6,0,P|128:80|248:32,1,160,4|0,0:0|0:0,0:0:0:0:
288,216,59961,1,0,0:0:0:0:
208,112,60137,2,0,P|251:109|304:132,1,80,8|0,0:0|0:0,0:0:0:0:
234,182,60490,2,0,P|272:201|304:236,1,64
496,104,60843,6,0,P|488:56|368:8,1,160,4|0,0:0|0:0,0:0:0:0:
412,84,61373,1,2,0:0:0:0:
480,232,61549,2,0,L|464:320,1,80,8|0,0:0|0:0,0:0:0:0:
392,280,61902,2,0,L|376:368,1,80
152,192,62255,6,0,P|144:152|232:64,1,160,4|0,0:0|0:0,0:0:0:0:
264,256,62785,1,0,0:0:0:0:
104,256,62961,2,0,P|80:208|72:144,1,80,8|0,0:0|0:0,0:0:0:0:
0,32,63314,2,0,P|24:80|32:144,1,80,2|0,0:0|0:0,0:0:0:0:
264,56,63667,6,0,P|328:48|440:64,2,160,2|0|0,0:0|0:0|0:0,0:0:0:0:
256,216,64726,1,0,0:0:0:0:
408,160,65079,6,0,P|424:216|368:320,1,160,4|0,0:0|0:0,0:0:0:0:
256,216,65608,1,0,0:0:0:0:
114,357,65785,6,0,L|91:189,1,160
72,40,66314,1,0,0:0:0:0:
216,112,66490,6,0,P|263:128|375:112,1,160,0|0,0:0|0:0,0:0:0:0:
216,112,67020,1,0,0:0:0:0:
232,312,67196,1,0,0:0:0:0:
216,112,67373,1,0,0:0:0:0:
232,312,67902,6,0,P|288:280|400:312,1,160,4|0,0:0|0:0,0:0:0:0:
400,136,68432,1,0,0:0:0:0:
224,232,68608,2,0,P|176:256|128:256,1,80,8|0,0:0|0:0,0:0:0:0:
160,184,68961,2,0,P|106:180|64:156,1,80
240,136,69314,6,0,P|296:120|416:144,1,160
424,288,69843,1,0,0:0:0:0:
400,54,70020,2,0,P|392:94|400:150,1,80,4|0,0:0|0:0,0:0:0:0:
496,192,70373,2,0,P|504:152|496:96,1,80
304,72,70726,6,0,P|248:64|136:88,1,160,4|0,0:0|0:0,0:0:0:0:
256,200,71255,1,0,0:0:0:0:
152,8,71432,2,0,L|168:104,1,80,8|0,0:0|0:0,0:0:0:0:
136,216,71785,2,0,L|152:312,1,80
304,336,72137,6,0,L|472:344,1,160,4|2,0:0|0:0,0:0:0:0:
496,184,72667,1,0,0:0:0:0:
312,256,72843,2,0,L|216:248,1,80,2|2,0:0|0:0,0:0:0:0:
184,96,73196,2,0,L|280:104,1,80,2|0,0:0|0:0,0:0:0:0:
104,128,73549,6,0,P|80:208|96:288,1,160,4|0,0:0|0:0,0:0:0:0:
248,320,74079,1,0,0:0:0:0:
186,124,74255,2,0,P|157:181|151:205,1,80,8|2,0:0|0:0,0:0:0:0:
240,56,74608,2,0,P|269:113|275:137,1,80,0|2,0:0|0:0,0:0:0:0:
416,192,74961,6,0,L|392:360,1,160,4|0,0:0|0:0,0:0:0:0:
488,224,75490,1,0,0:0:0:0:
296,272,75667,2,0,P|240:280|200:272,1,80,0|0,0:0|0:0,0:0:0:0:
120,144,76020,2,0,P|193:133|246:144,1,120,0|0,0:0|0:0,0:0:0:0:
336,40,76373,6,0,L|312:208,1,160,4|0,0:0|0:0,0:0:0:0:
256,48,76902,1,0,0:0:0:0:
416,168,77079,2,0,L|392:312,1,120,0|0,0:0|0:0,0:0:0:0:
325,356,77432,1,0,0:0:0:0:
200,200,77608,1,2,0:0:0:0:
200,168,77696,1,2,0:0:0:0:
232,192,77785,5,4,0:0:0:0:
368,96,79020,1,0,0:0:0:0:
328,248,79196,1,8,0:0:0:0:
120,136,101785,6,0,L|176:144,1,47.9999985351563,4|0,0:0|0:0,0:0:0:0:
252,57,102137,1,0,0:0:0:0:
248,176,102314,1,0,0:0:0:0:
160,64,102490,2,0,L|48:48,1,95.9999970703126
64,50,103196,2,0,P|48:80|56:144,1,95.9999970703126
53,140,103726,1,0,0:0:0:0:
53,139,103902,2,0,P|82:155|146:147,1,95.9999970703126
416,56,104608,6,0,L|408:112,1,47.9999985351563,4|0,0:0|0:0,0:0:0:0:
328,192,104961,1,0,0:0:0:0:
448,168,105137,1,0,0:0:0:0:
312,112,105314,2,0,P|264:144|248:192,1,95.9999970703126
187,111,106020,2,0,P|235:143|251:191,1,95.9999970703126
311,242,106549,1,0,0:0:0:0:
311,242,106726,2,0,P|263:210|247:162,1,95.9999970703126
24,48,107432,6,0,L|40:104,1,47.9999985351563,4|0,0:0|0:0,0:0:0:0:
152,128,107785,1,0,0:0:0:0:
48,192,107961,1,0,0:0:0:0:
184,224,108137,2,0,L|168:320,1,95.9999970703126
280,160,108843,2,0,L|264:256,1,95.9999970703126
264,254,109373,1,0,0:0:0:0:
376,112,109549,2,0,L|360:208,1,95.9999970703126
472,24,110255,6,0,L|464:88,1,47.9999985351563,4|0,0:0|0:0,0:0:0:0:
432,184,110608,1,0,0:0:0:0:
466,71,110785,1,0,0:0:0:0:
408,256,110961,2,0,P|376:272|312:256,1,95.9999970703126
224,256,111667,2,0,P|256:272|320:256,1,95.9999970703126
318,171,112196,1,0,0:0:0:0:
318,171,112373,2,0,P|302:203|318:267,1,95.9999970703126
424,216,112902,1,0,0:0:0:0:
240,152,113079,6,0,P|200:144|152:152,1,64,4|0,0:0|0:0,0:0:0:0:
296,296,113432,2,0,P|304:256|296:208,1,64,8|0,0:3|0:0,0:0:0:0:
152,352,113785,2,0,P|192:360|240:352,1,64,8|0,0:3|0:0,0:0:0:0:
88,216,114137,2,0,P|80:256|88:304,1,64,8|0,0:3|0:0,0:0:0:0:
152,96,114490,5,4,0:0:0:0:
104,176,114667,2,0,P|152:192|224:160,1,128
304,120,115196,2,0,L|288:192,1,64,8|0,0:3|0:0,0:0:0:0:
400,240,115549,2,0,L|416:168,1,64,8|0,0:3|0:0,0:0:0:0:
280,312,115902,6,0,L|216:317,1,64,4|0,0:0|0:0,0:0:0:0:
128,280,116255,2,0,L|64:285,1,64,8|0,0:3|0:0,0:0:0:0:
271,218,116608,2,0,L|208:224,1,64,8|0,0:3|0:0,0:0:0:0:
119,186,116961,2,0,L|56:192,1,64,8|0,0:3|0:0,0:0:0:0:
96,32,117314,5,4,0:0:0:0:
160,80,117490,2,0,P|176:40|176:8,1,64,0|8,0:0|0:3,0:0:0:0:
225,128,117843,2,0,P|241:94|250:60,1,64,0|8,0:0|0:3,0:0:0:0:
376,56,118196,1,0,0:0:0:0:
264,120,118373,1,8,0:0:0:0:
400,40,118549,1,0,0:0:0:0:
256,192,118726,12,0,121549,0:0:0:0:
174,156,124373,6,0,B|206:124|206:124|258:131|258:131|306:123|306:123|338:155,1,191.999994140625,4|0,0:0|0:0,0:0:0:0:
182,269,124726,2,0,P|94:236|62:149,1,191.999994140625
179,76,125079,6,0,P|235:101|258:159,1,127.99999609375,8|0,0:0|0:0,0:0:0:0:
274,254,125432,1,2,0:0:0:0:
361,281,125549,1,2,0:0:0:0:
447,256,125667,1,2,0:0:0:0:
504,185,125785,5,4,0:0:0:0:
278,129,125961,2,0,L|230:138,1,47.9999985351563,8|0,0:0|0:0,0:0:0:0:
347,58,126137,2,0,L|378:21,1,47.9999985351563,8|0,0:0|0:0,0:0:0:0:
373,152,126314,2,0,L|388:197,1,47.9999985351563,8|0,2:0|0:0,0:0:0:0:
445,317,126490,6,0,P|508:213|387:197,1,287.999991210938,4|0,2:0|0:0,0:0:0:0:
368,279,127020,1,0,0:0:0:0:
237,256,127196,6,0,B|174:217|174:217|152:150|152:150|86:121|86:121|52:57,1,287.999991210938,4|0,0:0|0:0,0:0:0:0:
82,217,127726,1,0,0:0:0:0:
365,83,127902,6,0,B|389:142|365:201|365:201|394:192|421:201|421:201|399:253|419:309,1,287.999991210938,4|0,0:0|0:0,0:0:0:0:
237,256,128432,1,0,0:0:0:0:
123,40,128608,6,0,P|106:151|41:59,1,287.999991210938,4|0,0:0|0:0,0:0:0:0:
38,216,129137,1,0,0:0:0:0:
313,202,129314,6,0,B|253:237|178:199|178:199|111:244|37:216,1,287.999991210938,4|0,0:0|0:0,0:0:0:0:
123,40,129843,1,0,0:0:0:0:
371,256,130020,6,0,P|390:192|341:128,1,143.999995605469,4|0,0:0|0:0,0:0:0:0:
131,104,130373,6,0,P|164:98|194:94,1,63.9999980468751,8|0,0:0|0:0,0:0:0:0:
266,189,130608,1,8,0:0:0:0:
266,189,130726,2,0,P|233:195|203:199,1,63.9999980468751
332,256,130961,2,0,P|355:166|292:99,1,191.999994140625
164,122,131432,6,0,P|190:187|261:220,1,143.999995605469,4|0,0:0|0:0,0:0:0:0:
65,47,131785,6,2,P|69:109|36:163,1,127.99999609375,0|0,0:0|0:0,0:0:0:0:
74,276,132137,1,2,0:0:0:0:
161,312,132254,1,2,0:0:0:0:
248,275,132372,1,2,0:0:0:0:
282,187,132489,1,2,0:0:0:0:
243,100,132607,1,2,0:0:0:0:
154,68,132725,1,2,0:0:0:0:
69,108,132843,6,0,P|152:185|39:191,1,287.999991210938,4|0,0:0|0:0,0:0:0:0:
235,216,133373,1,0,0:0:0:0:
464,58,133549,6,0,B|416:137|416:137|471:222|471:222|422:302,1,287.999991210938,4|0,0:0|0:0,0:0:0:0:
248,275,134079,1,0,0:0:0:0:
27,275,134255,6,0,P|95:155|35:30,1,287.999991210938,4|0,0:0|0:0,0:0:0:0:
248,80,134785,2,8,P|283:79|315:62,1,71.9999978027344
387,30,134961,6,0,P|451:140|335:193,1,287.999991210938,4|0,0:0|0:0,0:0:0:0:
156,96,135490,1,0,0:0:0:0:
30,344,135667,6,0,P|39:200|52:56,1,287.999991210938,4|0,0:0|0:0,0:0:0:0:
218,171,136196,1,0,0:0:0:0:
387,30,136373,2,0,P|385:99|437:146,1,143.999995605469,2|0,0:0|0:0,0:0:0:0:
461,242,136726,6,0,L|394:235,1,63.9999980468751,8|0,0:0|0:0,0:0:0:0:
218,171,136961,2,0,L|285:164,1,63.9999980468751,8|0,0:0|0:0,0:0:0:0:
474,106,137196,2,0,L|407:99,1,63.9999980468751,8|0,0:0|0:0,0:0:0:0:
231,35,137431,2,0,L|298:28,1,63.9999980468751,8|0,0:0|0:0,0:0:0:0:
310,32,137608,1,4,0:0:0:0:
332,39,137696,1,4,0:0:0:0:
354,47,137785,5,4,0:0:0:0:
461,242,137961,1,0,0:0:0:0:
218,171,138137,2,0,P|165:205|102:204,1,127.99999609375
52,182,138490,6,0,P|46:61|140:136,1,287.999991210938,4|0,0:0|0:0,0:0:0:0:
208,292,139020,1,0,0:0:0:0:
438,57,139196,6,0,B|459:128|439:199|439:199|421:269|438:342,1,287.999991210938,4|0,0:0|0:0,0:0:0:0:
238,252,139726,1,0,0:0:0:0:
365,70,139902,6,0,B|392:127|361:209|361:209|308:125|246:126,1,287.999991210938,4|0,0:0|0:0,0:0:0:0:
259,348,140432,1,0,0:0:0:0:
67,96,140608,6,0,B|62:157|89:214|89:214|42:202|42:202|70:265|61:316,1,287.999991210938,4|0,0:0|0:0,0:0:0:0:
259,348,141137,1,0,0:0:0:0:
482,363,141314,6,0,P|420:329|417:258,1,143.999995605469,4|0,0:0|0:0,0:0:0:0:
409,157,141667,2,0,P|317:156|261:82,1,191.999994140625,2|0,0:0|0:0,0:0:0:0:
366,61,142020,1,4,0:0:0:0:
252,30,142196,2,0,L|204:24,1,47.9999985351563,8|0,0:0|0:0,0:0:0:0:
168,45,142373,2,0,L|120:52,1,47.9999985351563,8|0,0:0|0:0,0:0:0:0:
84,32,142549,2,0,L|36:24,1,47.9999985351563,8|0,0:0|0:0,0:0:0:0:
0,48,142726,5,4,0:0:0:0:
40,189,142902,2,0,L|46:211,6,23.9999992675781
54,142,143255,1,2,0:0:0:0:
54,141,143432,6,0,P|115:126|178:133,1,127.99999609375,4|0,0:0|0:0,0:0:0:0:
325,192,143785,1,0,0:0:0:0:
166,332,143961,1,8,0:0:0:0:
168,308,144049,1,8,0:0:0:0:
170,283,144137,6,0,P|259:180|392:213,1,287.999991210938,4|0,0:0|0:0,0:0:0:0:
316,348,144667,1,0,0:0:0:0:
169,93,144843,6,0,P|304:49|436:96,1,287.999991210938,4|0,0:0|0:0,0:0:0:0:
468,302,145373,1,0,0:0:0:0:
170,283,145549,6,0,B|115:244|126:180|126:180|38:124|94:24,1,287.999991210938,4|0,0:0|0:0,0:0:0:0:
220,200,146079,1,8,0:0:0:0:
490,84,146255,6,0,P|357:117|267:14,1,287.999991210938,4|0,0:0|0:0,0:0:0:0:
220,200,146785,1,0,0:0:0:0:
37,34,146961,6,0,B|31:101|64:135|64:135|26:203|26:203|64:241|60:296,1,287.999991210938,4|0,0:0|0:0,0:0:0:0:
220,200,147490,1,0,0:0:0:0:
459,310,147667,6,0,L|395:302,1,63.9999980468751,8|0,0:0|0:0,0:0:0:0:
264,220,147902,1,2,0:0:0:0:
264,220,148020,2,0,L|327:212,1,63.9999980468751,8|0,0:0|0:0,0:0:0:0:
469,135,148255,2,0,L|405:127,1,63.9999980468751,8|0,0:0|0:0,0:0:0:0:
216,118,148549,6,0,L|168:127,1,47.9999985351563,8|0,0:0|0:0,0:0:0:0:
285,47,148725,2,0,L|316:10,1,47.9999985351563,8|0,0:0|0:0,0:0:0:0:
311,141,148902,2,0,L|326:186,1,47.9999985351563,8|0,2:0|0:0,0:0:0:0:
359,271,149079,6,0,P|240:240|310:140,1,287.999991210938,4|0,0:0|0:0,0:0:0:0:
469,135,149608,1,0,0:0:0:0:
223,337,149785,6,0,P|168:261|170:167,1,191.999994140625,4|2,0:0|0:0,0:0:0:0:
311,141,150137,6,0,P|332:183|333:231,1,95.9999970703126,4|0,0:0|0:0,0:0:0:0:
0,218,150490,6,0,P|76:163|170:165,1,191.999994140625,4|2,0:0|0:0,0:0:0:0:
292,229,150843,2,0,L|228:240,1,63.9999980468751,4|0,0:0|0:0,0:0:0:0:
92,315,151079,1,0,0:0:0:0:
92,315,151196,6,0,L|282:335,1,191.999994140625,4|2,0:0|0:0,0:0:0:0:
190,238,151549,6,0,L|126:231,1,63.9999980468751,4|0,0:0|0:0,0:0:0:0:
97,142,151785,1,0,0:0:0:0:
97,142,151902,6,0,L|287:162,1,191.999994140625,4|2,0:0|0:0,0:0:0:0:
252,75,152255,6,0,L|188:68,1,63.9999980468751,4|0,0:0|0:0,0:0:0:0:
98,58,152490,1,0,0:0:0:0:
97,58,152608,6,0,P|39:80|12:137,1,127.99999609375,4|2,0:0|0:0,0:0:0:0:
143,204,152961,2,0,L|219:193,1,63.9999980468751,4|0,0:0|0:0,0:0:0:0:
381,147,153196,1,0,0:0:0:0:
381,147,153314,2,0,L|305:136,1,63.9999980468751,8|0,0:0|0:0,0:0:0:0:
266,127,153549,2,0,P|294:53|211:75,1,191.999994140625
170,275,154020,6,0,P|151:206|179:142,1,143.999995605469,4|0,0:0|0:0,0:0:0:0:
87,13,154373,6,0,P|105:73|86:133,1,127.99999609375
73,221,154726,1,2,0:0:0:0:
100,306,154843,1,2,0:0:0:0:
182,341,154961,1,2,0:0:0:0:
263,302,155078,1,2,0:0:0:0:
286,215,155196,1,2,0:0:0:0:
237,140,155314,1,2,0:0:0:0:
149,128,155432,6,0,P|89:25|34:130,1,287.999991210938,4|0,0:0|0:0,0:0:0:0:
191,257,155961,1,0,0:0:0:0:
399,62,156137,6,0,B|369:-5|369:-5|342:215,1,287.999991210938,4|0,0:0|0:0,0:0:0:0:
465,349,156667,1,0,0:0:0:0:
237,140,156843,6,0,B|269:190|269:190|98:145|98:145|128:187,1,287.999991210938,4|0,0:0|0:0,0:0:0:0:
297,310,157373,1,8,0:0:0:0:
312,277,157461,1,8,0:0:0:0:
327,244,157549,6,0,P|376:171|236:140,1,287.999991210938,4|0,0:0|0:0,0:0:0:0:
66,316,158079,1,0,0:0:0:0:
231,46,158255,6,0,P|369:43|447:157,1,287.999991210938,4|0,0:0|0:0,0:0:0:0:
297,310,158785,1,0,0:0:0:0:
116,276,158961,6,0,L|179:267,1,63.9999980468751,8|0,0:0|0:0,0:0:0:0:
313,208,159196,1,2,0:0:0:0:
313,208,159314,2,0,L|249:199,1,63.9999980468751,8|0,0:0|0:0,0:0:0:0:
104,143,159549,1,2,0:0:0:0:
104,143,159667,2,0,L|167:134,1,63.9999980468751,8|0,0:0|0:0,0:0:0:0:
316,74,159902,1,2,0:0:0:0:
316,74,160020,2,0,L|252:65,1,63.9999980468751,8|0,0:0|0:0,0:0:0:0:
236,63,160196,1,4,0:0:0:0:
212,59,160285,1,4,0:0:0:0:
188,56,160373,5,4,0:0:0:0:
49,145,160549,1,0,0:0:0:0:
129,291,160726,2,0,P|188:312|249:296,1,127.99999609375
289,269,161079,6,0,P|406:238|387:358,1,287.999991210938,4|0,0:0|0:0,0:0:0:0:
194,226,161608,1,0,0:0:0:0:
47,33,161785,6,0,B|88:29|88:29|188:69|188:23|286:64|286:64|331:60,1,287.999991210938,4|0,0:0|0:0,0:0:0:0:
206,191,162314,1,0,0:0:0:0:
452,0,162490,6,0,B|488:59|463:139|463:139|439:213|470:279,1,287.999991210938,4|0,0:0|0:0,0:0:0:0:
277,333,163020,1,0,0:0:0:0:
16,147,163196,6,0,P|90:254|205:190,1,287.999991210938,4|0,0:0|0:0,0:0:0:0:
141,28,163726,1,0,0:0:0:0:
387,32,163902,6,0,P|445:71|456:140,1,143.999995605469,4|0,0:0|0:0,0:0:0:0:
446,250,164255,2,0,P|355:267|304:345,1,191.999994140625
417,363,164608,1,0,0:0:0:0:
252,253,164785,2,0,L|204:259,1,47.9999985351563,2|0,0:0|0:0,0:0:0:0:
168,238,164962,2,0,L|120:231,1,47.9999985351563,2|0,0:0|0:0,0:0:0:0:
84,251,165138,2,0,L|36:259,1,47.9999985351563,2|0,0:0|0:0,0:0:0:0:
0,235,165314,5,8,0:0:0:0:
106,124,165490,2,0,L|110:87,10,23.9999992675781
126,167,166020,5,4,0:0:0:0:
274,124,166196,1,8,0:0:0:0:
237,273,166373,2,0,P|301:260|353:277,1,95.9999970703126,2|2,0:0|0:0,0:0:0:0:
424,313,166726,6,0,B|451:251|405:189|405:189|457:162|457:162|387:147|363:115,1,287.999991210938,4|0,0:0|0:0,0:0:0:0:
214,192,167255,1,0,0:0:0:0:
47,48,167432,6,0,P|35:191|32:335,1,287.999991210938,4|0,0:0|0:0,0:0:0:0:
232,304,167961,1,0,0:0:0:0:
373,53,168137,6,0,P|436:178|391:310,1,287.999991210938,4|0,0:0|0:0,0:0:0:0:
115,293,168667,1,0,0:0:0:0:
124,258,168755,1,0,0:0:0:0:
134,223,168843,6,0,L|197:217,1,63.9999980468751
361,185,169079,2,0,L|297:179,1,63.9999980468751
143,122,169314,2,0,L|206:116,1,63.9999980468751
316,44,169549,6,0,P|394:56|473:42,1,160,4|0,0:0|0:0,0:0:0:0:
405,170,170079,1,0,0:0:0:0:
261,181,170255,2,0,P|183:169|104:183,1,160,2|0,0:0|0:0,0:0:0:0:
183,61,170785,1,0,0:0:0:0:
184,204,170961,6,0,P|172:282|186:361,1,160,4|0,0:0|0:0,0:0:0:0:
308,284,171490,1,0,0:0:0:0:
370,186,171667,2,0,P|333:171|293:170,1,80,8|0,0:0|0:0,0:0:0:0:
148,78,172020,2,0,P|184:92|224:93,1,80
364,55,172373,6,0,P|437:83|488:144,1,160,4|0,0:0|0:0,0:0:0:0:
443,281,172902,1,0,0:0:0:0:
312,216,173079,2,0,P|236:235|159:214,1,160,2|0,0:0|0:0,0:0:0:0:
234,106,173608,1,0,0:0:0:0:
96,151,173785,6,0,P|29:161|68:216,1,160,4|0,0:0|0:0,0:0:0:0:
211,240,174314,1,0,0:0:0:0:
386,158,174490,2,0,P|424:169|463:166,1,80,8|0,0:0|0:0,0:0:0:0:
281,41,174843,2,0,P|242:29|203:32,1,80
346,192,175196,5,4,0:0:0:0:
182,245,175372,1,2,0:0:0:0:
284,105,175549,1,2,0:0:0:0:
338,293,175726,1,2,0:0:0:0:
96,296,175902,2,0,P|84:219|133:158,1,160,8|0,0:0|0:0,0:0:0:0:
269,109,176432,1,0,0:0:0:0:
361,218,176608,6,0,P|437:227|525:186,1,160,4|0,0:0|0:0,0:0:0:0:
417,87,177137,1,0,0:0:0:0:
269,109,177314,2,0,P|191:90|112:100,1,160,8|0,0:0|0:0,0:0:0:0:
170,232,177843,1,0,0:0:0:0:
297,298,178020,6,0,P|306:248|290:204,1,80,4|0,0:0|0:0,0:0:0:0:
270,31,178373,2,0,P|261:81|277:125,1,80,2|0,0:0|0:0,0:0:0:0:
378,201,178726,2,0,P|306:171|234:202,1,160,8|0,0:0|0:0,0:0:0:0:
151,84,179255,1,0,0:0:0:0:
288,39,179432,6,0,P|359:70|431:40,1,160,4|0,0:0|0:0,0:0:0:0:
449,183,179961,1,0,0:0:0:0:
449,183,180137,2,0,P|400:191|371:218,1,80
206,141,180490,6,0,P|245:137|277:114,1,80
72,100,180843,6,0,P|120:84|208:148,1,160,4|0,0:0|0:0,0:0:0:0:
312,288,181373,1,0,0:0:0:0:
125,162,181549,2,0,P|77:194|61:234,1,93.3333333333333,8|0,0:0|0:0,0:0:0:0:
160,368,181902,2,0,P|208:336|224:296,1,80
256,160,182255,6,0,P|327:173|416:176,1,160,4|0,0:0|0:0,0:0:0:0:
312,56,182784,1,0,0:0:0:0:
352,256,182961,2,0,P|397:258|436:256,1,80,2|0,0:0|0:0,0:0:0:0:
280,312,183314,2,0,P|235:314|196:312,1,80,2|0,0:0|0:0,0:0:0:0:
96,192,183667,6,0,P|80:152|152:64,1,160,4|0,0:0|0:0,0:0:0:0:
256,184,184196,1,0,0:0:0:0:
80,288,184373,2,0,P|37:249|14:209,1,80,8|0,0:0|0:0,0:0:0:0:
208,312,184726,2,0,P|183:280|152:255,1,80
256,80,185079,6,0,L|440:96,1,160,4|0,0:0|0:0,0:0:0:0:
400,256,185608,1,0,0:0:0:0:
228,155,185784,2,0,L|260:67,1,80,2|0,0:0|0:0,0:0:0:0:
200,232,186137,2,0,L|168:320,1,80,2|0,0:0|0:0,0:0:0:0:
136,152,186490,6,0,P|128:104|192:0,1,160,4|0,0:0|0:0,0:0:0:0:
336,56,187020,1,0,0:0:0:0:
480,192,187196,2,0,L|384:208,1,80,8|0,0:0|0:0,0:0:0:0:
240,192,187549,2,0,L|336:176,1,80
176,256,187902,6,0,P|152:208|200:112,1,160,4|0,0:0|0:0,0:0:0:0:
336,192,188432,1,0,0:0:0:0:
200,336,188608,2,0,P|149:333|110:302,1,80
88,120,188961,2,0,L|45:261,1,120
144,184,189314,6,0,L|193:22,1,160,4|0,0:0|0:0,0:0:0:0:
352,48,189843,1,0,0:0:0:0:
216,200,190020,2,0,L|192:288,1,80
240,120,190373,2,0,L|264:32,1,80
144,40,190637,1,0,0:0:0:0:
144,40,190726,5,0,0:0:0:0:
144,40,191255,1,0,0:0:0:0:
168,240,191432,1,0,0:0:0:0:
168,240,191961,2,0,L|224:256,2,40
91,124,194961,6,0,B|85:263|183:342|183:342|257:286|257:286|315:224|345:131|308:49|255:22|255:22|205:52|175:139|192:215|256:285|256:285|334:342|334:342|428:256|426:58,1,1280,2|0,0:0|0:0,0:0:0:0:
493,311,197785,6,0,B|492:150|341:21|341:21|291:149|290:288|393:357|393:357|445:264|316:106|316:106|301:93|301:93|178:25|175:156|36:89,1,1280,2|0,0:0|0:0,0:0:0:0:
426,204,200608,6,0,P|391:295|426:180,1,960,2|0,0:0|0:0,0:0:0:0:
478,293,202020,2,0,B|437:246|360:202|271:220|202:246|202:246|271:220|360:202|402:81|402:81|305:111|213:80|213:80|129:54|18:89,1,960,2|0,0:0|0:0,0:0:0:0:
59,243,203432,2,0,B|107:262|118:318|118:318|287:216|487:328|487:328|287:216|245:184|245:184|196:165|201:146|201:146|194:74|100:67|64:115|73:193|108:214|173:216|199:182|225:129|225:129|260:75|326:68,1,1280,2|0,0:0|0:0,0:0:0:0:
418,140,206255,6,0,B|496:140|496:140|496:286|316:286|316:286|273:166|316:54|316:54|256:80|195:54|195:54|238:166|195:286|195:286|15:286|15:149|15:149|98:149,1,1280,2|0,0:0|0:0,0:0:0:0:
201,251,214726,5,2,0:0:0:0:
113,102,214902,1,0,0:0:0:0:
176,347,215079,2,0,P|264:321|294:233,1,191.999994140625,0|2,0:0|0:0,0:0:0:0:
124,197,215608,1,0,0:0:0:0:
255,83,215785,2,0,P|301:74|348:83,1,95.9999970703126
483,190,216137,6,0,P|388:204|293:190,1,191.999994140625,2|0,0:0|0:0,0:0:0:0:
145,99,216667,1,0,0:0:0:0:
293,279,216843,2,0,P|369:229|363:138,1,191.999994140625,2|0,0:0|0:0,0:0:0:0:
293,279,217549,6,0,P|245:270|198:278,1,95.9999970703126,2|0,0:0|0:0,0:0:0:0:
371,301,217902,1,0,0:0:0:0:
211,368,218079,1,0,0:0:0:0:
160,195,218255,2,0,P|253:174|346:194,1,191.999994140625,2|0,0:0|0:0,0:0:0:0:
254,45,218785,1,0,0:0:0:0:
276,214,218961,6,0,P|308:131|396:144,1,191.999994140625,2|0,0:0|0:0,0:0:0:0:
414,316,219490,1,0,0:0:0:0:
242,293,219667,2,0,P|205:262|192:217,1,95.9999970703126,2|0,0:0|0:0,0:0:0:0:
324,329,220020,1,0,0:0:0:0:
254,189,220373,6,0,P|185:131|102:168,1,191.999994140625,2|0,0:0|0:0,0:0:0:0:
166,329,220902,1,0,0:0:0:0:
322,255,221079,2,0,P|431:231|509:267,1,191.999994140625,2|0,0:0|0:0,0:0:0:0:
372,145,221608,1,0,0:0:0:0:
408,314,221785,5,2,0:0:0:0:
243,260,221961,1,0,0:0:0:0:
347,69,222137,2,0,P|394:66|433:92,1,95.9999970703126
261,114,222490,2,0,P|213:116|174:90,1,95.9999970703126,2|0,0:0|0:0,0:0:0:0:
336,150,222843,1,0,0:0:0:0:
408,314,223196,6,0,P|321:273|226:263,1,191.999994140625,2|0,0:0|0:0,0:0:0:0:
58,311,223726,1,0,0:0:0:0:
60,138,223902,2,0,P|100:162|148:164,1,95.9999970703126,2|0,0:0|0:0,0:0:0:0:
180,334,224255,2,0,P|226:322|261:289,1,95.9999970703126
425,345,224608,6,0,P|474:263|484:169,1,191.999994140625,2|0,0:0|0:0,0:0:0:0:
365,41,225137,1,0,0:0:0:0:
225,144,225314,2,0,P|182:164|134:161,1,95.9999970703126,2|0,0:0|0:0,0:0:0:0:
274,58,225667,1,0,0:0:0:0:
65,109,226020,5,2,0:0:0:0:
225,144,226196,1,8,0:0:0:0:
192,314,226373,2,0,L|74:305,1,95.9999970703126,0|8,0:0|0:0,0:0:0:0:
250,227,226726,2,0,L|368:218,1,95.9999970703126,2|8,0:0|0:0,0:0:0:0:
460,349,227079,2,0,L|342:340,1,95.9999970703126,0|8,0:0|0:0,0:0:0:0:
267,197,227432,6,0,L|385:188,1,95.9999970703126,2|8,0:0|0:0,0:0:0:0:
217,94,227785,1,0,0:0:0:0:
80,197,227961,1,8,0:0:0:0:
125,28,228137,1,2,0:0:0:0:
182,202,228314,1,8,0:0:0:0:
34,94,228490,1,0,0:0:0:0:
79,237,228843,6,0,P|179:214|278:245,1,191.999994140625,2|0,0:0|0:0,0:0:0:0:
414,324,229373,1,8,0:0:0:0:
357,161,229549,2,0,P|343:116|351:69,1,95.9999970703126,2|8,0:0|0:0,0:0:0:0:
268,221,229902,2,0,P|282:266|274:313,1,95.9999970703126,0|8,0:0|0:0,0:0:0:0:
105,271,230255,6,0,P|150:257|197:265,1,95.9999970703126,2|0,0:0|0:0,0:0:0:0:
369,320,230608,1,0,0:0:0:0:
472,183,230784,1,8,0:0:0:0:
303,228,230960,1,2,0:0:0:0:
477,285,231137,1,8,0:0:0:0:
369,137,231314,2,0,B|329:104|329:104|286:91,1,95.9999970703126
256,192,231667,12,0,234490,0:0:0:0:
416,44,237314,6,0,B|416:72|404:104|404:104|408:116|408:116|412:148|404:184|404:184|408:196|408:196|401:227|404:252|404:252|408:264|408:264|394:293|390:326,1,287.999991210938,4|0,0:0|0:0,0:0:0:0:
225,174,237843,1,0,0:0:0:0:
84,29,238020,6,0,B|153:11|207:35|207:35|174:67|174:67|240:53|288:74,1,287.999991210938,8|0,0:0|0:0,0:0:0:0:
469,152,238549,1,0,0:0:0:0:
231,333,238726,6,0,B|172:301|126:343|126:343|133:231|21:234,1,287.999991210938,4|0,0:0|0:0,0:0:0:0:
84,29,239255,1,0,0:0:0:0:
329,171,239432,6,0,P|402:224|288:205,1,287.999991210938,8|0,0:0|0:0,0:0:0:0:
150,86,239961,1,0,0:0:0:0:
74,258,240137,6,0,L|155:244,1,71.9999978027344,2|0,0:0|0:0,0:0:0:0:
188,249,240314,2,0,L|276:235,1,71.9999978027344,2|0,0:0|0:0,0:0:0:0:
304,245,240490,2,0,P|377:234|446:227,1,143.999995605469,2|2,0:0|0:0,0:0:0:0:
425,63,240843,6,0,P|369:145|283:98,1,215.999993408203,8|0,0:0|0:0,0:0:0:0:
353,76,241196,2,0,P|274:136|207:64,1,215.999993408203,2|0,0:0|0:0,0:0:0:0:
282,65,241549,6,0,P|192:104|142:21,1,215.999993408203,8|0,0:0|0:0,0:0:0:0:
215,35,241902,2,0,L|154:244,1,215.999993408203,2|0,0:0|0:0,0:0:0:0:
143,283,242255,1,4,0:0:0:0:
275,320,242432,2,0,P|304:299|338:290,1,71.9999978027344
423,264,242608,1,8,0:0:0:0:
430,246,242696,1,8,0:0:0:0:
437,228,242784,1,8,0:0:0:0:
444,210,242872,1,8,0:0:0:0:
451,191,242961,6,0,P|428:126|362:105,1,143.999995605469,2|4,0:0|0:0,0:0:0:0:
230,111,243314,2,0,P|163:89|141:24,1,143.999995605469,2|4,0:0|0:0,0:0:0:0:
38,125,243667,2,0,P|104:147|125:213,1,143.999995605469,2|4,0:0|0:0,0:0:0:0:
343,214,244020,2,0,P|364:147|429:125,1,143.999995605469,2|4,0:0|0:0,0:0:0:0:
255,301,244373,6,0,P|321:279|342:213,1,143.999995605469,2|4,0:0|0:0,0:0:0:0:
208,41,244726,2,0,P|142:63|122:130,1,143.999995605469,2|4,0:0|0:0,0:0:0:0:
438,60,245079,2,0,P|420:200|398:345,1,287.999991210938
209,282,245608,1,0,0:0:0:0:
87,62,245785,6,0,P|191:96|88:135,1,287.999991210938,4|0,0:0|0:0,0:0:0:0:
72,291,246314,1,0,0:0:0:0:
409,320,246490,6,0,B|434:256|419:176|419:176|401:104|422:33,1,287.999991210938,4|0,0:0|0:0,0:0:0:0:
302,183,247020,1,0,0:0:0:0:
28,180,247196,6,0,B|107:197|174:154|174:154|236:199|302:182,1,287.999991210938,4|0,0:0|0:0,0:0:0:0:
496,205,247726,1,0,0:0:0:0:
309,12,247902,6,0,P|279:110|241:-3,1,287.999991210938,4|4,0:0|0:0,0:0:0:0:
378,175,248432,1,0,0:0:0:0:
102,49,248608,6,0,B|54:96|92:157|92:157|54:122|54:122|98:184|58:229,1,287.999991210938,4|0,0:0|0:0,0:0:0:0:
192,317,249137,1,0,0:0:0:0:
247,223,249314,6,0,P|337:224|449:288,1,215.999993408203,4|8,0:0|0:0,0:0:0:0:
479,208,249667,2,0,P|389:207|277:143,1,215.999993408203,2|2,0:0|0:0,0:0:0:0:
199,144,250020,6,0,P|107:199|0:204,1,215.999993408203,8|2,0:0|0:0,0:0:0:0:
26,285,250373,2,0,P|117:229|224:224,1,215.999993408203,8|2,0:0|0:0,0:0:0:0:
307,241,250726,2,0,B|356:230|386:250|386:250|396:211|423:186|423:186|372:133|285:163,1,287.999991210938,8|2,0:0|0:0,0:0:0:0:
210,94,251196,2,0,P|163:101|117:87,1,95.9999970703126,0|8,0:0|0:0,0:0:0:0:
39,65,251432,5,0,0:0:0:0:
27,126,251520,1,0,0:0:0:0:
40,188,251608,1,0,0:0:0:0:
75,242,251696,1,0,0:0:0:0:
142,298,251785,5,0,0:0:0:0:
180,273,251873,1,0,0:0:0:0:
223,264,251961,1,0,0:0:0:0:
266,272,252049,1,0,0:0:0:0:
340,316,252137,6,0,P|487:201|337:90,1,431.999986816407
199,125,252843,6,0,L|127:114,1,71.9999978027344
192,132,253020,2,0,L|120:121,1,71.9999978027344
185,139,253196,2,0,L|113:128,1,71.9999978027344
178,146,253373,2,0,L|106:135,1,71.9999978027344
178,146,253549,6,0,L|249:155,1,71.9999978027344
182,154,253726,2,0,L|253:163,1,71.9999978027344
187,163,253902,2,0,L|258:172,1,71.9999978027344
192,171,254079,2,0,L|263:180,1,71.9999978027344
187,181,254255,6,0,P|295:336|424:199,1,431.999986816407,4|0,0:0|0:0,0:0:0:0:
403,76,254961,5,0,0:0:0:0:
311,41,255137,1,2,0:0:0:0:
285,35,255225,1,0,0:0:0:0:
261,46,255313,1,2,0:0:0:0:
247,67,255401,1,0,0:0:0:0:
248,93,255490,1,2,0:0:0:0:
263,114,255578,1,0,0:0:0:0:
288,123,255667,5,2,0:0:0:0:
376,101,255843,1,2,0:0:0:0:
467,110,256019,1,2,0:0:0:0:
491,196,256195,1,2,0:0:0:0:
418,251,256373,1,2,0:0:0:0:
345,196,256549,5,2,0:0:0:0:
243,276,256814,1,2,0:0:0:0:
140,196,257079,1,4,0:0:0:0:
63,343,259902,6,0,B|59:312|59:312|71:282|71:282|67:270|67:270|73:236|73:236|67:202|67:202|63:190|63:190|59:165|59:165|64:134|64:134|59:122|59:122|74:93|74:93|74:60,1,287.999991210938,4|0,0:0|0:0,0:0:0:0:
256,136,260431,1,0,0:0:0:0:
396,289,260608,6,0,B|328:300|328:300|273:283|273:283|306:251|306:251|251:259|251:259|191:247,1,287.999991210938,8|0,0:0|0:0,0:0:0:0:
361,144,261137,1,0,0:0:0:0:
215,346,261314,6,0,B|166:336|166:336|110:356|110:356|103:283|103:283|49:290|49:290|0:274,1,287.999991210938,4|0,0:0|0:0,0:0:0:0:
84,29,261843,1,0,0:0:0:0:
361,144,262020,6,0,B|473:233|473:233|364:328,1,287.999991210938,8|0,0:0|0:0,0:0:0:0:
150,86,262549,1,0,0:0:0:0:
74,258,262726,6,0,L|155:244,1,71.9999978027344,2|0,0:0|0:0,0:0:0:0:
188,249,262902,2,0,L|276:235,1,71.9999978027344,2|0,0:0|0:0,0:0:0:0:
304,245,263078,2,0,B|377:234|377:234|446:227,1,143.999995605469,2|2,0:0|0:0,0:0:0:0:
463,46,263431,6,0,B|381:122|381:122|302:52,1,215.999993408203,2|0,0:0|0:0,0:0:0:0:
382,31,263785,2,0,B|300:107|300:107|221:37,1,215.999993408203,8|0,0:0|0:0,0:0:0:0:
301,16,264137,6,0,B|219:92|219:92|140:22,1,215.999993408203,2|0,0:0|0:0,0:0:0:0:
218,0,264490,2,0,L|198:216,1,215.999993408203,8|0,0:0|0:0,0:0:0:0:
186,303,264843,1,4,0:0:0:0:
278,190,265020,2,0,L|342:221,1,71.9999978027344
423,264,265196,1,8,0:0:0:0:
430,246,265284,1,8,0:0:0:0:
437,228,265372,1,8,0:0:0:0:
444,210,265460,1,8,0:0:0:0:
451,191,265549,6,0,B|387:109|387:109|276:90,1,215.999993408203,4|0,0:0|0:0,0:0:0:0:
191,90,265902,2,0,B|80:108|80:108|16:190,1,215.999993408203
16,273,266255,6,0,B|80:355|80:355|191:373,1,215.999993408203,4|0,0:0|0:0,0:0:0:0:
273,373,266608,2,0,B|384:355|384:355|448:273,1,215.999993408203
407,200,266961,6,0,B|296:218|296:218|232:300,1,215.999993408203,4|0,0:0|0:0,0:0:0:0:
167,248,267314,2,0,B|231:166|231:166|221:54,1,215.999993408203
304,44,267667,2,0,L|332:337,1,287.999991210938,4|0,0:0|0:0,0:0:0:0:
167,248,268196,1,0,0:0:0:0:
83,55,268373,6,0,B|205:125|205:125|74:196,1,287.999991210938
221,317,268902,1,0,0:0:0:0:
409,320,269079,6,0,B|434:256|434:256|401:104|401:104|423:42,1,287.999991210938
302,183,269608,1,0,0:0:0:0:
27,180,269784,6,0,B|95:195|95:195|167:171|167:171|235:199|235:199|302:182,1,287.999991210938
496,205,270314,1,0,0:0:0:0:
387,67,270490,6,0,B|246:95|246:95|110:42,1,287.999991210938
301,182,271020,1,0,0:0:0:0:
111,43,271196,6,0,B|98:101|98:101|111:152|111:152|48:152|48:152|63:205|63:205|51:261,1,287.999991210938,4|0,0:0|0:0,0:0:0:0:
246,189,271725,1,0,0:0:0:0:
434,7,271902,6,0,B|493:91|493:91|496:205,1,215.999993408203,2|8,0:0|0:0,0:0:0:0:
428,253,272255,2,0,B|314:256|314:256|230:314,1,215.999993408203,2|8,0:0|0:0,0:0:0:0:
184,247,272608,6,0,B|267:188|267:188|309:82,1,215.999993408203,2|8,0:0|0:0,0:0:0:0:
235,32,272961,2,0,B|141:96|141:96|103:191,1,215.999993408203,2|8,0:0|0:0,0:0:0:0:
139,266,273314,6,0,B|178:269|178:269|218:257|218:257|255:327|255:327|193:350|193:350|127:345,1,287.999991210938,4|0,0:0|0:0,0:0:0:0:
216,172,273785,2,0,B|172:189|172:189|124:178,1,95.9999970703126
55,123,274020,5,0,0:0:0:0:
111,103,274108,1,0,0:0:0:0:
168,84,274196,1,0,0:0:0:0:
225,65,274284,1,0,0:0:0:0:
326,73,274373,5,0,0:0:0:0:
358,84,274461,1,0,0:0:0:0:
391,95,274549,1,0,0:0:0:0:
424,106,274637,1,0,0:0:0:0:
456,122,274726,6,0,B|477:206|477:206|392:240|392:240|368:224|368:224|344:240|344:240|320:224|320:224|296:240|296:240|272:224|272:224|248:240|248:240|224:224|224:224|208:240|208:240|176:224,1,431.999986816407
136,168,275432,6,0,L|64:157,1,71.9999978027344
129,175,275608,2,0,L|57:164,1,71.9999978027344
122,182,275784,2,0,L|50:171,1,71.9999978027344
115,189,275961,2,0,L|43:178,1,71.9999978027344
115,189,276137,6,0,L|186:198,1,71.9999978027344
119,197,276314,2,0,L|190:206,1,71.9999978027344
124,206,276490,2,0,L|195:215,1,71.9999978027344
129,214,276667,2,0,L|200:223,1,71.9999978027344
124,224,276843,6,0,B|105:298|105:298|210:293|210:293|296:298|296:298|323:257|323:257|328:218|328:218|368:224|368:224|410:218,1,431.999986816407
403,76,277549,5,0,0:0:0:0:
309,59,277726,1,2,0:0:0:0:
285,53,277813,1,0,0:0:0:0:
261,48,277901,1,2,0:0:0:0:
238,43,277989,1,0,0:0:0:0:
214,38,278079,1,2,0:0:0:0:
191,33,278166,1,0,0:0:0:0:
167,28,278255,5,2,0:0:0:0:
96,15,278432,1,2,0:0:0:0:
115,83,278607,1,2,0:0:0:0:
137,147,278785,1,2,0:0:0:0:
159,214,278961,1,2,0:0:0:0:
181,281,279137,5,2,0:0:0:0:
278,328,279402,1,2,0:0:0:0:
271,221,279667,1,2,0:0:0:0:
371,170,282137,5,0,0:0:0:0:
313,159,282225,1,0,0:0:0:0:
255,166,282313,1,0,0:0:0:0:
196,179,282401,1,0,0:0:0:0:
137,170,282489,1,0,0:0:0:0:
256,192,282579,12,0,285314,0:0:0:0:
