osu file format v14

[General]
AudioFilename: audio.mp3
AudioLeadIn: 0
PreviewTime: 46290
Countdown: 0
SampleSet: Soft
StackLeniency: 0.5
Mode: 0
LetterboxInBreaks: 0
EpilepsyWarning: 1
WidescreenStoryboard: 1

[Editor]
Bookmarks: 46313,70923,92301,103798,118169,126792,136851,161283,167031,175654,184277,190025,207989
DistanceSpacing: 1.5
BeatDivisor: 4
GridSize: 4
TimelineZoom: 1.6

[Metadata]
Title:Paracosm
TitleUnicode:Paracosm
Artist:Xtrullor
ArtistUnicode:Xtrullor
Creator:XFroceS
Version:Collab Insane
Source:
Tags:epic energy power mastered dubstep geometry dash evelynn
BeatmapID:1478589
BeatmapSetID:594612

[Difficulty]
HPDrainRate:6
CircleSize:4
OverallDifficulty:7
ApproachRate:9.2
SliderMultiplier:1.6
SliderTickRate:1

[Events]
//Background and Video events
0,0,"1428659246_882349284.png",0,0
//Break Periods
2,92301,102360
2,126991,131970
//Storyboard Layer 0 (Background)
//Storyboard Layer 1 (Fail)
//Storyboard Layer 2 (Pass)
//Storyboard Layer 3 (Foreground)
Sprite,Foreground,Centre,"sb\froce.png",320,240 F,0,46223,46313,0 M,0,46313,,429.0064,149.9871 S,0,46313,,0.5375485 F,0,46313,46672,0,1 F,0,46672,89067,1 F,0,89067,89426,1,0 F,0,89426,118169,0 F,0,118169,118528,0,1 F,0,118528,136492,1 F,0,136492,136851,1,0 F,0,136851,161283,0 F,0,161283,161642,0,1 F,0,161642,175295,1 F,0,175295,175654,1,0 F,0,175654,190025,0 F,0,190025,190384,0,1 F,0,190384,207630,1 F,0,207630,207899,1,0 F,0,207899,207989,0
Sprite,Foreground,Centre,"sb\eve.png",320,240 M,0,0,,379.4581,77.31615 S,0,0,,0.5540646 F,0,0,325,0,1 F,0,325,45953,1 F,0,45953,46313,1,0 F,0,46313,103438,0 F,0,103438,103798,0,1 F,0,103798,117810,1 F,0,117810,118169,1,0 F,0,118169,136851,0 F,0,136851,137211,0,1 F,0,137211,160923,1 F,0,160923,161283,1,0 F,0,161283,175654,0 F,0,175654,176013,0,1 F,0,176013,189666,1 F,0,189666,190025,1,0
//Storyboard Sound Samples

[TimingPoints]
325,359.281437125748,4,2,1,100,1,0
46313,-100,4,2,1,100,0,1
54935,-133.333333333333,4,2,1,100,0,1
56372,-105.263157894737,4,2,1,100,0,1
57810,-100,4,2,1,100,0,1
66432,-133.333333333333,4,2,1,100,0,0
69307,-100,4,2,1,100,0,1
77929,-133.333333333333,4,2,1,100,0,1
79366,-105.263157894737,4,2,1,100,0,1
80804,-100,4,2,1,87,0,1
89067,-66.6666666666667,4,2,1,87,0,1
89426,-100,4,2,1,87,0,0
136851,-100,4,2,1,87,0,0
137211,-100,4,2,1,87,0,0
137570,-100,4,2,1,87,0,0
137750,-100,4,2,1,87,0,0
137839,-100,4,2,1,87,0,0
137929,-100,4,2,1,87,0,0
138109,-100,4,2,1,87,0,0
138289,-100,4,2,1,87,0,1
152660,-100,4,2,1,50,0,1
154097,-100,4,2,1,87,0,1
158408,-153.846153846153,4,2,1,87,0,0
161283,-100,4,2,1,87,0,1
167031,-95.2380952380952,4,2,1,87,0,1
175654,-100,4,2,1,87,0,1
178528,-153.846153846154,4,2,1,87,0,0
181402,-181.818181818182,4,2,1,87,0,0
183558,-200,4,2,1,87,0,0
184277,-100,4,2,1,87,0,0
190025,-90.9090909090909,4,2,1,87,0,0
195774,-100,4,2,1,87,0,0
197211,-95.2380952380952,4,2,1,87,0,0
198648,-90.9090909090909,4,2,1,87,0,0
200085,-83.3333333333333,4,2,1,87,0,0
201522,-76.9230769230769,4,2,1,87,0,0
202959,-71.4285714285714,4,2,1,87,0,0
204396,-66.6666666666667,4,2,1,87,0,0
205833,-64.5161290322581,4,2,1,87,0,0
207271,-200,4,2,1,87,0,0

[Colours]
Combo1 : 128,64,0
Combo2 : 255,255,0
Combo3 : 255,96,0
Combo4 : 255,11,17
Combo5 : 255,128,64
Combo6 : 128,0,0

[HitObjects]
48,120,325,5,8,0:0:0:0:
220,164,684,2,0,B|272:168|308:128,1,80
48,120,1223,1,0,0:0:0:0:
250,206,1402,2,0,B|288:180|302:110,1,80
264,48,1762,5,0,0:0:0:0:
252,24,1851,1,0,0:0:0:0:
224,36,1941,1,0,0:0:0:0:
248,208,2121,2,0,L|248:116,1,80
332,72,2480,2,0,B|356:40|356:40|384:76|448:68,1,120
468,48,2839,1,0,0:0:0:0:
332,172,3019,1,0,0:0:0:0:
332,172,3558,5,0,0:0:0:0:
332,172,3738,1,0,0:0:0:0:
196,260,4097,2,0,L|108:268,1,80
332,172,4456,1,0,0:0:0:0:
452,244,4636,5,8,0:0:0:0:
492,288,4726,1,0,0:0:0:0:
472,340,4816,2,0,B|424:320|424:320|400:348|332:340,1,120
304,324,5175,1,0,0:0:0:0:
248,340,5265,2,0,L|192:364,1,40
276,192,5534,1,0,0:0:0:0:
304,324,5714,1,0,0:0:0:0:
168,112,5893,1,0,0:0:0:0:
276,192,6073,6,0,P|260:136|152:124,1,160,8|0,0:0|0:0,0:0:0:0:
344,116,6612,1,0,0:0:0:0:
136,44,6971,2,0,P|100:72|92:128,1,80
276,192,7330,1,0,0:0:0:0:
448,124,7510,6,0,L|500:112,1,40,8|0,0:0|0:0,0:0:0:0:
416,120,7690,1,0,0:0:0:0:
189,98,7869,2,0,P|145:66|133:30,1,80
48,96,8229,2,0,B|40:136|12:156|12:156|32:180|12:204|12:204|32:236,1,160
56,288,8678,2,0,L|104:304,1,40
152,312,8857,1,0,0:0:0:0:
152,312,8947,1,8,0:0:0:0:
228,352,9127,1,0,0:0:0:0:
352,352,9307,6,0,L|464:352,1,80
152,312,9845,1,0,0:0:0:0:
392,352,10025,2,0,P|440:336|476:300,1,80
384,156,10384,1,8,0:0:0:0:
376,188,10474,1,0,0:0:0:0:
376,220,10564,1,0,0:0:0:0:
280,228,10744,1,0,0:0:0:0:
280,260,10833,1,0,0:0:0:0:
280,292,10923,1,0,0:0:0:0:
184,276,11103,6,8,L|168:348,1,53.3333333333333
100,352,11342,1,2,0:0:0:0:
56,212,11462,2,0,L|144:192,2,80,4|0|8,0:0|0:0|0:0,0:0:0:0:
136,84,12001,5,0,0:0:0:0:
216,220,12181,1,0,0:0:0:0:
52,136,12360,2,0,L|68:48,1,80
216,216,12720,1,0,0:0:0:0:
52,136,12899,1,2,0:0:0:0:
192,36,13079,2,0,L|304:68,1,80,0|8,0:0|0:0,0:0:0:0:
376,184,13438,6,0,P|372:240|360:288,1,80
448,252,13798,2,0,P|432:316|412:344,1,80
304,332,14157,2,0,L|208:332,2,80,0|2|0,0:0|0:0|0:0,0:0:0:0:
367,263,14696,5,8,0:0:0:0:
367,263,14786,1,0,0:0:0:0:
367,263,14875,1,0,0:0:0:0:
284,168,15055,1,0,0:0:0:0:
448,252,15234,2,0,L|432:340,1,80
284,172,15594,1,0,0:0:0:0:
448,252,15774,1,2,0:0:0:0:
308,352,15953,2,0,L|196:320,1,80,0|8,0:0|0:0,0:0:0:0:
124,204,16312,6,0,P|128:148|140:100,1,80
52,136,16672,2,0,P|68:72|88:44,1,80
196,56,17031,2,0,L|292:56,2,80,0|2|0,0:0|0:0|0:0,0:0:0:0:
348,20,17570,6,0,P|360:60|348:100,1,80,8|0,0:0|0:0,0:0:0:0:
224,152,17929,1,0,0:0:0:0:
336,192,18109,2,0,L|432:192,1,80
224,152,18468,2,0,P|220:200|224:236,1,80,0|2,0:0|0:0,0:0:0:0:
412,192,18827,1,0,0:0:0:0:
352,100,19007,5,8,0:0:0:0:
224,152,19187,1,0,0:0:0:0:
276,56,19366,1,0,0:0:0:0:
223,231,19546,1,0,0:0:0:0:
223,231,19726,2,0,L|312:232,1,80
412,192,20085,2,0,P|416:240|412:280,1,80,2|0,0:0|0:0,0:0:0:0:
367,121,20444,5,8,0:0:0:0:
367,121,20623,1,0,0:0:0:0:
284,216,20803,1,0,0:0:0:0:
448,132,20983,2,0,L|432:44,1,80
284,212,21342,1,0,0:0:0:0:
448,132,21521,1,2,0:0:0:0:
308,32,21702,2,0,L|196:64,1,80,0|8,0:0|0:0,0:0:0:0:
124,180,22061,6,0,P|128:236|140:284,1,80
52,248,22420,2,0,P|68:312|88:340,1,80
196,328,22779,2,0,L|292:328,2,80,0|2|0,0:0|0:0|0:0,0:0:0:0:
236,200,23319,6,0,P|276:232|296:268,1,80,8|0,0:0|0:0,0:0:0:0:
300,204,23678,2,0,P|324:252|324:284,1,80,8|0,0:0|0:0,0:0:0:0:
352,236,24037,2,0,P|352:296|336:320,1,80,8|0,0:0|0:0,0:0:0:0:
388,280,24396,2,0,P|372:328|336:360,1,80,8|0,0:0|0:0,0:0:0:0:
352,349,24756,6,0,L|272:352,1,80,8|0,0:0|0:0,0:0:0:0:
272,276,25115,2,0,L|184:276,1,80,8|0,0:0|0:0,0:0:0:0:
192,348,25474,2,0,L|112:348,1,80,8|0,0:0|0:0,0:0:0:0:
108,280,25833,1,0,0:0:0:0:
108,280,26013,2,0,L|40:280,1,40
28,268,26193,6,0,L|28:228,3,40
88,144,26552,2,0,L|88:92,3,40
160,208,26911,2,0,L|160:264,3,40
224,116,27271,2,0,L|224:64,3,40
288,188,27630,6,4,P|340:192|372:188,1,80,4|0,0:0|0:0,0:0:0:0:
420,164,27899,1,4,0:0:0:0:
456,120,27989,2,4,P|440:220|492:276,1,160,4|0,0:0|0:0,0:0:0:0:
484,280,28438,1,4,0:0:0:0:
492,296,28528,1,4,0:0:0:0:
500,312,28618,1,4,0:0:0:0:
500,312,28708,6,0,L|408:320,1,80
368,296,28977,1,0,0:0:0:0:
324,328,29067,2,0,L|336:368,3,40
232,232,29426,2,0,L|216:172,3,40
156,324,29786,2,0,L|96:340,3,40
212,336,30145,5,0,0:0:0:0:
268,316,30235,1,0,0:0:0:0:
304,272,30324,1,0,0:0:0:0:
324,220,30414,1,0,0:0:0:0:
312,164,30504,5,0,0:0:0:0:
328,152,30863,5,0,0:0:0:0:
356,144,31223,6,0,L|428:188,1,80
208,188,31582,1,0,0:0:0:0:
152,260,31762,1,0,0:0:0:0:
152,260,31941,6,0,B|192:264|192:264|252:260,1,80
156,268,32301,6,0,B|196:272|196:272|256:256,1,80
160,276,32660,6,0,B|200:280|200:280|244:256,1,80
168,284,33019,6,0,B|208:288|208:288|236:260,1,80
328,124,33378,6,0,P|328:192|340:216,1,80,8|0,0:0|0:0,0:0:0:0:
436,136,33738,2,0,L|436:48,1,80,8|0,0:0|0:0,0:0:0:0:
192,132,34097,2,0,L|176:176,1,40,8|0,0:0|0:0,0:0:0:0:
160,208,34277,1,0,0:0:0:0:
172,308,34456,1,8,0:0:0:0:
304,348,34636,2,0,P|376:352|408:344,1,80,0|2,0:0|0:0,0:0:0:0:
472,344,34995,5,0,0:0:0:0:
416,288,35175,1,0,0:0:0:0:
496,268,35354,1,0,0:0:0:0:
400,220,35534,1,0,0:0:0:0:
480,156,35714,1,0,0:0:0:0:
344,176,35893,1,0,0:0:0:0:
408,56,36073,1,0,0:0:0:0:
408,56,36253,6,0,P|348:92|320:92,1,80
112,104,36612,2,0,P|148:72|212:68,1,80
260,168,36971,2,0,P|280:208|280:264,1,80
228,336,37330,2,0,P|168:356|124:352,1,80
40,344,37690,5,2,0:0:0:0:
96,288,37870,1,0,0:0:0:0:
16,268,38049,1,0,0:0:0:0:
112,220,38229,1,0,0:0:0:0:
32,156,38409,1,0,0:0:0:0:
168,176,38588,1,0,0:0:0:0:
104,56,38768,1,0,0:0:0:0:
232,148,38948,5,0,0:0:0:0:
248,24,39127,1,2,0:0:0:0:
304,188,39307,1,0,0:0:0:0:
412,44,39487,1,0,0:0:0:0:
376,228,39666,1,0,0:0:0:0:
504,164,39846,1,0,0:0:0:0:
468,316,40025,1,0,0:0:0:0:
352,164,40205,1,0,0:0:0:0:
496,252,40384,1,0,0:0:0:0:
324,328,40564,5,0,0:0:0:0:
292,312,40654,1,0,0:0:0:0:
272,288,40744,1,0,0:0:0:0:
256,260,40833,1,0,0:0:0:0:
248,228,40923,1,0,0:0:0:0:
256,196,41013,1,0,0:0:0:0:
268,164,41103,1,0,0:0:0:0:
272,132,41193,1,0,0:0:0:0:
268,100,41283,5,0,0:0:0:0:
256,68,41372,1,0,0:0:0:0:
232,48,41462,1,0,0:0:0:0:
200,40,41552,1,0,0:0:0:0:
168,44,41642,1,0,0:0:0:0:
60,128,41822,1,8,0:0:0:0:
84,264,42001,5,0,0:0:0:0:
112,280,42091,1,0,0:0:0:0:
140,280,42181,1,0,0:0:0:0:
168,272,42270,1,0,0:0:0:0:
192,256,42360,1,0,0:0:0:0:
216,236,42450,1,0,0:0:0:0:
240,220,42540,1,0,0:0:0:0:
268,216,42630,1,0,0:0:0:0:
296,224,42720,5,0,0:0:0:0:
324,236,42809,1,0,0:0:0:0:
348,256,42899,1,0,0:0:0:0:
368,276,42989,1,0,0:0:0:0:
388,296,43079,1,0,0:0:0:0:
508,312,43259,1,8,0:0:0:0:
388,204,43438,5,0,0:0:0:0:
352,200,43528,1,0,0:0:0:0:
320,200,43618,1,0,0:0:0:0:
288,208,43708,1,0,0:0:0:0:
256,224,43798,1,0,0:0:0:0:
232,240,43887,1,0,0:0:0:0:
200,244,43977,1,0,0:0:0:0:
312,96,44157,5,0,0:0:0:0:
344,100,44247,1,0,0:0:0:0:
376,104,44336,1,0,0:0:0:0:
408,100,44426,1,0,0:0:0:0:
440,88,44516,1,0,0:0:0:0:
468,72,44606,1,0,0:0:0:0:
484,48,44696,2,0,L|372:44,1,80,0|8,0:0|0:0,0:0:0:0:
256,192,45055,5,0,0:0:0:0:
88,260,45235,2,0,L|16:284,2,40,8|0|0,0:0|0:0|0:0,0:0:0:0:
256,192,45594,1,8,0:0:0:0:
320,272,45774,2,0,L|424:304,1,80,8|0,0:0|0:0,0:0:0:0:
256,192,46133,1,8,0:0:0:0:
184,106,46313,6,0,P|125:112|104:222,1,160,8|0,0:0|0:0,0:0:0:0:
219,298,46851,1,0,0:0:0:0:
162,179,47031,2,0,P|215:177|257:119,1,120,2|0,0:0|0:0,0:0:0:0:
277,51,47390,2,0,L|384:71,1,80,2|0,0:0|0:0,0:0:0:0:
406,218,47750,6,0,L|452:44,1,160,8|0,0:0|0:0,0:0:0:0:
500,168,48289,1,0,0:0:0:0:
349,115,48468,2,0,P|290:113|241:135,1,80,2|0,0:0|0:0,0:0:0:0:
334,190,48827,2,0,P|276:203|234:237,1,80,2|0,0:0|0:0,0:0:0:0:
156,276,49187,6,0,P|100:288|48:192,1,160,8|0,0:0|0:0,0:0:0:0:
136,84,49726,1,0,0:0:0:0:
114,218,49905,2,0,P|161:206|206:224,1,80,2|0,0:0|0:0,0:0:0:0:
316,316,50265,1,2,0:0:0:0:
220,300,50444,1,2,0:0:0:0:
372,248,50624,6,0,P|388:196|368:144,1,80,8|0,0:0|0:0,0:0:0:0:
352,80,50983,1,0,0:0:0:0:
296,188,51163,1,0,0:0:0:0:
422,89,51342,2,0,P|408:36|300:32,1,160,4|0,0:0|0:0,0:0:0:0:
65,155,52061,6,0,L|157:166,1,80,8|0,0:0|0:0,0:0:0:0:
300,199,52420,2,0,L|208:210,1,80
163,265,52780,1,2,0:0:0:0:
228,120,52959,1,0,0:0:0:0:
252,280,53139,1,2,0:0:0:0:
132,172,53319,1,0,0:0:0:0:
300,199,53498,6,0,P|348:211|440:127,1,160,8|0,0:0|0:0,0:0:0:0:
348,128,54037,1,0,0:0:0:0:
276,272,54217,2,0,P|350:286|446:257,1,160,2|2,0:0|0:0,0:0:0:0:
462,194,54935,5,8,0:0:0:0:
462,194,55115,2,0,P|480:132|456:72,1,120.000004577637
402,140,55654,2,0,L|270:149,1,120.000004577637,2|2,0:0|0:0,0:0:0:0:
192,152,56193,1,0,0:0:0:0:
220,300,56372,5,8,0:0:0:0:
220,300,56552,2,0,L|316:292,1,75.9999979705811,8|0,0:0|0:0,0:0:0:0:
404,188,56911,1,8,0:0:0:0:
404,188,57091,2,8,L|308:196,1,75.9999979705811,2|0,0:0|0:0,0:0:0:0:
264,128,57450,1,2,0:0:0:0:
220,276,57630,1,2,0:0:0:0:
202,269,57719,1,2,0:0:0:0:
184,263,57810,6,0,P|128:236|116:120,1,160,8|0,0:0|0:0,0:0:0:0:
132,32,58348,1,0,0:0:0:0:
182,178,58528,2,0,L|315:100,1,120,2|0,0:0|0:0,0:0:0:0:
365,117,58887,2,0,P|344:68|316:48,1,80,2|0,0:0|0:0,0:0:0:0:
308,212,59247,6,0,P|356:204|384:184,1,80,8|0,0:0|0:0,0:0:0:0:
436,80,59606,1,0,0:0:0:0:
452,200,59786,1,0,0:0:0:0:
304,136,59965,2,0,P|252:159|316:286,1,240,2|0,0:0|0:0,0:0:0:0:
306,211,60684,6,0,L|432:201,1,120,8|0,0:0|0:0,0:0:0:0:
431,276,61043,2,0,L|305:286,1,120
232,296,61402,1,2,0:0:0:0:
160,152,61582,1,0,0:0:0:0:
160,312,61762,1,2,0:0:0:0:
256,184,61941,1,2,0:0:0:0:
104,236,62121,6,0,P|56:180|48:140,1,80,8|0,0:0|0:0,0:0:0:0:
92,60,62480,2,0,P|140:32|220:40,1,120
280,60,62839,2,0,L|272:144,2,80,8|0|2,0:0|0:0|0:0,0:0:0:0:
280,60,63558,6,0,P|344:48|380:60,1,80,2|0,0:0|0:0,0:0:0:0:
306,132,63917,2,0,P|370:136|402:157,1,80,2|0,0:0|0:0,0:0:0:0:
244,204,64277,5,2,0:0:0:0:
404,220,64456,1,4,0:0:0:0:
204,200,64636,1,2,0:0:0:0:
444,224,64816,1,4,0:0:0:0:
168,196,64995,6,0,P|136:148|144:80,1,120,8|0,0:0|0:0,0:0:0:0:
184,20,65354,2,0,L|276:12,1,80,4|0,0:0|0:0,0:0:0:0:
416,68,65714,2,0,L|268:82,1,120,8|0,0:0|0:0,0:0:0:0:
265,153,66073,2,0,L|395:140,1,120,4|0,0:0|0:0,0:0:0:0:
437,194,66432,5,8,0:0:0:0:
373,257,66612,1,0,0:0:0:0:
264,256,66792,2,0,P|216:248|188:231,1,60.0000022888184
121,158,67151,1,0,0:0:0:0:
121,158,67510,1,0,0:0:0:0:
206,72,67690,1,8,0:0:0:0:
235,67,67779,1,8,0:0:0:0:
264,72,67869,5,8,0:0:0:0:
327,135,68049,1,0,0:0:0:0:
360,19,68229,1,0,0:0:0:0:
316,164,68408,1,0,0:0:0:0:
308,188,68678,1,0,0:0:0:0:
300,212,68947,2,0,L|276:284,1,60.0000022888184
195,354,69307,6,0,P|144:352|92:252,1,160,8|0,0:0|0:0,0:0:0:0:
169,278,69845,1,0,0:0:0:0:
108,172,70025,2,0,L|140:44,1,120,2|0,0:0|0:0,0:0:0:0:
217,55,70384,2,0,L|196:144,1,80,2|0,0:0|0:0,0:0:0:0:
284,218,70744,6,0,P|320:256|420:208,1,160,8|0,0:0|0:0,0:0:0:0:
351,193,71283,1,0,0:0:0:0:
404,116,71462,2,0,P|464:112|496:124,1,80,2|0,0:0|0:0,0:0:0:0:
424,40,71822,2,0,P|364:36|332:48,1,80,2|0,0:0|0:0,0:0:0:0:
252,24,72181,6,0,L|232:196,1,160,8|0,0:0|0:0,0:0:0:0:
165,114,72720,1,0,0:0:0:0:
324,128,72899,2,0,P|380:136|416:148,1,80,2|0,0:0|0:0,0:0:0:0:
360,300,73259,1,0,0:0:0:0:
344,217,73438,1,0,0:0:0:0:
412,72,73618,6,0,P|352:60|312:56,1,80,8|0,0:0|0:0,0:0:0:0:
236,44,73977,1,0,0:0:0:0:
192,156,74157,1,0,0:0:0:0:
120,153,74336,2,0,P|139:206|254:196,1,160,2|2,0:0|0:0,0:0:0:0:
428,76,75055,6,0,L|416:176,1,80,8|0,0:0|0:0,0:0:0:0:
336,244,75414,2,0,L|348:144,1,80,8|0,0:0|0:0,0:0:0:0:
231,50,75774,1,2,0:0:0:0:
118,162,75953,1,0,0:0:0:0:
172,12,76133,1,2,0:0:0:0:
184,172,76313,1,0,0:0:0:0:
188,204,76492,6,0,P|196:252|308:288,1,160,8|0,0:0|0:0,0:0:0:0:
269,218,77031,1,0,0:0:0:0:
120,243,77211,2,0,P|167:330|244:366,1,160,8|0,0:0|0:0,0:0:0:0:
332,325,77929,5,0,0:0:0:0:
332,325,78109,2,0,P|360:292|368:208,1,120.000004577637
306,154,78648,2,0,P|278:187|270:271,1,120.000004577637,2|0,0:0|0:0,0:0:0:0:
332,325,79187,1,0,0:0:0:0:
439,217,79366,5,8,0:0:0:0:
439,217,79546,2,0,L|456:132,1,75.9999979705811,2|0,0:0|0:0,0:0:0:0:
402,40,79905,1,8,0:0:0:0:
402,40,80085,2,0,L|385:125,1,75.9999979705811,2|0,0:0|0:0,0:0:0:0:
306,195,80444,1,0,0:0:0:0:
225,114,80624,1,8,0:0:0:0:
206,113,80713,1,8,0:0:0:0:
188,112,80804,6,0,B|140:120|100:96|100:96|80:180,1,160,8|0,0:0|0:0,0:0:0:0:
168,247,81342,1,0,0:0:0:0:
210,323,81522,2,0,P|248:284|251:200,1,120,2|0,0:0|0:0,0:0:0:0:
314,172,81881,2,0,P|248:148|204:156,1,80,2|0,0:0|0:0,0:0:0:0:
353,262,82241,6,0,P|419:238|463:246,1,80,8|0,0:0|0:0,0:0:0:0:
495,306,82600,1,0,0:0:0:0:
452,152,82780,1,0,0:0:0:0:
353,261,82959,2,0,P|296:283|218:133,1,240,2|0,0:0|0:0,0:0:0:0:
287,197,83678,6,0,P|284:128|244:83,1,120,8|0,0:0|0:0,0:0:0:0:
169,55,84037,2,0,P|172:124|212:169,1,120
202,242,84396,1,2,0:0:0:0:
287,327,84576,1,0,0:0:0:0:
133,282,84756,1,2,0:0:0:0:
332,264,84935,1,0,0:0:0:0:
108,352,85115,6,0,P|64:312|60:264,1,80,8|0,0:0|0:0,0:0:0:0:
56,116,85474,2,0,L|108:252,1,120
179,228,85833,2,0,L|144:144,2,80,2|0|2,0:0|0:0|0:0,0:0:0:0:
308,92,86552,6,0,P|364:84|400:88,1,80,8|0,0:0|0:0,0:0:0:0:
332,108,86911,2,0,P|388:115|422:128,1,80
264,196,87271,1,2,0:0:0:0:
248,36,87450,1,0,0:0:0:0:
268,236,87630,1,2,0:0:0:0:
244,0,87810,1,0,0:0:0:0:
272,276,87989,6,0,L|416:288,1,120,8|0,0:0|0:0,0:0:0:0:
448,229,88348,2,0,P|468:176|464:136,1,80
382,67,88708,2,0,P|324:52|232:64,1,120,8|0,0:0|0:0,0:0:0:0:
407,46,89067,2,0,P|351:29|218:42,1,180.000006866455,8|0,0:0|0:0,0:0:0:0:
160,108,89426,1,4,0:0:0:0:
48,140,103798,6,0,L|148:144,1,80
208,168,104157,1,0,0:0:0:0:
208,168,104336,2,0,L|376:168,1,160,4|0,0:0|0:0,0:0:0:0:
432,104,104875,2,0,P|452:148|444:208,1,80
328,256,105235,5,0,0:0:0:0:
168,256,105414,1,0,0:0:0:0:
148,243,105594,2,0,L|68:183,1,80,0|4,0:0|0:0,0:0:0:0:
288,168,106133,2,0,L|384:168,1,80
232,100,106492,5,0,0:0:0:0:
224,236,106672,1,0,0:0:0:0:
368,168,106851,1,0,0:0:0:0:
152,84,107031,2,0,L|148:248,1,160
148,243,107750,1,0,0:0:0:0:
276,328,108109,6,0,B|320:332|320:332|380:324,1,80
400,264,108468,1,0,0:0:0:0:
468,216,108648,2,0,P|480:276|460:320,1,80,4|0,0:0|0:0,0:0:0:0:
408,152,109187,1,0,0:0:0:0:
280,220,109366,6,0,P|236:228|184:216,1,80
128,216,109726,1,0,0:0:0:0:
160,140,109905,1,0,0:0:0:0:
104,208,110085,1,4,0:0:0:0:
84,120,110265,1,0,0:0:0:0:
68,216,110444,1,0,0:0:0:0:
12,148,110624,1,0,0:0:0:0:
280,220,110983,5,0,0:0:0:0:
116,292,111342,2,0,L|20:292,1,80,0|4,0:0|0:0,0:0:0:0:
436,176,111881,1,0,0:0:0:0:
280,220,112061,2,0,L|280:132,1,80
308,92,112330,1,0,0:0:0:0:
356,60,112420,6,0,B|404:64|404:64|464:56,1,80
244,40,112780,1,0,0:0:0:0:
244,40,112959,1,4,0:0:0:0:
148,148,113319,1,0,0:0:0:0:
148,160,113678,1,0,0:0:0:0:
148,172,114037,1,0,0:0:0:0:
148,184,114396,1,0,0:0:0:0:
148,200,114756,2,0,P|148:244|256:300,1,160
328,328,115295,6,0,B|356:304|352:248|352:248|396:288|468:288|464:208,1,240
408,96,116013,2,0,P|392:140|400:200,1,80
464,218,116372,5,2,0:0:0:0:
488,108,116552,1,8,0:0:0:0:
404,24,116732,1,2,0:0:0:0:
296,92,116911,1,8,0:0:0:0:
296,92,117091,2,0,P|268:148|176:128,1,160
136,64,117630,2,0,P|200:56|232:80,1,80
156,216,117989,1,0,0:0:0:0:
241,301,118169,6,0,L|336:308,1,80
405,221,118528,2,0,P|408:276|396:312,1,80,0|4,0:0|0:0,0:0:0:0:
316,216,118887,1,0,0:0:0:0:
464,160,119067,1,0,0:0:0:0:
343,140,119247,2,0,L|311:228,1,80
256,110,119606,6,0,P|199:102|163:112,1,80
112,207,119965,2,0,L|97:308,1,80,0|4,0:0|0:0,0:0:0:0:
37,223,120324,1,0,0:0:0:0:
176,256,120504,1,0,0:0:0:0:
207,182,120684,2,0,L|166:275,1,80
284,140,121043,6,0,P|336:136|372:144,1,80
448,226,121402,2,0,P|396:230|360:222,1,80,0|4,0:0|0:0,0:0:0:0:
300,293,121762,1,0,0:0:0:0:
284,136,121941,1,0,0:0:0:0:
207,157,122121,2,0,P|268:136|305:135,1,80
172,88,122480,6,0,L|88:132,1,80
12,208,122839,2,0,L|32:312,1,80,0|4,0:0|0:0,0:0:0:0:
107,286,123199,1,0,0:0:0:0:
48,136,123378,1,0,0:0:0:0:
32,56,123558,2,0,L|52:160,1,80
200,84,123917,6,0,P|256:80|288:88,1,80
193,170,124277,2,0,P|248:180|276:196,1,80,0|4,0:0|0:0,0:0:0:0:
325,248,124636,1,0,0:0:0:0:
372,96,124816,1,0,0:0:0:0:
295,74,124995,2,0,P|350:84|378:100,1,80
484,208,125354,6,0,P|476:284|424:320,1,120
372,344,125714,2,0,L|264:352,2,80
252,240,126253,1,0,0:0:0:0:
300,88,126432,1,2,0:0:0:0:
260,86,126521,1,2,0:0:0:0:
220,84,126611,1,2,0:0:0:0:
180,82,126701,1,2,0:0:0:0:
140,80,126791,1,8,0:0:0:0:
256,192,132540,12,0,135414,0:0:0:0:
256,192,135504,12,0,136672,0:0:0:0:
236,108,136851,5,0,0:0:0:0:
360,192,137031,1,0,0:0:0:0:
320,104,137211,1,0,0:0:0:0:
412,260,137390,1,0,0:0:0:0:
404,132,137570,1,0,0:0:0:0:
344,312,137750,2,8,L|284:328,1,40
368,296,137929,1,2,0:0:0:0:
476,208,138109,1,0,0:0:0:0:
320,104,138289,6,0,P|252:120|152:96,1,160,8|0,0:0|0:0,0:0:0:0:
240,36,138827,1,0,0:0:0:0:
352,180,139007,2,0,L|284:252,1,80,2|0,0:0|0:0,0:0:0:0:
396,112,139366,2,0,P|428:156|428:208,1,80,2|0,0:0|0:0,0:0:0:0:
392,272,139726,5,8,0:0:0:0:
392,272,139905,1,0,0:0:0:0:
348,176,140085,2,0,L|348:80,1,80,2|0,0:0|0:0,0:0:0:0:
464,268,140444,2,0,L|464:364,1,80,2|0,0:0|0:0,0:0:0:0:
460,184,140804,1,4,0:0:0:0:
464,344,141163,5,8,0:0:0:0:
464,112,141522,1,2,0:0:0:0:
264,64,141702,2,8,L|276:24,2,40
104,156,142061,1,2,0:0:0:0:
52,264,142241,2,8,P|100:300|148:300,1,80
256,284,142600,5,2,0:0:0:0:
332,196,142780,1,8,0:0:0:0:
272,56,142959,1,8,0:0:0:0:
224,348,143139,1,2,0:0:0:0:
332,268,143319,1,8,0:0:0:0:
264,128,143498,2,0,L|347:127,1,80
264,128,143857,1,0,0:0:0:0:
488,132,144037,6,0,P|424:160|340:120,1,160,8|0,0:0|0:0,0:0:0:0:
360,28,144576,2,0,P|400:52|420:92,1,80,0|2,0:0|0:0,0:0:0:0:
320,196,144935,2,0,L|328:284,1,80,0|2,0:0|0:0,0:0:0:0:
376,348,145295,1,0,0:0:0:0:
248,212,145474,5,8,0:0:0:0:
396,180,145654,1,2,0:0:0:0:
396,188,145744,1,2,0:0:0:0:
396,196,145833,1,2,0:0:0:0:
288,352,146013,1,0,0:0:0:0:
288,352,146193,2,0,L|176:360,1,80,2|8,0:0|0:0,0:0:0:0:
396,196,146552,1,0,0:0:0:0:
376,348,146732,1,0,0:0:0:0:
248,212,146911,6,0,L|232:96,1,80,8|0,0:0|0:0,0:0:0:0:
324,224,147271,2,0,P|284:280|184:256,1,160,2|2,0:0|0:0,0:0:0:0:
164,140,147810,1,0,0:0:0:0:
310,162,147989,2,0,L|230:226,1,80,4|0,0:0|0:0,0:0:0:0:
164,140,148348,2,0,L|164:48,2,80,8|0|2,0:0|0:0|0:0,0:0:0:0:
164,240,148887,1,0,0:0:0:0:
164,240,149067,2,0,P|216:260|256:260,1,80,2|0,0:0|0:0,0:0:0:0:
380,244,149426,1,8,0:0:0:0:
392,244,149516,1,8,0:0:0:0:
408,244,149606,2,0,L|340:308,1,80,8|0,0:0|0:0,0:0:0:0:
248,336,149965,6,0,P|192:312|92:328,1,160
248,252,150504,1,2,0:0:0:0:
32,352,150863,1,0,0:0:0:0:
180,240,151043,2,0,B|184:204|184:204|172:140,1,80,0|8,0:0|0:0,0:0:0:0:
116,88,151402,1,0,0:0:0:0:
108,208,151582,1,0,0:0:0:0:
288,312,151941,2,0,L|456:312,1,160,8|0,0:0|0:0,0:0:0:0:
108,208,152660,6,0,L|204:240,1,80
228,300,152929,1,2,0:0:0:0:
228,300,153019,2,0,P|276:316|320:312,1,80,2|2,0:0|0:0,0:0:0:0:
356,304,153289,1,2,0:0:0:0:
408,320,153378,2,0,L|484:320,2,53.3333333333333,2|2|2,0:0|0:0|0:0,0:0:0:0:
320,228,153738,2,0,L|260:228,2,53.3333333333333,2|2|2,0:0|0:0|0:0,0:0:0:0:
432,156,154097,6,0,L|328:156,1,80
228,88,154456,2,0,P|192:112|168:152,1,80
152,232,154816,1,8,0:0:0:0:
156,28,155175,1,4,0:0:0:0:
152,236,155534,6,0,L|260:236,1,80
328,264,155893,1,0,0:0:0:0:
32,176,156253,2,0,L|36:336,1,160,8|0,0:0|0:0,0:0:0:0:
260,336,156971,5,2,0:0:0:0:
308,256,157151,1,0,0:0:0:0:
352,328,157330,1,2,0:0:0:0:
236,256,157510,1,0,0:0:0:0:
380,196,157690,1,2,0:0:0:0:
260,336,158049,2,0,P|192:320|132:332,1,120,2|0,0:0|0:0,0:0:0:0:
100,360,158408,6,0,L|100:192,1,155.999992858887,2|8,0:0|0:0,0:0:0:0:
100,296,159127,6,0,L|99:123,1,155.999992858887,2|8,0:0|0:0,0:0:0:0:
100,232,159845,6,0,L|99:58,1,155.999992858887,2|8,0:0|0:0,0:0:0:0:
100,152,160564,6,0,L|99:52,1,77.9999964294435,2|8,0:0|0:0,0:0:0:0:
44,236,160923,1,8,0:0:0:0:
96,268,161013,1,8,0:0:0:0:
152,288,161103,1,8,0:0:0:0:
212,296,161193,1,8,0:0:0:0:
100,152,161283,6,0,B|132:128|168:144|168:144|184:136|184:136|216:164|256:148,1,160,8|2,0:0|0:0,0:0:0:0:
332,112,161822,1,0,0:0:0:0:
320,232,162001,2,0,L|216:240,1,80,2|0,0:0|0:0,0:0:0:0:
444,224,162360,1,0,0:0:0:0:
240,238,162540,1,0,0:0:0:0:
444,224,162720,5,8,0:0:0:0:
162,242,162899,1,0,0:0:0:0:
74,166,163079,2,0,P|52:120|104:24,1,160,2|2,0:0|0:0,0:0:0:0:
216,24,163618,1,0,0:0:0:0:
128,104,163798,1,4,0:0:0:0:
128,104,164157,6,0,L|216:116,1,80,8|0,0:0|0:0,0:0:0:0:
292,29,164516,2,0,B|312:88|268:104|296:164,1,120,2|0,0:0|0:0,0:0:0:0:
324,220,164875,1,2,0:0:0:0:
179,288,165055,1,0,0:0:0:0:
321,225,165235,5,2,0:0:0:0:
170,280,165415,1,0,0:0:0:0:
318,231,165594,5,4,0:0:0:0:
163,273,165774,1,0,0:0:0:0:
314,236,165953,5,2,0:0:0:0:
156,264,166133,1,0,0:0:0:0:
322,153,166313,1,2,0:0:0:0:
322,153,166492,2,0,L|336:68,2,80
236,60,167031,6,0,P|188:32|100:96,1,167.999994873047,8|0,0:0|0:0,0:0:0:0:
104,212,167570,1,0,0:0:0:0:
176,108,167750,2,0,L|208:276,1,167.999994873047,2|2,0:0|0:0,0:0:0:0:
207,273,168289,1,2,0:0:0:0:
207,273,168468,6,0,L|312:292,1,83.9999974365235,8|0,0:0|0:0,0:0:0:0:
372,304,168827,1,0,0:0:0:0:
491,184,169187,2,0,L|386:165,1,83.9999974365235,8|0,0:0|0:0,0:0:0:0:
319,79,169546,1,0,0:0:0:0:
229,168,169726,1,0,0:0:0:0:
229,168,169905,6,0,P|196:124|148:208,2,167.999994873047,8|0|0,0:0|0:0|0:0,0:0:0:0:
220,296,170804,1,0,0:0:0:0:
328,236,170983,2,0,L|432:248,1,83.9999974365235,8|0,0:0|0:0,0:0:0:0:
400,120,171342,6,0,P|433:76|481:160,2,167.999994873047,8|0|0,0:0|0:0|0:0,0:0:0:0:
409,248,172241,1,0,0:0:0:0:
301,188,172420,2,0,L|197:200,1,83.9999974365235,8|0,0:0|0:0,0:0:0:0:
127,107,172780,6,0,P|76:104|36:224,1,167.999994873047,8|0,0:0|0:0,0:0:0:0:
99,179,173319,1,0,0:0:0:0:
244,260,173498,2,0,L|348:268,1,83.9999974365235,2|0,0:0|0:0,0:0:0:0:
400,116,173857,1,2,0:0:0:0:
489,205,174037,1,0,0:0:0:0:
399,294,174217,6,0,L|295:286,1,83.9999974365235,8|0,0:0|0:0,0:0:0:0:
244,242,174576,2,0,L|140:234,1,83.9999974365235
100,176,174935,1,2,0:0:0:0:
128,52,175115,1,0,0:0:0:0:
199,123,175295,2,0,L|288:132,1,83.9999974365235
332,140,175564,1,2,0:0:0:0:
196,160,175654,6,0,L|292:148,1,80,8|0,0:0|0:0,0:0:0:0:
368,200,175923,1,0,0:0:0:0:
380,208,176013,2,0,L|464:180,1,80,2|0,0:0|0:0,0:0:0:0:
464,308,176283,1,0,0:0:0:0:
480,312,176372,2,0,L|504:220,1,80,2|0,0:0|0:0,0:0:0:0:
488,116,176732,1,2,0:0:0:0:
416,276,176911,1,2,0:0:0:0:
416,120,177091,5,2,0:0:0:0:
416,120,177271,2,0,L|248:144,1,160
396,44,177810,1,2,0:0:0:0:
308,244,178169,1,4,0:0:0:0:
108,280,178528,6,0,P|46:277|26:184,1,155.999992858887,8|0,0:0|0:0,0:0:0:0:
156,116,179247,2,0,L|156:209,1,77.9999964294435
212,296,179606,1,0,0:0:0:0:
360,76,179965,5,8,0:0:0:0:
360,76,180324,1,0,0:0:0:0:
440,280,180684,2,0,P|392:248|291:273,1,155.999992858887
492,228,181402,6,0,L|440:184,1,66.0000020141602,8|0,0:0|0:0,0:0:0:0:
351,50,181762,2,0,P|355:94|392:136,1,88.000002685547
276,112,182480,2,0,L|320:196,1,88.000002685547
248,256,183019,2,0,L|292:288,1,44.0000013427735
384,324,183378,1,0,0:0:0:0:
152,232,183558,1,8,0:0:0:0:
256,192,184366,12,0,187151,0:0:0:0:
152,296,187510,6,0,L|52:296,1,80
316,124,188049,2,0,L|408:124,1,80
240,72,188408,1,0,0:0:0:0:
136,112,188588,2,2,L|136:52,1,40
124,136,188768,6,0,P|120:184|144:232,1,80
176,296,189037,1,2,0:0:0:0:
188,328,189127,2,2,L|304:332,1,80
424,216,189486,1,0,0:0:0:0:
460,340,189666,1,2,0:0:0:0:
272,188,189845,1,0,0:0:0:0:
382,91,190025,6,0,L|371:200,1,88.000002685547,8|0,0:0|0:0,0:0:0:0:
260,248,190384,1,4,0:0:0:0:
260,248,190504,1,0,0:0:0:0:
260,248,190624,1,0,0:0:0:0:
108,88,190923,1,0,0:0:0:0:
228,32,191103,2,0,P|284:24|340:36,1,88.000002685547
420,108,191462,6,0,L|412:204,1,88.000002685547,8|0,0:0|0:0,0:0:0:0:
287,321,191822,1,4,0:0:0:0:
212,246,192001,1,0,0:0:0:0:
376,316,192181,2,0,P|340:260|316:244,1,88.000002685547
160,316,192540,2,0,P|128:256|128:200,1,88.000002685547
148,128,192810,1,0,0:0:0:0:
148,128,192899,5,8,0:0:0:0:
320,84,193079,1,0,0:0:0:0:
413,177,193259,2,0,L|361:261,1,88.000002685547,4|0,0:0|0:0,0:0:0:0:
278,251,193618,1,0,0:0:0:0:
484,168,193798,1,0,0:0:0:0:
328,320,193977,2,0,L|268:232,1,88.000002685547
146,247,194336,5,8,0:0:0:0:
146,114,194516,1,0,0:0:0:0:
52,207,194696,1,4,0:0:0:0:
52,75,194875,1,0,0:0:0:0:
228,48,195055,5,2,0:0:0:0:
249,43,195144,1,2,0:0:0:0:
271,43,195234,1,2,0:0:0:0:
293,47,195324,1,2,0:0:0:0:
313,55,195414,1,2,0:0:0:0:
331,67,195504,1,2,0:0:0:0:
347,83,195593,1,2,0:0:0:0:
359,101,195683,1,2,0:0:0:0:
367,121,195774,6,0,L|352:212,1,80,8|0,0:0|0:0,0:0:0:0:
273,199,196133,1,4,0:0:0:0:
444,96,196313,2,0,L|429:187,1,80
430,174,196582,1,0,0:0:0:0:
430,174,196672,1,0,0:0:0:0:
236,132,196851,2,0,L|148:144,1,80
344,44,197211,6,0,L|426:31,1,83.9999974365235,8|0,0:0|0:0,0:0:0:0:
480,152,197570,2,0,P|484:212|472:252,1,83.9999974365235,4|0,0:0|0:0,0:0:0:0:
372,302,197929,1,4,0:0:0:0:
372,302,198019,1,0,0:0:0:0:
372,302,198109,1,0,0:0:0:0:
224,224,198289,2,0,L|136:240,1,83.9999974365235
281,163,198648,6,0,P|306:214|302:266,1,88.000002685547,8|0,0:0|0:0,0:0:0:0:
144,172,199007,1,4,0:0:0:0:
205,123,199187,2,0,P|258:141|292:180,1,88.000002685547,0|4,0:0|0:0,0:0:0:0:
280,162,199456,1,0,0:0:0:0:
280,162,199546,1,0,0:0:0:0:
392,232,199726,2,0,L|408:136,1,88.000002685547
508,247,200085,6,0,L|492:343,1,95.9999970703126,8|0,0:0|0:0,0:0:0:0:
392,236,200444,2,0,P|320:228|288:240,1,95.9999970703126,4|0,0:0|0:0,0:0:0:0:
176,316,200804,1,4,0:0:0:0:
176,316,200893,1,0,0:0:0:0:
176,316,200983,1,0,0:0:0:0:
76,212,201163,2,0,P|56:156|72:96,1,95.9999970703126
200,48,201522,6,0,L|312:56,1,103.999995239258,8|0,0:0|0:0,0:0:0:0:
172,136,201881,1,4,0:0:0:0:
303,55,202061,2,0,L|416:64,1,103.999995239258,0|4,0:0|0:0,0:0:0:0:
406,63,202330,1,0,0:0:0:0:
406,63,202420,1,0,0:0:0:0:
500,188,202600,2,0,P|492:248|464:292,1,103.999995239258
304,288,202959,6,0,L|192:272,1,111.999996582031,8|0,0:0|0:0,0:0:0:0:
73,152,203319,2,0,L|185:168,1,111.999996582031,4|0,0:0|0:0,0:0:0:0:
352,196,203678,1,4,0:0:0:0:
352,196,203768,1,0,0:0:0:0:
352,196,203857,1,0,0:0:0:0:
276,44,204037,2,0,L|260:156,1,111.999996582031
440,164,204396,6,0,P|440:236|396:276,1,120.000004577637,8|0,0:0|0:0,0:0:0:0:
380,92,204756,1,4,0:0:0:0:
409,269,204935,2,0,P|337:269|297:225,1,120.000004577637,0|4,0:0|0:0,0:0:0:0:
303,238,205205,1,0,0:0:0:0:
303,238,205295,1,0,0:0:0:0:
136,180,205474,2,0,L|256:160,1,120.000004577637
416,64,205833,6,0,P|448:128|440:192,1,124.000000946045,8|0,0:0|0:0,0:0:0:0:
254,160,206193,2,0,P|222:96|230:32,1,124.000000946045,4|0,0:0|0:0,0:0:0:0:
412,64,206552,1,4,0:0:0:0:
412,64,206642,1,0,0:0:0:0:
412,64,206732,1,0,0:0:0:0:
237,238,206911,1,0,0:0:0:0:
61,62,207091,1,0,0:0:0:0:
117,118,207271,6,0,P|156:132|224:92,1,120,0|2,0:0|0:0,0:0:0:0:
221,96,207899,1,2,0:0:0:0:
