osu file format v14

[General]
AudioFilename: Fluorescent Forests (feat. Albert Hyrnen).mp3
AudioLeadIn: 0
PreviewTime: 63600
Countdown: 0
SampleSet: Soft
StackLeniency: 0.7
Mode: 2
LetterboxInBreaks: 0
WidescreenStoryboard: 0

[Editor]
Bookmarks: 13074,65574
DistanceSpacing: 1
BeatDivisor: 2
GridSize: 4
TimelineZoom: 1

[Metadata]
Title:Fluorescent Forests (feat. Albert Hyronen)
TitleUnicode:Fluorescent Forests (feat. Albert Hyrönen)
Artist:Xtrullor
ArtistUnicode:Xtrullor
Creator:sxy62146214
Version:Cup
Source:
Tags:Mentorship Fantasty Newgrounds Light Purple Guitar calm bells ambience
BeatmapID:1341417
BeatmapSetID:631806

[Difficulty]
HPDrainRate:3
CircleSize:3
OverallDifficulty:4
ApproachRate:4
SliderMultiplier:1
SliderTickRate:1

[Events]
//Background and Video events
0,0,"timg.jpg",0,0
//Break Periods
//Storyboard Layer 0 (Background)
//Storyboard Layer 1 (Fail)
//Storyboard Layer 2 (Pass)
//Storyboard Layer 3 (Foreground)
//Storyboard Sound Samples

[TimingPoints]
443,394.736842105263,4,2,1,40,1,0
443,-200,4,2,1,40,0,0
38337,-133.333333333333,4,2,2,50,0,0
60442,-133.333333333333,4,2,3,50,0,0
63600,-100,4,2,4,60,0,1
87285,-100,4,2,3,50,0,0
88864,-133.333333333333,4,2,1,50,0,0
95179,-133.333333333333,4,2,1,45,0,0
101495,-133.333333333333,4,2,1,40,0,0
107811,-133.333333333333,4,2,1,35,0,0
112548,-133.333333333333,4,2,0,30,0,0
113337,-133.333333333333,4,2,0,25,0,0
114127,-133.333333333333,4,2,0,20,0,0
114916,-133.333333333333,4,2,0,15,0,0
115706,-133.333333333333,4,2,3,10,0,0

[Colours]
Combo1 : 64,0,128
Combo2 : 128,0,255
Combo3 : 128,0,128
Combo4 : 64,0,64

[HitObjects]
168,324,13074,6,0,P|75:275|4:200,1,200,0|8,0:0|0:0,0:0:0:0:
336,324,16232,6,0,P|420:280|486:192,1,200,0|8,0:0|0:0,0:0:0:0:
172,328,18600,1,8,0:0:0:0:
108,288,19390,6,0,P|56:212|112:216,1,200,0|8,0:0|0:0,0:0:0:0:
360,168,22548,6,0,P|424:180|364:136,1,200,0|8,0:0|0:0,0:0:0:0:
96,192,24916,1,8,0:0:0:0:
192,164,25706,6,0,P|152:140|128:116,2,75
248,168,27285,1,8,0:0:0:0:
388,256,28864,6,0,L|476:256,2,75,0|0|8,0:0|0:0|0:0,0:0:0:0:
340,256,30442,1,8,0:0:0:0:
244,256,31232,1,8,0:0:0:0:
144,272,32021,6,0,P|248:200|296:248,1,200,0|8,0:0|0:0,0:0:0:0:
256,192,35179,12,8,36758,0:0:0:0:
188,280,38337,6,0,P|126:268|99:223,1,112.500004291535
196,176,39521,2,0,L|259:216,1,75.0000028610231,0|4,0:0|0:0,0:0:0:0:
428,316,41495,6,0,P|360:328|328:296,1,112.500004291535
136,240,42679,2,0,L|220:216,1,75.0000028610231,0|4,0:0|0:0,0:0:0:0:
360,152,43864,1,4,0:0:0:0:
208,136,44653,6,0,P|146:146|134:199,1,112.500004291535
268,240,45837,2,0,P|317:213|310:190,1,75.0000028610231,0|4,0:0|0:0,0:0:0:0:
484,44,47811,6,0,L|364:68,1,112.500004291535
188,156,48995,2,0,L|272:140,1,75.0000028610231,0|4,0:0|0:0,0:0:0:0:
96,196,50179,1,4,0:0:0:0:
304,88,50969,6,0,B|376:96|376:96|400:152,1,112.500004291535
264,208,52153,2,0,L|189:201,1,75.0000028610231,0|4,0:0|0:0,0:0:0:0:
72,356,54127,6,0,B|112:344|112:344|144:356|144:356|176:332,1,112.500004291535
284,224,55311,2,0,L|200:272,1,75.0000028610231,0|4,0:0|0:0,0:0:0:0:
348,172,56495,1,4,0:0:0:0:
148,288,57285,6,0,P|132:232|312:228,1,300.000011444092,0|4,0:0|0:0,0:0:0:0:
256,192,60442,12,4,62021,0:0:0:0:
172,300,63600,6,0,L|16:300,2,150,0|0|8,0:0|0:0|0:0,0:0:0:0:
276,300,65179,1,4,0:0:0:0:
428,300,65574,2,0,P|450:209|372:157,1,200,0|8,0:0|0:0,0:0:0:0:
188,304,66758,6,0,L|28:304,2,150,0|0|8,0:0|0:0|0:0,0:0:0:0:
288,272,68337,1,4,0:0:0:0:
120,116,69127,1,4,0:0:0:0:
332,260,69916,6,0,L|484:260,2,150,0|0|8,0:0|0:0|0:0,0:0:0:0:
232,224,71495,1,4,0:0:0:0:
44,32,72679,5,0,0:0:0:0:
200,44,73074,6,0,L|360:44,2,150,0|0|8,0:0|0:0|0:0,0:0:0:0:
312,68,74653,2,4,P|348:116|456:32,1,200
292,88,76232,6,0,P|204:104|192:168,2,150,0|0|8,0:0|0:0|0:0,0:0:0:0:
384,132,77811,1,4,0:0:0:0:
128,232,79390,6,0,P|40:248|28:312,2,150,0|0|8,0:0|0:0|0:0,0:0:0:0:
300,288,80969,2,4,P|356:288|428:148,1,200
280,64,82548,6,0,P|368:80|380:144,2,150,0|0|8,0:0|0:0|0:0,0:0:0:0:
188,104,84127,1,4,0:0:0:0:
256,192,85706,12,4,87285,0:0:0:0:
152,288,88864,6,0,B|96:236|96:236|96:192,2,112.500004291535
228,288,90442,1,8,0:0:0:0:
108,216,92021,6,0,B|52:164|52:164|52:120,2,112.500004291535
184,216,93599,1,8,0:0:0:0:
40,84,94390,1,8,0:0:0:0:
360,288,95179,6,0,B|416:236|416:236|416:192,2,112.500004291535
284,296,96757,1,8,0:0:0:0:
404,216,98336,6,0,B|460:164|460:164|460:120,2,112.500004291535
328,216,99916,1,8,0:0:0:0:
412,320,100706,1,8,0:0:0:0:
112,312,101495,6,0,P|72:268|180:200,1,225.000008583069
224,252,103074,1,8,0:0:0:0:
64,208,104653,6,0,P|24:164|132:96,1,225.000008583069
176,148,106232,1,8,0:0:0:0:
64,280,107021,1,8,0:0:0:0:
400,312,107811,6,0,P|440:268|332:200,1,225.000008583069
288,252,109390,1,8,0:0:0:0:
448,208,110969,6,0,P|488:164|368:120,1,225.000008583069
256,192,112548,12,4,115706,0:0:0:0:
