osu file format v14

[General]
AudioFilename: audio.mp3
AudioLeadIn: 0
PreviewTime: 22047
Countdown: 1
SampleSet: Soft
StackLeniency: 0.7
Mode: 0
LetterboxInBreaks: 0
WidescreenStoryboard: 1

[Editor]
DistanceSpacing: 1.4
BeatDivisor: 4
GridSize: 4
TimelineZoom: 1

[Metadata]
Title:Sheol(Cut)
TitleUnicode:Sheol(Cut)
Artist:Xtrullor & Panda Party
ArtistUnicode:Xtrullor & Panda Party
Creator:BullyGamer
Version:Sheol!
Source:
Tags:
BeatmapID:1125356
BeatmapSetID:530946

[Difficulty]
HPDrainRate:7
CircleSize:5.7
OverallDifficulty:6
ApproachRate:6
SliderMultiplier:1.9
SliderTickRate:3

[Events]
//Background and Video events
0,0,"maxresdefault (1).jpg",0,0
//Break Periods
//Storyboard Layer 0 (Background)
//Storyboard Layer 1 (Fail)
//Storyboard Layer 2 (Pass)
//Storyboard Layer 3 (Foreground)
//Storyboard Sound Samples

[TimingPoints]
-48.5714285714287,375,4,1,0,100,1,0
3673,-100,4,1,0,100,0,0
12391,-111.111111111111,4,1,0,100,0,0
21900,-133.333333333333,4,1,0,100,0,0
23371,-55.5555555555556,4,1,0,100,0,1
26451,-66.6666666666667,4,3,0,100,0,0
29201,-55.5555555555556,4,2,0,100,0,0
32011,-111.111111111111,4,3,0,100,0,0
34781,-55.5555555555556,4,3,0,100,0,1
43311,-76.9230769230769,4,3,0,100,0,1
45981,-57.1428571428571,4,2,0,100,0,1
48991,-60.6060606060606,4,2,0,100,0,1
52289,-58.8235294117647,4,2,0,100,0,1
54302,-200,4,1,0,100,0,0
57340,-62.5,4,3,0,100,0,1
60256,-55.5555555555556,4,2,0,100,0,1
63716,-57.1428571428571,4,2,0,100,0,1
65936,-100,4,2,0,100,0,0

[Colours]
Combo1 : 0,128,0
Combo2 : 64,0,128
Combo3 : 0,0,64
Combo4 : 219,58,4
Combo5 : 128,0,255
Combo6 : 0,64,64
Combo7 : 0,0,0
Combo8 : 47,0,47

[HitObjects]
192,88,70,6,8,P|24:136|32:168,1,237.5
80,236,784,2,4,P|332:284|376:244,1,332.5
332,200,1737,2,8,L|100:64,1,237.5
460,108,2451,2,0,P|472:320|408:368,1,285
116,72,3284,2,6,L|176:76,1,47.5
112,140,3522,2,6,L|172:136,1,47.5
112,208,3760,2,6,L|168:212,1,47.5
112,276,3999,2,6,L|168:276,1,47.5
456,272,4237,2,4,P|340:40|324:32,1,285
184,52,5070,2,8,P|116:284|168:308,1,332.5
464,336,6022,2,0,P|404:192|400:148,1,190
64,80,6737,2,8,P|48:264|92:308,1,237.5
436,316,7451,2,0,P|336:180|272:200,1,237.5
252,80,8165,2,8,P|424:48|448:76,1,237.5
100,332,8879,2,4,P|32:196|48:168,1,190
464,348,9475,2,8,P|332:264|280:264,1,190
140,64,10189,1,4,0:0:0:0:
180,39,10308,1,4,0:0:0:0:
226,29,10427,1,4,0:0:0:0:
273,34,10546,1,4,0:0:0:0:
316,54,10665,1,0,0:0:0:0:
350,87,10784,1,0,0:0:0:0:
371,129,10903,1,0,0:0:0:0:
312,352,11022,2,8,P|84:240|76:192,1,332.5
416,188,11975,2,2,P|360:164|340:160,1,47.5
32,48,12332,6,8,B|184:116|200:104|116:0,1,237.5
404,344,13046,2,4,P|304:284|276:304,1,128.249996086121
428,4,13522,2,0,B|336:56|312:24|132:48|88:160|120:120,1,341.999989562989
332,344,14713,2,4,P|328:244|292:216,1,128.249996086121
396,56,15189,2,8,P|176:40|128:80,1,256.499992172241
176,352,16022,2,8,L|280:320,1,85.4999973907472
388,120,16499,2,2,B|244:80|196:80|148:-8|24:148|80:200,1,384.749988258362
456,316,17689,2,8,P|372:264|348:284,1,128.249996086121
132,64,18165,1,2,0:0:0:0:
171,47,18284,1,2,0:0:0:0:
213,43,18403,1,2,0:0:0:0:
255,50,18522,1,2,0:0:0:0:
294,69,18641,1,2,0:0:0:0:
196,372,18760,2,2,P|48:264|56:244,1,256.499992172241
444,192,19594,1,2,0:0:0:0:
426,153,19713,1,2,0:0:0:0:
399,120,19832,1,2,0:0:0:0:
367,97,19951,1,2,0:0:0:0:
326,85,20070,1,2,0:0:0:0:
284,85,20189,1,2,0:0:0:0:
64,76,20308,1,2,0:0:0:0:
32,104,20427,1,2,0:0:0:0:
17,143,20546,1,2,0:0:0:0:
20,185,20665,1,2,0:0:0:0:
43,221,20784,1,2,0:0:0:0:
79,244,20903,1,2,0:0:0:0:
420,272,21022,2,0,P|328:164|296:172,1,170.999994781494
224,144,21513,2,0,P|116:168|96:144,1,128.249996086121
168,80,21982,6,8,P|468:112|492:136,1,356.25001358986
52,320,23403,6,8,L|144:288,1,85.4999973907472
376,112,23641,2,8,L|264:68,1,85.4999973907472
144,112,23879,2,8,P|136:212|164:224,1,85.4999973907472
460,348,24118,2,8,P|452:340|400:288,1,85.4999973907472
424,40,24356,2,8,P|240:32|232:40,1,170.999994781494
88,200,24713,2,4,P|192:232|208:216,1,85.4999973907472
412,240,24951,2,4,P|328:152|296:168,1,170.999994781494
76,48,25308,2,4,P|176:100|176:104,1,85.4999973907472
408,344,25665,2,4,P|328:260|304:264,1,85.4999973907472
392,32,25903,2,4,P|276:48|276:84,1,170.999994781494
56,328,26260,2,4,L|176:308,1,85.4999973907472
440,200,26499,6,8,P|344:120|304:124,1,142.500005435944
44,212,26856,2,8,P|64:156|100:116,1,71.2500027179719
312,256,27094,2,0,P|384:308|412:296,1,71.2500027179719
352,56,27332,2,0,P|180:32|168:48,1,213.750008153916
104,264,27808,2,4,P|212:328|228:324,1,142.500005435944
432,188,28165,2,4,P|336:116|328:136,1,213.750008153916
84,220,28641,2,0,P|128:64|232:32,1,285.000010871888
408,264,29356,6,8,P|280:344|268:320,1,170.999994781494
32,280,29951,2,8,P|256:236|264:180,1,256.499992172241
264,28,30546,2,10,P|112:68|132:100,1,256.499992172241
444,212,31022,2,10,P|340:176|320:196,1,85.4999973907472
240,224,31260,2,0,P|292:96|344:100,1,170.999994781494
152,68,31618,2,2,P|52:96|68:148,1,170.999994781494
436,208,32094,6,2,P|232:236|172:300,1,299.249990867615
60,220,33284,2,8,P|352:36|420:64,1,427.499986953736
420,240,34832,70,8,P|188:308|168:316,1,256.499992172241
148,224,35308,2,4,P|296:64|400:64,1,256.499992172241
448,328,35784,2,4,P|348:336|340:312,1,85.4999973907472
288,252,36022,2,4,P|352:172|444:192,1,170.999994781494
108,56,36379,2,4,P|104:156|124:180,1,85.4999973907472
136,240,36737,2,8,P|364:228|360:216,1,427.499986953736
416,48,37451,2,8,P|104:48|80:96,1,341.999989562989
96,208,38165,2,10,P|264:236|288:220,1,170.999994781494
480,248,38641,2,10,P|364:136|288:128,1,170.999994781494
64,108,39118,6,8,P|240:64|256:68,1,170.999994781494
392,288,39475,2,8,P|200:284|192:260,1,256.499992172241
444,96,39951,2,2,P|312:72|280:104,1,170.999994781494
48,232,40427,6,4,P|120:96|180:96,1,170.999994781494
432,292,40784,2,8,P|328:180|280:200,1,170.999994781494
368,24,41141,2,2,P|204:16|192:48,1,170.999994781494
96,296,41499,2,8,P|216:336|260:280,1,170.999994781494
476,188,41856,2,8,P|288:92|248:112,1,256.499992172241
36,224,42332,2,0,P|152:76|284:32,1,256.499992172241
440,324,42808,2,0,P|220:200|184:224,1,256.499992172241
364,92,43284,6,2,B|-24:160|192:212|-36:280,1,427.499986953736
408,312,44118,2,2,B|232:224|184:224|244:44|36:36,1,432.249980213166
472,196,45070,2,2,P|316:72|288:76,1,185.249991519928
32,304,45546,2,2,P|116:140|172:136,1,246.999988693238
448,252,46141,22,8,P|312:96|296:100,1,249.375002378225
56,300,46618,2,0,L|192:248,1,83.1250007927418
360,88,46856,2,8,P|112:44|96:64,1,249.375002378225
388,352,47332,2,0,P|288:332|292:304,1,83.1250007927418
468,128,47570,2,0,P|372:72|360:80,1,83.1250007927418
72,248,47808,2,0,P|172:148|184:152,1,166.250001585484
412,300,48165,2,0,P|304:160|280:168,1,166.250001585484
100,92,48522,2,8,P|248:64|256:80,1,166.250001585484
280,328,48879,2,8,P|320:292|328:240,1,83.1250007927418
448,112,49118,2,8,P|400:64|364:68,1,78.3750007474423
24,160,49356,6,10,P|184:144|204:168,1,156.750001494885
436,284,49713,2,10,P|272:192|252:212,1,235.125002242327
248,20,50189,2,10,P|248:72|184:84,1,78.3750007474423
160,336,50427,2,10,P|328:312|348:268,1,235.125002242327
420,96,50903,2,10,P|284:92|232:168,1,235.125002242327
48,240,51379,2,8,P|156:80|208:88,1,235.125002242327
496,304,51856,2,8,P|376:204|324:228,1,235.125002242327
24,132,52332,54,12,P|112:76|160:28,1,161.500003080368
208,324,52689,2,12,P|404:328|424:292,1,242.250004620552
476,52,53165,2,0,P|360:40|348:76,1,161.500003080368
56,288,53522,2,8,P|188:292|212:232,1,161.500003080368
448,136,53879,2,8,P|288:56|240:88,1,242.250004620552
140,324,54594,2,8,L|376:240,1,237.5
296,64,55903,2,0,P|204:52|188:72,1,118.75
152,172,56737,1,0,0:0:0:0:
164,304,57332,70,0,P|260:232|252:220,1,152
380,48,57689,2,0,P|468:100|456:132,1,152
28,80,58046,2,0,P|160:52|164:76,1,152
440,344,58403,2,0,P|360:256|308:280,1,152
412,36,58760,2,4,P|336:8|240:68,1,152
56,336,59118,2,0,P|204:328|212:296,1,152
496,236,59475,2,6,P|336:144|328:160,1,228
64,160,59951,2,2,P|168:84|232:128,1,152
432,332,60308,6,6,P|256:312|260:268,1,256.499992172241
416,64,60784,2,6,P|280:56|240:100,1,170.999994781494
72,216,61141,2,2,P|240:232|264:168,1,256.499992172241
480,240,61618,2,10,P|420:104|368:108,1,170.999994781494
20,72,61975,2,10,P|224:56|220:96,1,341.999989562989
452,352,62570,2,10,P|232:300|208:320,1,256.499992172241
456,52,63046,2,10,P|268:40|232:72,1,170.999994781494
8,344,63403,2,2,P|240:256|272:256,1,256.499992172241
452,112,63879,2,4,P|296:72|276:108,1,166.250001585484
48,160,64356,2,4,P|184:232|200:200,1,249.375002378225
456,328,64832,2,0,P|300:308|260:336,1,166.250001585484
388,88,65189,2,0,P|172:84|180:160,1,332.500003170967
96,332,65784,2,0,P|300:328|320:296,1,249.375002378225
424,140,66260,22,0,P|272:124|272:148,1,237.5
120,292,67213,2,12,P|352:276|356:268,1,285
