osu file format v14

[General]
AudioFilename: audio.mp3
AudioLeadIn: 0
PreviewTime: 21850
Countdown: 1
SampleSet: Normal
StackLeniency: 0.7
Mode: 3
LetterboxInBreaks: 0
SpecialStyle: 1
WidescreenStoryboard: 1

[Editor]
DistanceSpacing: 1.4
BeatDivisor: 4
GridSize: 4
TimelineZoom: 1

[Metadata]
Title:Sheol(Cut)
TitleUnicode:Sheol(Cut)
Artist:Xtrullor & Panda Party
ArtistUnicode:Xtrullor & Panda Party
Creator:BullyGamer
Version:Piano party
Source:
Tags:
BeatmapID:1145294
BeatmapSetID:530946

[Difficulty]
HPDrainRate:2
CircleSize:4
OverallDifficulty:2
ApproachRate:2
SliderMultiplier:1.6
SliderTickRate:3

[Events]
//Background and Video events
0,0,"maxresdefault (1).jpg",0,0
//Break Periods
//Storyboard Layer 0 (Background)
//Storyboard Layer 1 (Fail)
//Storyboard Layer 2 (Pass)
//Storyboard Layer 3 (Foreground)
//Storyboard Sound Samples

[TimingPoints]
63.130434782609,652.173913043478,4,1,0,100,1,0
12391,-133.333333333333,4,1,0,100,0,0
21900,-200,4,1,0,100,0,0
23371,-100,4,1,0,100,0,1
26451,-100,4,3,0,100,0,0
29201,-100,4,2,0,100,0,0
32011,-133.333333333333,4,3,0,100,0,0
34781,-100,4,3,0,100,0,1
43311,-100,4,3,0,100,0,0
45981,-100,4,2,0,100,0,1
48991,-100,4,2,0,100,0,1
52289,-100,4,2,0,100,0,0
54302,-200,4,1,0,100,0,0
57292,-100,4,3,0,100,0,1
60256,-100,4,2,0,100,0,1
63716,-100,4,2,0,100,0,1
65936,-100,4,2,0,100,0,0

[Colours]
Combo1 : 47,0,47
Combo2 : 64,0,128
Combo3 : 0,0,64
Combo4 : 250,67,5
Combo5 : 128,0,128
Combo6 : 0,64,64
Combo7 : 0,0,0

[HitObjects]
320,192,715,5,0,0:0:0:0:
64,192,1367,1,0,0:0:0:0:
448,192,1856,1,0,0:0:0:0:
64,192,2182,128,0,3323:0:0:0:0:
448,192,3650,1,0,0:0:0:0:
192,192,3976,1,0,0:0:0:0:
320,192,4302,1,0,0:0:0:0:
192,192,4465,128,0,4791:0:0:0:0:
64,192,4954,128,0,5769:0:0:0:0:
448,192,5932,1,0,0:0:0:0:
192,192,6258,1,0,0:0:0:0:
320,192,6421,128,0,6584:0:0:0:0:
64,192,6910,1,0,0:0:0:0:
448,192,6910,1,0,0:0:0:0:
320,192,7400,1,0,0:0:0:0:
320,192,7563,1,0,0:0:0:0:
448,192,7889,128,0,9193:0:0:0:0:
64,192,7889,128,0,9193:0:0:0:0:
192,192,9519,1,0,0:0:0:0:
320,192,9845,1,0,0:0:0:0:
64,192,10171,128,0,10334:0:0:0:0:
192,192,10334,128,0,10497:0:0:0:0:
320,192,10497,128,0,10660:0:0:0:0:
192,192,11802,128,0,12128:0:0:0:0:
320,192,12128,1,0,0:0:0:0:
448,192,12128,1,0,0:0:0:0:
64,192,12128,1,0,0:0:0:0:
64,192,12291,128,0,13595:0:0:0:0:
448,192,13758,128,0,14737:0:0:0:0:
64,192,14410,128,0,14737:0:0:0:0:
192,192,14900,128,0,15552:0:0:0:0:
448,192,14900,128,0,15878:0:0:0:0:
64,192,15878,128,0,16856:0:0:0:0:
192,192,15878,128,0,16856:0:0:0:0:
448,192,17019,128,0,17834:0:0:0:0:
192,192,17019,128,0,17834:0:0:0:0:
64,192,17997,128,0,18160:0:0:0:0:
192,192,18160,128,0,18487:0:0:0:0:
320,192,18487,128,0,18650:0:0:0:0:
448,192,18487,128,0,19139:0:0:0:0:
64,192,19139,128,0,19791:0:0:0:0:
192,192,19139,128,0,19791:0:0:0:0:
320,192,20117,128,0,20606:0:0:0:0:
64,192,20117,128,0,20606:0:0:0:0:
448,192,20932,128,0,21747:0:0:0:0:
64,192,20932,128,0,21747:0:0:0:0:
192,192,21910,128,0,22237:0:0:0:0:
320,192,22400,128,0,22889:0:0:0:0:
192,192,23052,128,0,23215:0:0:0:0:
320,192,23378,128,0,23704:0:0:0:0:
192,192,23867,1,0,0:0:0:0:
64,192,24030,1,0,0:0:0:0:
448,192,24193,1,0,0:0:0:0:
192,192,24356,128,0,24845:0:0:0:0:
448,192,24519,128,0,24845:0:0:0:0:
64,192,25008,1,0,0:0:0:0:
320,192,25008,1,0,0:0:0:0:
192,192,25171,128,0,25497:0:0:0:0:
320,192,25660,1,0,0:0:0:0:
448,192,25823,1,0,0:0:0:0:
320,192,25987,1,0,0:0:0:0:
64,192,26150,128,0,26802:0:0:0:0:
448,192,26802,128,0,27454:0:0:0:0:
64,192,27454,128,0,28106:0:0:0:0:
448,192,28106,128,0,28758:0:0:0:0:
192,192,28758,128,0,28921:0:0:0:0:
64,192,29084,128,0,29573:0:0:0:0:
192,192,29573,128,0,30063:0:0:0:0:
320,192,29573,128,0,30063:0:0:0:0:
64,192,30226,1,0,0:0:0:0:
192,192,30226,1,0,0:0:0:0:
320,192,30389,1,0,0:0:0:0:
448,192,30389,1,0,0:0:0:0:
320,192,30715,128,0,31204:0:0:0:0:
64,192,31204,1,0,0:0:0:0:
64,192,31367,128,0,32019:0:0:0:0:
448,192,32019,128,0,32671:0:0:0:0:
64,192,32671,128,0,33323:0:0:0:0:
448,192,33323,128,0,33650:0:0:0:0:
320,192,33487,128,0,33813:0:0:0:0:
192,192,33650,128,0,33976:0:0:0:0:
64,192,33976,1,0,0:0:0:0:
448,192,34302,128,0,34628:0:0:0:0:
192,192,34628,1,0,0:0:0:0:
320,192,34791,1,0,0:0:0:0:
64,192,34954,1,0,0:0:0:0:
320,192,35117,128,0,35280:0:0:0:0:
192,192,35280,128,0,35932:0:0:0:0:
448,192,35606,1,0,0:0:0:0:
64,192,35932,1,0,0:0:0:0:
448,192,36095,128,0,36584:0:0:0:0:
192,192,36584,128,0,36910:0:0:0:0:
320,192,36910,128,0,37237:0:0:0:0:
64,192,36910,128,0,37237:0:0:0:0:
448,192,37400,1,0,0:0:0:0:
192,192,37563,1,0,0:0:0:0:
448,192,37889,1,0,0:0:0:0:
64,192,37889,128,0,38541:0:0:0:0:
448,192,38867,1,0,0:0:0:0:
192,192,38867,1,0,0:0:0:0:
64,192,39030,1,0,0:0:0:0:
320,192,39030,1,0,0:0:0:0:
192,192,39193,128,0,39845:0:0:0:0:
64,192,39356,128,0,39845:0:0:0:0:
320,192,39519,128,0,39845:0:0:0:0:
320,192,40171,128,0,40497:0:0:0:0:
192,192,40660,1,0,0:0:0:0:
320,192,40823,1,0,0:0:0:0:
192,192,40987,1,0,0:0:0:0:
64,192,40987,128,0,41476:0:0:0:0:
192,192,41639,1,0,0:0:0:0:
64,192,41802,128,0,42454:0:0:0:0:
448,192,42454,128,0,42780:0:0:0:0:
320,192,42454,128,0,42780:0:0:0:0:
192,192,42943,1,0,0:0:0:0:
64,192,43106,128,0,43758:0:0:0:0:
448,192,43758,128,0,44084:0:0:0:0:
64,192,44084,128,0,44410:0:0:0:0:
448,192,44573,128,0,45389:0:0:0:0:
320,192,45552,1,0,0:0:0:0:
192,192,45552,1,0,0:0:0:0:
64,192,45715,1,0,0:0:0:0:
448,192,45715,1,0,0:0:0:0:
192,192,45878,1,0,0:0:0:0:
320,192,45878,1,0,0:0:0:0:
192,192,46041,1,0,0:0:0:0:
320,192,46041,1,0,0:0:0:0:
64,192,46041,128,0,46530:0:0:0:0:
320,192,46530,128,0,47019:0:0:0:0:
64,192,47019,128,0,47345:0:0:0:0:
192,192,47019,128,0,47345:0:0:0:0:
448,192,47345,128,0,47671:0:0:0:0:
192,192,47671,1,0,0:0:0:0:
320,192,47997,1,0,0:0:0:0:
64,192,47997,1,0,0:0:0:0:
320,192,48323,1,0,0:0:0:0:
64,192,48323,128,0,48976:0:0:0:0:
192,192,48650,1,0,0:0:0:0:
448,192,48813,1,0,0:0:0:0:
448,192,49139,128,0,50280:0:0:0:0:
64,192,49139,1,0,0:0:0:0:
192,192,49302,1,0,0:0:0:0:
320,192,49465,1,0,0:0:0:0:
192,192,49791,1,0,0:0:0:0:
192,192,50280,1,0,0:0:0:0:
64,192,50280,128,0,50932:0:0:0:0:
320,192,50606,1,0,0:0:0:0:
448,192,50769,1,0,0:0:0:0:
448,192,50932,128,0,51584:0:0:0:0:
64,192,51095,1,0,0:0:0:0:
64,192,51584,128,0,51910:0:0:0:0:
192,192,51584,1,0,0:0:0:0:
320,192,51747,1,0,0:0:0:0:
192,192,51910,1,0,0:0:0:0:
448,192,52237,128,0,52563:0:0:0:0:
64,192,52237,128,0,52563:0:0:0:0:
192,192,52563,128,0,52889:0:0:0:0:
320,192,52563,128,0,52889:0:0:0:0:
64,192,53052,1,0,0:0:0:0:
448,192,53378,1,0,0:0:0:0:
192,192,53541,1,0,0:0:0:0:
320,192,53867,1,0,0:0:0:0:
64,192,54030,1,0,0:0:0:0:
448,192,54193,128,0,54845:0:0:0:0:
64,192,54193,128,0,55497:0:0:0:0:
192,192,54519,1,0,0:0:0:0:
320,192,54682,1,0,0:0:0:0:
320,192,55008,1,0,0:0:0:0:
192,192,55171,1,0,0:0:0:0:
448,192,55823,128,0,56802:0:0:0:0:
64,192,55823,1,0,0:0:0:0:
192,192,55987,1,0,0:0:0:0:
320,192,56313,1,0,0:0:0:0:
320,192,56476,1,0,0:0:0:0:
192,192,56802,1,0,0:0:0:0:
64,192,57291,128,0,58106:0:0:0:0:
192,192,57617,1,0,0:0:0:0:
192,192,57780,1,0,0:0:0:0:
320,192,57780,1,0,0:0:0:0:
448,192,58106,128,0,58269:0:0:0:0:
64,192,58269,128,0,58921:0:0:0:0:
448,192,58595,128,0,59247:0:0:0:0:
64,192,59247,128,0,59573:0:0:0:0:
192,192,59410,1,0,0:0:0:0:
448,192,59737,128,0,60063:0:0:0:0:
64,192,60063,128,0,60715:0:0:0:0:
192,192,60389,1,0,0:0:0:0:
320,192,60389,1,0,0:0:0:0:
448,192,60389,1,0,0:0:0:0:
448,192,60715,128,0,61367:0:0:0:0:
64,192,60878,1,0,0:0:0:0:
192,192,61041,1,0,0:0:0:0:
320,192,61204,1,0,0:0:0:0:
64,192,61367,128,0,62019:0:0:0:0:
192,192,61367,1,0,0:0:0:0:
320,192,61530,1,0,0:0:0:0:
320,192,61693,1,0,0:0:0:0:
192,192,61856,1,0,0:0:0:0:
448,192,62019,128,0,62671:0:0:0:0:
320,192,62182,1,0,0:0:0:0:
64,192,62182,1,0,0:0:0:0:
192,192,62508,1,0,0:0:0:0:
192,192,62834,1,0,0:0:0:0:
64,192,62997,128,0,63650:0:0:0:0:
192,192,63650,128,0,64465:0:0:0:0:
320,192,64465,1,0,0:0:0:0:
448,192,64465,128,0,64954:0:0:0:0:
192,192,64628,128,0,64791:0:0:0:0:
64,192,64954,128,0,65443:0:0:0:0:
448,192,65443,128,0,65769:0:0:0:0:
192,192,65606,1,0,0:0:0:0:
320,192,65606,1,0,0:0:0:0:
320,192,65932,1,0,0:0:0:0:
192,192,65932,1,0,0:0:0:0:
64,192,66095,1,0,0:0:0:0:
448,192,66095,1,0,0:0:0:0:
320,192,66421,1,0,0:0:0:0:
192,192,66421,1,0,0:0:0:0:
64,192,66584,1,0,0:0:0:0:
448,192,66584,1,0,0:0:0:0:
192,192,66910,1,0,0:0:0:0:
320,192,66910,1,0,0:0:0:0:
448,192,66910,128,0,67400:0:0:0:0:
320,192,67237,1,0,0:0:0:0:
64,192,67237,1,0,0:0:0:0:
64,192,67400,1,0,0:0:0:0:
192,192,67400,1,0,0:0:0:0:
320,192,67400,1,0,0:0:0:0:
