osu file format v14

[General]
AudioFilename: audio.mp3
AudioLeadIn: 0
PreviewTime: 21850
Countdown: 1
SampleSet: None
StackLeniency: 0.7
Mode: 0
LetterboxInBreaks: 0
WidescreenStoryboard: 1

[Editor]
DistanceSpacing: 1.4
BeatDivisor: 4
GridSize: 4
TimelineZoom: 1

[Metadata]
Title:Sheol(Cut)
TitleUnicode:Sheol(Cut)
Artist:Xtrullor & Panda Party
ArtistUnicode:Xtrullor & Panda Party
Creator:BullyGamer
Version:Party
Source:
Tags:
BeatmapID:1131950
BeatmapSetID:530946

[Difficulty]
HPDrainRate:5
CircleSize:3.9
OverallDifficulty:4.2
ApproachRate:4.1
SliderMultiplier:1.6
SliderTickRate:4

[Events]
//Background and Video events
0,0,"maxresdefault (1).jpg",0,0
//Break Periods
//Storyboard Layer 0 (Background)
//Storyboard Layer 1 (Fail)
//Storyboard Layer 2 (Pass)
//Storyboard Layer 3 (Foreground)
//Storyboard Sound Samples

[TimingPoints]
-48.5714285714287,375,4,1,0,100,1,0
12391,-133.333333333333,4,1,0,100,0,0
21900,-200,4,1,0,100,0,0
23371,-100,4,1,0,100,0,1
26451,-100,4,3,0,100,0,0
29201,-100,4,2,0,100,0,0
32011,-133.333333333333,4,3,0,100,0,0
34781,-100,4,3,0,100,0,1
43311,-100,4,3,0,100,0,0
45981,-100,4,2,0,100,0,1
48991,-100,4,2,0,100,0,1
52289,-100,4,2,0,100,0,0
54302,-200,4,1,0,100,0,0
57292,-100,4,3,0,100,0,1
60256,-100,4,2,0,100,0,1
63716,-100,4,2,0,100,0,1
65936,-100,4,2,0,100,0,0

[Colours]
Combo1 : 47,0,47
Combo2 : 64,0,128
Combo3 : 0,0,64
Combo4 : 250,67,5
Combo5 : 128,0,128
Combo6 : 0,64,64
Combo7 : 0,0,0

[HitObjects]
248,100,607,5,8,0:0:0:0:
312,164,903,2,8,P|340:288|316:316,1,160
248,304,1618,2,4,P|148:288|144:280,1,120
152,200,2213,6,2,P|240:72|308:72,1,200
340,96,3165,2,8,P|320:264|256:312,1,240
192,280,4118,2,2,L|88:184,1,120
152,120,4713,1,2,0:0:0:0:
216,72,5189,2,8,P|368:64|376:132,1,240
344,188,6141,1,4,0:0:0:0:
248,228,6379,1,4,0:0:0:0:
156,216,6618,70,2,P|72:72|100:44,1,240
192,64,7689,2,8,P|288:92|272:136,1,160
292,212,8284,2,4,L|296:296,5,80
228,304,9713,1,4,0:0:0:0:
144,256,9951,1,4,0:0:0:0:
80,196,10189,6,2,L|160:136,2,80
60,168,11856,2,8,P|124:104|184:120,1,160
432,192,12607,6,8,P|344:272|272:280,1,180.000006866455
88,260,13357,2,8,P|280:168|304:168,1,240.000009155274
380,120,14295,2,4,P|248:64|168:88,1,210.000008010865
136,144,15232,1,2,0:0:0:0:
144,228,15513,2,8,P|352:292|388:276,1,270.000010299683
352,168,16638,1,2,0:0:0:0:
268,112,17013,2,8,P|104:96|64:120,1,210.000008010865
76,208,17857,2,8,P|112:284|144:284,1,120.000004577637
224,256,18420,2,8,P|212:176|164:164,1,120.000004577637
128,96,19076,2,12,P|192:44|228:68,1,120.000004577637
276,112,19638,1,2,0:0:0:0:
302,126,19826,1,8,0:0:0:0:
324,144,20013,1,8,0:0:0:0:
341,170,20107,1,8,0:0:0:0:
352,198,20295,1,8,0:0:0:0:
356,228,20576,1,4,0:0:0:0:
352,258,20857,1,4,0:0:0:0:
342,286,21138,1,2,0:0:0:0:
326,311,21420,1,2,0:0:0:0:
304,332,21701,1,8,0:0:0:0:
96,284,21982,6,2,P|120:120|188:48,1,260
108,80,23482,6,8,P|304:188|320:200,1,240
320,292,24326,2,2,P|88:284|40:256,1,280
96,180,25170,2,8,P|300:128|344:160,1,280
412,252,25920,2,2,P|264:316|232:292,1,200
156,228,26670,6,4,P|260:160|336:168,1,200
432,132,27326,2,2,P|308:68|168:80,1,280
64,256,28170,2,2,B|320:268|352:236|128:180,1,360
136,120,29388,53,8,0:0:0:0:
260,128,29763,2,0,P|336:212|236:276,1,240
128,264,30701,2,8,P|148:40|216:56,1,360
304,148,31826,1,4,0:0:0:0:
340,248,32201,54,8,P|124:276|108:240,1,300.000011444092
116,152,33326,2,8,P|360:112|376:136,1,300.000011444092
372,200,34545,1,2,0:0:0:0:
276,160,34920,6,8,P|112:112|48:152,1,240
72,244,35670,2,2,P|268:288|324:240,1,280
404,152,36513,2,8,P|236:88|132:136,1,280
384,324,37451,2,8,P|208:268|88:288,1,280
84,184,38295,2,4,P|220:120|396:108,1,320
404,244,39232,2,2,P|200:248|116:284,1,280
24,188,40076,1,2,0:0:0:0:
80,204,40357,2,2,P|288:116|308:128,1,280
380,64,41295,2,8,P|236:40|104:68,1,280
264,220,42232,1,4,0:0:0:0:
184,152,42420,2,2,P|48:240|64:324,1,240
208,288,43170,1,4,0:0:0:0:
392,172,43545,6,8,P|244:80|164:104,1,240
112,144,44295,2,2,P|212:264|296:268,1,240
388,200,45045,2,2,P|244:88|160:104,1,280
108,228,45795,1,8,0:0:0:0:
172,288,45888,1,4,0:0:0:0:
276,288,46263,6,8,P|428:104|416:44,1,320
120,80,47201,2,2,P|280:172|368:144,1,280
60,176,48045,2,2,P|120:300|24:320,1,240
352,288,48888,1,8,0:0:0:0:
296,152,49170,38,2,P|108:104|44:168,1,280
100,240,50201,2,4,P|368:320|464:272,1,400
428,184,51326,2,8,P|312:112|168:112,1,280
40,172,52451,22,2,L|160:224,1,120
228,196,52920,2,4,L|340:136,1,120
292,76,53482,2,8,L|132:52,1,160
64,152,54045,1,8,0:0:0:0:
136,180,54232,1,8,0:0:0:0:
120,292,54420,86,4,P|308:292|368:224,1,280
296,172,55826,2,2,P|128:176|96:208,1,220
72,120,57138,1,8,0:0:0:0:
160,104,57420,6,2,P|336:132|316:172,1,320
272,264,58451,2,6,P|116:248|68:200,1,200
132,148,59201,2,12,P|324:108|368:144,1,240
328,240,59951,2,6,L|184:264,1,120
84,240,60420,6,2,P|168:84|208:88,1,240
292,108,61076,2,2,P|368:184|256:280,1,280
88,300,62013,2,2,P|240:104|260:112,1,320
348,160,63045,2,8,P|288:256|228:244,1,160
152,212,63701,6,2,P|224:92|296:96,1,200
376,100,64357,2,2,P|384:272|316:296,1,240
184,304,65201,2,8,P|80:172|152:116,1,280
232,112,66138,1,2,0:0:0:0:
296,176,66420,1,2,0:0:0:0:
260,256,66701,1,2,0:0:0:0:
160,260,67170,2,14,P|40:180|76:132,1,240
