osu file format v14

[General]
AudioFilename: audio.mp3
AudioLeadIn: 0
PreviewTime: 21850
Countdown: 1
SampleSet: None
StackLeniency: 0.7
Mode: 0
LetterboxInBreaks: 0
WidescreenStoryboard: 1

[Editor]
DistanceSpacing: 1.4
BeatDivisor: 4
GridSize: 4
TimelineZoom: 1

[Metadata]
Title:Sheol(Cut)
TitleUnicode:Sheol(Cut)
Artist:Xtrullor & Panda Party
ArtistUnicode:Xtrullor & Panda Party
Creator:BullyGamer
Version:Normal
Source:
Tags:
BeatmapID:1136155
BeatmapSetID:530946

[Difficulty]
HPDrainRate:2
CircleSize:2.4
OverallDifficulty:2
ApproachRate:2
SliderMultiplier:1.6
SliderTickRate:3

[Events]
//Background and Video events
0,0,"maxresdefault (1).jpg",0,0
//Break Periods
//Storyboard Layer 0 (Background)
//Storyboard Layer 1 (Fail)
//Storyboard Layer 2 (Pass)
//Storyboard Layer 3 (Foreground)
//Storyboard Sound Samples

[TimingPoints]
63.130434782609,652.173913043478,4,1,0,100,1,0
12391,-133.333333333333,4,1,0,100,0,0
21900,-200,4,1,0,100,0,0
23371,-100,4,1,0,100,0,1
26451,-100,4,3,0,100,0,0
29201,-100,4,2,0,100,0,0
32011,-133.333333333333,4,3,0,100,0,0
34781,-100,4,3,0,100,0,1
43311,-100,4,3,0,100,0,0
45981,-100,4,2,0,100,0,1
48991,-100,4,2,0,100,0,1
52289,-100,4,2,0,100,0,0
54302,-200,4,1,0,100,0,0
57292,-100,4,3,0,100,0,1
60256,-100,4,2,0,100,0,1
63716,-100,4,2,0,100,0,1
65936,-100,4,2,0,100,0,0

[Colours]
Combo1 : 47,0,47
Combo2 : 64,0,128
Combo3 : 0,0,64
Combo4 : 250,67,5
Combo5 : 128,0,128
Combo6 : 0,64,64
Combo7 : 0,0,0

[HitObjects]
378,154,715,6,8,P|243:127|187:162,1,200
148,239,1856,2,8,P|288:288|373:263,1,240
393,192,3160,2,8,L|387:128,3,40
326,106,3976,2,4,P|191:105|136:148,1,200
149,229,5117,2,10,L|156:303,4,40
262,261,5932,1,4,0:0:0:0:
294,169,6258,2,8,P|321:78|268:46,1,160
196,91,7237,2,8,P|88:102|95:60,1,200
275,62,8215,2,2,L|323:62,4,40
311,154,9193,2,4,P|258:208|195:196,1,120
107,198,10008,2,8,P|83:301|164:316,1,200
244,259,11802,2,8,L|338:199,1,80
356,117,12454,6,2,P|230:115|157:167,1,210.000008010865
135,235,13921,2,8,P|233:286|345:262,1,210.000008010865
402,221,15389,2,8,P|353:122|233:85,1,240.000009155274,8|12,0:0|0:0,0:0:0:0:
134,143,17019,2,2,P|126:270|157:300,1,180.000006866455,2|10,0:0|0:0,0:0:0:0:
255,316,18324,2,8,P|386:246|391:125,1,270.000010299683,8|10,0:0|0:0,0:0:0:0:
340,116,19954,2,8,P|229:104|161:143,1,180.000006866455,8|10,0:0|0:0,0:0:0:0:
160,220,21258,2,8,L|227:309,1,90.0000034332277
110,115,21910,6,2,B|307:76|246:88,1,160
351,134,23541,6,4,P|368:231|294:301,1,200
197,293,24519,2,8,P|150:242|109:132,1,160
181,159,25334,2,8,P|282:119|288:139,1,160
323,229,26150,1,2,0:0:0:0:
411,155,26476,6,4,P|352:75|201:68,1,240
124,118,27780,2,8,P|141:231|221:294,1,200
318,257,28921,1,8,0:0:0:0:
328,128,29410,22,2,P|209:91|121:141,1,200
80,196,30552,2,4,P|196:293|263:293,1,200,12|4,0:0|0:0,0:0:0:0:
332,246,31693,1,2,0:0:0:0:
391,105,32019,6,8,P|221:119|169:141,1,210.000008010865
107,223,33324,2,2,P|303:269|346:256,1,240.000009155274
366,161,34954,6,4,P|220:104|115:116,1,240
84,191,36095,2,8,P|138:276|238:269,1,200
303,195,37074,2,2,P|405:137|409:222,1,240
282,293,38378,2,8,P|203:281|174:157,1,200
245,142,39356,2,4,P|247:58|181:46,1,160
111,88,40497,2,2,P|112:221|201:230,1,240
308,204,41802,2,8,P|303:109|376:77,1,160
376,146,42780,1,8,0:0:0:0:
405,270,43106,1,2,0:0:0:0:
303,269,43595,22,4,P|145:235|123:167,1,240
196,85,44737,2,2,P|286:84|438:171,1,240
417,239,46041,6,8,P|249:197|216:249,1,240
126,252,47345,2,2,P|110:175|142:81,1,160
223,87,48160,2,8,L|317:82,1,80
313,188,48813,1,8,0:0:0:0:
250,258,49302,38,8,P|103:204|116:115,1,240
171,109,50606,2,2,P|273:94|407:134,1,240
431,238,51910,1,4,0:0:0:0:
332,228,52237,1,8,0:0:0:0:
106,227,52400,6,2,P|223:124|286:150,1,240
324,232,53704,2,6,L|247:296,1,80
86,263,54356,54,8,L|151:158,1,120
236,117,55823,2,0,L|360:83,1,120
411,179,57128,1,2,0:0:0:0:
365,278,57454,6,8,P|171:273|127:226,1,240
117,157,58758,2,2,P|215:90|292:125,1,200
354,243,59900,1,2,0:0:0:0:
221,290,60226,1,2,0:0:0:0:
115,257,60552,6,8,L|147:37,1,200
241,70,61530,2,4,L|375:68,1,120
391,182,62345,2,8,L|376:309,1,120
287,306,63160,2,8,L|183:294,1,80
120,243,63813,6,2,P|188:167|268:183,1,160
328,200,64628,2,2,P|395:126|390:54,1,160
274,64,65606,2,2,L|184:70,1,80
171,212,66258,1,4,0:0:0:0:
113,323,66584,1,8,0:0:0:0:
225,315,66747,2,8,L|376:287,1,120
256,192,67563,12,4,69682,0:0:0:0:
