osu file format v14

[General]
AudioFilename: audio.mp3
AudioLeadIn: 0
PreviewTime: 21850
Countdown: 1
SampleSet: Normal
StackLeniency: 0.7
Mode: 2
LetterboxInBreaks: 0
WidescreenStoryboard: 1

[Editor]
DistanceSpacing: 1.4
BeatDivisor: 4
GridSize: 4
TimelineZoom: 1

[Metadata]
Title:Sheol(Cut)
TitleUnicode:Sheol(Cut)
Artist:Xtrullor & Panda Party
ArtistUnicode:Xtrullor & Panda Party
Creator:BullyGamer
Version:Magic party!
Source:
Tags:
BeatmapID:1135614
BeatmapSetID:530946

[Difficulty]
HPDrainRate:6
CircleSize:3.9
OverallDifficulty:5
ApproachRate:4
SliderMultiplier:1.6
SliderTickRate:2

[Events]
//Background and Video events
0,0,"maxresdefault (1).jpg",0,0
//Break Periods
//Storyboard Layer 0 (Background)
//Storyboard Layer 1 (Fail)
//Storyboard Layer 2 (Pass)
//Storyboard Layer 3 (Foreground)
//Storyboard Sound Samples

[TimingPoints]
0,375,4,1,0,100,1,0
12391,-133.333333333333,4,1,0,100,0,0
21900,-200,4,1,0,100,0,0
23371,-100,4,1,0,100,0,1
26451,-100,4,3,0,100,0,0
29201,-100,4,2,0,100,0,0
32011,-133.333333333333,4,3,0,100,0,0
34781,-100,4,3,0,100,0,1
43311,-100,4,3,0,100,0,0
45981,-100,4,2,0,100,0,1
48991,-100,4,2,0,100,0,1
52289,-100,4,2,0,100,0,0
54302,-200,4,1,0,100,0,0
57292,-100,4,3,0,100,0,1
60256,-100,4,2,0,100,0,1
63716,-100,4,2,0,100,0,1
65936,-100,4,2,0,100,0,0

[Colours]
Combo1 : 47,0,47
Combo2 : 64,0,128
Combo3 : 0,0,64
Combo4 : 250,67,5
Combo5 : 128,0,128
Combo6 : 0,64,64
Combo7 : 0,0,0

[HitObjects]
260,192,656,5,0,0:0:0:0:
152,192,1218,1,0,0:0:0:0:
52,196,1781,1,0,0:0:0:0:
188,128,2156,2,0,L|260:56,6,80
304,136,3562,1,0,0:0:0:0:
360,64,3750,1,0,0:0:0:0:
420,132,4218,2,0,P|368:284|260:264,1,280
204,236,5062,2,0,P|116:224|60:88,1,240
136,80,5718,2,0,P|228:80|212:144,1,160
212,200,6187,2,0,P|304:244|320:180,1,160
340,128,6750,5,0,0:0:0:0:
284,68,7031,2,0,P|72:64|56:92,1,280
60,168,7875,2,0,L|104:284,1,120
172,248,8343,2,0,L|224:176,5,80
240,92,9562,1,0,0:0:0:0:
320,108,9656,2,0,P|368:288|328:320,1,240
260,292,10500,2,0,P|112:136|124:56,1,280
224,84,11625,1,0,0:0:0:0:
296,64,11906,1,0,0:0:0:0:
376,120,12187,1,0,0:0:0:0:
176,104,12562,22,0,P|152:224|68:288,1,210.000008010865
168,296,13500,2,0,P|312:244|332:108,1,300.000011444092
272,84,14718,2,0,P|144:84|52:200,1,270.000010299683
96,260,15750,2,0,B|220:284|340:172|408:328,1,330.000012588501
444,224,17062,2,0,B|340:76|260:96|452:48|480:184,1,330.000012588501
336,300,18375,2,0,B|100:184|92:112|72:248|220:312,1,420.000016021729
320,192,19968,2,0,B|192:72|64:160|240:80,2,270.000010299683
40,124,22031,86,0,P|176:64|276:104,1,260
312,176,23437,6,0,P|240:284|144:256,1,240
120,204,24281,2,0,P|216:64|136:28,1,280
292,76,25125,2,0,P|408:104|356:224,1,280
276,232,26062,2,0,P|164:212|160:208,1,120
160,132,26625,6,0,P|32:96|24:168,1,240
56,220,27468,2,0,P|252:300|344:232,1,320
348,172,28406,2,0,P|320:64|412:52,1,200
456,112,29062,1,0,0:0:0:0:
472,220,29343,22,0,P|292:248|264:212,1,240
240,156,30187,2,0,P|96:132|72:236,1,280
132,276,31125,2,0,P|332:276|356:240,1,240
324,188,31875,1,0,0:0:0:0:
296,112,32156,6,0,P|136:56|100:104,1,240.000009155274
92,156,33281,2,0,P|192:256|336:264,1,270.000010299683
368,176,34406,1,0,0:0:0:0:
172,128,34687,1,0,0:0:0:0:
368,100,35156,6,0,P|168:52|112:76,1,240
96,104,35906,2,0,P|104:240|204:292,1,240
292,296,36656,2,0,P|392:148|368:104,1,240
296,112,37406,2,0,P|136:100|76:176,1,240
80,232,38156,2,0,P|268:304|344:280,1,280
352,204,39093,2,0,B|312:88|384:52|112:96,1,320
112,176,40031,2,0,B|188:256|252:256|188:136,1,200
224,88,40687,2,0,P|360:72|392:136,1,200
376,192,41343,2,0,B|240:260|236:216|392:300,1,240
92,292,42187,2,0,B|240:264|224:176|172:368,1,240
192,192,43031,1,0,0:0:0:0:
152,68,43500,22,0,P|368:68|436:176,1,360
412,248,44718,2,0,P|200:224|160:216,1,240
92,168,45562,5,0,0:0:0:0:
96,96,45750,1,0,0:0:0:0:
152,56,45937,1,0,0:0:0:0:
232,72,46218,22,0,P|304:144|264:288,1,240
208,280,46968,2,0,L|104:276,5,80
36,280,48187,1,0,0:0:0:0:
56,212,48468,2,0,P|168:128|180:128,1,160
272,164,49031,6,0,P|392:64|376:36,1,200
312,48,49875,2,0,P|128:44|88:152,1,320
116,232,50812,2,0,P|220:264|384:204,1,280
364,128,51656,2,0,P|280:84|200:116,1,160
160,152,52406,6,0,L|116:288,1,120
200,296,52968,2,0,L|388:288,1,160
368,212,53625,2,0,L|372:72,1,120
288,84,54093,2,0,L|184:80,1,80
96,128,54562,54,0,P|144:280|184:292,1,220
260,292,55781,2,0,P|376:152|368:104,1,240
216,72,57187,1,0,0:0:0:0:
136,104,57562,6,0,P|104:260|164:276,1,240
232,280,58406,2,0,P|348:184|372:100,1,240
332,80,59250,2,0,P|184:64|184:20,1,200
88,72,59812,2,0,L|36:72,1,40
164,232,60187,1,0,0:0:0:0:
236,256,60375,6,0,L|412:12,1,280
324,32,61312,2,0,L|80:36,1,240
72,116,62062,2,0,L|68:344,1,200
136,324,62718,2,0,L|416:308,1,280
400,248,63656,1,0,0:0:0:0:
368,176,63937,38,0,P|208:84|128:96,1,240
104,136,64781,2,0,P|112:252|188:268,1,200
244,224,65343,2,0,P|368:136|440:172,1,240
360,60,66093,6,0,P|136:84|120:268,1,440
200,300,67218,2,0,P|344:248|376:192,1,200
256,192,67875,12,0,69937,0:0:0:0:
