osu file format v14

[General]
AudioFilename: audio.mp3
AudioLeadIn: 0
PreviewTime: 179480
Countdown: 0
SampleSet: Soft
StackLeniency: 0.3
Mode: 0
LetterboxInBreaks: 0
WidescreenStoryboard: 0

[Editor]
Bookmarks: 248657
DistanceSpacing: 0.8
BeatDivisor: 16
GridSize: 4
TimelineZoom: 3.999998

[Metadata]
Title:Sheol
TitleUnicode:Sheol
Artist:Xtrullor & Panda Party
ArtistUnicode:Xtrullor & Panda Party
Creator:Picrazo
Version:Phantasm
Source:
Tags:
BeatmapID:2221006
BeatmapSetID:1060815

[Difficulty]
HPDrainRate:6
CircleSize:4
OverallDifficulty:8
ApproachRate:9.5
SliderMultiplier:2.99999990463257
SliderTickRate:1

[Events]
//Background and Video events
0,0,"space_art_futuristic_city_JoeyJazz_science_fiction-1599207.jpg",0,0
//Break Periods
//Storyboard Layer 0 (Background)
//Storyboard Layer 1 (Fail)
//Storyboard Layer 2 (Pass)
//Storyboard Layer 3 (Foreground)
//Storyboard Layer 4 (Overlay)
//Storyboard Sound Samples

[TimingPoints]
187,1411.76470588235,4,2,0,100,1,0
3363,-100,4,2,0,100,0,1
3716,-100,4,2,0,100,0,0
7598,-100,4,2,0,100,0,1
7951,-100,4,2,0,100,0,0
10422,-100,4,2,0,100,0,1
10775,-100,4,2,0,100,0,0
11482,1411.76470588235,4,2,0,100,1,0
22776,705.882352941176,4,2,0,100,1,0
27364,-66.6666666666667,4,2,0,100,0,0
28952,-100,4,2,0,100,0,0
32658,-66.6666666666667,4,2,0,100,0,0
34070,352.941176470588,4,2,0,100,1,1
35658,-50,4,2,0,100,0,1
36011,-100,4,2,0,100,0,1
36187,-50,4,2,0,100,0,1
36540,-100,4,2,0,100,0,1
36717,-50,4,2,0,100,0,1
36893,-100,4,2,0,100,0,1
38481,-50,4,2,0,100,0,1
38834,-100,4,2,0,100,0,1
39011,-50,4,2,0,100,0,1
39364,-100,4,2,0,100,0,1
41305,-50,4,2,0,100,0,1
41658,-100,4,2,0,100,0,1
41834,-50,4,2,0,100,0,1
42187,-100,4,2,0,100,0,1
42364,-50,4,2,0,100,0,1
42540,-100,4,2,0,100,0,1
42893,-80,4,2,0,100,0,1
43246,-66.6666666666667,4,2,0,100,0,1
43952,-66.6666666666667,4,2,0,100,0,1
44128,-50,4,2,0,100,0,1
44481,-100,4,2,0,100,0,1
44658,-50,4,2,0,100,0,1
45364,1411.76470588235,4,2,0,100,1,0
51011,-100,4,2,0,100,0,1
51187,-100,4,2,0,100,0,0
56658,705.882352941176,4,2,0,100,1,0
59481,-80,4,2,0,100,0,0
62305,-66.6666666666667,4,2,0,100,0,0
67952,352.941176470588,4,2,0,100,1,1
67952,-66.6666666666667,4,2,0,100,0,1
69540,-50,4,2,0,100,0,1
69893,-66.6666666666667,4,2,0,100,0,1
70069,-50,4,2,0,100,0,1
70775,-66.6666666666667,4,2,0,100,0,1
71304,-100,4,2,0,100,0,1
71834,-400,4,2,0,100,0,1
72187,-66.6666666666667,4,2,0,100,0,1
72363,-50,4,2,0,100,0,1
73599,-66.6666666666667,4,2,0,100,0,1
73863,-100,4,2,0,100,0,1
74128,-66.6666666666667,4,2,0,100,0,1
74304,-50,4,2,0,100,0,1
74657,-43.4782608695652,4,2,0,100,0,1
75010,-66.6666666666667,4,2,0,100,0,1
75187,-50,4,2,0,100,0,1
75540,-66.6666666666667,4,2,0,100,0,1
76422,-100,4,2,0,100,0,1
76687,-83.3333333333333,4,2,0,100,0,1
76952,-71.4285714285714,4,2,0,100,0,1
77834,-66.6666666666667,4,2,0,100,0,1
78010,-50,4,2,0,100,0,1
78363,-100,4,2,0,100,0,1
78540,-50,4,2,0,100,0,1
78893,-100,4,2,0,100,0,1
79246,-50,4,2,0,100,0,1
79599,-100,4,2,0,100,0,1
79775,-50,4,2,0,100,0,1
80128,-100,4,2,0,100,0,1
80304,-166.666666666667,4,2,0,100,0,1
80657,-50,4,2,0,100,0,1
80834,-100,4,2,0,100,0,1
81187,-50,4,2,0,100,0,1
81363,-100,4,2,0,100,0,1
81716,-142.857142857143,4,2,0,100,0,1
82069,-500,4,2,0,100,0,1
82422,-66.6666666666667,4,2,0,100,0,1
83128,-50,4,2,0,100,0,1
83481,-66.6666666666667,4,2,0,100,0,1
83657,-133.333333333333,4,2,0,100,0,1
83834,-100,4,2,0,100,0,1
84010,-66.6666666666667,4,2,0,100,0,1
84893,-50,4,2,0,100,0,1
88422,-100,4,2,0,100,0,1
88775,-50,4,2,0,100,0,1
89128,-50,4,2,0,100,0,1
90540,-50,4,2,0,100,0,1
90893,-100,4,2,0,100,0,1
91069,-50,4,2,0,100,0,1
91422,-66.6666666666667,4,2,0,100,0,1
94422,-400,4,2,0,100,0,1
94775,-50,4,2,0,100,0,1
95481,-66.6666666666667,4,2,0,100,0,1
95834,-50,4,2,0,100,0,1
96540,-133.333333333333,4,2,0,100,0,1
96716,-50,4,2,0,100,0,1
97951,-66.6666666666667,4,2,0,100,0,1
99010,-50,4,2,0,100,0,1
101128,-66.6666666666667,4,2,0,100,0,1
101481,-50,4,2,0,100,0,1
102187,-100,4,2,0,100,0,1
102363,-50,4,2,0,100,0,1
102716,-100,4,2,0,100,0,1
102893,-166.666666666667,4,2,0,100,0,1
103246,-50,4,2,0,100,0,1
104657,-500,4,2,0,100,0,1
105010,-66.6666666666667,4,2,0,100,0,1
105716,-50,4,2,0,100,0,1
106069,-66.6666666666667,4,2,0,100,0,1
107481,-50,4,2,0,100,0,1
108893,-50,4,2,0,100,0,1
110304,-100,4,2,0,100,0,1
111010,-200,4,2,0,100,0,1
111363,-33.3333333333333,4,2,0,100,0,1
113128,1411.76470588235,4,2,0,100,1,0
123010,352.941176470588,4,2,0,100,1,0
123362,-133.333333333333,4,2,0,100,0,0
124422,1411.76470588235,4,2,0,100,1,0
124422,-75.187969924812,4,2,0,100,0,0
132892,-100,4,2,0,100,0,0
134304,-66.6666666666667,4,2,0,100,0,0
135010,-50,4,2,0,100,0,0
135716,352.941176470588,4,2,0,100,1,0
138539,-200,4,2,0,100,0,0
147010,-133.333333333333,4,2,0,100,0,0
158304,-66.6666666666667,4,2,0,100,0,1
159716,-100,4,2,0,100,0,1
159892,-50,4,2,0,100,0,1
160245,-100,4,2,0,100,0,1
160421,-50,4,2,0,100,0,1
161127,-66.6666666666667,4,2,0,100,0,1
162539,-100,4,2,0,100,0,1
162715,-50,4,2,0,100,0,1
163068,-100,4,2,0,100,0,1
163245,-50,4,2,0,100,0,1
163598,-100,4,2,0,100,0,1
163774,-50,4,2,0,100,0,1
163951,-66.6666666666667,4,2,0,100,0,1
165363,-100,4,2,0,100,0,1
165539,-50,4,2,0,100,0,1
165892,-100,4,2,0,100,0,1
166068,-50,4,2,0,100,0,1
166421,-100,4,2,0,100,0,1
166598,-50,4,2,0,100,0,1
166774,-100,4,2,0,100,0,1
167127,-80,4,2,0,100,0,1
167480,-66.6666666666667,4,2,0,100,0,1
168186,-100,4,2,0,100,0,0
169598,-1000,4,2,0,100,0,0
175245,-200,4,2,0,100,0,0
178068,-133.333333333333,4,2,0,100,0,0
179480,-50,4,2,0,100,0,0
180892,-50,4,2,0,100,0,1
189010,-400,4,2,0,100,0,1
189363,-50,4,2,0,100,0,1
192186,-50,4,2,0,100,0,1
199951,-100,4,2,0,100,0,1
200657,-50,4,2,0,100,0,1
203480,-50,4,2,0,100,0,1
209127,-50,4,2,0,100,0,1
211598,-400,4,2,0,100,0,1
211951,-50,4,2,0,100,0,1
213892,-66.6666666666667,4,2,0,100,0,1
214774,-50,4,2,0,100,0,1
222539,-100,4,2,0,100,0,1
223245,-50,4,2,0,100,0,1
223598,-66.6666666666667,4,2,0,100,0,1
223774,-50,4,2,0,100,0,1
223951,-66.6666666666667,4,2,0,100,0,1
224304,-50,4,2,0,100,0,1
224657,-50,4,2,0,100,0,0
226068,-625,4,2,0,100,0,0

[Colours]
Combo1 : 0,0,160
Combo2 : 192,192,192
Combo3 : 226,226,226
Combo4 : 0,128,64
Combo5 : 0,128,128
Combo6 : 255,128,128
Combo7 : 255,70,70
Combo8 : 128,0,255

[HitObjects]
230,20,187,6,0,B|377:-11|492:82|471:222|471:222|396:254|336:222|318:153|318:153|300:266|300:266|228:114|148:103|29:147|17:284|112:345|112:345|165:320|165:255|165:255|188:379|188:379|221:347|270:362|270:362|315:375|374:344,1,1574.9999499321
256,192,8657,12,0,10069,0:0:0:0:
285,117,10422,6,0,B|322:133|334:172|334:172|376:145|424:150,1,149.999995231628
405,156,11482,102,0,P|414:216|410:255,1,74.9999976158143
277,312,12011,1,0,0:0:0:0:
251,230,12187,6,0,P|253:199|256:185,1,37.4999988079071
359,80,12540,1,0,0:0:0:0:
359,80,12717,1,0,0:0:0:0:
253,38,12893,102,0,L|193:35,1,37.4999988079071
253,38,13246,6,0,L|193:35,1,37.4999988079071
464,111,13599,2,0,L|524:108,1,37.4999988079071
371,0,13952,101,0,0:0:0:0:
347,166,14129,1,0,0:0:0:0:
180,50,14305,6,0,P|227:37|266:40,1,74.9999976158143
240,247,14834,1,0,0:0:0:0:
233,156,15011,102,0,L|229:100,1,37.4999988079071
247,346,15364,1,0,0:0:0:0:
247,346,15540,1,0,0:0:0:0:
138,213,15717,5,0,0:0:0:0:
327,197,15893,1,0,0:0:0:0:
415,246,16070,102,0,L|419:296,1,37.4999988079071
415,246,16423,6,0,L|419:296,1,37.4999988079071
327,197,16776,101,0,0:0:0:0:
138,213,16952,1,0,0:0:0:0:
83,140,17129,6,0,P|126:176|138:215,1,74.9999976158143
132,313,17658,1,0,0:0:0:0:
232,118,17834,102,0,L|228:175,1,37.4999988079071
219,294,18187,2,0,L|223:237,1,37.4999988079071
312,68,18540,5,0,0:0:0:0:
312,68,18717,1,0,0:0:0:0:
428,122,18893,102,0,L|374:129,1,37.4999988079071
196,16,19246,2,0,L|250:23,1,37.4999988079071
299,226,19599,5,0,0:0:0:0:
312,68,19776,1,0,0:0:0:0:
405,238,19952,102,0,L|450:242,1,37.4999988079071
393,228,20305,5,0,0:0:0:0:
339,154,20481,1,0,0:0:0:0:
303,146,20658,101,0,0:0:0:0:
216,214,20834,1,0,0:0:0:0:
190,188,21011,5,0,0:0:0:0:
92,155,21187,1,0,0:0:0:0:
30,246,21364,101,0,0:0:0:0:
30,246,22070,6,0,L|25:279,7,18.7499994039536
30,246,22776,38,0,B|75:237|106:261|106:261|125:230|161:221,1,149.999995231629
181,78,23305,5,0,0:0:0:0:
245,202,23481,2,0,P|240:262|223:291,1,74.9999976158143
295,61,23834,101,0,0:0:0:0:
241,190,24010,2,0,P|192:224|158:230,1,74.9999976158143
381,137,24364,5,0,0:0:0:0:
248,179,24540,2,0,P|189:164|164:142,1,74.9999976158143
377,253,24893,101,0,0:0:0:0:
260,177,25069,2,0,P|234:123|235:89,2,74.9999976158143
339,106,25599,6,0,P|321:53|231:4,1,149.999995231629
141,284,26128,101,0,0:0:0:0:
246,153,26305,2,0,B|241:133|232:116|232:116|200:120|186:131,1,74.9999976158143
131,283,26658,5,0,0:0:0:0:
99,121,26835,2,0,B|81:112|62:108|62:108|45:134|44:152,1,74.9999976158143
136,289,27187,101,0,0:0:0:0:
288,223,27364,2,0,B|311:237|344:237|344:237|313:245|295:269,1,112.500000715256
219,358,27717,5,0,0:0:0:0:
209,168,27893,2,0,L|203:55,1,112.500000715256
465,147,28246,101,0,0:0:0:0:
465,147,28334,1,0,0:0:0:0:
465,147,28423,2,0,B|466:191|432:226|394:227|394:227|276:222,1,225.000001430512
168,188,28952,5,0,0:0:0:0:
152,19,29128,2,0,L|146:112,1,74.9999976158143
236,124,29481,101,0,0:0:0:0:
0,151,29657,2,0,L|93:157,1,74.9999976158143
168,188,30011,5,0,0:0:0:0:
184,357,30187,2,0,L|190:264,1,74.9999976158143
97,241,30540,101,0,0:0:0:0:
333,214,30716,2,0,L|240:208,2,74.9999976158143
384,290,31246,6,0,P|365:219|404:157,1,149.999995231629
451,234,31775,1,0,0:0:0:0:
409,75,31952,102,0,L|404:168,1,74.9999976158143
254,284,32305,2,0,L|259:191,1,74.9999976158143
258,209,32658,22,0,P|250:149|208:109,1,112.500000715256
111,184,32923,1,0,0:0:0:0:
111,184,33011,2,0,P|152:195|181:194,1,56.2500003576279
229,37,33187,2,0,P|201:39|174:48,1,56.2500003576279
313,79,33364,6,0,P|321:44|321:36,5,37.5000002384186
360,145,33717,102,0,P|391:125|432:119,2,75.0000004768372
424,200,34070,102,0,B|489:235|481:329|424:362|424:362|361:333|375:271,1,299.999990463257
221,195,34599,2,0,B|269:196|269:196|298:235|298:235|348:148|348:148|382:199|382:199|438:200,1,299.999990463257
162,71,35128,2,0,B|193:113|192:182|179:233|179:233|193:204|237:187,1,224.999992847443
168,311,35481,6,0,P|120:285|102:245,1,74.9999976158143
88,146,35658,6,0,B|82:129|82:129|99:123|99:123|105:140|105:140|88:146,1,74.9999976158143
90,162,35746,2,0,B|105:151|105:151|116:166|116:166|101:177|101:177|90:162,1,74.9999976158143
77,169,35834,2,0,B|92:180|92:180|81:195|81:195|66:184|66:184|77:169,1,74.9999976158143
66,158,35922,2,0,B|61:176|61:176|43:171|43:171|48:153|48:153|66:158,1,74.9999976158143
73,145,36011,102,0,B|54:145|54:145|54:126|54:126|73:126|73:126|73:145,1,74.9999976158143
189,49,36187,6,0,B|195:31|195:31|177:25|177:25|171:42|171:42|189:49,1,74.9999976158143
186,64,36275,2,0,B|170:52|170:52|159:67|159:67|174:79|174:79|186:64,1,74.9999976158143
199,71,36363,2,0,B|183:81|183:81|194:97|194:97|209:86|209:86|199:71,1,74.9999976158143
210,60,36451,2,0,B|215:77|215:77|233:72|233:72|227:54|227:54|210:60,1,74.9999976158143
203,47,36540,102,0,B|221:47|221:47|222:28|222:28|203:28|203:28|203:47,1,74.9999976158143
267,155,36717,6,0,B|262:172|262:172|244:167|244:167|250:149|250:149|267:155,1,74.9999976158143
330,97,36805,2,0,B|313:92|313:92|318:74|318:74|336:80|336:80|330:97,1,74.9999976158143
414,91,36893,70,0,P|353:111|314:189,1,149.999995231629
378,318,37246,2,0,P|416:266|403:180,1,149.999995231629
104,303,37599,6,0,B|188:307|188:307|243:351|243:351|303:314|303:314|390:318,1,299.999990463257
99,297,38128,102,0,L|227:304,1,112.499996423721
275,240,38305,22,0,P|288:191|286:157,1,74.9999976158143
126,100,38481,6,0,P|126:69|84:76,1,74.9999976158143
129,119,38570,2,0,P|99:109|93:151,1,74.9999976158143
146,126,38658,2,0,L|166:233,1,74.9999976158143
155,108,38747,2,0,P|173:133|203:102,1,74.9999976158143
146,95,38834,102,0,P|175:85|155:47,1,74.9999976158143
411,53,39011,6,0,P|411:22|453:29,1,74.9999976158143
408,72,39100,2,0,P|438:62|444:104,1,74.9999976158143
391,79,39188,2,0,L|371:186,1,74.9999976158143
382,61,39277,2,0,P|364:86|334:55,1,74.9999976158143
391,48,39364,102,0,P|362:38|382:0,1,74.9999976158143
503,134,39540,5,0,0:0:0:0:
493,229,39628,1,0,0:0:0:0:
481,327,39717,70,0,P|435:198|300:227,1,299.999990463257
12,197,40246,2,0,B|68:224|125:199|125:199|186:224|186:224|244:205|302:228,1,299.999990463257
69,127,40775,2,0,B|87:90|48:40|-6:73|-34:100|-11:165|15:202,1,224.999992847443
194,136,41128,22,0,L|286:134,1,74.9999976158143
370,91,41305,6,0,P|374:66|375:90,1,74.9999976158143
382,110,41393,2,0,P|407:106|384:114,1,74.9999976158143
370,128,41481,2,0,P|381:150|366:131,1,74.9999976158143
349,119,41569,2,0,P|331:136|344:116,1,74.9999976158143
346,101,41658,102,0,P|323:89|346:95,1,74.9999976158143
300,227,41834,6,0,P|296:202|295:226,1,74.9999976158143
288,246,41922,2,0,P|262:242|285:250,1,74.9999976158143
300,264,42010,2,0,P|288:286|303:267,1,74.9999976158143
321,255,42098,2,0,P|338:272|325:252,1,74.9999976158143
324,237,42187,2,0,P|346:225|323:231,1,74.9999976158143
210,288,42364,102,0,P|214:263|215:287,1,74.9999976158143
115,301,42452,2,0,P|119:326|120:302,1,74.9999976158143
35,241,42540,102,0,P|76:267|114:271,1,74.9999976158143
104,176,42717,2,0,P|139:143|153:107,1,74.9999976158143
321,59,42893,102,0,P|380:46|418:17,1,93.7499970197678
227,72,43069,2,0,P|254:126|292:155,1,93.7499970197678
465,203,43246,6,0,P|405:160|349:151,1,112.499996423721
370,248,43423,2,0,P|313:294|290:346,1,112.499996423721
210,288,43599,102,0,B|214:248|214:248|198:217|198:217|204:171,3,112.500000715256
111,125,43952,22,0,P|165:81|212:76,1,112.500000715256
346,108,44128,6,0,P|346:77|388:84,1,74.9999976158143
343,127,44217,2,0,P|373:117|379:159,1,74.9999976158143
326,134,44305,2,0,L|306:241,1,74.9999976158143
317,116,44394,2,0,P|299:141|269:110,1,74.9999976158143
326,103,44481,102,0,P|297:93|317:55,1,74.9999976158143
504,223,44658,5,0,0:0:0:0:
454,288,44702,2,0,P|475:302|453:290,1,74.9999976158143
378,320,44790,2,0,P|380:345|375:320,1,74.9999976158143
298,300,44878,2,0,P|280:318|295:298,1,74.9999976158143
249,233,45011,101,0,0:0:0:0:
195,162,45099,2,0,P|212:143|193:159,1,74.9999976158143
113,147,45187,2,0,P|109:121|110:146,1,74.9999976158143
40,185,45275,2,0,P|18:171|37:186,1,74.9999976158143
19,273,45364,22,0,B|69:266|92:284|92:284|98:248|83:208|83:208|69:170|97:124|97:124|105:184|175:201|219:147|199:91|150:59|150:59|178:75|266:98|326:62|326:62|386:27|488:44|505:126|500:186|447:228|447:228|459:197|454:166,1,1012.49996781349
372,184,50305,6,0,P|338:186|308:200,2,56.2499982118607
359,259,51011,102,0,B|357:294|331:318|331:318|328:328|328:328|325:319|325:319|284:303|246:307|213:325|213:325|212:336|212:336|214:289|186:254|186:254|224:258|246:245|276:200|281:115|155:104|125:128|84:186|100:264|100:264|47:260|8:271|8:271|1:177|50:106|50:106|50:61|50:61|52:70|52:70|95:49|133:58|133:58|166:68|196:54,1,1124.99996423721
189,56,56658,54,0,B|232:62|250:98|250:98|283:68|328:66,1,149.999995231629
168,148,57187,2,0,L|161:222,1,74.9999976158143
298,0,57540,2,0,P|271:6|255:12,1,37.4999988079071
177,134,57716,2,0,L|170:208,1,74.9999976158143
336,338,58069,6,0,B|333:229|333:229|342:250|367:265,1,149.999995231629
403,187,58599,2,0,P|372:153|313:146,1,74.9999976158143
225,267,58952,2,0,L|274:265,1,37.4999988079071
411,173,59128,2,0,P|380:139|321:132,1,74.9999976158143
247,162,59481,102,0,P|321:133|314:38,1,187.499994039536
117,65,60010,2,0,B|110:134|110:134|127:163,1,93.7499970197678
208,76,60363,2,0,L|210:27,1,46.8749985098839
99,71,60540,2,0,B|92:140|92:140|109:169,1,93.7499970197678
203,255,60893,6,0,B|200:298|154:331|154:331|102:308|89:267,1,187.499994039536
228,162,61422,2,0,P|274:192|292:231,1,93.7499970197678
139,160,61775,2,0,P|145:128|156:108,1,46.8749985098839
240,151,61952,2,0,P|286:181|304:220,1,93.7499970197678
292,324,62305,6,0,B|330:281|330:281|390:288,1,112.500000715256
230,206,62658,6,0,L|242:132,1,56.2500003576279
302,214,62835,2,0,L|314:140,1,56.2500003576279
103,49,63010,102,0,L|115:123,1,56.2500003576279
175,41,63187,2,0,L|187:115,1,56.2500003576279
31,170,63363,6,0,P|102:133|156:193,1,168.750001072884
292,324,63716,102,0,P|242:350|203:307,1,112.500000715256
315,244,64069,6,0,P|365:273|381:297,1,56.2500003576279
259,187,64245,2,0,P|313:167|342:170,1,56.2500003576279
195,90,64422,102,0,P|166:140|142:156,1,56.2500003576279
252,34,64598,2,0,P|271:88|268:117,1,56.2500003576279
450,117,64775,6,0,P|384:100|361:9,1,168.750001072884
483,190,65128,102,0,B|484:245|484:245|479:256|479:256|481:308,1,112.500000715256
342,208,65481,6,0,L|406:201,1,56.2500003576279
265,287,65658,2,0,L|329:294,1,56.2500003576279
200,179,65834,102,0,L|264:172,1,56.2500003576279
123,316,66011,2,0,L|187:323,1,56.2500003576279
37,186,66187,6,0,B|33:140|69:107|69:107|111:133|114:172,1,168.750001072884
57,4,66540,102,0,L|70:115,1,112.500000715256
200,179,66893,2,0,L|187:68,1,112.500000715256
321,33,67246,6,0,L|377:28,5,37.5000002384186
345,119,67599,2,0,L|439:128,2,75.0000004768372
359,219,67952,38,0,B|295:211|295:211|256:139|256:139|174:259|174:259|132:190|132:190|56:179,1,450.000002861023
56,185,68481,6,0,B|132:191|132:191|174:225|174:225|256:165|256:165|295:201|295:201|388:208,1,337.500002145767
457,118,68834,2,0,B|461:90|461:90|442:73|442:73|417:82|417:82|414:118,1,112.500000715256
346,208,69010,102,0,P|299:178|217:198,1,112.500000715256
56,185,69187,2,0,P|103:215|185:195,1,112.500000715256
226,116,69363,54,0,L|237:1,1,112.500000715256
92,102,69540,6,0,B|72:109|55:110|55:110|72:116|91:129,1,74.9999976158143
97,191,69628,2,0,B|87:210|76:222|76:222|92:215|115:210,1,74.9999976158143
162,261,69716,2,0,B|169:281|170:298|170:298|176:281|189:262,1,74.9999976158143
251,256,69804,2,0,B|270:265|282:276|282:276|275:260|270:237,1,74.9999976158143
318,184,69893,102,0,L|329:69,1,112.500000715256
449,39,70069,6,0,B|469:46|486:47|486:47|469:53|450:66,1,74.9999976158143
466,130,70157,2,0,B|481:143|497:151|497:151|479:150|456:155,1,74.9999976158143
444,222,70246,2,0,B|453:241|464:253|464:253|448:246|425:241,1,74.9999976158143
375,287,70334,2,0,B|376:308|382:324|382:324|369:310|350:298,1,74.9999976158143
277,311,70422,102,0,P|195:328|145:273,1,149.999995231629
166,204,70599,2,0,P|248:187|298:242,1,149.999995231629
73,232,70775,54,0,P|71:204|117:123,1,112.500000715256
130,33,70952,2,0,P|155:45|202:125,1,112.500000715256
271,183,71128,2,0,P|247:198|154:199,1,112.500000715256
285,86,71304,6,0,B|325:86|374:133|378:186|378:186|392:134|449:104|507:119,1,299.999990463257
385,251,71834,70,0,P|377:223|376:195,1,56.2499982118607
378,182,72187,86,0,P|439:181|488:234,1,112.500000715256
304,143,72363,6,0,P|318:108|343:81,1,74.9999976158143
220,129,72452,2,0,P|214:92|223:55,1,74.9999976158143
140,153,72540,2,0,P|117:123|106:87,1,74.9999976158143
85,218,72629,2,0,P|50:203|23:178,1,74.9999976158143
51,300,72716,101,0,0:0:0:0:
70,208,72893,6,0,P|28:190|-4:160,1,74.9999976158143
136,129,72982,2,0,P|108:93|95:50,1,74.9999976158143
232,100,73070,2,0,P|225:55|236:11,1,74.9999976158143
333,117,73158,2,0,P|350:75|380:42,1,74.9999976158143
407,178,73246,102,0,B|485:182|485:182|512:249,1,149.999995231629
504,267,73423,2,0,B|425:262|425:262|398:195,1,149.999995231629
216,177,73599,53,0,0:0:0:0:
216,177,73687,1,0,0:0:0:0:
216,177,73775,1,0,0:0:0:0:
216,177,73863,2,0,L|75:126,1,149.999995231629
398,243,74128,6,0,L|293:205,1,112.500000715256
141,39,74304,102,0,B|217:41|217:41|278:106,1,149.999995231629
70,235,74481,2,0,B|129:282|129:282|218:271,1,149.999995231629
304,16,74657,6,0,B|384:103|384:103|343:183,1,172.499997806549
176,360,74834,2,0,B|297:342|297:342|317:254,1,172.499997806549
244,97,75010,38,0,L|222:224,1,112.500000715256
327,115,75187,6,0,L|313:195,1,74.9999976158143
409,131,75275,2,0,L|395:211,1,74.9999976158143
493,147,75363,2,0,L|479:227,2,74.9999976158143
474,383,75540,102,0,P|469:326|423:292,1,112.500000715256
417,288,75716,85,0,0:0:0:0:
337,279,75804,1,0,0:0:0:0:
308,259,75893,5,0,0:0:0:0:
228,250,75981,1,0,0:0:0:0:
209,221,76069,101,0,0:0:0:0:
129,212,76157,1,0,0:0:0:0:
100,192,76246,5,0,0:0:0:0:
24,183,76334,1,0,0:0:0:0:
8,167,76422,70,0,P|25:105|102:146,1,149.999995231629
60,260,76687,2,0,P|80:334|154:296,1,179.99998878479
195,132,76952,6,0,B|254:120|273:64|273:64|282:127|360:154,1,209.999986915589
294,240,77216,2,0,B|353:252|372:308|372:308|381:245|459:218,1,209.999986915589
363,45,77481,102,0,P|335:88|330:140,1,104.999993457794
512,250,77657,2,0,P|507:199|479:155,1,104.999993457794
274,252,77834,54,0,P|344:268|391:256,1,112.500000715256
470,99,78010,6,0,B|470:71|470:71|446:71|446:71|446:99,1,74.9999976158143
455,115,78099,2,0,B|428:106|428:106|420:129|420:129|447:137,1,74.9999976158143
462,136,78187,2,0,B|445:158|445:158|464:172|464:172|481:150,1,74.9999976158143
483,132,78276,2,0,B|499:154|499:154|518:140|518:140|502:117,1,74.9999976158143
487,112,78363,102,0,B|513:103|513:103|506:80|506:80|480:89,1,74.9999976158143
254,27,78540,6,0,B|254:-1|254:-1|278:-1|278:-1|278:27,1,74.9999976158143
269,43,78629,2,0,B|295:34|295:34|303:57|303:57|276:65,1,74.9999976158143
262,64,78717,2,0,B|278:86|278:86|259:100|259:100|242:78,1,74.9999976158143
241,60,78806,2,0,B|224:82|224:82|205:68|205:68|221:45,1,74.9999976158143
237,40,78893,102,0,B|210:31|210:31|217:8|217:8|244:17,1,74.9999976158143
337,143,79069,5,0,0:0:0:0:
354,236,79157,1,0,0:0:0:0:
428,297,79246,38,0,B|494:321|523:215|437:183|437:183|336:142|336:142|255:108|206:209|301:256,1,449.999985694885
253,302,79599,102,0,P|263:261|258:219,1,74.9999976158143
126,87,79775,22,0,B|97:14|-3:63|30:144|30:144|71:245|71:245|103:331|209:302|183:202,1,449.999985694885
175,170,80128,70,0,P|172:207|182:243,1,74.9999976158143
183,256,80304,54,0,P|205:191|195:116,1,134.999991588593
195,115,80657,22,0,L|367:101,1,149.999995231629
429,227,80834,5,0,0:0:0:0:
424,241,80922,1,0,0:0:0:0:
419,255,81010,2,0,L|336:265,1,74.9999976158143
496,147,81187,102,0,L|510:319,1,149.999995231629
297,172,81364,5,0,0:0:0:0:
302,158,81452,1,0,0:0:0:0:
307,144,81540,2,0,L|390:134,1,74.9999976158143
430,335,81716,6,0,B|401:341|401:341|371:339|371:339|336:344|336:344|302:343|302:343|268:349,1,157.499990186692
263,354,82069,6,0,P|254:326|253:309,1,44.9999985694886
254,300,82422,6,0,L|262:219,1,75.0000004768372
250,214,82540,2,0,L|258:133,1,75.0000004768372
246,128,82657,2,0,L|254:47,1,75.0000004768372
242,44,82775,6,0,P|292:58|326:131,1,112.500000715256
250,214,82951,2,0,P|200:200|166:127,1,112.500000715256
333,137,83128,102,0,P|212:248|218:47,1,449.999985694885
116,0,83481,54,0,P|183:31|197:84,1,112.500000715256
327,157,83657,5,0,0:0:0:0:
314,162,83746,1,0,0:0:0:0:
304,166,83834,2,0,P|253:142|243:102,1,74.9999976158143
333,54,84010,102,0,P|400:85|414:138,1,112.500000715256
413,128,84187,85,0,0:0:0:0:
333,137,84275,1,0,0:0:0:0:
304,157,84364,5,0,0:0:0:0:
224,166,84452,1,0,0:0:0:0:
205,195,84540,101,0,0:0:0:0:
125,204,84628,1,0,0:0:0:0:
96,224,84717,5,0,0:0:0:0:
20,233,84805,1,0,0:0:0:0:
0,252,84893,70,0,B|-7:210|-7:210|12:184|12:184|41:199|41:199|49:242,1,149.999995231629
126,330,85069,2,0,B|165:305|177:268|168:219|168:219|159:186|159:186|152:184|152:184|156:179|156:179|149:147|149:147|135:86|213:64|229:126|229:126|242:179|294:203|351:188,1,449.999985694885
311,110,85422,6,0,B|303:68|303:68|323:42|323:42|352:57|352:57|361:101,1,149.999995231629
383,177,85599,2,0,B|437:158|445:116|434:67|434:67|463:224|463:224|471:226|471:226|465:233|465:233|472:271|472:271|468:275|468:275|474:278|474:278|480:311|480:311|488:314|488:314|481:320|481:320|495:382,1,449.999985694885
287,238,85951,102,0,B|245:231|245:231|230:202|230:202|255:179|255:179|299:187,1,149.999995231629
385,266,86128,2,0,B|427:274|427:274|443:302|443:302|417:326|417:326|375:317,1,149.999995231629
294,110,86304,54,0,B|314:78|312:40|312:40|317:77|350:104,1,149.999995231629
242,310,86481,2,0,B|204:308|172:329|172:329|201:306|208:264,1,149.999995231629
455,224,86657,1,0,0:0:0:0:
455,224,86746,1,0,0:0:0:0:
455,224,86834,6,0,B|472:257|506:274|506:274|472:260|432:275,1,149.999995231629
203,195,87010,2,0,B|185:161|151:144|151:144|185:158|225:143,1,149.999995231629
406,110,87187,1,0,0:0:0:0:
406,110,87275,1,0,0:0:0:0:
406,110,87363,102,0,B|386:78|388:40|388:40|383:77|350:104,1,149.999995231629
203,195,87540,2,0,B|183:227|185:265|185:265|180:228|147:201,1,149.999995231629
382,280,87716,54,0,P|413:289|359:308,1,149.999995231629
205,46,87893,2,0,P|185:21|240:37,1,149.999995231629
211,339,88069,6,0,P|212:371|177:325,1,149.999995231629
378,99,88246,2,0,P|396:72|398:129,1,149.999995231629
102,194,88422,86,0,P|71:205|104:158,1,149.999995231629
78,172,88775,22,0,B|66:80|66:80|223:63|223:63|185:329,1,449.999985694885
194,276,89128,38,0,P|215:224|305:195,1,149.999995231629
409,313,89304,1,0,0:0:0:0:
406,329,89393,6,0,P|350:336|280:273,1,149.999995231629
330,124,89569,1,0,0:0:0:0:
343,122,89657,102,0,P|377:166|357:258,1,149.999995231629
378,38,89834,6,0,P|322:30|252:93,1,149.999995231629
101,213,90010,1,0,0:0:0:0:
82,220,90099,102,0,P|115:175|210:170,1,149.999995231629
402,170,90275,1,0,0:0:0:0:
426,161,90363,6,0,P|370:153|300:216,1,149.999995231629
299,319,90540,38,0,B|263:222|263:222|253:222|253:222|261:218|261:218|232:141|232:141|239:135|239:135|231:137|231:137|188:27,1,299.999990463257
369,288,90893,6,0,B|350:318|350:318|287:328,1,74.9999976158143
299,319,91069,102,0,P|250:198|477:206,1,449.999985694885
488,283,91422,6,0,B|495:302|495:302|497:351,3,56.2500003576279
484,277,91599,101,0,0:0:0:0:
453,101,91775,1,0,0:0:0:0:
358,211,91951,54,0,L|295:217,1,56.2500003576279
288,199,92040,2,0,L|225:205,1,56.2500003576279
218,187,92128,2,0,L|155:193,1,56.2500003576279
148,175,92216,2,0,L|85:181,1,56.2500003576279
68,157,92304,6,0,P|79:197|94:151,1,112.500000715256
169,45,92481,101,0,0:0:0:0:
173,123,92569,1,0,0:0:0:0:
177,201,92657,6,0,P|188:241|203:195,1,112.500000715256
282,85,92834,101,0,0:0:0:0:
286,163,92922,1,0,0:0:0:0:
290,241,93010,6,0,P|301:281|316:235,1,112.500000715256
405,124,93187,101,0,0:0:0:0:
409,202,93275,1,0,0:0:0:0:
413,280,93363,54,0,P|414:325|428:355,1,56.2500003576279
487,299,93451,2,0,P|504:317|535:333,1,56.2500003576279
467,74,93628,6,0,P|417:48|346:71,1,112.500000715256
405,124,93893,102,0,P|404:169|390:199,1,56.2500003576279
331,143,93981,2,0,P|314:161|283:177,1,56.2500003576279
64,31,94157,6,0,B|71:110|71:110|86:93|88:70,1,112.500000715256
86,80,94422,70,0,P|94:114|87:138,1,56.2499982118607
88,134,94775,86,0,B|27:117|27:117|163:126|163:126|165:136|165:136|167:126|167:126|263:131,1,299.999990463257
323,147,95040,1,0,0:0:0:0:
394,192,95128,6,0,B|400:231|400:231|410:191|410:191|402:191,1,74.9999976158143
478,171,95216,2,0,B|502:201|502:201|491:162|491:162|484:166,1,74.9999976158143
507,90,95304,1,0,0:0:0:0:
49,269,95481,102,0,P|100:302|106:355,1,112.500000715256
114,356,95657,5,0,0:0:0:0:
130,271,95746,1,0,0:0:0:0:
202,233,95834,102,0,B|208:194|208:194|218:234|218:234|210:234,1,74.9999976158143
286,254,95922,2,0,B|310:223|310:223|299:262|299:262|292:258,1,74.9999976158143
318,334,96010,1,0,0:0:0:0:
397,369,96099,1,0,0:0:0:0:
473,332,96187,54,0,B|461:264|469:163|469:163|435:195|376:192|344:145,1,299.999990463257
414,46,96540,86,0,P|418:86|416:115,1,56.2500003576279
473,332,96716,38,0,B|461:264|469:163|469:163|478:85|464:-2,1,299.999990463257
480,336,97069,5,0,0:0:0:0:
473,332,97246,6,0,B|446:335|446:335|415:324|415:324|382:327,4,74.9999976158143
425,154,97599,6,0,P|459:245|413:318,1,149.999995231629
286,309,97775,2,0,P|252:218|298:145,1,149.999995231629
376,213,97951,6,0,P|365:253|350:207,1,112.500000715256
275,101,98128,101,0,0:0:0:0:
271,179,98216,1,0,0:0:0:0:
267,257,98304,6,0,P|256:297|241:251,1,112.500000715256
162,141,98481,101,0,0:0:0:0:
158,219,98569,1,0,0:0:0:0:
154,297,98657,6,0,P|143:337|128:291,1,112.500000715256
39,180,98834,101,0,0:0:0:0:
39,180,98922,1,0,0:0:0:0:
39,180,99010,54,0,B|15:175|15:175|76:164,1,74.9999976158143
78,86,99099,2,0,B|57:72|57:72|118:84,1,74.9999976158143
300,61,99275,6,0,B|277:35|276:-7|276:-7|269:32|271:75|271:75|276:124|267:162|267:162|265:131|244:94,1,299.999990463257
162,141,99540,102,0,B|138:146|138:146|199:157,1,74.9999976158143
201,235,99629,2,0,B|180:248|180:248|241:236,1,74.9999976158143
462,274,99804,6,0,B|464:205|448:172|427:141|397:126|367:121|335:119|304:125|275:143|250:168|239:211,1,299.999990463257
266,160,100069,102,0,B|319:175|329:119|329:119|339:56|414:71|405:128|405:128|403:186|457:185|457:185|524:185|526:265|467:265,1,449.999985694885
466,265,100422,54,0,B|441:295|441:345|441:345|383:319|329:332|329:332|260:348|214:318,1,299.999990463257
169,264,100687,1,0,0:0:0:0:
148,182,100775,6,0,B|116:190|116:190|174:154,1,74.9999976158143
170,97,100863,2,0,B|138:87|138:87|206:86,1,74.9999976158143
238,42,100951,1,0,0:0:0:0:
231,327,101128,102,0,P|174:314|170:251,1,112.500000715256
169,264,101304,1,0,0:0:0:0:
231,203,101393,1,0,0:0:0:0:
313,182,101481,6,0,B|305:150|305:150|341:208,1,74.9999976158143
398,204,101569,2,0,B|407:172|407:172|408:240,1,74.9999976158143
453,272,101657,1,0,0:0:0:0:
468,355,101746,1,0,0:0:0:0:
467,355,101834,54,0,B|440:300|465:230|465:230|487:168|479:88|402:55|314:65|286:159|324:214,1,449.999985694885
312,261,102187,86,0,P|320:207|312:174,1,74.9999976158143
142,309,102363,6,0,B|155:346|191:359|191:359|99:349|64:245|160:152|245:218|245:218|205:206|167:225,1,449.999985694885
19,213,102716,102,0,P|50:235|89:246,1,74.9999976158143
74,133,102893,54,0,B|80:150|80:165|80:165|91:119|80:62,1,134.999991588593
80,63,103246,6,0,B|42:46|42:46|176:37,1,149.999995231629
214,100,103422,1,0,0:0:0:0:
214,100,103510,1,0,0:0:0:0:
214,100,103599,2,0,B|175:117|175:117|309:126,1,149.999995231629
350,74,103775,6,0,B|367:35|367:35|376:169,1,149.999995231629
311,290,103951,1,0,0:0:0:0:
311,290,104040,1,0,0:0:0:0:
311,290,104128,2,0,B|293:328|293:328|284:194,1,149.999995231629
399,286,104304,102,0,B|480:316|480:316|107:339,1,449.999985694885
122,326,104657,38,0,P|117:297|117:282,1,44.9999985694886
109,268,105010,6,0,L|117:187,1,75.0000004768372
105,182,105128,2,0,L|113:101,1,75.0000004768372
101,96,105245,2,0,L|109:15,1,75.0000004768372
99,2,105363,6,0,B|182:8|182:8|205:29,1,112.500000715256
105,182,105540,2,0,B|22:176|22:176|-1:155,1,112.500000715256
188,113,105716,102,0,B|233:125|233:125|252:240|252:240|312:260|312:260|310:285|310:285|375:162|375:162|304:144,1,449.999985694885
360,60,106069,54,0,P|319:84|318:159,1,112.500000715256
473,170,106246,1,0,0:0:0:0:
473,170,106334,1,0,0:0:0:0:
473,170,106422,6,0,B|392:166|392:166|370:193,1,112.500000715256
310,144,106599,2,0,B|229:140|229:140|207:167,1,112.500000715256
39,226,106775,69,0,0:0:0:0:
119,235,106863,1,0,0:0:0:0:
148,255,106952,5,0,0:0:0:0:
228,264,107040,1,0,0:0:0:0:
247,293,107128,101,0,0:0:0:0:
327,302,107216,1,0,0:0:0:0:
356,322,107305,5,0,0:0:0:0:
432,331,107393,1,0,0:0:0:0:
455,346,107481,70,0,B|457:293|457:293|475:257|475:257|478:190,1,149.999995231629
464,120,107657,2,0,B|416:134|399:179|399:179|393:8|393:8|334:119|202:79,1,449.999985694885
180,129,108010,6,0,P|196:56|242:99,1,149.999995231629
246,202,108187,2,0,B|225:272|254:340|254:340|262:304|294:275|294:275|134:269|134:269|61:268|63:188,1,449.999985694885
87,377,108540,102,0,B|85:324|85:324|67:288|67:288|64:221,1,149.999995231629
5,183,108716,6,0,P|21:256|67:213,1,149.999995231629
100,49,108893,38,0,B|125:71|137:103|137:103|126:71|129:38|129:38|119:53|103:47,1,149.999995231629
313,196,109069,2,0,B|280:207|246:200|246:200|280:208|307:226|307:226|299:210|312:199,1,149.999995231629
77,312,109246,1,0,0:0:0:0:
77,312,109334,1,0,0:0:0:0:
77,312,109422,6,0,B|83:278|105:252|105:252|82:277|53:291|53:291|71:292|73:309,1,149.999995231629
252,59,109599,2,0,B|245:92|223:118|223:118|246:93|275:79|275:79|257:78|255:61,1,149.999995231629
229,322,109775,1,0,0:0:0:0:
229,322,109863,1,0,0:0:0:0:
229,322,109951,102,0,B|203:299|191:267|191:267|202:299|199:332|199:332|209:317|225:323,1,149.999995231629
313,196,110128,2,0,B|338:173|350:141|350:141|339:173|342:206|342:206|332:191|316:197,1,149.999995231629
404,312,110304,54,0,L|497:308,1,74.9999976158143
229,322,110481,2,0,L|136:326,1,74.9999976158143
147,209,110657,6,0,L|73:206,1,74.9999976158143
251,58,110834,2,0,L|326:62,1,74.9999976158143
506,181,111010,70,0,P|511:228|507:263,1,74.9999976158143
512,246,111363,38,0,B|477:212|452:185|445:116|445:116|442:184|429:216|397:241|397:241|346:195|342:136|342:136|337:187|299:231|299:231|257:201|248:158|248:158|242:200|207:222|207:222|177:201|169:176|169:176|158:200|147:211,1,787.500005006791
256,192,111716,12,0,113040,0:0:0:0:
99,157,113128,70,0,B|52:123|52:58|85:5|159:6|208:6|226:71|217:129|181:188|181:188|185:151|175:122|175:122|249:150|330:129|330:129|408:109|499:146|499:146|473:106|464:31|464:31|459:181|387:268|387:268|322:176|289:33|289:33|314:155|250:253|250:253|270:279|271:305|271:305|256:287|231:267|231:267|157:304|102:241|102:241|115:312|97:370|97:370|97:344|84:316,1,2081.24993383885
90,332,123010,22,0,P|53:324|-2:326,3,74.9999976158143
102,337,123362,5,0,0:0:0:0:
154,355,123450,1,0,0:0:0:0:
210,357,123538,1,0,0:0:0:0:
265,343,123626,1,0,0:0:0:0:
307,303,123715,101,0,0:0:0:0:
309,234,123803,1,0,0:0:0:0:
311,166,123891,1,0,0:0:0:0:
313,98,123979,1,0,0:0:0:0:
316,88,124068,6,0,L|385:80,3,56.2500003576279
442,137,124422,22,0,B|447:108|471:73|471:73|272:90|272:90|313:112|327:162|327:162|291:1|291:1|132:19|132:19|176:35|195:65|195:65|127:65|84:104|53:147|49:190|44:298|97:319|162:358|253:362|295:313|326:273|324:240|324:240|296:289|248:294|248:294|483:334|483:334|429:283|434:218|434:218|451:218|451:218|153:188|153:188|183:214|185:243|185:243|152:240|132:200|145:146|175:135|208:140,1,2344.12482890731
219,46,132892,6,0,L|218:81,1,18.7499994039536
303,63,133069,2,0,L|304:28,1,18.7499994039536
365,112,133245,5,0,0:0:0:0:
367,124,133333,1,0,0:0:0:0:
370,136,133422,1,0,0:0:0:0:
373,148,133510,1,0,0:0:0:0:
423,214,133598,102,0,L|448:212,3,18.7499994039536
355,262,133951,1,0,0:0:0:0:
341,261,134039,1,0,0:0:0:0:
327,260,134127,1,0,0:0:0:0:
313,259,134216,1,0,0:0:0:0:
232,284,134304,6,0,L|226:317,3,28.125000178814
184,209,134657,2,0,L|178:175,3,28.125000178814
145,291,135010,5,0,0:0:0:0:
107,291,135098,1,0,0:0:0:0:
72,278,135186,1,0,0:0:0:0:
43,254,135274,1,0,0:0:0:0:
25,222,135363,1,0,0:0:0:0:
19,185,135451,1,0,0:0:0:0:
26,148,135539,1,0,0:0:0:0:
45,116,135627,1,0,0:0:0:0:
77,102,135716,38,0,B|103:37|76:-17|76:-17|119:24|182:8|182:8|55:97|14:159|78:378|80:412|180:421|263:429|406:442|550:455|485:214|467:79|447:8|350:61|268:-43|143:49|88:11|85:166|131:216|88:336|143:367|288:382|366:313|351:236|337:198|319:178|319:178|351:277|259:329|114:308|134:123|248:124,1,2099.9999332428
185,154,138539,70,0,L|260:148,1,74.9999976158143
409,236,138892,2,0,L|334:242,1,74.9999976158143
268,142,139245,5,0,0:0:0:0:
248,335,139421,1,0,0:0:0:0:
107,225,139598,2,0,L|182:231,1,74.9999976158143
13,32,139951,102,0,P|56:43|85:67,1,74.9999976158143
27,320,140304,1,0,0:0:0:0:
6,158,140480,1,0,0:0:0:0:
95,145,140657,5,0,0:0:0:0:
116,306,140833,1,0,0:0:0:0:
157,62,141010,2,0,P|145:105|121:134,1,74.9999976158143
30,290,141363,102,0,P|41:246|65:217,1,74.9999976158143
194,296,141716,2,0,L|103:288,1,74.9999976158143
221,189,142068,5,0,0:0:0:0:
255,364,142245,1,0,0:0:0:0:
305,163,142421,2,0,P|260:112|230:99,1,74.9999976158143
139,198,142774,102,0,L|230:190,1,74.9999976158143
440,101,143127,2,0,L|349:93,1,74.9999976158143
276,249,143480,5,0,0:0:0:0:
276,249,143657,1,0,0:0:0:0:
421,191,143833,1,0,0:0:0:0:
244,110,144010,1,0,0:0:0:0:
418,204,144186,102,0,L|408:289,1,74.9999976158143
190,247,144539,2,0,L|181:172,1,74.9999976158143
254,56,144892,5,0,0:0:0:0:
319,168,145068,1,0,0:0:0:0:
103,165,145245,2,0,P|125:113|160:90,1,74.9999976158143
327,180,145598,102,0,L|335:254,1,74.9999976158143
422,115,145951,1,0,0:0:0:0:
422,115,146127,1,0,0:0:0:0:
212,148,146304,5,0,0:0:0:0:
455,196,146480,1,0,0:0:0:0:
385,39,146657,2,0,P|344:84|335:115,1,74.9999976158143
338,304,147010,6,0,B|281:269|285:212|285:212|247:254|180:243,1,225.000001430512
170,68,147539,21,0,0:0:0:0:
111,298,147716,1,0,0:0:0:0:
111,298,147892,1,0,0:0:0:0:
368,219,148068,6,0,P|356:164|312:128,1,112.500000715256
159,226,148421,1,0,0:0:0:0:
252,44,148598,101,0,0:0:0:0:
263,264,148774,1,0,0:0:0:0:
263,264,148951,1,0,0:0:0:0:
510,60,149127,6,0,L|396:53,1,112.500000715256
228,150,149480,2,0,L|342:143,1,112.500000715256
445,154,149833,86,0,B|395:118|398:54|398:54|389:118|328:151,1,225.000001430512
159,226,150363,5,0,0:0:0:0:
277,27,150539,1,0,0:0:0:0:
277,27,150716,1,0,0:0:0:0:
252,277,150892,6,0,L|238:148,1,112.500000715256
363,305,151245,1,0,0:0:0:0:
148,328,151421,101,0,0:0:0:0:
403,223,151598,1,0,0:0:0:0:
403,223,151774,1,0,0:0:0:0:
301,96,151951,6,0,L|179:92,1,112.500000715256
403,223,152304,1,0,0:0:0:0:
130,33,152657,22,0,B|97:71|103:129|152:158|152:158|198:127|186:72,1,225.000001430512
35,23,153186,69,0,0:0:0:0:
46,241,153363,1,0,0:0:0:0:
46,241,153539,1,0,0:0:0:0:
263,160,153716,6,0,P|204:149|139:160,1,112.500000715256
203,282,154068,1,0,0:0:0:0:
302,69,154245,101,0,0:0:0:0:
45,109,154421,1,0,0:0:0:0:
45,109,154598,1,0,0:0:0:0:
297,204,154774,6,0,L|409:197,1,112.500000715256
472,297,155127,2,0,L|353:290,1,112.500000715256
352,98,155480,6,0,B|396:142|412:195|412:195|394:260|349:302,1,225.000001430512
259,52,156010,85,0,0:0:0:0:
469,98,156186,1,0,0:0:0:0:
469,98,156363,1,0,0:0:0:0:
208,146,156539,5,0,0:0:0:0:
208,146,156716,1,0,0:0:0:0:
373,323,156892,6,0,L|441:319,3,56.2500003576279
312,234,157245,2,0,L|380:238,3,56.2500003576279
238,341,157598,6,0,L|306:337,1,56.2500003576279
181,227,157774,2,0,L|249:231,1,56.2500003576279
143,308,157951,102,0,B|112:306|112:306|90:298|90:298|59:298,2,75.0000004768372
87,213,158304,102,0,B|42:176|11:23|76:2|117:-33|148:-11|206:-17|190:84|151:104|79:118,1,449.999985694885
358,243,158833,2,0,B|300:238|300:238|246:305|246:305|210:158|210:158|162:220|162:220|86:212,1,450.000002861023
319,157,159363,2,0,B|297:99|297:99|426:114|426:114|341:272,1,337.500002145767
342,325,159716,6,0,P|294:299|276:259,1,74.9999976158143
222,138,159893,6,0,B|216:121|216:121|233:115|233:115|239:132|239:132|222:138,1,74.9999976158143
224,154,159981,2,0,B|239:143|239:143|250:158|250:158|235:169|235:169|224:154,1,74.9999976158143
211,161,160069,2,0,B|226:172|226:172|215:187|215:187|200:176|200:176|211:161,1,74.9999976158143
200,150,160157,2,0,B|195:168|195:168|177:163|177:163|182:145|182:145|200:150,1,74.9999976158143
207,137,160246,102,0,B|188:137|188:137|188:118|188:118|207:118|207:118|207:137,1,74.9999976158143
70,252,160422,6,0,B|76:234|76:234|58:228|58:228|52:245|52:245|70:252,1,74.9999976158143
67,267,160510,2,0,B|51:255|51:255|40:270|40:270|55:282|55:282|67:267,1,74.9999976158143
80,274,160598,2,0,B|64:284|64:284|75:300|75:300|90:289|90:289|80:274,1,74.9999976158143
91,263,160686,2,0,B|96:280|96:280|114:275|114:275|108:257|108:257|91:263,1,74.9999976158143
84,250,160775,102,0,B|102:250|102:250|103:231|103:231|84:231|84:231|84:250,1,74.9999976158143
261,317,160952,6,0,B|256:334|256:334|238:329|238:329|244:311|244:311|261:317,1,74.9999976158143
324,259,161040,2,0,B|307:254|307:254|312:236|312:236|330:242|330:242|324:259,1,74.9999976158143
413,250,161127,70,0,B|245:239|245:239|301:211,1,225.000001430512
512,122,161480,2,0,B|344:133|344:133|400:161,1,225.000001430512
257,19,161833,2,0,B|263:89|345:134|345:134|276:152|246:239|246:239|230:169|141:143,1,450.000002861023
246,238,162363,6,0,P|204:173|98:142,1,168.750001072884
34,282,162539,6,0,L|126:280,1,74.9999976158143
202,318,162716,6,0,P|206:293|207:317,1,74.9999976158143
214,337,162804,2,0,P|239:333|216:341,1,74.9999976158143
202,355,162892,2,0,P|213:377|198:358,1,74.9999976158143
181,346,162980,2,0,P|163:363|176:343,1,74.9999976158143
178,328,163069,102,0,P|155:316|178:322,1,74.9999976158143
309,223,163245,6,0,P|305:198|304:222,1,74.9999976158143
297,242,163333,2,0,P|271:238|294:246,1,74.9999976158143
309,260,163421,2,0,P|297:282|312:263,1,74.9999976158143
330,251,163509,2,0,P|347:268|334:248,1,74.9999976158143
333,233,163598,102,0,P|355:221|332:227,1,74.9999976158143
429,86,163774,6,0,P|433:61|434:85,1,74.9999976158143
334,99,163862,2,0,P|338:124|339:100,1,74.9999976158143
252,57,163951,86,0,P|332:95|164:138,1,450.000002861023
0,89,164480,2,0,B|78:81|107:-3|107:-3|160:149|160:149|179:67|258:57,1,450.000002861023
106,213,165010,2,0,B|62:243|61:308|61:308|-3:81,1,337.500002145767
0,88,165363,6,0,L|25:177,1,74.9999976158143
183,289,165540,6,0,B|177:272|177:272|194:266|194:266|200:283|200:283|183:289,1,74.9999976158143
185,305,165628,2,0,B|200:294|200:294|211:309|211:309|196:320|196:320|185:305,1,74.9999976158143
172,312,165716,2,0,B|187:323|187:323|176:338|176:338|161:327|161:327|172:312,1,74.9999976158143
161,301,165804,2,0,B|156:319|156:319|138:314|138:314|143:296|143:296|161:301,1,74.9999976158143
168,288,165893,102,0,B|149:288|149:288|149:269|149:269|168:269|168:269|168:288,1,74.9999976158143
306,230,166069,6,0,B|312:212|312:212|294:206|294:206|288:223|288:223|306:230,1,74.9999976158143
303,245,166157,2,0,B|287:233|287:233|276:248|276:248|291:260|291:260|303:245,1,74.9999976158143
316,252,166245,2,0,B|300:262|300:262|311:278|311:278|326:267|326:267|316:252,1,74.9999976158143
327,241,166333,2,0,B|332:258|332:258|350:253|350:253|344:235|344:235|327:241,1,74.9999976158143
320,228,166422,102,0,B|338:228|338:228|339:209|339:209|320:209|320:209|320:228,1,74.9999976158143
327,102,166598,6,0,B|322:119|322:119|304:114|304:114|310:96|310:96|327:102,1,74.9999976158143
411,88,166686,2,0,B|428:83|428:83|423:65|423:65|405:71|405:71|411:88,1,74.9999976158143
477,143,166774,86,0,P|436:117|398:113,1,74.9999976158143
408,208,166951,2,0,P|373:241|359:277,1,74.9999976158143
191,325,167127,102,0,P|132:338|94:367,1,93.7499970197678
285,312,167303,2,0,P|258:258|220:229,1,93.7499970197678
47,181,167480,6,0,P|107:224|163:233,1,112.499996423721
142,136,167657,2,0,P|199:90|222:38,1,112.499996423721
302,96,167833,102,0,B|298:136|298:136|314:167|314:167|308:213,3,112.500000715256
211,321,168186,38,0,B|221:264|193:208|122:198|87:230|80:277|80:277|95:258|117:256|117:256|81:176|119:136|119:136|161:94|189:30|189:30|198:95|225:159|225:159|164:120|50:121|8:222,1,899.999971389771
17,202,169598,5,0,0:0:0:0:
31,202,169774,1,0,0:0:0:0:
46,203,169950,1,0,0:0:0:0:
61,204,170127,1,0,0:0:0:0:
76,205,170303,1,0,0:0:0:0:
91,206,170480,1,0,0:0:0:0:
106,207,170656,1,0,0:0:0:0:
121,207,170833,1,0,0:0:0:0:
279,60,171010,5,0,0:0:0:0:
261,61,171186,1,0,0:0:0:0:
242,62,171362,1,0,0:0:0:0:
223,63,171539,1,0,0:0:0:0:
204,64,171715,1,0,0:0:0:0:
186,65,171892,1,0,0:0:0:0:
167,67,172068,1,0,0:0:0:0:
148,68,172245,1,0,0:0:0:0:
203,316,172421,101,0,0:0:0:0:
204,293,172597,1,0,0:0:0:0:
205,271,172773,1,0,0:0:0:0:
206,248,172950,1,0,0:0:0:0:
208,226,173126,1,0,0:0:0:0:
209,203,173303,1,0,0:0:0:0:
210,181,173479,1,0,0:0:0:0:
211,158,173656,1,0,0:0:0:0:
97,0,173833,5,0,0:0:0:0:
97,24,174009,1,0,0:0:0:0:
98,50,174185,1,0,0:0:0:0:
100,77,174362,1,0,0:0:0:0:
102,103,174538,1,0,0:0:0:0:
104,129,174715,1,0,0:0:0:0:
105,155,174891,1,0,0:0:0:0:
105,182,175068,1,0,0:0:0:0:
242,322,175245,5,0,0:0:0:0:
278,314,175333,1,0,0:0:0:0:
311,297,175421,1,0,0:0:0:0:
338,271,175509,1,0,0:0:0:0:
356,238,175597,85,0,0:0:0:0:
365,202,175686,1,0,0:0:0:0:
362,164,175774,1,0,0:0:0:0:
350,129,175862,1,0,0:0:0:0:
328,99,175950,21,0,0:0:0:0:
298,76,176039,1,0,0:0:0:0:
263,63,176127,1,0,0:0:0:0:
226,60,176215,1,0,0:0:0:0:
189,68,176303,85,0,0:0:0:0:
156,86,176392,1,0,0:0:0:0:
130,112,176480,1,0,0:0:0:0:
112,145,176568,1,0,0:0:0:0:
104,181,176656,21,0,0:0:0:0:
138,165,176745,1,0,0:0:0:0:
174,158,176833,1,0,0:0:0:0:
212,161,176921,1,0,0:0:0:0:
246,175,177009,85,0,0:0:0:0:
280,190,177098,1,0,0:0:0:0:
316,201,177186,1,0,0:0:0:0:
354,204,177274,1,0,0:0:0:0:
381,198,177362,21,0,0:0:0:0:
357,172,177451,1,0,0:0:0:0:
334,137,177539,1,0,0:0:0:0:
326,97,177627,1,0,0:0:0:0:
336,56,177715,101,0,0:0:0:0:
363,25,177804,1,0,0:0:0:0:
400,6,177892,1,0,0:0:0:0:
444,0,177980,1,0,0:0:0:0:
491,10,178068,21,0,0:0:0:0:
510,61,178156,1,0,0:0:0:0:
496,115,178244,1,0,0:0:0:0:
452,149,178332,1,0,0:0:0:0:
403,158,178421,69,0,0:0:0:0:
404,228,178509,1,0,0:0:0:0:
355,279,178597,1,0,0:0:0:0:
285,281,178685,1,0,0:0:0:0:
229,235,178773,37,0,0:0:0:0:
154,262,178862,1,0,0:0:0:0:
77,241,178950,1,0,0:0:0:0:
28,180,179038,1,0,0:0:0:0:
25,101,179127,70,0,B|33:60|33:60|52:30,3,56.2500003576279
107,97,179480,6,0,B|84:162|84:162|99:171|99:171|81:173|81:173|44:288|44:288|8:284|8:284|146:334|146:334|114:318|114:318|154:191|154:191|143:184|143:184|157:182|157:182|171:144|171:144|183:143|183:143|175:132|175:132|194:78|194:78|174:65|174:65|264:104|264:104|245:157|245:157|229:160|229:160|242:166|242:166|231:198|231:198|246:208|246:208|228:209|228:209|212:261|212:261|306:293|306:293|284:280|284:280|299:231|299:231|288:222|288:222|303:220|303:220|326:154|326:154|347:151|347:151|332:136|332:136|351:80|351:80|331:73|331:73|428:107|428:107|406:167|406:167|388:165|388:165|401:178|401:178|412:186|412:186|397:187|397:187|384:231|384:231|483:260|483:260|458:243|458:243|471:207|471:207|455:198|455:198|476:197|476:197|518:75|518:75|468:57,1,2099.9999332428
470,347,180892,6,0,B|367:219|370:30|370:30|323:208|168:323|168:323|337:275|403:336,1,899.999971389771
475,352,181598,6,0,B|371:223|374:35|374:35|327:212|173:328|173:328|212:175|128:108,1,899.999971389771
478,357,182304,102,0,B|374:228|377:40|377:40|317:170|189:143|189:143|76:111|-4:167|-4:167|86:161|206:248,1,899.999971389771
482,361,183010,6,0,B|489:196|381:44|381:44|321:174|193:147|193:147|80:115|0:171|0:171|61:49|191:118,1,899.999971389771
19,327,183715,38,0,B|19:274|49:227|112:214|112:214|81:224|64:248,1,199.999993642171
145,121,183951,2,0,B|190:147|216:196|196:258|196:258|203:226|190:199,1,199.999993642171
263,335,184186,2,0,B|217:361|161:359|118:310|118:310|142:332|172:335,1,199.999993642171
145,121,184421,6,0,B|190:89|201:36|201:36|205:93|232:139,1,199.999993642171
110,281,184657,2,0,B|59:258|8:275|8:275|55:243|82:196,1,199.999993642171
274,222,184892,2,0,B|279:276|319:312|319:312|268:287|214:288,1,199.999993642171
225,127,185127,102,0,B|282:121|282:121|168:211,1,199.999993642171
213,298,185363,2,0,B|189:350|189:350|168:206,1,199.999993642171
70,202,185598,2,0,B|36:155|36:155|171:209,1,199.999993642171
70,347,185833,6,0,B|59:312|59:312|69:306|69:306|57:304|57:304|53:293|53:293|39:295|39:295|52:286|52:286|43:256|43:256|70:195,1,199.999993642171
225,127,186068,2,0,B|287:151|287:151|302:179|302:179|317:175|317:175|306:184|306:184|311:194|311:194|304:204|304:204|315:201|315:201|332:234,1,199.999993642171
213,298,186304,2,0,L|116:85,1,199.999993642171
37,189,186539,38,0,B|-36:96|59:-18|102:-15|260:-58|319:82|266:218|154:235|154:235|239:185|266:135|219:0|128:6|55:74,1,899.999971389771
41,194,187245,6,0,B|-32:101|63:-13|106:-10|264:-53|323:87|274:223|158:240|158:240|220:299|305:269|305:269|377:244|464:280,1,899.999971389771
44,200,187951,102,0,B|-29:107|66:-7|109:-4|267:-47|326:93|264:197|145:141|145:141|207:246|303:228|303:228|385:213|468:257,1,899.999971389771
451,254,188657,38,0,B|387:219|305:234|305:234|209:252|147:147|147:147|245:206|328:99,1,449.999985694885
215,89,189010,38,0,P|214:61|203:29,1,56.2499982118607
16,127,189363,86,0,B|101:131|101:131|152:134|156:49|106:46|106:46|8:44|8:44|-4:237,1,449.999985694885
80,229,189715,2,0,B|153:234|212:196|212:196|150:372|150:372|208:338|290:349,1,449.999985694885
317,266,190068,6,0,B|359:302|369:373|369:373|391:257|355:177|355:177|314:87|352:3|352:3|353:48|405:118|405:118|330:60|235:42|145:64,1,899.999971389771
7,325,190774,102,0,B|14:316|25:287|25:287|33:317|63:342|63:342|98:316|104:265|104:265|113:317|155:353|155:353|193:300|198:239|198:239|202:310|253:365|253:365|285:335|298:297|301:215|301:215|308:298|333:330|368:371,1,899.999971389771
422,232,191480,6,0,P|429:172|412:73,1,149.999995231629
225,0,191657,2,0,P|211:73|218:148,1,149.999995231629
416,84,191833,102,0,B|103:73|103:73|227:153,1,449.999985694885
83,353,192186,54,0,B|99:257|29:138|29:138|92:93|120:11|120:11|136:93|214:137|214:137|148:194|153:270|153:270|199:233|254:238|254:238|314:244|372:222,1,899.999971389771
73,358,192892,6,0,B|89:262|19:143|19:143|82:98|110:16|110:16|126:98|204:142|204:142|200:220|143:275|143:275|189:238|244:243|244:243|304:249|362:227,1,899.999971389771
61,359,193598,102,0,B|77:263|7:144|7:144|70:99|98:17|98:17|183:69|211:140|188:221|131:276|131:276|177:239|232:244|232:244|292:250|350:228,1,899.999971389771
50,359,194304,6,0,B|-13:268|-24:144|8:61|87:17|87:17|172:69|200:140|177:221|120:276|120:276|166:239|221:244|221:244|281:250|339:228,1,899.999971389771
357,142,195010,38,0,B|302:164|290:235|317:276|317:276|312:229|326:202,1,199.999993642171
449,150,195245,2,0,B|457:91|401:45|352:48|352:48|396:67|412:93,1,199.999993642171
398,224,195480,2,0,B|444:260|512:235|534:191|534:191|495:219|465:220,1,199.999993642171
359,142,195715,6,0,B|320:166|307:224|307:224|316:166|280:110,1,199.999993642171
171,246,195951,2,0,B|169:200|125:159|125:159|171:196|238:193,1,199.999993642171
179,34,196186,2,0,B|219:55|276:38|276:38|221:59|190:118,1,199.999993642171
171,246,196421,102,0,B|176:300|176:300|213:327|213:327|245:295|245:295|241:229,1,199.999993642171
289,127,196657,2,0,B|333:95|333:95|338:50|338:50|294:38|294:38|239:74,1,199.999993642171
134,83,196892,2,0,B|84:60|84:60|42:78|42:78|54:122|54:122|113:152,1,199.999993642171
170,247,197127,6,0,P|284:199|291:123,1,199.999993642171
134,83,197363,2,0,P|118:205|180:249,1,199.999993642171
293,134,197598,2,0,P|194:59|125:91,1,199.999993642171
137,313,197833,38,0,B|239:369|393:285|369:119|369:119|382:257|471:298|471:298|403:231|434:145|434:145|466:60|416:-24,1,899.999971389771
142,323,198539,6,0,B|244:379|398:295|374:129|374:129|387:267|476:308|476:308|443:231|465:151|465:151|375:199|215:146,1,899.999971389771
148,331,199245,102,0,B|250:387|404:303|380:137|380:137|393:275|482:316|482:316|521:220|475:141|386:49|221:154,1,899.999971389771
342,131,199951,102,0,P|475:272|300:355,1,449.999985694885
224,232,200657,70,0,B|237:28|237:28|204:88|104:115,1,299.999990463257
45,112,200921,2,0,B|163:133|163:133|236:114|236:114|356:133,1,299.999990463257
385,190,201186,6,0,B|364:195|364:195|418:203,1,74.9999976158143
387,270,201274,2,0,B|365:266|365:266|411:295,1,74.9999976158143
348,342,201363,102,0,B|286:322|223:199|283:78|397:72|397:72|348:100|326:157,1,449.999985694885
306,214,201715,6,0,B|236:210|236:210|196:128|196:128|127:271|127:271|89:195|89:195|-11:190,1,449.999985694885
50,202,202068,101,0,0:0:0:0:
256,192,202421,12,0,203127,0:0:0:0:
45,63,203480,54,0,B|162:101|263:73|263:73|373:41|474:83|474:83|438:37|357:22|357:22|428:218|298:344,1,899.999971389771
336,319,204186,6,0,P|384:223|368:18,1,299.999990463257
249,107,204539,38,0,B|283:122|302:126|302:126|272:136,1,74.9999976158143
249,107,204627,2,0,B|218:129|205:143|205:143|211:112,1,74.9999976158143
249,107,204715,2,0,B|244:69|238:50|238:50|262:71,1,74.9999976158143
237,279,204892,6,0,B|171:280|111:249|61:166|76:83|76:83|53:184|82:295|188:355|295:358|419:268|444:184|419:82,1,899.999971389771
425,126,205598,38,0,B|361:99|361:99|298:114|298:114|259:107|259:107|196:128|196:128|146:93,1,299.999990463257
425,126,205951,6,0,B|398:159|402:196|402:196|372:171|327:177,1,149.999995231629
239,144,206127,2,0,B|212:111|216:73|216:73|186:98|141:92,1,149.999995231629
293,348,206304,38,0,P|360:318|344:250,2,149.999995231629
204,213,206657,2,0,P|137:243|152:310,2,149.999995231629
367,121,207009,6,0,B|322:89|311:36|311:36|307:93|280:139,1,199.999993642171
402,281,207245,2,0,B|453:258|504:275|504:275|457:243|430:196,1,199.999993642171
238,222,207480,2,0,B|233:276|193:312|193:312|244:287|298:288,1,199.999993642171
287,127,207715,102,0,B|230:121|230:121|344:211,1,199.999993642171
299,298,207951,2,0,B|323:350|323:350|344:206,1,199.999993642171
442,202,208186,2,0,B|476:155|476:155|341:209,1,199.999993642171
285,127,208421,6,0,P|208:163|270:221,1,199.999993642171
442,201,208657,2,0,P|449:117|368:141,1,199.999993642171
298,298,208892,2,0,P|368:347|387:264,1,199.999993642171
195,35,209127,38,0,B|212:126|195:207|195:207|170:301|203:378|203:378|151:242|38:222|38:222|114:227|243:144|301:144|301:144|281:128|270:106,1,899.999971389771
185,31,209833,6,0,B|202:122|185:203|185:203|160:297|193:374|193:374|49:360|28:218|28:218|104:223|233:140|291:140|291:140|271:124|260:102,1,899.999971389771
175,27,210539,102,0,B|133:105|175:199|175:199|212:286|183:370|183:370|39:356|18:214|18:214|87:131|227:122|339:189,1,899.999971389771
301,164,211245,6,0,B|239:130|163:135|163:135|157:115|160:90|160:90|154:134|175:173|175:173|209:230|209:320|191:377,1,449.999985694885
96,202,211598,86,0,P|88:175|81:130,1,56.2499982118607
82,147,211951,70,0,P|134:88|205:168,2,199.999993642171
280,180,212480,6,0,P|275:103|241:41,2,149.999995231629
279,180,213363,102,0,P|352:182|393:241,1,149.999995231629
393,240,213892,6,0,L|397:353,1,112.500000715256
314,372,214068,2,0,L|310:259,1,112.500000715256
408,96,214245,102,0,B|324:69|242:86|242:86|164:105|84:71|84:71|97:69|97:69|174:20|253:47,1,450.000002861023
310,199,214774,54,0,B|474:181|474:181|432:280|432:280|103:169|103:169|52:275|52:275|241:246,1,899.999971389771
315,211,215480,6,0,B|411:221|479:193|479:193|437:292|437:292|108:181|108:181|57:287|57:287|137:256|246:258,1,899.999971389771
321,221,216186,102,0,B|417:231|485:203|485:203|443:302|443:302|377:246|273:244|273:244|181:242|114:191|114:191|63:297|63:297|143:266|252:268,1,899.999971389771
325,228,216892,6,0,B|421:238|489:210|489:210|448:257|447:309|447:309|381:253|277:251|277:251|185:249|118:198|118:198|115:246|67:304|67:304|147:273|256:275,1,899.999971389771
377,286,217598,38,0,B|348:300|341:350|341:350|323:216,1,199.999993642171
408,208,217833,2,0,B|410:175|370:144|370:144|495:196,1,199.999993642171
455,278,218068,2,0,B|481:296|528:277|528:277|421:359,1,199.999993642171
408,208,218304,6,0,P|396:145|251:101,1,199.999993642171
297,194,218539,2,0,P|248:235|282:383,1,199.999993642171
348,297,218774,2,0,P|408:318|519:214,1,199.999993642171
414,119,219010,102,0,B|433:80|483:49|483:49|432:68|352:39,1,199.999993642171
297,194,219245,2,0,B|321:229|323:288|323:288|334:228|397:180,1,199.999993642171
293,59,219480,2,0,B|249:62|197:34|197:34|243:70|254:152,1,199.999993642171
248,119,219715,6,0,P|184:20|78:3,1,199.999993642171
75,179,219951,2,0,P|191:173|259:89,1,199.999993642171
109,0,220186,2,0,P|55:103|93:204,1,199.999993642171
231,333,220421,38,0,B|368:286|486:357|486:357|425:280|477:186|477:186|511:114|481:34|481:34|486:145|373:252|265:186,1,899.999971389771
222,325,221127,6,0,B|359:278|477:349|477:349|416:272|465:175|465:175|502:106|472:26|472:26|479:95|449:152|449:152|367:106|256:178,1,899.999971389771
215,319,221833,102,0,B|352:272|470:343|470:343|409:266|458:169|458:169|495:100|465:20|465:20|426:74|442:146|442:146|352:86|249:172,1,899.999971389771
300,168,222539,102,0,P|359:149|294:328,1,449.999985694885
185,258,223245,70,0,P|239:258|295:336,1,149.999995231629
116,202,223421,2,0,P|116:148|194:92,1,149.999995231629
303,70,223598,6,0,L|167:85,1,112.500000715256
189,170,223774,102,0,L|358:151,1,149.999995231629
405,64,223951,6,0,B|396:135|339:153|339:153|398:161|422:220,1,225.000001430512
333,138,224304,54,0,P|432:203|236:283,1,449.999985694885
256,192,224657,12,0,225892,0:0:0:0:
0,192,226068,6,0,B|17:142|56:109|56:109|90:78|104:46|104:46|126:130|98:201|98:201|117:175|152:164|152:164|113:154|12:197|19:345|90:403|237:382|278:331|267:230|234:180|234:180|304:239|391:268|391:268|290:237|164:250|164:250|203:166|189:55|189:55|241:48|291:82|291:82|330:114|383:124|383:124|302:132|302:132|348:176|471:203|471:203|439:117|464:34|464:34|406:49|358:23|358:23|360:180|332:309|309:348|309:348|348:329|392:342|392:342|372:362|372:362|406:378|462:378|498:339|529:280|529:280|515:302|515:302|393:268,1,3071.99990234375
