osu file format v14

[General]
AudioFilename: audio.mp3
AudioLeadIn: 0
PreviewTime: 45298
Countdown: 0
SampleSet: None
StackLeniency: 0.9
Mode: 0
LetterboxInBreaks: 0
WidescreenStoryboard: 1

[Editor]
DistanceSpacing: 1.4
BeatDivisor: 4
GridSize: 16
TimelineZoom: 1

[Metadata]
Title:The One Who Flies
TitleUnicode:The One Who Flies
Artist:Xtrullor & HeliXiX
ArtistUnicode:Xtrullor & HeliXiX
Creator:BioZap43
Version:Challenger
Source:
Tags:most best drum n' bass ever!!! xtrullor 3rd collab with helixix :u
BeatmapID:1584824
BeatmapSetID:752799

[Difficulty]
HPDrainRate:5
CircleSize:4
OverallDifficulty:5
ApproachRate:5
SliderMultiplier:1.4
SliderTickRate:1

[Events]
//Background and Video events
0,0,"BG.png",0,0
//Break Periods
2,35660,40879
2,65484,66507
2,86837,87732
2,95661,99290
2,123632,127879
2,155307,156379
//Storyboard Layer 0 (Background)
//Storyboard Layer 1 (Fail)
//Storyboard Layer 2 (Pass)
//Storyboard Layer 3 (Foreground)
//Storyboard Sound Samples

[TimingPoints]
22491,352.941176470588,4,2,0,100,1,0
45079,-83.3333333333333,4,3,0,100,0,0
51079,-83.3333333333333,4,2,0,100,0,0
52667,-83.3333333333333,4,3,0,100,0,0
53902,-83.3333333333333,4,2,0,100,0,0
55402,-83.3333333333333,4,3,0,100,0,0
55579,-133.333333333333,4,2,0,100,0,0
55932,-83.3333333333333,4,3,0,100,0,0
58226,-83.3333333333333,4,2,0,100,0,0
59196,-83.3333333333333,4,3,0,100,0,0
62020,-83.3333333333333,4,2,0,100,0,0
63079,-83.3333333333333,4,3,0,100,0,0
63520,-83.3333333333333,4,2,0,100,0,0
64491,-83.3333333333333,4,3,0,100,0,0
67667,-66.6666666666667,4,3,0,100,0,1
89902,-133.333333333333,4,3,0,100,0,0
100138,-76.9230769230769,4,2,0,100,0,0
112314,-76.9230769230769,4,3,0,100,0,0
113108,-76.9230769230769,4,2,0,100,0,0
113549,-76.9230769230769,4,3,0,100,0,0
113814,-76.9230769230769,4,2,0,100,0,0
114961,-76.9230769230769,4,3,0,100,0,0
116638,-76.9230769230769,4,2,0,100,0,0
117785,-76.9230769230769,4,3,0,100,0,0
119285,-76.9230769230769,4,2,0,100,0,0
120432,-76.9230769230769,4,3,0,100,0,0
131902,-100,4,2,0,100,0,0
135432,-66.6666666666667,4,3,0,100,0,1
156608,-100,4,2,0,100,0,0
157616,350.877192982456,4,3,0,100,1,0
157616,-66.6666666666667,4,3,0,100,0,1
179370,-100,4,3,0,100,0,0

[Colours]
Combo1 : 162,162,162
Combo2 : 255,74,74
Combo3 : 255,255,0
Combo4 : 158,180,254
Combo5 : 255,192,0
Combo6 : 192,192,192
Combo7 : 228,228,228
Combo8 : 88,88,88

[HitObjects]
64,96,22402,5,0,0:0:0:0:
64,96,22755,2,0,L|128:224,1,140
160,288,23461,1,0,0:0:0:0:
160,288,23814,2,0,L|256:160,1,140
320,128,24520,1,0,0:0:0:0:
352,224,24873,1,0,0:0:0:0:
416,352,25226,6,0,P|480:288|480:160,2,210
416,352,26638,1,0,0:0:0:0:
416,352,26990,2,0,P|336:321|238:231,2,210
458,271,28402,1,0,0:0:0:0:
445,210,28755,6,0,B|404:157|391:87|368:34|293:26|239:88|326:144|345:206|240:209|171:137,1,420
184,148,30167,2,0,B|125:195|67:256|86:310|172:349|106:302|179:245|223:297|361:331,1,420
350,328,31579,2,0,B|433:282|483:249|463:220|437:206|439:241|394:244|378:217|390:184|409:167|425:151|476:135|477:120|459:108|434:99|413:91|401:89|360:75|348:75|290:62,1,420
325,68,32990,2,0,B|249:98|202:70|212:24|161:49|164:97|137:114|108:57|55:65|42:134|135:104|219:121|107:200|83:271,1,420
85,255,34402,2,0,B|129:321|150:331|181:300|232:306|251:337|296:278|250:228|175:191|237:145|340:182|359:320|359:320,1,420,0|0,0:3|0:3,0:3:0:0:
256,192,42079,12,0,44196,0:0:0:0:
80,96,45255,5,0,0:0:0:0:
80,96,45432,1,0,0:0:0:0:
80,96,45608,1,0,0:0:0:0:
80,96,45785,2,0,L|128:202,3,83.9999974365235
208,131,46667,5,0,0:0:0:0:
208,131,46843,1,0,0:0:0:0:
208,131,47020,1,0,0:0:0:0:
208,131,47196,2,0,L|286:49,3,83.9999974365235
297,184,48079,6,0,L|371:107,1,83.9999974365235
416,81,48432,2,0,L|490:154,1,83.9999974365235
479,214,48785,2,0,L|409:312,1,83.9999974365235
479,214,49138,2,0,L|408:160,3,83.9999974365235
398,89,50108,5,0,1:0:0:0:
398,89,50285,1,0,1:0:0:0:
394,86,50461,1,0,1:0:0:0:
398,89,50902,2,0,B|456:141|447:183|407:215|327:222|267:196|262:253|233:267|167:263|98:198|140:167|137:100|49:365,1,587.999982055665
12,68,52932,5,0,0:0:0:0:
12,69,53108,1,0,0:0:0:0:
12,69,53285,1,0,0:0:0:0:
112,31,53726,2,0,B|158:73|210:42|260:55|328:109|326:145|382:117|402:69|477:102|475:156|450:213|481:233|423:305|297:345,1,629.999980773926
246,273,55579,2,0,L|192:238,1,52.5000020027161
199,244,56108,1,0,0:0:0:0:
207,125,56461,5,0,0:0:0:0:
160,183,56638,1,0,0:0:0:0:
160,183,56814,1,0,0:0:0:0:
160,183,56991,2,0,L|65:124,1,83.9999974365235
55,67,57520,1,0,0:0:0:0:
100,50,57696,1,0,0:0:0:0:
146,70,57873,1,0,0:0:0:0:
238,99,58226,2,0,B|323:64|365:48|385:62|414:90|483:131,2,251.999992309571
175,182,59638,6,0,L|127:254,1,83.9999974365235
128,251,60167,1,0,0:0:0:0:
128,251,60520,2,0,L|214:296,3,83.9999974365235
202,289,61402,2,0,L|270:208,1,83.9999974365235
256,225,61932,2,0,B|325:155|289:123|249:80|181:34|178:192|160:307|116:375|32:14,1,587.999982055665
40,24,63520,2,0,B|141:34|200:49|310:75|392:102|482:152|503:178|513:201,1,503.999984619141
458,242,65108,6,0,L|396:308,1,83.9999974365235
65,51,67755,5,0,1:0:0:0:
65,51,67932,1,0,1:0:0:0:
65,51,68108,1,0,1:0:0:0:
142,66,68461,2,0,L|208:228,1,157.500006008148,0|0,2:0|2:0,2:0:0:0:
280,200,69079,1,0,1:0:0:0:
280,200,69255,1,0,1:0:0:0:
280,200,69432,1,0,1:0:0:0:
318,132,69785,2,0,L|408:65,1,105.000004005432,0|0,2:0|2:0,2:0:0:0:
402,69,70314,2,0,L|455:167,1,105.000004005432,0|0,2:0|2:0,2:0:0:0:
426,235,70843,1,0,1:0:0:0:
426,235,71020,1,0,1:0:0:0:
426,235,71196,1,0,1:0:0:0:
294,329,71549,6,0,L|220:250,1,105.000004005432,0|0,2:0|2:0,2:0:0:0:
137,287,72079,2,0,L|44:351,1,105.000004005432,0|0,2:0|2:0,2:0:0:0:
50,346,72608,2,0,L|-30:238,1,105.000004005432
44,208,73138,1,0,0:0:0:0:
44,208,73314,1,0,0:0:0:0:
44,208,73490,1,0,0:0:0:0:
113,170,73843,2,0,L|204:98,1,105.000004005432,0|0,2:0|2:0,2:0:0:0:
195,104,74373,1,0,0:0:0:0:
239,48,74726,5,0,0:0:0:0:
274,155,75079,1,0,0:0:0:0:
274,155,75432,2,0,L|397:81,1,105.000004005432,0|0,2:0|2:0,2:0:0:0:
365,101,75961,1,0,0:0:0:0:
365,101,76138,1,0,0:0:0:0:
365,101,76314,1,0,0:0:0:0:
441,188,76667,2,0,L|327:266,1,105.000004005432,0|0,0:0|0:0,0:0:0:0:
354,247,77196,2,0,L|270:170,1,105.000004005432,0|0,0:0|0:0,0:0:0:0:
276,176,77726,2,0,L|194:259,1,105.000004005432,0|0,0:0|0:0,0:0:0:0:
107,225,78255,1,0,0:0:0:0:
104,221,78608,1,0,0:0:0:0:
72,77,78961,5,0,0:0:0:0:
71,78,79138,1,0,0:0:0:0:
145,150,79490,2,0,L|243:47,1,105.000004005432,0|0,2:0|2:0,2:0:0:0:
217,73,80020,2,0,L|333:158,1,105.000004005432,0|0,2:0|2:0,2:0:0:0:
339,227,80549,1,0,0:0:0:0:
259,295,80902,2,0,L|165:195,1,105.000004005432
187,218,81255,1,0,0:0:0:0:
187,218,81432,1,0,0:0:0:0:
64,331,81785,6,0,L|-16:206,1,105.000004005432,0|0,2:0|2:0,2:0:0:0:
38,170,82314,2,0,L|98:53,1,105.000004005432
166,126,82843,2,0,L|237:224,1,105.000004005432,0|0,2:0|2:0,2:0:0:0:
297,134,83373,2,0,L|388:41,1,105.000004005432
457,120,83902,1,0,0:0:0:0:
457,120,84079,1,0,0:0:0:0:
457,120,84255,1,0,0:0:0:0:
426,215,84608,5,0,2:0:0:0:
344,156,84961,2,0,B|306:228|271:256|236:204|239:52|226:-50|154:-46|126:-13|133:60|148:109|180:206|177:276|111:251|68:204|76:69|80:-84|-22:-69|-55:34|-40:156|144:362,1,997.500038051607,0|0,2:0|2:0,2:0:0:0:
53,57,88932,5,0,2:0:0:0:
99,146,89196,1,0,2:0:0:0:
99,146,89461,1,0,2:0:0:0:
178,103,89638,2,0,L|246:210,1,105.000004005432,0|0,2:0|2:0,2:0:0:0:
256,192,90343,12,0,95461,0:0:0:0:
51,58,100490,6,2,L|119:147,1,90.9999958343508,2|2,0:2|0:2,0:2:0:0:
201,80,101020,2,2,P|319:55|348:105,1,181.999991668702,2|2,0:2|0:2,0:2:0:0:
344,90,101726,1,2,0:2:0:0:
420,160,102079,1,2,0:2:0:0:
375,254,102432,2,2,L|289:170,2,90.9999958343508,2|2|2,0:2|0:2|0:2,0:2:0:0:
311,300,103138,1,2,0:2:0:0:
311,300,103490,1,2,0:2:0:0:
219,333,103843,5,2,0:2:0:0:
145,261,104196,1,2,0:2:0:0:
72,195,104549,2,2,L|155:119,2,90.9999958343508,2|2|2,0:2|0:2|0:2,0:2:0:0:
72,195,105255,1,2,0:2:0:0:
72,195,105608,1,2,0:2:0:0:
166,238,105961,2,2,L|257:322,2,90.9999958343508,2|2|2,0:2|0:2|0:2,0:2:0:0:
236,168,106667,1,2,0:2:0:0:
236,168,107020,1,2,0:2:0:0:
236,168,107373,1,2,0:2:0:0:
302,98,107726,5,2,0:2:0:0:
386,162,108079,2,2,L|451:248,2,90.9999958343508,2|2|2,0:2|0:2|0:2,0:2:0:0:
312,235,108785,1,2,0:2:0:0:
238,169,109138,1,2,0:2:0:0:
168,237,109490,2,2,L|94:154,1,90.9999958343508,2|2,0:2|0:2,0:2:0:0:
51,331,110549,6,2,L|123:253,1,90.9999958343508
378,336,112226,6,0,B|487:237|474:181|445:109|385:64|353:64|317:87|273:92|257:120|222:167|221:189,1,500.499977088929
316,238,113726,6,0,B|274:297|241:328|185:340|124:340|85:319|52:295|36:275|0:193|-14:141|103:45|248:10|308:28,1,682.499968757631,0|0,0:2|0:2,0:2:0:0:
259,160,116549,6,0,B|348:99|433:98|452:151|478:267|418:351|260:344|132:300|84:109,1,682.499968757631
180,74,119196,6,0,B|250:51|314:20|340:46|379:84|410:17|452:98|506:140|552:212|521:326|540:205|383:322|312:215|204:357,1,727.999966674806
68,335,122726,5,0,0:0:0:0:
128,254,123079,1,0,0:0:0:0:
203,317,123432,1,0,0:0:0:0:
256,192,129079,12,0,131902,0:0:0:0:
183,111,134020,6,0,L|264:37,1,90.9999958343508,0|0,0:2|0:2,0:2:0:0:
314,84,134549,2,0,L|383:151,1,90.9999958343508,0|0,0:2|0:2,0:2:0:0:
53,67,135432,5,0,1:0:0:0:
54,68,135608,1,0,1:0:0:0:
54,68,135785,2,0,L|203:224,1,210.000008010865,0|0,1:0|1:0,1:0:0:0:
262,175,136491,2,0,B|316:237|392:250|407:275|386:154,1,210.000008010865
375,100,137196,2,0,B|485:68|523:168|529:239,1,210.000008010865
447,257,138079,1,0,0:0:0:0:
447,257,138255,1,0,0:0:0:0:
447,257,138432,2,0,B|380:315|334:346|253:316|214:282|156:184|147:194,1,315.000012016297
182,224,139490,2,0,L|98:129,1,105.000004005432
63,71,140285,5,0,1:0:0:0:
63,71,140461,1,0,1:0:0:0:
63,71,140638,2,0,B|130:133|198:168|296:129,1,210.000008010865,0|0,1:0|1:0,1:0:0:0:
348,163,141343,2,0,B|410:218|463:295|471:358,2,210.000008010865
413,91,142402,1,0,0:0:0:0:
325,37,142755,2,0,L|246:117,2,105.000004005432
419,69,143461,1,0,0:0:0:0:
419,69,143638,1,0,0:0:0:0:
419,69,143814,2,0,L|307:248,1,210.000008010865
67,78,145402,5,0,1:0:0:0:
88,105,145578,1,0,1:0:0:0:
110,142,145754,1,0,0:0:0:0:
129,180,145932,2,0,B|207:147|243:67|328:28|338:43,1,210.000008010865
296,54,146638,1,0,0:0:0:0:
387,93,146990,2,0,B|449:158|471:208|469:280|404:348|356:367,1,315.000012016297
277,332,147873,1,0,0:0:0:0:
277,332,148049,2,0,B|181:292|130:240|83:181|325:54,1,420.000016021729
317,57,149108,1,0,0:0:0:0:
454,66,149461,5,0,1:0:0:0:
454,66,149638,1,0,1:0:0:0:
454,66,149814,1,0,1:0:0:0:
403,148,150167,2,0,B|340:94|265:34|215:127|151:208,1,315.000012016297
154,203,150873,2,0,L|224:287,1,105.000004005432
221,283,151226,2,0,L|321:176,1,105.000004005432
292,206,151579,2,0,L|383:304,2,105.000004005432
74,174,152285,5,0,1:0:0:0:
74,174,152461,1,0,1:0:0:0:
74,174,152638,2,0,L|257:42,1,210.000008010865,0|0,1:0|1:0,1:0:0:0:
253,140,153343,2,0,L|322:233,2,105.000004005432
253,140,154049,1,0,0:0:0:0:
315,97,154402,1,0,0:0:0:0:
315,97,154755,2,0,L|385:197,2,105.000004005432
31,202,157579,5,0,0:0:0:0:
140,208,157879,5,0,0:0:0:0:
140,208,158054,1,0,1:0:0:0:
140,208,158230,1,0,0:0:0:0:
212,244,158580,2,0,L|404:129,1,210.000008010865,0|0,1:0|1:0,1:0:0:0:
392,136,159282,1,0,1:0:0:0:
392,136,159458,1,0,1:0:0:0:
392,136,159633,1,0,0:0:0:0:
475,169,159984,5,0,0:0:0:0:
420,238,160335,2,0,L|306:367,1,157.500006008148
315,356,160773,2,0,L|186:249,1,157.500006008148
147,194,161387,2,0,L|328:42,1,210.000008010865
368,107,162089,2,0,L|467:204,2,105.000004005432
368,107,162791,1,0,1:0:0:0:
368,107,162966,1,0,1:0:0:0:
427,59,163142,1,0,1:0:0:0:
233,153,163493,5,0,1:0:0:0:
233,153,163669,1,0,1:0:0:0:
233,153,163844,1,0,1:0:0:0:
154,85,164195,2,0,L|55:219,2,157.500006008148,0|0|0,2:0|2:0|2:0,2:0:0:0:
232,129,165072,1,0,1:0:0:0:
232,129,165247,1,0,1:0:0:0:
232,129,165423,2,0,B|302:222|310:235,3,105.000004005432
368,153,166300,5,0,1:0:0:0:
368,153,166475,1,0,1:0:0:0:
368,153,166651,1,0,1:0:0:0:
447,109,167001,1,0,0:0:0:0:
506,176,167352,2,0,P|554:271|397:307,2,315.000012016297,0|0|0,2:0|2:0|2:0,2:0:0:0:
456,106,168756,5,0,1:0:0:0:
456,106,168931,1,0,1:0:0:0:
456,106,169106,1,0,1:0:0:0:
377,56,169458,1,0,0:0:0:0:
375,56,169633,2,0,L|308:153,1,105.000004005432
228,95,170159,1,0,0:0:0:0:
157,163,170335,2,0,L|70:278,3,105.000004005432
96,248,171212,1,0,0:0:0:0:
425,171,171563,5,0,0:0:0:0:
425,171,171738,1,0,0:0:0:0:
425,171,171914,1,0,0:0:0:0:
425,171,172090,2,0,L|508:52,2,105.000004005432
386,236,172616,5,0,0:0:0:0:
386,236,172792,1,0,0:0:0:0:
386,236,172967,1,0,0:0:0:0:
386,236,173143,2,0,L|276:153,3,105.000004005432
206,261,174019,1,0,0:0:0:0:
70,330,174370,5,0,0:0:0:0:
70,330,174545,1,0,0:0:0:0:
70,330,174720,1,0,0:0:0:0:
70,330,174896,2,0,B|161:251|83:182|81:99|244:58|231:80|296:49|368:58|415:89|423:255,1,630.000024032594,0|0,2:0|2:0,2:0:0:0:
189,105,177177,5,0,0:0:0:0:
189,105,177352,1,0,0:0:0:0:
189,105,177528,1,0,0:0:0:0:
189,105,177703,2,0,B|133:157|71:108|-11:196|13:279|69:409|346:406|462:349|390:71|390:71,1,735.000028038026,0|0,2:0|2:0,2:0:0:0:
392,89,179282,2,0,L|297:164,2,105.000004005432
