osu file format v14

[General]
AudioFilename: audio.ogg
AudioLeadIn: 0
PreviewTime: 132355
Countdown: 0
SampleSet: Normal
StackLeniency: 0.7
Mode: 1
LetterboxInBreaks: 0
WidescreenStoryboard: 1

[Editor]
Bookmarks: 14380,27180,39980,103980,116780,129580
DistanceSpacing: 0.8
BeatDivisor: 16
GridSize: 4
TimelineZoom: 2.1

[Metadata]
Title:Kaguya
TitleUnicode:Kaguya
Artist:Xplosn
ArtistUnicode:Xplosn
Creator:CallMeLyra
Version:[-E S I A-]'s Kantan
Source:
Tags:Dubstep Gutter Animestep Weebstep DubstepGutter Electronic Instrumental Vocal Chops Aljotzi E_S_I_A [-E_S_I_A-] EDM dsg Experimental EP
BeatmapID:3474184
BeatmapSetID:1665875

[Difficulty]
HPDrainRate:8
CircleSize:5
OverallDifficulty:3
ApproachRate:10
SliderMultiplier:1.4
SliderTickRate:1

[Events]
//Background and Video events
0,0,"Kaguya and Co.jpg",0,75
//Break Periods
//Storyboard Layer 0 (Background)
//Storyboard Layer 1 (Fail)
//Storyboard Layer 2 (Pass)
//Storyboard Layer 3 (Foreground)
//Storyboard Layer 4 (Overlay)
//Storyboard Sound Samples

[TimingPoints]
1580,400,4,1,0,70,1,0
14380,-100,4,1,0,90,0,0
43180,-100,4,1,0,100,0,1
65180,-100,4,1,0,100,0,0
68780,-100,4,1,0,100,0,1
91180,-100,4,1,0,70,0,0
103980,-100,4,1,0,90,0,0
132780,-100,4,1,0,100,0,1
154780,-100,4,1,0,100,0,0
158380,-100,4,1,0,100,0,1
180780,-100,4,1,0,70,0,0

[HitObjects]
190,143,1580,5,12,0:0:0:0:
190,143,2380,1,0,0:0:0:0:
190,143,3180,1,8,0:0:0:0:
190,143,4780,1,8,0:0:0:0:
190,143,5580,1,8,0:0:0:0:
190,143,6380,1,0,0:0:0:0:
190,143,7980,1,8,0:0:0:0:
190,143,8380,1,8,0:0:0:0:
190,143,8780,1,0,0:0:0:0:
190,143,9580,1,8,0:0:0:0:
190,143,9980,1,0,0:0:0:0:
190,143,10380,1,8,0:0:0:0:
153,141,11180,1,0,0:0:0:0:
153,141,11580,1,8,0:0:0:0:
153,141,11980,1,8,0:0:0:0:
153,141,12780,1,8,0:0:0:0:
153,141,13180,1,8,0:0:0:0:
153,141,13580,1,0,0:0:0:0:
153,141,14380,1,4,0:0:0:0:
153,141,15180,1,8,0:0:0:0:
153,141,15980,1,8,0:0:0:0:
153,141,16380,1,0,0:0:0:0:
153,141,16780,1,8,0:0:0:0:
153,141,17580,1,8,0:0:0:0:
153,141,18380,1,0,0:0:0:0:
153,141,18780,1,0,0:0:0:0:
153,141,19180,1,8,0:0:0:0:
171,126,20380,1,8,0:0:0:0:
273,171,20780,1,0,0:0:0:0:
171,126,21580,1,8,0:0:0:0:
171,126,22380,1,8,0:0:0:0:
171,126,22780,1,0,0:0:0:0:
171,126,23180,1,8,0:0:0:0:
171,126,23980,1,8,0:0:0:0:
171,126,24380,1,0,0:0:0:0:
171,126,24780,1,8,0:0:0:0:
171,126,25180,1,8,0:0:0:0:
171,126,25580,1,0,0:0:0:0:
171,126,27180,1,4,0:0:0:0:
171,126,27980,1,8,0:0:0:0:
171,126,28780,1,8,0:0:0:0:
171,126,29180,1,0,0:0:0:0:
171,126,29580,1,8,0:0:0:0:
171,126,30380,1,8,0:0:0:0:
171,126,31180,1,0,0:0:0:0:
171,126,31580,1,0,0:0:0:0:
171,126,31980,1,8,0:0:0:0:
171,126,33180,1,8,0:0:0:0:
171,126,33580,1,4,0:0:0:0:
171,126,34380,1,0,0:0:0:0:
171,126,34780,1,0,0:0:0:0:
171,126,35180,1,0,0:0:0:0:
171,126,35980,1,0,0:0:0:0:
171,126,36380,1,0,0:0:0:0:
171,126,36780,1,8,0:0:0:0:
171,126,37180,1,8,0:0:0:0:
171,126,37580,1,0,0:0:0:0:
171,126,37980,1,8,0:0:0:0:
171,126,38380,1,0,0:0:0:0:
171,126,39980,1,4,0:0:0:0:
171,126,41180,1,8,0:0:0:0:
171,126,41580,1,0,0:0:0:0:
171,126,42380,1,8,0:0:0:0:
171,126,43180,5,4,0:0:0:0:
171,126,43980,1,8,0:0:0:0:
171,126,44380,1,8,0:0:0:0:
171,126,44780,1,0,0:0:0:0:
171,126,45980,1,8,0:0:0:0:
171,126,46380,1,0,0:0:0:0:
171,126,47180,1,8,0:0:0:0:
171,126,47580,1,8,0:0:0:0:
264,54,47980,1,0,0:0:0:0:
171,126,48380,1,0,0:0:0:0:
171,126,48780,1,8,0:0:0:0:
171,126,49580,1,4,0:0:0:0:
171,126,50380,1,8,0:0:0:0:
171,126,51180,1,0,0:0:0:0:
171,126,51980,1,8,0:0:0:0:
171,126,52380,1,8,0:0:0:0:
171,126,52780,1,0,0:0:0:0:
171,126,53580,1,8,0:0:0:0:
171,126,54380,1,8,0:0:0:0:
171,126,54780,1,0,0:0:0:0:
171,126,55180,1,8,0:0:0:0:
171,126,55980,1,4,0:0:0:0:
171,126,56780,1,8,0:0:0:0:
171,126,57180,1,8,0:0:0:0:
171,126,57580,1,0,0:0:0:0:
171,126,58780,1,8,0:0:0:0:
171,126,59180,1,0,0:0:0:0:
171,126,59980,1,8,0:0:0:0:
171,126,60380,1,8,0:0:0:0:
171,126,60780,1,0,0:0:0:0:
253,202,61180,1,0,0:0:0:0:
171,126,61580,1,8,0:0:0:0:
171,126,62380,1,4,0:0:0:0:
171,126,63180,1,8,0:0:0:0:
171,126,63980,1,0,0:0:0:0:
171,126,64780,1,8,0:0:0:0:
171,126,65580,1,4,0:0:0:0:
171,126,66780,1,8,0:0:0:0:
171,126,67180,1,0,0:0:0:0:
171,126,67980,1,8,0:0:0:0:
171,126,68780,1,4,0:0:0:0:
171,126,69580,1,8,0:0:0:0:
171,126,69980,1,8,0:0:0:0:
171,126,70380,1,0,0:0:0:0:
171,126,70780,1,8,0:0:0:0:
171,126,71180,1,8,0:0:0:0:
171,126,71980,1,0,0:0:0:0:
171,126,72380,1,0,0:0:0:0:
171,126,72780,1,8,0:0:0:0:
171,126,73580,1,8,0:0:0:0:
171,126,73980,1,0,0:0:0:0:
171,126,74380,1,8,0:0:0:0:
171,126,75180,1,0,0:0:0:0:
171,126,75980,1,8,0:0:0:0:
171,126,76780,1,0,0:0:0:0:
171,126,77180,1,0,0:0:0:0:
171,126,77580,1,8,0:0:0:0:
171,126,78380,1,0,0:0:0:0:
171,126,79180,1,8,0:0:0:0:
171,126,80780,1,8,0:0:0:0:
171,126,81580,1,4,0:0:0:0:
171,126,82380,1,8,0:0:0:0:
171,126,82780,1,8,0:0:0:0:
171,126,83180,1,0,0:0:0:0:
171,126,83580,1,8,0:0:0:0:
171,126,83980,1,8,0:0:0:0:
171,126,84780,1,0,0:0:0:0:
171,126,85180,1,0,0:0:0:0:
78,189,85580,1,8,0:0:0:0:
171,127,86380,1,8,0:0:0:0:
171,127,86780,1,0,0:0:0:0:
171,127,87180,1,8,0:0:0:0:
171,127,87980,1,0,0:0:0:0:
171,127,88380,1,0,0:0:0:0:
171,127,88780,1,8,0:0:0:0:
171,127,89980,1,0,0:0:0:0:
171,127,90380,1,8,0:0:0:0:
171,127,90780,1,8,0:0:0:0:
171,126,91180,5,4,0:0:0:0:
171,126,91980,1,0,0:0:0:0:
171,126,92780,1,8,0:0:0:0:
171,126,94380,1,8,0:0:0:0:
171,126,95180,1,8,0:0:0:0:
171,126,95980,1,0,0:0:0:0:
171,126,97580,1,8,0:0:0:0:
171,126,97980,1,8,0:0:0:0:
171,126,98380,1,0,0:0:0:0:
171,126,99180,1,8,0:0:0:0:
171,126,99580,1,0,0:0:0:0:
171,126,99980,1,8,0:0:0:0:
171,126,100780,1,0,0:0:0:0:
171,126,101180,1,8,0:0:0:0:
171,126,101580,1,8,0:0:0:0:
171,126,102380,1,8,0:0:0:0:
171,126,102780,1,8,0:0:0:0:
171,126,103180,1,0,0:0:0:0:
171,126,103980,1,4,0:0:0:0:
171,126,104780,1,8,0:0:0:0:
171,126,105180,1,0,0:0:0:0:
171,126,105580,1,8,0:0:0:0:
171,126,106380,1,8,0:0:0:0:
171,126,107180,1,0,0:0:0:0:
171,126,107980,1,8,0:0:0:0:
171,126,109180,1,0,0:0:0:0:
171,126,109580,1,8,0:0:0:0:
171,126,110380,1,0,0:0:0:0:
171,126,111180,1,8,0:0:0:0:
171,126,111580,1,0,0:0:0:0:
171,126,111980,1,8,0:0:0:0:
171,126,112780,1,8,0:0:0:0:
171,126,113580,1,0,0:0:0:0:
171,126,114380,1,8,0:0:0:0:
171,126,115580,1,0,0:0:0:0:
171,126,115980,1,8,0:0:0:0:
171,126,116780,1,4,0:0:0:0:
171,126,117580,1,8,0:0:0:0:
171,126,118380,1,8,0:0:0:0:
171,126,118780,1,0,0:0:0:0:
171,126,119180,1,8,0:0:0:0:
171,126,119980,1,8,0:0:0:0:
171,126,120780,1,0,0:0:0:0:
171,126,121180,1,0,0:0:0:0:
171,126,121580,1,8,0:0:0:0:
171,126,122780,1,8,0:0:0:0:
171,126,123180,1,4,0:0:0:0:
171,126,123980,1,0,0:0:0:0:
171,126,124380,1,0,0:0:0:0:
171,126,124780,1,0,0:0:0:0:
171,126,125580,1,0,0:0:0:0:
171,126,125980,1,0,0:0:0:0:
171,126,126380,1,8,0:0:0:0:
171,126,126780,1,8,0:0:0:0:
171,126,127180,1,0,0:0:0:0:
171,126,127580,1,8,0:0:0:0:
171,126,127980,1,0,0:0:0:0:
196,130,129580,5,4,0:0:0:0:
196,130,130780,1,8,0:0:0:0:
196,130,131180,1,0,0:0:0:0:
196,130,131980,1,8,0:0:0:0:
171,126,132780,5,4,0:0:0:0:
171,126,133580,1,8,0:0:0:0:
171,126,133980,1,8,0:0:0:0:
171,126,134380,1,0,0:0:0:0:
171,126,135580,1,8,0:0:0:0:
171,126,135980,1,0,0:0:0:0:
171,126,136780,1,8,0:0:0:0:
171,126,137180,1,8,0:0:0:0:
264,54,137580,1,0,0:0:0:0:
171,126,137980,1,0,0:0:0:0:
171,126,138380,1,8,0:0:0:0:
171,126,139180,1,4,0:0:0:0:
171,126,139980,1,8,0:0:0:0:
171,126,140780,1,0,0:0:0:0:
171,126,141580,1,8,0:0:0:0:
171,126,141980,1,8,0:0:0:0:
171,126,142380,1,0,0:0:0:0:
171,126,143180,1,8,0:0:0:0:
171,126,143980,1,8,0:0:0:0:
171,126,144380,1,0,0:0:0:0:
171,126,144780,1,8,0:0:0:0:
171,126,145580,1,4,0:0:0:0:
171,126,146380,1,8,0:0:0:0:
171,126,146780,1,8,0:0:0:0:
171,126,147180,1,0,0:0:0:0:
171,126,148380,1,8,0:0:0:0:
171,126,148780,1,0,0:0:0:0:
171,126,149580,1,8,0:0:0:0:
171,126,149980,1,8,0:0:0:0:
171,126,150380,1,0,0:0:0:0:
253,202,150780,1,0,0:0:0:0:
171,126,151180,1,8,0:0:0:0:
171,126,151980,1,4,0:0:0:0:
171,126,152780,1,8,0:0:0:0:
171,126,153580,1,0,0:0:0:0:
171,126,154380,1,8,0:0:0:0:
171,126,155180,5,4,0:0:0:0:
171,126,156380,1,8,0:0:0:0:
171,126,156780,1,0,0:0:0:0:
171,126,157580,1,8,0:0:0:0:
171,126,158380,1,4,0:0:0:0:
171,126,159180,1,8,0:0:0:0:
171,126,159580,1,8,0:0:0:0:
171,126,159980,1,0,0:0:0:0:
171,126,160380,1,8,0:0:0:0:
171,126,160780,1,8,0:0:0:0:
171,126,161580,1,0,0:0:0:0:
171,126,161980,1,0,0:0:0:0:
171,126,162380,1,8,0:0:0:0:
171,126,163180,1,8,0:0:0:0:
171,126,163580,1,0,0:0:0:0:
171,126,163980,1,8,0:0:0:0:
171,126,164780,1,0,0:0:0:0:
171,126,165580,1,8,0:0:0:0:
171,126,166380,1,0,0:0:0:0:
171,126,166780,1,0,0:0:0:0:
171,126,167180,1,8,0:0:0:0:
171,126,167980,1,0,0:0:0:0:
171,126,168780,1,8,0:0:0:0:
171,126,170380,1,8,0:0:0:0:
171,126,171180,1,4,0:0:0:0:
171,126,171980,1,8,0:0:0:0:
171,126,172380,1,8,0:0:0:0:
171,126,172780,1,0,0:0:0:0:
171,126,173180,1,8,0:0:0:0:
171,126,173580,1,8,0:0:0:0:
171,126,174380,1,0,0:0:0:0:
171,126,174780,1,0,0:0:0:0:
78,189,175180,1,8,0:0:0:0:
171,127,175980,1,8,0:0:0:0:
171,127,176380,1,0,0:0:0:0:
171,127,176780,1,8,0:0:0:0:
171,127,177580,1,0,0:0:0:0:
171,127,177980,1,0,0:0:0:0:
171,127,178380,1,8,0:0:0:0:
171,127,179580,1,0,0:0:0:0:
171,127,179980,1,8,0:0:0:0:
171,127,180380,1,8,0:0:0:0:
171,126,180780,5,4,0:0:0:0:
171,126,181580,5,0,0:0:0:0:
171,126,182380,1,8,0:0:0:0:
171,126,183980,1,8,0:0:0:0:
171,126,184780,1,8,0:0:0:0:
171,126,185580,1,0,0:0:0:0:
171,126,187180,1,8,0:0:0:0:
171,126,188380,1,0,0:0:0:0:
171,126,188780,1,8,0:0:0:0:
171,126,189580,1,8,0:0:0:0:
171,126,190380,1,0,0:0:0:0:
171,126,191580,1,0,0:0:0:0:
171,126,191980,1,8,0:0:0:0:
171,126,192380,1,0,0:0:0:0:
171,126,192780,1,8,0:0:0:0:
171,126,193180,1,0,0:0:0:0:
