osu file format v14

[General]
AudioFilename: audio.mp3
AudioLeadIn: 0
PreviewTime: 60955
Countdown: 1
SampleSet: Soft
StackLeniency: 0.4
Mode: 0
LetterboxInBreaks: 0
WidescreenStoryboard: 0

[Editor]
DistanceSpacing: 1.2
BeatDivisor: 4
GridSize: 8
TimelineZoom: 4.299998

[Metadata]
Title:Tera
TitleUnicode:Tera
Artist:Xomu
ArtistUnicode:Xomu
Creator:Athi
Version:Achoo~!
Source:
Tags:
BeatmapID:1961753
BeatmapSetID:939189

[Difficulty]
HPDrainRate:6
CircleSize:3
OverallDifficulty:8.5
ApproachRate:9
SliderMultiplier:1.4
SliderTickRate:1

[Events]
//Background and Video events
0,0,"71677960_p0 (2).jpg",0,0
//Break Periods
2,45451,53792
//Storyboard Layer 0 (Background)
//Storyboard Layer 1 (Fail)
//Storyboard Layer 2 (Pass)
//Storyboard Layer 3 (Foreground)
//Storyboard Sound Samples

[TimingPoints]
955,468.75,4,2,0,100,1,0
8923,-66.6666666666667,4,2,0,100,0,0
10564,-100,4,2,0,100,0,0
12439,-100,4,2,0,100,0,0
18064,-100,4,2,0,100,0,0
30955,-50,4,2,0,100,0,0
31892,-66.6666666666667,4,2,0,100,0,0
38923,-55.5555555555556,4,2,0,100,0,0
41267,-71.4285714285714,4,2,0,100,0,0
54392,-100,4,2,0,100,0,0
61423,-25,4,2,0,100,0,0
61892,-66.6666666666667,4,2,0,100,0,1
75017,-100,4,2,0,100,0,0
76892,-100,4,2,0,100,0,1
90017,-100,4,2,0,100,0,0
91892,-100,4,2,0,100,0,1
106892,-100,4,2,0,100,0,0
175330,-100,4,2,0,100,0,1
188455,-100,4,2,0,100,0,0
190330,-100,4,2,0,100,0,1
203455,-100,4,2,0,100,0,0

[HitObjects]
128,296,1892,6,0,P|80:256|128:200,1,140,0|0,1:1|1:1,1:1:0:0:
348,103,3064,1,0,1:1:0:0:
356,191,3298,1,0,1:1:0:0:
282,242,3533,1,0,1:1:0:0:
225,175,3767,2,0,P|233:111|161:103,1,140,0|0,1:1|1:1,1:1:0:0:
112,176,4705,5,0,1:1:0:0:
192,64,5173,1,0,1:1:0:0:
248,152,5408,2,0,B|279:174|250:197|272:224,1,70,0|0,1:1|1:1,1:1:0:0:
280,96,6814,5,0,1:1:0:0:
360,160,7048,1,0,1:1:0:0:
304,248,7283,2,0,P|296:288|264:304,1,70,0|0,1:1|1:1,1:1:0:0:
136,296,7986,5,0,1:1:0:0:
96,224,8220,2,0,P|88:184|96:144,1,70,0|0,1:1|1:1,1:1:0:0:
152,88,8923,2,0,P|160:80|176:72,2,26.2500010013581
152,88,9392,1,0,0:0:0:0:
368,264,10564,5,0,1:1:0:0:
360,296,10681,1,0,1:1:0:0:
344,328,10798,2,0,P|312:344|272:336,2,70,0|0|0,1:1|1:1|1:1,1:1:0:0:
416,208,11736,5,0,1:1:0:0:
368,112,11970,1,0,1:1:0:0:
304,200,12205,1,0,1:1:0:0:
240,112,12439,2,0,P|232:72|208:56,1,70,0|0,1:1|1:1,1:1:0:0:
128,56,12908,1,0,1:1:0:0:
90,190,13142,1,0,1:1:0:0:
256,192,13611,5,0,1:1:0:0:
148,280,14080,2,0,P|188:304|224:308,2,70,0|0|0,1:1|1:1|1:1,1:1:0:0:
256,192,15017,12,0,16423,1:1:0:0:
384,56,16892,6,0,P|400:96|392:120,1,70,0|0,1:1|1:1,1:1:0:0:
400,208,17361,1,0,1:1:0:0:
336,288,17595,1,0,1:1:0:0:
272,200,17830,1,0,1:1:0:0:
172,140,18064,6,0,P|184:127|200:120,2,35,0|0|0,1:1|1:1|1:1,1:1:0:0:
120,232,18533,1,0,1:1:0:0:
140,328,18767,2,0,P|172:345|212:336,1,70,0|0,1:1|1:1,1:1:0:0:
292,336,19236,5,0,1:1:0:0:
388,296,19470,1,0,1:1:0:0:
412,201,19705,1,0,1:1:0:0:
360,136,19939,1,0,1:1:0:0:
336,108,20056,1,0,1:1:0:0:
304,92,20173,2,0,P|272:80|228:88,2,70,0|0|0,1:1|1:1|1:1,1:1:0:0:
240,212,21111,5,0,1:1:0:0:
184,300,21345,1,0,1:1:0:0:
132,208,21580,1,0,1:1:0:0:
200,128,21814,1,0,0:0:0:0:
200,128,21931,1,0,1:1:0:0:
200,128,22048,2,0,P|176:88|136:76,2,70,0|0|0,1:1|1:1|1:1,1:1:0:0:
304,304,22986,6,0,P|336:312|368:296,2,70,0|0|0,1:1|1:1|1:1,1:1:0:0:
164,292,23689,2,0,P|151:314|135:328,2,35
104,192,24158,1,0,1:1:0:0:
216,136,24392,1,0,1:1:0:0:
320,160,24861,5,0,1:1:0:0:
333,55,25095,1,0,1:1:0:0:
421,119,25330,1,0,1:1:0:0:
328,168,25564,1,0,1:1:0:0:
328,168,25681,1,0,1:1:0:0:
328,168,25798,2,0,P|320:208|299:233,2,70,0|0|0,1:1|1:1|1:1,1:1:0:0:
88,160,26736,5,0,1:1:0:0:
176,248,26970,1,0,1:1:0:0:
176,80,27205,1,0,1:1:0:0:
240,160,27439,1,0,1:1:0:0:
240,160,27556,1,0,1:1:0:0:
240,160,27673,2,0,P|280:144|292:117,2,70,0|0|0,1:1|1:1|1:1,1:1:0:0:
352,80,28611,5,0,1:1:0:0:
355,114,28728,1,0,1:1:0:0:
348,148,28845,2,0,P|334:187|304:201,1,70,0|0,1:1|1:1,1:1:0:0:
224,272,29548,5,0,1:1:0:0:
202,246,29665,1,0,1:1:0:0:
173,227,29782,2,0,P|142:210|109:217,1,70,0|0,1:1|1:1,1:1:0:0:
256,192,30486,5,0,0:0:0:0:
256,192,30955,12,0,31658,0:0:0:0:
328,80,31892,6,0,P|384:72|408:120,2,105.000004005432,0|0|0,1:1|1:1|1:1,1:1:0:0:
272,168,32595,1,0,1:1:0:0:
344,248,32830,1,0,1:1:0:0:
264,320,33064,5,0,1:1:0:0:
264,320,33181,1,0,1:1:0:0:
264,320,33298,2,0,P|208:352|168:336,2,105.000004005432,0|0|0,1:1|1:1|1:1,1:1:0:0:
192,240,34001,5,0,1:1:0:0:
136,152,34236,1,0,1:1:0:0:
216,80,34470,1,0,1:1:0:0:
216,80,34587,1,0,1:1:0:0:
216,80,34705,2,0,P|272:48|304:64,1,105.000004005432,0|0,1:1|1:1,1:1:0:0:
360,176,35173,5,0,1:1:0:0:
392,272,35408,1,0,1:1:0:0:
272,312,35642,1,0,1:1:0:0:
184,224,35876,2,0,P|136:248|88:232,2,105.000004005432,0|0|0,1:1|1:1|1:1,1:1:0:0:
248,112,36580,5,0,1:1:0:0:
376,136,36814,1,0,1:1:0:0:
392,168,36931,1,0,1:1:0:0:
408,208,37048,2,0,P|424:272|408:312,1,105.000004005432,0|0,1:1|1:1,1:1:0:0:
280,320,37517,1,0,1:1:0:0:
96,160,37986,5,0,1:1:0:0:
176,64,38220,2,0,P|224:40|272:64,2,105.000004005432,0|0|0,1:1|1:1|1:1,1:1:0:0:
264,192,38923,2,0,P|300:209|332:198,2,62.9999980773926,0|0|0,1:1|1:1|1:1,1:1:0:0:
176,248,39392,1,0,1:1:0:0:
376,296,39861,5,0,1:1:0:0:
416,152,40095,1,0,1:1:0:0:
288,144,40330,1,0,1:1:0:0:
280,272,40564,2,0,P|256:304|224:312,2,62.9999980773926,0|0|0,1:1|1:1|1:1,1:1:0:0:
136,224,41033,1,0,1:1:0:0:
181,80,41267,2,0,P|224:48|272:56,1,97.9999970092774,0|0,1:1|1:1,1:1:0:0:
375,163,41736,5,0,0:0:0:0:
265,274,41970,1,0,0:0:0:0:
113,230,42205,2,0,P|77:175|75:129,2,97.9999970092774
191,93,42908,5,0,0:0:0:0:
335,153,43142,2,0,P|377:194|378:252,1,97.9999970092774
234,310,43611,6,0,P|209:327|175:328,2,48.9999985046387
351,261,44080,2,0,P|407:234|419:184,1,97.9999970092774
294,151,44548,6,0,P|271:137|249:135,2,48.9999985046387
189,224,45017,2,0,P|159:262|106:269,1,97.9999970092774
82,169,54392,6,0,P|110:125|152:105,1,70
365,265,54861,2,0,P|345:321|309:342,1,70
138,85,55330,6,0,P|184:61|231:65,1,70
336,310,55799,2,0,P|290:349|249:349,1,70
229,41,56267,6,0,P|280:44|319:71,1,70
288,335,56736,2,0,P|229:346|193:325,1,70
330,47,57205,6,0,P|373:76|393:118,1,70
234,332,57674,2,0,P|177:312|156:276,1,70
74,267,58142,5,0,0:0:0:0:
44,238,58259,1,0,0:0:0:0:
29,200,58376,1,0,0:0:0:0:
31,158,58493,1,0,0:0:0:0:
51,122,58611,5,0,0:0:0:0:
82,93,58728,1,0,0:0:0:0:
121,79,58845,1,0,0:0:0:0:
162,84,58962,1,0,0:0:0:0:
201,102,59080,5,0,0:0:0:0:
234,127,59197,1,0,0:0:0:0:
259,160,59314,1,0,0:0:0:0:
269,200,59431,1,0,0:0:0:0:
271,241,59548,5,0,0:0:0:0:
291,277,59665,1,0,0:0:0:0:
324,302,59783,1,0,0:0:0:0:
364,312,59900,1,0,0:0:0:0:
256,192,60017,12,0,60955,0:0:0:0:
440,104,61423,6,0,B|400:160|400:160|430:151|430:151|456:160|456:160|432:112|432:112,1,140,0|0,1:1|1:1,1:1:0:0:
90,175,61892,5,0,0:0:0:0:
90,70,62126,1,0,0:0:0:0:
181,123,62361,1,0,0:0:0:0:
90,175,62595,2,0,P|79:217|34:255,2,105.000004005432
