osu file format v14

[General]
AudioFilename: audio.mp3
AudioLeadIn: 0
PreviewTime: 243536
Countdown: 0
SampleSet: Soft
StackLeniency: 0.5
Mode: 0
LetterboxInBreaks: 0
WidescreenStoryboard: 0

[Editor]
Bookmarks: 161,16161,32161,48161,64161,80161,96161,112161,128161,144161,160161,176161,192161,208161,224161,240161,244161,260161,276161,292161
DistanceSpacing: 1
BeatDivisor: 8
GridSize: 32
TimelineZoom: 0.8

[Metadata]
Title:Pagoda
TitleUnicode:Pagoda
Artist:Xomu & Amidst
ArtistUnicode:Xomu & Amidst
Creator:M a r v o l l o
Version:Sunny Day
Source:
Tags:shmiklak marvollo m_a_r_v_o_l_l_o electronic instrumental featured artist fa mappers' guild mpg house edm dance feat. featuring ft. and daycore music
BeatmapID:4290111
BeatmapSetID:2053765

[Difficulty]
HPDrainRate:4.5
CircleSize:5
OverallDifficulty:7.5
ApproachRate:8.4
SliderMultiplier:1.6
SliderTickRate:1

[Events]
//Background and Video events
0,0,"osubg.jpg",0,0
//Break Periods
2,112361,119450
2,208361,215471
//Storyboard Layer 0 (Background)
//Storyboard Layer 1 (Fail)
//Storyboard Layer 2 (Pass)
//Storyboard Layer 3 (Foreground)
//Storyboard Layer 4 (Overlay)
//Storyboard Sound Samples

[TimingPoints]
161,500,4,2,1,60,1,0
32161,-133.333333333333,4,2,1,70,0,0
40161,-111.111111111111,4,2,1,70,0,0
48161,-66.6666666666667,4,2,1,85,0,1
62161,-100,4,2,1,85,0,0
64161,-58.8235294117647,4,2,1,90,0,1
65161,-117.647058823529,4,2,1,90,0,1
65661,-43.4782608695652,4,2,1,90,0,1
66161,-58.8235294117647,4,2,1,90,0,1
67161,-117.647058823529,4,2,1,90,0,1
67661,-43.4782608695652,4,2,1,90,0,1
67911,-58.8235294117647,4,2,1,90,0,1
71661,-47.6190476190476,4,2,1,90,0,1
72161,-58.8235294117647,4,2,1,90,0,1
73161,-117.647058823529,4,2,1,90,0,1
73661,-43.4782608695652,4,2,1,90,0,1
74161,-58.8235294117647,4,2,1,90,0,1
75161,-117.647058823529,4,2,1,90,0,1
75661,-43.4782608695652,4,2,1,90,0,1
76161,-58.8235294117647,4,2,1,90,0,1
79661,-83.3333333333333,4,2,1,90,0,1
80161,-83.3333333333333,4,2,3,80,0,0
112161,-250,4,2,3,70,0,0
112661,-250,4,2,3,65,0,0
113161,-250,4,2,3,60,0,0
113661,-250,4,2,3,55,0,0
114161,-250,4,2,3,50,0,0
128161,-166.666666666667,4,2,2,60,0,0
160161,-133.333333333333,4,2,1,70,0,0
168161,-111.111111111111,4,2,1,70,0,0
176161,-66.6666666666667,4,2,1,90,0,1
176911,-66.6666666666667,4,2,4,90,0,1
177161,-66.6666666666667,4,2,1,90,0,1
177911,-66.6666666666667,4,2,4,90,0,1
178161,-66.6666666666667,4,2,1,90,0,1
178848,-66.6666666666667,4,2,1,90,0,1
178911,-66.6666666666667,4,2,1,90,0,1
179348,-66.6666666666667,4,2,1,90,0,1
179411,-66.6666666666667,4,2,4,90,0,1
179661,-50,4,2,1,90,0,1
180161,-66.6666666666667,4,2,1,90,0,1
181411,-66.6666666666667,4,2,4,90,0,1
181661,-50,4,2,1,90,0,1
182161,-66.6666666666667,4,2,1,90,0,1
184911,-66.6666666666667,4,2,4,90,0,1
185161,-66.6666666666667,4,2,1,90,0,1
188911,-66.6666666666667,4,2,4,90,0,1
189161,-66.6666666666667,4,2,1,90,0,1
190161,-66.6666666666667,4,2,1,90,0,0
191661,-50,4,2,1,90,0,0
191848,-50,4,2,1,90,0,0
191911,-50,4,2,1,90,0,0
192161,-58.8235294117647,4,2,1,90,0,1
192848,-58.8235294117647,4,2,1,90,0,1
192911,-58.8235294117647,4,2,4,90,0,1
193161,-58.8235294117647,4,2,1,90,0,1
193598,-58.8235294117647,4,2,1,90,0,1
193661,-125,4,2,1,90,0,1
193911,-125,4,2,4,90,0,1
194161,-58.8235294117647,4,2,1,90,0,1
194848,-58.8235294117647,4,2,1,90,0,1
194911,-58.8235294117647,4,2,1,90,0,1
195098,-58.8235294117647,4,2,1,90,0,1
195161,-58.8235294117647,4,2,1,90,0,1
195411,-58.8235294117647,4,2,4,90,0,1
195661,-40,4,2,1,90,0,1
196161,-58.8235294117647,4,2,1,90,0,1
196848,-58.8235294117647,4,2,1,90,0,1
196911,-58.8235294117647,4,2,1,90,0,1
197411,-58.8235294117647,4,2,4,90,0,1
197598,-58.8235294117647,4,2,4,90,0,1
197661,-125,4,2,1,90,0,1
198161,-58.8235294117647,4,2,1,90,0,1
200911,-58.8235294117647,4,2,4,90,0,1
201161,-58.8235294117647,4,2,1,90,0,1
201598,-58.8235294117647,4,2,1,90,0,1
201661,-125,4,2,1,90,0,1
202161,-58.8235294117647,4,2,1,90,0,1
203411,-58.8235294117647,4,2,4,90,0,1
203661,-40,4,2,1,90,0,1
204161,-58.8235294117647,4,2,1,90,0,1
205161,-100,4,2,1,90,0,1
205411,-58.8235294117647,4,2,1,90,0,1
205598,-58.8235294117647,4,2,1,90,0,1
205661,-58.8235294117647,4,2,1,90,0,1
206348,-58.8235294117647,4,2,1,90,0,1
206411,-58.8235294117647,4,2,1,90,0,1
206848,-58.8235294117647,4,2,1,90,0,1
206911,-58.8235294117647,4,2,1,90,0,1
207598,-58.8235294117647,4,2,1,90,0,1
207661,-100,4,2,1,90,0,1
208161,-100,4,2,1,50,0,0
224161,-142.857142857143,4,2,1,65,0,0
228161,-142.857142857143,4,2,1,70,0,0
232161,-142.857142857143,4,2,1,75,0,0
236161,-142.857142857143,4,2,1,80,0,0
239911,-142.857142857143,4,2,1,60,0,0
243161,-90.9090909090909,4,2,1,60,0,0
243661,-66.6666666666667,4,2,1,80,0,0
244161,500,4,2,1,90,1,0
244161,-66.6666666666667,4,2,1,90,0,1
255348,-66.6666666666667,4,2,1,5,0,1
255411,-66.6666666666667,4,2,1,90,0,1
255598,-66.6666666666667,4,2,1,5,0,1
255661,-66.6666666666667,4,2,1,90,0,1
258161,-66.6666666666667,4,2,1,90,0,0
259598,-66.6666666666667,4,2,1,90,0,0
259661,-50,4,2,1,90,0,0
260161,-58.8235294117647,4,2,3,90,0,1
261348,-58.8235294117647,4,2,3,90,0,1
261411,-58.8235294117647,4,2,3,90,0,1
261661,-50,4,2,3,90,0,1
262161,-58.8235294117647,4,2,3,90,0,1
263161,-117.647058823529,4,2,3,90,0,1
263661,-43.4782608695652,4,2,3,90,0,1
264161,-58.8235294117647,4,2,3,90,0,1
265348,-58.8235294117647,4,2,3,90,0,1
265411,-58.8235294117647,4,2,3,90,0,1
265661,-50,4,2,3,90,0,1
266161,-58.8235294117647,4,2,3,90,0,1
267661,-47.6190476190476,4,2,3,90,0,1
268161,-58.8235294117647,4,2,3,90,0,1
269348,-58.8235294117647,4,2,3,90,0,1
269411,-58.8235294117647,4,2,3,90,0,1
269661,-50,4,2,3,90,0,1
270161,-58.8235294117647,4,2,3,90,0,1
271161,-117.647058823529,4,2,3,90,0,1
271661,-43.4782608695652,4,2,3,90,0,1
272161,-58.8235294117647,4,2,3,90,0,1
273348,-58.8235294117647,4,2,3,90,0,1
273411,-58.8235294117647,4,2,3,90,0,1
273661,-50,4,2,3,90,0,1
274161,-58.8235294117647,4,2,3,90,0,0
276161,-55.5555555555556,4,2,3,90,0,1
277348,-55.5555555555556,4,2,3,90,0,1
277411,-55.5555555555556,4,2,3,90,0,1
279348,-55.5555555555556,4,2,3,90,0,1
279411,-55.5555555555556,4,2,3,90,0,1
279661,-43.4782608695652,4,2,3,90,0,1
280161,-55.5555555555556,4,2,3,90,0,1
281348,-43.4782608695652,4,2,3,90,0,1
281411,-55.5555555555556,4,2,3,90,0,1
281661,-43.4782608695652,4,2,3,90,0,1
282161,-55.5555555555556,4,2,3,90,0,1
283348,-55.5555555555556,4,2,3,90,0,1
283411,-55.5555555555556,4,2,3,90,0,1
285348,-55.5555555555556,4,2,3,90,0,1
285411,-55.5555555555556,4,2,3,90,0,1
287348,-55.5555555555556,4,2,3,90,0,1
287411,-55.5555555555556,4,2,3,90,0,1
287661,-43.4782608695652,4,2,3,90,0,1
288161,-55.5555555555556,4,2,3,90,0,1
289348,-55.5555555555556,4,2,3,90,0,1
289411,-55.5555555555556,4,2,3,90,0,1
289661,-43.4782608695652,4,2,3,90,0,1
290161,-55.5555555555556,4,2,3,90,0,1
292161,-100,4,2,3,70,0,0

[Colours]
Combo1 : 17,254,176
Combo2 : 173,255,95
Combo3 : 255,88,100
Combo4 : 255,94,55

[HitObjects]
27,199,16161,5,4,3:2:0:0:
113,240,16411,1,0,0:0:0:0:
41,335,16661,2,0,L|30:208,1,120,8|0,0:2|0:0,0:0:0:0:
13,197,17161,2,0,L|23:94,1,80,2|0,3:2|0:0,0:0:0:0:
126,24,17661,1,8,0:0:0:0:
153,29,17786,1,2,0:0:0:0:
180,36,17911,1,2,0:0:0:0:
207,44,18036,1,2,0:0:0:0:
234,52,18161,6,0,L|368:14,1,120,0|0,3:0|0:0,0:0:0:0:
377,18,18661,2,0,L|353:111,1,80,10|0,0:0|0:0,0:0:0:0:
297,231,19161,2,0,L|275:154,1,80,0|2,3:0|0:0,0:0:0:0:
256,137,19536,1,0,3:0:0:0:
256,137,19661,1,8,0:0:0:0:
256,137,20161,5,0,3:2:0:0:
164,179,20411,1,2,0:2:0:0:
258,259,20661,2,0,L|382:224,1,120,10|0,0:2|0:0,0:0:0:0:
397,246,21161,2,0,L|382:324,1,80,2|0,3:2|0:0,0:0:0:0:
511,384,21661,1,10,0:2:0:0:
506,356,21786,1,2,0:2:0:0:
502,328,21911,1,2,0:2:0:0:
498,300,22036,1,2,0:0:0:0:
494,273,22161,5,0,3:0:0:0:
432,184,22411,1,2,0:0:0:0:
495,105,22661,1,8,0:0:0:0:
380,49,22911,1,2,0:0:0:0:
380,49,23036,1,2,0:0:0:0:
380,49,23161,2,0,P|321:61|265:26,1,120,0|8,3:0|0:0,0:0:0:0:
247,22,23661,2,0,L|159:48,1,80,10|0,0:0|0:0,0:0:0:0:
45,180,24161,5,0,3:0:0:0:
131,139,24411,1,2,0:2:0:0:
59,44,24661,2,0,L|48:171,1,120,10|0,0:2|0:0,0:0:0:0:
31,182,25161,2,0,L|41:285,1,80,0|0,3:0|0:0,0:0:0:0:
130,367,25661,1,10,0:2:0:0:
156,359,25786,1,2,0:0:0:0:
183,351,25911,1,2,0:2:0:0:
210,343,26036,1,2,0:0:0:0:
237,335,26161,6,0,L|384:353,1,120,0|0,3:0|0:0,0:0:0:0:
380,338,26661,2,0,L|464:329,1,80,10|0,0:2|0:0,0:0:0:0:
511,224,27161,2,0,L|431:215,1,80,0|0,3:0|0:0,0:0:0:0:
404,202,27536,1,0,0:0:0:0:
404,202,27661,1,10,0:0:0:0:
404,202,28161,5,0,3:0:0:0:
306,248,28411,1,2,0:2:0:0:
193,184,28661,2,0,L|209:58,1,120,10|0,0:2|0:0,0:0:0:0:
228,47,29161,2,0,L|309:73,1,80,0|0,3:0|0:0,0:0:0:0:
474,13,29661,2,0,L|397:37,1,80,10|0,0:2|0:0,0:0:0:0:
164,72,30161,5,0,3:0:0:0:
164,72,30286,1,0,3:2:0:0:
164,72,30411,2,0,P|171:95|184:118,1,40,10|8,0:2|0:2,0:0:0:0:
285,168,30661,2,0,P|270:154|253:143,1,40,10|8,0:2|0:2,0:0:0:0:
128,176,30911,2,0,P|119:194|113:213,1,40,10|8,0:2|0:2,0:0:0:0:
150,324,31161,2,0,P|164:337|181:348,1,40,10|8,0:2|0:2,0:0:0:0:
307,316,31411,2,0,P|315:297|321:278,1,40,8|8,0:2|0:2,0:0:0:0:
329,106,31661,5,8,0:2:0:0:
283,96,31786,1,8,0:2:0:0:
236,86,31911,1,8,0:2:0:0:
189,75,32036,1,0,0:0:0:0:
142,65,32161,6,0,L|62:80,2,60.0000022888184,4|0|8,3:2|0:0|0:0,0:0:0:0:
255,7,32911,1,8,0:3:0:0:
378,125,33161,2,0,P|318:112|245:108,1,120.000004577637,10|8,0:0|0:0,0:0:0:0:
90,246,34161,5,8,0:0:0:0:
165,292,34411,1,0,0:0:0:0:
160,202,34661,1,8,0:0:0:0:
92,331,34911,1,8,0:3:0:0:
244,246,35161,2,0,P|304:233|377:229,1,120.000004577637,10|8,0:0|0:0,0:0:0:0:
469,133,35911,5,8,0:3:0:0:
469,133,36036,1,8,0:3:0:0:
469,133,36161,2,0,L|456:62,2,60.0000022888184,8|0|8,0:0|0:0|0:0,0:0:0:0:
385,239,36911,1,8,0:3:0:0:
287,145,37161,2,0,P|300:85|304:12,1,120.000004577637,10|8,0:0|0:0,0:0:0:0:
68,149,38161,5,8,0:0:0:0:
155,119,38411,1,0,0:0:0:0:
247,193,38661,1,8,0:0:0:0:
334,163,38911,1,8,0:3:0:0:
457,266,39161,2,0,P|397:253|324:249,1,120.000004577637,10|8,0:0|0:0,0:0:0:0:
22,320,40161,5,8,0:0:0:0:
60,200,40411,1,2,3:2:0:0:
214,345,40661,1,10,0:2:0:0:
95,294,40911,1,0,3:0:0:0:
249,202,41161,2,0,P|308:213|362:226,1,107.999996704102,10|0,0:0|0:0,0:0:0:0:
375,248,41661,2,0,L|300:263,1,71.9999978027344,10|2,0:2|3:2,0:0:0:0:
459,307,42161,5,10,0:2:0:0:
382,156,42411,1,2,3:2:0:0:
382,156,42536,1,0,3:0:0:0:
382,156,42661,1,10,0:2:0:0:
346,267,42911,1,0,3:0:0:0:
251,123,43161,2,0,P|303:135|356:145,1,107.999996704102,10|0,0:0|0:0,0:0:0:0:
382,156,43661,2,0,L|311:170,1,71.9999978027344,10|2,0:2|3:2,0:0:0:0:
142,106,44161,5,8,3:2:0:0:
142,106,44286,1,0,3:2:0:0:
142,106,44411,2,0,L|102:96,1,35.9999989013672,10|0,3:2|3:2,0:0:0:0:
196,181,44661,5,10,3:2:0:0:
196,181,44786,1,0,3:2:0:0:
196,181,44911,2,0,L|156:191,1,35.9999989013672,8|0,3:2|3:2,0:0:0:0:
89,283,45161,5,10,3:2:0:0:
117,275,45286,1,0,3:2:0:0:
148,278,45411,1,8,3:2:0:0:
174,293,45536,1,0,3:2:0:0:
222,334,45661,5,10,3:2:0:0:
277,358,45786,1,0,3:2:0:0:
333,338,45911,1,10,3:2:0:0:
362,284,46036,1,0,3:2:0:0:
347,218,46161,6,0,L|327:118,1,71.9999978027344,2|0,0:0|0:0,0:0:0:0:
349,28,46661,1,8,0:1:0:0:
228,182,46911,1,2,0:3:0:0:
421,316,47161,2,0,P|361:303|290:300,1,107.999996704102,8|0,0:1|0:0,0:0:0:0:
252,318,47661,1,12,0:0:0:0:
252,318,48161,6,0,L|190:308,1,60.0000022888184,4|0,3:2|0:0,0:0:0:0:
131,246,48411,2,0,L|71:255,1,60.0000022888184,2|0,0:2|0:0,0:0:0:0:
13,188,48661,1,10,3:2:0:0:
159,141,48911,1,0,0:0:0:0:
286,255,49161,2,0,L|99:225,1,180.000006866455,0|0,3:0|0:0,0:0:0:0:
54,286,49661,2,0,L|187:269,1,120.000004577637,10|2,3:2|0:2,0:0:0:0:
395,243,50161,5,2,3:2:0:0:
286,93,50411,1,2,0:2:0:0:
462,150,50661,1,10,3:2:0:0:
286,207,50911,1,0,0:0:0:0:
395,58,51161,2,0,L|412:248,1,180.000006866455,0|0,3:0|0:0,0:0:0:0:
354,297,51661,2,0,L|372:163,1,120.000004577637,10|0,3:2|0:0,0:0:0:0:
221,59,52161,5,0,3:0:0:0:
104,174,52411,1,2,0:2:0:0:
238,261,52661,1,10,3:2:0:0:
150,106,52911,1,0,0:0:0:0:
68,292,53161,2,0,L|254:269,1,180.000006866455,0|0,3:0|0:0,0:0:0:0:
297,328,53661,2,0,L|178:311,1,120.000004577637,10|0,3:2|0:0,0:0:0:0:
0,247,54161,5,2,3:2:0:0:
28,108,54411,1,2,0:2:0:0:
134,14,54661,1,10,3:2:0:0:
275,3,54911,1,2,0:2:0:0:
395,79,55161,1,0,3:0:0:0:
395,79,55661,2,0,L|254:103,1,120.000004577637,10|0,3:2|0:0,0:0:0:0:
64,256,56161,5,4,3:2:0:0:
160,160,56411,1,2,0:2:0:0:
256,256,56661,1,10,3:2:0:0:
352,160,56911,1,0,0:0:0:0:
448,256,57161,2,0,L|237:234,1,180.000006866455,0|0,3:0|0:0,0:0:0:0:
231,302,57661,2,0,L|361:277,1,120.000004577637,10|2,3:2|0:2,0:0:0:0:
448,96,58161,5,2,3:2:0:0:
352,192,58411,1,2,0:2:0:0:
256,96,58661,1,10,3:2:0:0:
160,192,58911,1,0,0:0:0:0:
64,96,59161,2,0,L|275:118,1,180.000006866455,0|0,3:0|0:0,0:0:0:0:
281,50,59661,2,0,L|151:75,1,120.000004577637,10|0,3:2|0:0,0:0:0:0:
60,237,60161,5,0,3:0:0:0:
169,187,60411,1,2,0:2:0:0:
0,167,60661,1,10,3:2:0:0:
118,298,60911,1,0,0:0:0:0:
274,224,61161,2,0,L|242:22,1,180.000006866455,0|0,3:0|0:0,0:0:0:0:
300,1,61661,2,0,L|284:127,1,120.000004577637,10|0,3:2|0:0,0:0:0:0:
267,318,62161,6,0,L|350:300,1,80,4|2,0:3|0:2,0:0:0:0:
192,283,62661,2,0,L|275:301,1,80,8|2,0:3|0:2,0:0:0:0:
106,318,63161,2,0,L|189:300,1,80,2|0,0:3|0:0,0:0:0:0:
184,301,63536,1,0,3:0:0:0:
184,301,63661,1,8,0:0:0:0:
193,310,64161,6,0,L|186:234,1,68.0000012969971,4|0,3:2|0:0,0:0:0:0:
101,173,64411,2,0,L|108:97,1,68.0000012969971,2|0,0:2|0:0,0:0:0:0:
161,9,64661,1,10,3:2:0:0:
25,99,64911,1,0,0:0:0:0:
219,180,65161,6,0,P|264:184|306:140,1,102.000001945496,0|0,3:0|0:0,0:0:0:0:
422,152,65661,6,0,L|241:111,1,184.000003509522,10|2,3:2|0:2,0:0:0:0:
2,248,66161,6,0,L|80:235,1,68.0000012969971,2|0,3:2|0:0,0:0:0:0:
133,325,66411,2,0,L|200:336,1,68.0000012969971,2|0,0:2|0:0,0:0:0:0:
294,280,66661,1,10,3:2:0:0:
405,367,66911,1,0,0:0:0:0:
503,237,67161,6,0,P|458:241|416:197,1,102.000001945496,0|0,3:0|0:0,0:0:0:0:
326,208,67661,6,0,L|418:183,1,92.0000017547608,10|0,3:2|0:0,0:0:0:0:
458,126,67911,2,0,L|460:110,4,17.0000003242493,2|0|0|0|0,0:0|0:0|0:0|0:0|0:0,0:0:0:0:
285,256,68161,6,0,L|194:231,1,68.0000012969971,0|0,3:0|0:0,0:0:0:0:
186,154,68411,1,2,0:2:0:0:
180,134,68536,1,0,0:0:0:0:
165,90,68661,1,10,3:2:0:0:
256,320,68911,1,0,0:0:0:0:
326,154,69161,1,0,3:0:0:0:
332,134,69286,1,0,0:0:0:0:
347,90,69411,1,0,0:0:0:0:
349,287,69661,2,0,L|322:134,1,136.000002593994,10|0,3:2|0:0,0:0:0:0:
142,60,70161,5,2,3:2:0:0:
245,192,70411,1,2,0:2:0:0:
309,27,70661,1,10,3:2:0:0:
152,136,70911,1,2,0:2:0:0:
382,204,71161,1,0,3:0:0:0:
382,204,71661,6,0,P|302:219|121:306,1,251.999992309571,10|0,3:2|0:0,0:0:0:0:
0,350,72161,6,0,L|7:274,1,68.0000012969971,4|0,3:2|0:0,0:0:0:0:
82,203,72411,2,0,L|75:127,1,68.0000012969971,2|0,0:2|0:0,0:0:0:0:
132,25,72661,1,10,3:2:0:0:
0,94,72911,1,0,0:0:0:0:
158,254,73161,6,0,P|203:258|245:214,1,102.000001945496,0|0,3:0|0:0,0:0:0:0:
170,151,73661,6,0,L|212:330,1,184.000003509522,10|2,3:2|0:2,0:0:0:0:
390,376,74161,6,0,L|464:357,1,68.0000012969971,2|0,3:2|0:0,0:0:0:0:
507,262,74411,2,0,L|441:245,1,68.0000012969971,2|0,0:2|0:0,0:0:0:0:
368,99,74661,1,10,3:2:0:0:
472,125,74911,1,0,0:0:0:0:
354,254,75161,6,0,P|309:258|267:214,1,102.000001945496,0|0,3:0|0:0,0:0:0:0:
342,151,75661,6,0,L|300:330,1,184.000003509522,10|0,3:2|0:0,0:0:0:0:
58,372,76161,5,0,3:0:0:0:
134,232,76411,1,2,0:2:0:0:
45,52,76661,1,10,3:2:0:0:
192,108,76911,1,0,0:0:0:0:
18,216,77161,1,0,3:0:0:0:
24,205,77661,1,10,3:2:0:0:
32,192,78161,5,4,0:3:0:0:
96,320,78411,1,2,0:2:0:0:
160,192,78661,1,8,0:3:0:0:
224,320,78911,1,2,0:2:0:0:
298,143,79161,1,2,0:3:0:0:
381,347,79411,1,0,0:0:0:0:
381,347,79536,1,0,3:0:0:0:
381,347,79661,2,0,P|309:337|224:337,1,143.999995605469,8|0,0:0|0:0,0:0:0:0:
174,291,80161,5,4,3:2:0:0:
181,281,80411,1,2,0:2:0:0:
92,204,80661,5,8,3:2:0:0:
85,194,80911,1,2,0:2:0:0:
11,319,81161,5,2,3:1:0:0:
175,291,81411,1,0,0:0:0:0:
92,204,81661,5,10,3:1:0:0:
297,255,81911,1,0,0:0:0:0:
482,142,82161,5,0,3:0:0:0:
475,132,82411,1,2,0:2:0:0:
381,66,82661,5,8,3:2:0:0:
374,76,82911,1,2,0:2:0:0:
240,183,83161,6,0,P|277:136|371:156,1,143.999995605469,2|0,3:1|3:2,0:0:0:0:
416,191,83661,2,0,P|369:154|389:60,1,143.999995605469,10|0,3:1|0:0,0:0:0:0:
440,4,84161,5,0,3:0:0:0:
431,0,84411,1,2,0:2:0:0:
296,50,84661,5,8,3:2:0:0:
287,54,84911,1,2,0:2:0:0:
123,50,85161,5,2,3:1:0:0:
192,177,85411,1,0,0:0:0:0:
192,15,85661,5,10,3:1:0:0:
127,234,85911,1,0,0:0:0:0:
57,112,86161,5,0,3:0:0:0:
66,116,86411,1,2,0:2:0:0:
202,199,86661,5,8,3:2:0:0:
211,195,86911,1,2,0:2:0:0:
285,66,87161,6,0,P|237:102|187:92,1,95.9999970703126,2|0,3:1|0:0,0:0:0:0:
136,56,87536,1,0,3:0:0:0:
136,56,87661,2,0,P|183:93|163:187,1,143.999995605469,10|0,3:2|0:0,0:0:0:0:
116,226,88161,5,0,3:0:0:0:
53,195,88411,1,2,0:2:0:0:
158,354,88661,5,8,3:2:0:0:
221,323,88911,1,2,0:2:0:0:
335,196,89161,5,2,3:1:0:0:
478,254,89411,1,0,0:0:0:0:
285,256,89661,5,10,3:1:0:0:
463,184,89911,1,0,0:0:0:0:
334,58,90161,5,0,3:0:0:0:
322,126,90411,1,2,0:2:0:0:
190,263,90661,5,8,3:2:0:0:
178,195,90911,1,2,0:2:0:0:
324,371,91161,6,0,P|287:324|193:344,1,143.999995605469,2|0,3:1|3:0,0:0:0:0:
148,379,91661,2,0,P|195:342|175:248,1,143.999995605469,10|0,3:1|0:0,0:0:0:0:
131,207,92161,5,0,3:0:0:0:
68,176,92411,1,2,0:2:0:0:
268,99,92661,5,8,3:2:0:0:
205,130,92911,1,2,0:2:0:0:
351,143,93161,5,2,3:1:0:0:
132,96,93411,1,0,0:0:0:0:
442,94,93661,5,10,3:1:0:0:
200,145,93911,1,0,0:0:0:0:
353,253,94161,5,4,0:3:0:0:
308,18,94411,1,0,0:0:0:0:
159,253,94661,5,8,3:3:0:0:
204,18,94911,1,0,0:0:0:0:
256,320,95161,5,2,3:3:0:0:
195,161,95411,5,0,0:0:0:0:
195,161,95536,1,0,3:0:0:0:
195,161,95661,2,0,P|257:126|316:167,1,143.999995605469,8|0,3:2|0:0,0:0:0:0:
366,226,96161,6,0,P|407:207|469:201,1,95.9999970703126,4|2,3:2|0:2,0:0:0:0:
362,329,96661,2,0,P|321:310|259:304,1,95.9999970703126,8|2,3:2|0:2,0:0:0:0:
73,349,97161,5,0,3:0:0:0:
121,172,97411,1,2,0:2:0:0:
135,384,97661,5,8,3:2:0:0:
59,218,97911,1,2,0:2:0:0:
212,58,98161,6,0,P|257:63|329:78,1,95.9999970703126,0|2,3:0|0:2,0:0:0:0:
453,160,98661,2,0,P|408:165|336:180,1,95.9999970703126,8|2,3:2|0:2,0:0:0:0:
250,302,99161,2,0,B|168:322|196:249|108:273,1,143.999995605469,0|0,3:0|3:0,0:0:0:0:
58,315,99661,2,0,L|67:368,1,47.9999985351563,8|0,3:2|0:0,0:0:0:0:
2,267,99911,2,0,L|10:219,1,47.9999985351563,2|0,0:1|0:0,0:0:0:0:
57,141,100161,6,0,P|112:129|192:132,1,95.9999970703126,0|2,3:0|0:2,0:0:0:0:
294,47,100661,2,0,P|349:59|429:56,1,95.9999970703126,8|2,3:2|0:2,0:0:0:0:
501,187,101161,5,0,3:0:0:0:
305,125,101411,1,2,0:2:0:0:
512,118,101661,5,8,3:2:0:0:
249,203,101911,1,2,0:2:0:0:
415,348,102161,6,0,P|424:293|427:241,1,95.9999970703126,0|2,3:0|0:2,0:0:0:0:
314,115,102661,2,0,P|317:162|325:210,1,95.9999970703126,8|2,3:2|0:2,0:0:0:0:
446,63,103161,2,0,B|364:83|392:10|304:34,1,143.999995605469,2|0,3:1|3:0,0:0:0:0:
241,66,103661,2,0,L|173:52,1,47.9999985351563,8|0,3:2|0:0,0:0:0:0:
136,112,103911,2,0,L|68:126,1,47.9999985351563,2|0,0:1|0:0,0:0:0:0:
39,199,104161,6,0,P|55:262|61:302,1,95.9999970703126,0|2,3:0|0:2,0:0:0:0:
199,360,104661,2,0,P|207:312|219:266,1,95.9999970703126,8|2,3:2|0:2,0:0:0:0:
301,160,105161,5,0,3:0:0:0:
356,339,105411,1,2,0:2:0:0:
154,263,105661,5,8,3:2:0:0:
209,84,105911,1,2,0:2:0:0:
382,207,106161,6,0,P|326:198|281:181,1,95.9999970703126,0|2,3:0|0:2,0:0:0:0:
137,281,106661,2,0,P|182:265|229:258,1,95.9999970703126,8|2,3:2|0:2,0:0:0:0:
412,362,107161,2,0,P|395:301|389:209,1,143.999995605469,0|0,3:0|0:0,0:0:0:0:
418,147,107661,2,0,L|403:88,1,47.9999985351563,8|0,3:2|0:0,0:0:0:0:
342,52,107911,2,0,L|327:111,1,47.9999985351563,2|0,0:1|0:0,0:0:0:0:
256,192,108161,5,0,3:0:0:0:
256,192,108286,1,2,0:0:0:0:
256,192,108411,1,2,0:2:0:0:
177,317,108661,2,0,P|237:302|276:303,1,95.9999970703126,8|2,3:2|0:2,0:0:0:0:
422,370,109161,5,0,3:0:0:0:
368,198,109411,1,2,0:2:0:0:
449,21,109661,5,8,3:2:0:0:
254,104,109911,1,2,0:2:0:0:
457,120,110161,5,0,3:0:0:0:
257,26,110411,1,2,0:2:0:0:
57,120,110661,1,8,3:2:0:0:
257,214,110911,1,2,0:0:0:0:
66,356,111161,6,0,P|79:295|84:244,1,95.9999970703126,0|2,3:0|0:0,0:0:0:0:
42,188,111536,1,0,3:0:0:0:
42,188,111661,2,0,L|35:129,1,47.9999985351563,8|0,3:2|0:0,0:0:0:0:
137,28,111911,2,0,L|119:139,1,95.9999970703126,2|4,0:1|0:2,0:0:0:0:
256,192,120161,12,0,127661,0:0:0:0:
301,299,128161,6,0,P|306:323|308:349,2,47.9999985351563,4|2|2,0:0|0:0|0:0,0:0:0:0:
295,293,129161,1,10,0:1:0:0:
325,222,129411,1,0,0:0:0:0:
364,156,129661,2,0,P|362:134|357:108,1,47.9999985351563,2|0,0:0|0:0,0:0:0:0:
256,32,130161,5,2,0:0:0:0:
193,76,130411,1,0,0:0:0:0:
154,142,130661,1,0,0:0:0:0:
158,218,130911,1,0,0:0:0:0:
195,285,131161,2,0,P|241:278|291:280,1,95.9999970703126,10|0,0:1|0:0,0:0:0:0:
353,324,131911,1,0,0:0:0:0:
461,234,132161,6,0,P|484:229|511:227,2,47.9999985351563,2|0|0,0:0|0:0|0:0,0:0:0:0:
455,240,133161,1,10,0:1:0:0:
384,210,133411,1,0,0:0:0:0:
318,171,133661,2,0,P|295:172|270:178,1,47.9999985351563,2|0,0:0|0:0,0:0:0:0:
133,281,134161,5,2,0:0:0:0:
107,202,134411,1,0,0:0:0:0:
160,354,134661,1,0,0:0:0:0:
256,256,134911,1,0,0:0:0:0:
380,369,135161,2,0,P|336:360|268:356,1,95.9999970703126,10|0,0:1|0:0,0:0:0:0:
161,374,135911,1,0,0:0:0:0:
58,266,136161,6,0,L|66:232,1,23.9999992675781,2|0,0:0|0:0,0:0:0:0:
89,179,136411,2,0,L|81:145,1,23.9999992675781
77,84,136661,2,0,P|116:96|156:102,1,71.9999978027344,2|0,0:0|0:0,0:0:0:0:
207,64,137161,2,0,P|236:57|266:54,3,47.9999985351563,10|0|0|0,0:1|0:0|0:0|0:0,0:0:0:0:
368,155,138161,5,2,0:0:0:0:
272,127,138411,1,0,0:0:0:0:
338,226,138661,1,0,0:0:0:0:
396,94,138911,1,0,0:0:0:0:
329,239,139161,1,10,0:1:0:0:
32,31,139661,5,2,0:0:0:0:
32,31,139911,1,2,0:0:0:0:
57,143,140161,6,0,L|43:180,1,23.9999992675781,2|0,0:0|0:0,0:0:0:0:
6,231,140411,2,0,L|14:253,1,23.9999992675781
2,330,140661,2,0,P|45:323|74:313,1,71.9999978027344
127,266,141161,2,0,P|158:269|179:275,2,47.9999985351563,10|0|0,0:1|0:0|0:0,0:0:0:0:
118,260,142161,5,2,0:0:0:0:
145,181,142411,1,0,0:0:0:0:
227,103,142661,1,0,0:0:0:0:
367,74,142911,1,0,0:0:0:0:
512,183,143161,2,0,P|454:161|343:150,1,167.999994873047,10|0,0:1|0:0,0:0:0:0:
256,192,144161,5,6,0:0:0:0:
310,282,144411,1,2,0:0:0:0:
314,259,144536,1,2,0:0:0:0:
319,235,144661,1,2,0:0:0:0:
219,350,144911,1,2,0:0:0:0:
215,327,145036,1,2,0:0:0:0:
210,303,145161,1,10,0:1:0:0:
205,279,145286,1,0,0:0:0:0:
199,255,145411,1,2,0:0:0:0:
39,351,145661,2,0,L|45:322,1,23.9999992675781,2|0,0:0|0:0,0:0:0:0:
69,259,145911,2,0,L|63:230,1,23.9999992675781
17,178,146161,5,2,0:0:0:0:
87,95,146411,1,0,0:0:0:0:
181,39,146661,2,0,P|206:30|242:26,1,47.9999985351563,2|0,0:0|0:0,0:0:0:0:
292,58,147036,1,0,0:0:0:0:
292,58,147161,2,0,P|317:66|353:71,1,47.9999985351563,2|0,0:1|0:0,0:0:0:0:
405,52,147536,1,2,0:0:0:0:
405,52,147661,1,2,0:0:0:0:
355,166,147911,5,2,0:0:0:0:
355,166,148036,1,2,0:0:0:0:
355,166,148161,1,2,0:0:0:0:
491,237,148411,1,0,0:0:0:0:
352,311,148661,2,0,L|316:303,1,23.9999992675781,2|0,0:0|0:0,0:0:0:0:
260,341,148911,1,2,0:0:0:0:
238,343,149036,1,2,0:0:0:0:
217,345,149161,1,10,0:1:0:0:
194,346,149286,1,2,0:0:0:0:
171,348,149411,1,2,0:0:0:0:
51,264,149661,1,2,0:0:0:0:
91,384,149911,1,2,0:0:0:0:
173,244,150161,5,2,0:0:0:0:
0,313,150411,1,0,0:0:0:0:
192,380,150661,1,2,0:0:0:0:
305,282,150911,5,0,0:0:0:0:
305,282,151036,1,0,0:0:0:0:
305,282,151161,2,0,P|308:244|319:203,1,71.9999978027344,2|0,0:1|0:0,0:0:0:0:
352,148,151661,2,0,P|319:143|275:129,1,71.9999978027344
225,88,152161,5,2,0:0:0:0:
65,114,152411,1,0,0:0:0:0:
0,256,152661,2,0,L|36:249,1,23.9999992675781,2|0,0:0|0:0,0:0:0:0:
79,291,152911,1,0,0:0:0:0:
102,294,153036,1,0,0:0:0:0:
127,301,153161,2,0,L|157:298,1,23.9999992675781,10|0,0:1|0:0,0:0:0:0:
208,344,153411,2,0,L|239:348,1,23.9999992675781,2|0,0:0|0:0,0:0:0:0:
291,316,153661,2,0,L|322:312,1,23.9999992675781,2|2,0:0|0:0,0:0:0:0:
358,261,153911,1,0,0:0:0:0:
246,160,154161,5,2,0:0:0:0:
142,62,154411,1,0,0:0:0:0:
49,204,154661,2,0,L|85:197,1,23.9999992675781,2|0,0:0|0:0,0:0:0:0:
128,239,154911,1,2,0:0:0:0:
151,242,155036,1,2,0:0:0:0:
176,249,155161,2,0,L|206:246,1,23.9999992675781,2|0,0:1|0:0,0:0:0:0:
259,218,155411,2,0,L|292:225,1,23.9999992675781,2|0,0:0|0:0,0:0:0:0:
336,180,155661,2,0,L|325:132,1,47.9999985351563,2|0,0:0|0:0,0:0:0:0:
442,103,156161,5,2,0:0:0:0:
490,242,156411,1,0,0:0:0:0:
398,349,156661,2,0,L|362:356,1,23.9999992675781,2|0,0:0|0:0,0:0:0:0:
319,314,156911,1,2,0:0:0:0:
296,311,157036,1,2,0:0:0:0:
271,304,157161,2,0,L|241:307,1,23.9999992675781,10|0,0:1|0:0,0:0:0:0:
183,329,157411,2,0,L|159:324,1,23.9999992675781,2|0,0:0|0:0,0:0:0:0:
103,288,157661,2,0,L|79:293,1,23.9999992675781,0|2,0:0|0:0,0:0:0:0:
17,260,157911,1,0,0:0:0:0:
196,238,158161,5,2,0:0:0:0:
256,78,158411,1,0,0:0:0:0:
313,231,158661,5,2,0:0:0:0:
157,123,158911,1,2,0:0:0:0:
157,123,159036,1,2,0:0:0:0:
157,123,159161,2,0,P|104:133|52:149,1,95.9999970703126,2|0,0:1|0:0,0:0:0:0:
448,263,160161,6,0,L|433:183,2,60.0000022888184,4|0|8,3:2|0:0|0:0,0:0:0:0:
362,365,160911,1,8,0:3:0:0:
301,247,161161,2,0,P|314:187|318:114,1,120.000004577637,10|8,0:0|0:0,0:0:0:0:
106,34,162161,5,8,0:0:0:0:
63,118,162411,1,0,0:0:0:0:
166,171,162661,1,8,0:0:0:0:
97,21,162911,1,8,0:3:0:0:
35,182,163161,2,0,P|95:169|168:165,1,120.000004577637,10|8,0:0|0:0,0:0:0:0:
318,213,163911,5,8,0:3:0:0:
318,213,164036,1,8,0:3:0:0:
318,213,164161,2,0,L|305:142,2,60.0000022888184,8|0|8,0:0|0:0|0:0,0:0:0:0:
426,303,164911,1,8,0:3:0:0:
512,208,165161,2,0,P|452:221|379:225,1,120.000004577637,10|8,0:0|0:0,0:0:0:0:
176,134,166161,5,8,0:0:0:0:
113,223,166411,2,0,L|103:180,1,30.0000011444092,0|8,0:0|0:3,0:0:0:0:
148,286,166661,1,8,0:0:0:0:
16,179,166911,1,8,0:3:0:0:
172,112,167161,2,0,P|232:125|305:129,1,120.000004577637,10|8,0:0|0:0,0:0:0:0:
512,28,168161,5,10,0:0:0:0:
474,148,168411,1,0,3:0:0:0:
320,3,168661,1,8,0:0:0:0:
439,54,168911,1,8,3:3:0:0:
290,129,169161,2,0,P|230:124|179:114,1,107.999996704102,10|0,0:0|0:0,0:0:0:0:
84,141,169661,2,0,L|159:126,1,71.9999978027344,8|8,0:0|3:3,0:0:0:0:
289,47,170161,5,10,0:0:0:0:
250,211,170411,1,0,3:0:0:0:
250,211,170536,1,8,0:3:0:0:
250,211,170661,2,0,L|263:266,1,35.9999989013672,8|0,0:0|0:0,0:0:0:0:
307,306,170911,2,0,L|294:361,1,35.9999989013672,8|0,3:3|0:0,0:0:0:0:
226,375,171161,2,0,P|174:360|121:353,1,107.999996704102,10|8,0:0|0:3,0:0:0:0:
32,337,171661,2,0,L|103:323,1,71.9999978027344,8|8,0:0|3:3,0:0:0:0:
255,231,172161,5,10,3:2:0:0:
255,231,172286,1,0,3:2:0:0:
255,231,172411,2,0,L|295:241,1,35.9999989013672,8|0,3:2|3:2,0:0:0:0:
388,290,172661,5,8,3:2:0:0:
388,290,172786,1,0,3:2:0:0:
388,290,172911,2,0,L|428:280,1,35.9999989013672,8|0,3:2|3:2,0:0:0:0:
495,194,173161,5,8,0:0:0:0:
505,156,173286,1,8,0:0:0:0:
501,115,173411,1,8,0:0:0:0:
481,81,173536,1,8,0:0:0:0:
417,73,173661,5,8,0:0:0:0:
357,99,173786,1,8,0:0:0:0:
296,77,173911,1,8,0:0:0:0:
264,18,174036,1,8,0:0:0:0:
198,49,174161,6,0,L|218:149,1,71.9999978027344,2|0,0:0|0:0,0:0:0:0:
213,131,174661,2,0,L|206:176,1,35.9999989013672,8|0,0:1|0:0,0:0:0:0:
185,229,174911,2,0,L|198:284,1,35.9999989013672,2|0,0:3|0:0,0:0:0:0:
108,312,175161,2,0,P|168:299|239:296,1,107.999996704102,8|0,0:1|0:0,0:0:0:0:
282,332,175661,1,12,0:0:0:0:
282,332,176161,6,0,L|352:322,1,60.0000022888184,4|0,3:2|0:0,0:0:0:0:
361,248,176411,2,0,L|420:256,1,60.0000022888184,2|0,0:2|0:0,0:0:0:0:
491,218,176661,1,10,3:2:0:0:
384,113,176911,1,2,0:3:0:0:
384,113,177036,1,2,0:3:0:0:
384,113,177161,2,0,L|189:141,1,180.000006866455,0|0,3:0|0:0,0:0:0:0:
135,83,177661,6,0,L|162:86,2,15.0000005722046,8|0|0,3:2|0:0|0:0,0:0:0:0:
259,205,177911,2,0,L|244:206,2,15.0000005722046,2|0|0,0:3|0:0|0:0,0:0:0:0:
77,360,178161,6,0,L|84:293,1,60.0000022888184,0|0,3:0|0:0,0:0:0:0:
113,230,178411,2,0,L|106:163,1,60.0000022888184,2|0,0:0|0:0,0:0:0:0:
48,58,178661,2,0,L|156:88,1,90.0000034332277,10|0,3:2|0:0,0:0:0:0:
153,60,178911,2,0,L|149:46,2,15.0000005722046,2|0|0,0:0|0:0|0:0,0:0:0:0:
280,153,179161,2,0,L|388:123,1,90.0000034332277,0|0,3:0|0:0,0:0:0:0:
382,154,179411,2,0,L|376:185,1,30.0000011444092,2|0,0:3|0:0,0:0:0:0:
364,213,179536,2,0,L|377:244,1,30.0000011444092,2|0,0:3|0:0,0:0:0:0:
391,268,179661,6,0,L|123:246,1,240,12|0,3:2|0:0,0:0:0:0:
64,266,180161,5,0,3:0:0:0:
255,190,180411,1,2,0:2:0:0:
14,190,180661,5,10,3:2:0:0:
252,287,180911,1,2,0:0:0:0:
252,287,181036,1,2,0:0:0:0:
252,287,181161,1,0,3:0:0:0:
78,363,181411,6,0,L|83:345,6,15.0000005722046,2|0|0|0|2|0|0,0:3|0:0|0:0|0:0|0:3|0:0|0:0,0:0:0:0:
98,328,181661,2,0,B|61:276|84:283|96:249|108:248|92:211|63:213|29:189|124:194|-23:264|7:163|-13:144|39:129,1,240,10|0,3:2|0:0,0:0:0:0:
111,63,182161,6,0,L|288:100,1,180.000006866455,0|2,3:0|0:2,0:0:0:0:
425,140,182661,2,0,L|364:169,1,60.0000022888184,8|0,3:2|0:0,0:0:0:0:
299,240,182911,2,0,L|238:211,1,60.0000022888184,2|2,0:0|0:0,0:0:0:0:
146,245,183161,1,0,3:0:0:0:
328,328,183411,1,2,0:0:0:0:
328,328,183536,1,2,0:0:0:0:
328,328,183661,1,8,3:2:0:0:
276,117,183911,1,8,0:3:0:0:
248,348,184161,5,0,3:0:0:0:
396,224,184411,1,2,0:2:0:0:
203,174,184661,1,10,3:2:0:0:
336,334,184911,1,2,0:3:0:0:
343,343,185036,1,2,0:3:0:0:
350,351,185161,2,0,L|427:334,1,60.0000022888184,0|0,3:0|0:0,0:0:0:0:
482,246,185411,1,2,0:0:0:0:
442,216,185536,1,2,0:0:0:0:
396,224,185661,2,0,L|437:45,1,180.000006866455,8|0,3:2|0:0,0:0:0:0:
368,0,186161,6,0,L|291:12,1,60.0000022888184,0|0,3:0|0:0,0:0:0:0:
225,41,186411,2,0,L|148:29,1,60.0000022888184,2|0,0:2|0:0,0:0:0:0:
79,100,186661,1,10,3:2:0:0:
137,256,186911,1,2,0:0:0:0:
200,148,187161,1,0,3:0:0:0:
41,205,187411,1,0,0:0:0:0:
327,250,187661,5,12,3:2:0:0:
46,200,187911,1,0,0:0:0:0:
208,141,188161,6,0,L|229:274,1,120.000004577637,0|2,3:0|0:2,0:0:0:0:
176,322,188536,1,2,0:0:0:0:
176,322,188661,2,0,L|197:189,1,120.000004577637,10|2,3:2|0:3,0:0:0:0:
319,47,189161,6,0,L|452:26,1,120.000004577637,0|2,3:0|0:0,0:0:0:0:
506,69,189536,1,0,0:0:0:0:
506,69,189661,2,0,L|433:57,1,60.0000022888184,8|0,3:2|0:0,0:0:0:0:
402,123,189911,2,0,L|329:135,1,60.0000022888184,2|0,0:0|0:0,0:0:0:0:
256,192,190161,6,0,L|64:162,1,180.000006866455,0|0,3:0|0:0,0:0:0:0:
0,105,190661,6,0,L|192:75,1,180.000006866455,8|0,3:2|0:0,0:0:0:0:
255,39,191161,6,0,L|278:108,1,60.0000022888184,0|0,3:0|0:0,0:0:0:0:
340,142,191411,2,0,L|317:211,1,60.0000022888184,0|0,0:0|3:0,0:0:0:0:
423,319,191661,6,0,L|401:191,1,120,8|0,3:2|0:0,0:0:0:0:
416,187,191911,2,0,L|443:192,2,20,2|0|0,0:0|0:0|0:0,0:0:0:0:
286,104,192161,6,0,L|204:126,1,68.0000012969971,4|0,3:2|0:0,0:0:0:0:
133,165,192411,2,0,L|67:147,1,68.0000012969971,2|0,0:2|0:0,0:0:0:0:
15,265,192661,2,0,L|145:240,1,102.000001945496,10|0,3:2|0:0,0:0:0:0:
133,267,192911,2,0,L|125:295,4,17.0000003242493,2|0|0|0|2,0:3|0:0|0:0|0:0|0:3,0:0:0:0:
223,329,193161,6,0,L|466:284,1,238.00000453949,0|0,3:0|0:0,0:0:0:0:
468,267,193661,6,0,P|426:248|378:220,1,96,8|0,3:2|0:0,0:0:0:0:
319,146,194161,6,0,L|327:67,1,68.0000012969971,0|0,3:0|0:0,0:0:0:0:
231,33,194411,2,0,L|237:100,1,68.0000012969971,2|0,0:0|0:0,0:0:0:0:
134,185,194661,2,0,L|17:166,1,102.000001945496,10|0,3:2|0:0,0:0:0:0:
11,148,194911,2,0,L|128:114,1,102.000001945496,2|0,0:0|0:0,0:0:0:0:
128,112,195161,1,0,3:0:0:0:
264,207,195411,6,0,L|283:246,1,34.0000006484985,2|0,0:3|0:0,0:0:0:0:
265,263,195536,2,0,L|246:302,1,34.0000006484985,2|0,0:3|0:0,0:0:0:0:
274,336,195661,6,0,L|237:23,1,300,12|0,3:2|0:0,0:0:0:0:
344,5,196161,6,0,L|333:83,1,68.0000012969971,0|0,3:0|0:0,0:0:0:0:
427,151,196411,1,2,0:2:0:0:
439,166,196536,1,2,0:0:0:0:
450,180,196661,2,0,L|342:199,1,102.000001945496,10|0,3:2|0:0,0:0:0:0:
332,217,196911,2,0,L|257:201,1,68.0000012969971,2|2,0:0|0:0,0:0:0:0:
78,154,197161,6,0,L|321:109,1,238.00000453949,0|0,3:0|0:0,0:0:0:0:
335,105,197661,6,0,P|293:86|245:58,1,96,10|0,3:2|0:0,0:0:0:0:
130,0,198161,5,0,3:0:0:0:
130,0,198661,1,8,3:2:0:0:
185,139,198911,1,2,0:0:0:0:
240,276,199161,2,0,L|103:238,1,136.000002593994,0|2,3:0|0:0,0:0:0:0:
29,273,199536,1,2,0:0:0:0:
29,273,199661,2,0,L|98:263,1,68.0000012969971,8|0,3:2|0:0,0:0:0:0:
184,169,199911,2,0,L|253:179,1,68.0000012969971,8|0,0:3|0:0,0:0:0:0:
450,200,200161,6,0,L|427:120,1,68.0000012969971,0|0,3:0|0:0,0:0:0:0:
344,289,200411,2,0,L|362:223,1,68.0000012969971,2|0,0:2|0:0,0:0:0:0:
264,381,200661,2,0,L|242:265,1,102.000001945496,10|0,3:2|0:0,0:0:0:0:
229,264,200911,2,0,L|233:239,4,17.0000003242493,2|0|0|0|2,0:3|0:0|0:0|0:0|0:3,0:0:0:0:
118,193,201161,6,0,L|361:148,1,238.00000453949,0|0,3:0|0:0,0:0:0:0:
381,141,201661,6,0,P|339:122|291:94,1,96,8|0,3:2|0:0,0:0:0:0:
210,19,202161,5,0,3:0:0:0:
72,142,202411,1,2,0:2:0:0:
228,111,202661,5,10,3:2:0:0:
9,13,202911,1,2,0:0:0:0:
0,262,203161,1,0,3:0:0:0:
248,186,203411,6,0,L|287:167,1,34.0000006484985,2|0,0:3|0:0,0:0:0:0:
304,185,203536,2,0,L|343:204,1,34.0000006484985,2|0,0:3|0:0,0:0:0:0:
377,176,203661,6,0,L|64:213,1,300,12|0,3:2|0:0,0:0:0:0:
132,294,204161,6,0,L|162:83,1,204.000003890991,0|0,3:0|0:0,0:0:0:0:
42,9,204661,1,10,3:2:0:0:
46,42,204786,1,2,0:0:0:0:
50,76,204911,1,2,0:0:0:0:
55,110,205036,1,2,0:0:0:0:
59,143,205161,2,0,L|43:191,1,40,0|0,3:0|0:0,0:0:0:0:
7,298,205411,2,0,L|124:275,1,102.000001945496,2|0,0:0|0:0,0:0:0:0:
124,264,205661,1,8,3:2:0:0:
253,317,205911,1,2,0:0:0:0:
443,102,206161,6,0,L|331:119,1,102.000001945496,0|0,3:0|0:0,0:0:0:0:
325,107,206411,1,0,0:0:0:0:
69,102,206661,6,0,L|181:119,1,102.000001945496,8|0,3:2|0:0,0:0:0:0:
187,107,206911,1,0,0:0:0:0:
133,338,207161,6,0,L|191:87,1,238.00000453949,0|0,3:0|0:0,0:0:0:0:
183,81,207661,6,0,L|355:54,1,160,8|6,3:2|0:1,0:0:0:0:
256,192,216161,12,0,223661,0:0:0:0:
28,330,224161,5,6,3:2:0:0:
93,302,224411,1,0,0:0:0:0:
258,347,224661,1,8,0:0:0:0:
323,319,224911,1,0,0:0:0:0:
422,366,225161,1,0,3:0:0:0:
487,338,225411,2,0,L|509:343,2,13.9999995727539,2|2|2,0:2|0:2|0:2,0:0:0:0:
437,253,225661,1,8,0:0:0:0:
437,253,225911,1,0,0:0:0:0:
491,104,226161,5,0,3:0:0:0:
426,132,226411,1,0,0:0:0:0:
261,87,226661,1,8,0:0:0:0:
196,115,226911,1,0,0:0:0:0:
97,68,227161,1,0,3:0:0:0:
32,96,227411,2,0,L|10:91,2,13.9999995727539
82,181,227661,1,8,0:0:0:0:
82,181,227911,1,0,0:0:0:0:
38,353,228161,6,0,L|97:341,1,55.9999982910157,0|0,3:0|0:0,0:0:0:0:
229,252,228661,2,0,L|288:264,1,55.9999982910157,8|0,0:0|0:0,0:0:0:0:
414,346,229161,1,0,3:0:0:0:
461,298,229411,2,0,L|481:294,2,13.9999995727539,2|2|2,0:2|0:2|0:2,0:0:0:0:
508,235,229661,1,8,0:0:0:0:
508,235,229911,1,0,0:0:0:0:
391,146,230161,6,0,L|383:212,1,55.9999982910157,0|0,3:0|0:0,0:0:0:0:
270,277,230661,1,8,0:0:0:0:
298,213,230911,1,0,0:0:0:0:
179,262,231161,1,0,3:0:0:0:
115,299,231411,2,0,L|112:321,2,13.9999995727539,2|0|2,0:0|0:0|3:2,0:0:0:0:
43,327,231661,1,8,0:0:0:0:
43,327,231911,1,0,0:0:0:0:
0,216,232161,6,0,L|14:124,1,83.9999974365235,4|0,3:2|0:0,0:0:0:0:
27,125,232661,1,8,0:0:0:0:
73,176,232911,1,0,0:0:0:0:
197,113,233161,1,0,3:0:0:0:
221,185,233411,2,0,L|208:181,2,13.9999995727539,2|2|2,0:2|0:2|0:2,0:0:0:0:
264,248,233661,1,8,0:0:0:0:
264,248,233911,1,0,0:0:0:0:
356,96,234161,6,0,L|448:110,1,83.9999974365235,0|0,3:0|0:0,0:0:0:0:
454,128,234661,2,0,L|468:220,1,83.9999974365235,8|0,0:0|0:0,0:0:0:0:
458,241,235161,1,0,3:0:0:0:
386,217,235411,2,0,L|390:230,2,13.9999995727539,2|2|2,0:2|0:2|0:2,0:0:0:0:
323,174,235661,1,8,0:0:0:0:
323,174,235911,1,0,0:0:0:0:
256,192,236161,12,0,239911,0:0:0:0:
251,339,242161,5,2,0:0:0:0:
251,339,242661,1,8,0:1:0:0:
174,183,242911,1,2,0:3:0:0:
302,229,243161,2,0,L|244:218,1,44.0000013427735,8|0,0:1|0:0,0:0:0:0:
168,289,243411,2,0,L|113:301,1,44.0000013427735,2|0,0:3|0:0,0:0:0:0:
23,233,243661,1,12,0:0:0:0:
23,233,244161,6,0,L|85:243,1,60.0000022888184,4|0,3:2|0:0,0:0:0:0:
180,154,244411,2,0,L|120:163,1,60.0000022888184,2|0,0:2|0:0,0:0:0:0:
37,114,244661,1,10,3:2:0:0:
156,26,244911,1,0,0:0:0:0:
268,119,245161,2,0,L|238:306,1,180.000006866455,0|0,3:0|0:0,0:0:0:0:
237,369,245661,2,0,L|220:236,1,120.000004577637,10|2,3:2|0:2,0:0:0:0:
152,93,246161,5,2,3:2:0:0:
301,239,246411,1,2,0:2:0:0:
91,173,246661,1,10,3:2:0:0:
281,104,246911,1,2,0:2:0:0:
200,295,247161,1,0,3:0:0:0:
78,164,247411,2,0,L|86:129,3,30.0000011444092,2|0|0|0,0:2|0:0|0:0|0:0,0:0:0:0:
62,184,247661,2,0,L|80:318,1,120.000004577637,10|2,3:2|0:2,0:0:0:0:
262,368,248161,5,0,3:0:0:0:
412,285,248411,1,2,0:2:0:0:
241,205,248661,1,10,3:2:0:0:
343,368,248911,1,0,0:0:0:0:
423,174,249161,2,0,L|237:197,1,180.000006866455,0|0,3:0|0:0,0:0:0:0:
194,138,249661,2,0,L|313:155,1,120.000004577637,10|0,3:2|0:0,0:0:0:0:
477,95,250161,5,2,3:2:0:0:
438,274,250411,1,2,0:2:0:0:
379,53,250661,1,10,3:2:0:0:
508,214,250911,1,2,0:2:0:0:
335,295,251161,1,0,3:0:0:0:
167,224,251411,2,0,L|176:191,3,30.0000011444092,2|2|2|0,0:2|0:2|0:2|0:0,0:0:0:0:
161,178,251661,2,0,L|302:150,1,120.000004577637,10|2,3:2|0:0,0:0:0:0:
473,91,252161,5,0,3:2:0:0:
421,281,252411,1,2,0:2:0:0:
353,136,252661,1,10,3:2:0:0:
282,251,252911,1,0,0:0:0:0:
146,105,253161,2,0,L|357:127,1,180.000006866455,0|0,3:0|0:0,0:0:0:0:
363,59,253661,2,0,L|233:84,1,120.000004577637,10|2,3:2|0:2,0:0:0:0:
28,133,254161,5,2,3:2:0:0:
143,278,254411,1,2,0:2:0:0:
0,256,254661,1,10,3:2:0:0:
174,150,254911,1,0,0:0:0:0:
348,244,255161,6,0,P|392:248|436:239,1,90.0000034332277,0|0,3:0|0:0,0:0:0:0:
456,225,255411,2,0,P|451:180|460:136,1,90.0000034332277,2|0,0:0|0:0,0:0:0:0:
471,122,255661,1,10,3:2:0:0:
500,316,255911,1,2,0:0:0:0:
256,224,256161,6,0,L|119:205,1,120.000004577637,2|2,3:2|0:2,0:0:0:0:
310,143,256661,1,10,3:2:0:0:
237,314,256911,1,0,0:0:0:0:
123,136,257161,2,0,L|324:118,1,180.000006866455,0|0,3:0|0:0,0:0:0:0:
363,171,257661,2,0,L|243:155,1,120.000004577637,10|0,3:2|0:0,0:0:0:0:
25,123,258161,5,4,0:3:0:0:
160,52,258411,1,2,0:2:0:0:
345,105,258661,1,8,0:3:0:0:
480,34,258911,1,2,0:2:0:0:
366,190,259161,6,0,L|143:160,1,210.000008010865,2|0,0:3|0:0,0:0:0:0:
144,145,259661,6,0,L|393:115,1,240,8|0,0:0|0:0,0:0:0:0:
512,260,260161,6,0,L|431:246,1,68.0000012969971,4|0,3:2|0:0,0:0:0:0:
369,314,260411,2,0,L|291:328,1,68.0000012969971,2|0,0:2|0:0,0:0:0:0:
219,383,260661,1,8,3:2:0:0:
292,243,260911,1,2,0:2:0:0:
194,78,261161,2,0,L|182:182,1,102.000001945496,2|0,3:1|0:0,0:0:0:0:
165,197,261411,2,0,L|130:181,2,34.0000006484985,2|2|2,0:0|0:0|0:0,0:0:0:0:
224,241,261661,6,0,L|49:174,1,160,10|2,3:1|0:0,0:0:0:0:
317,21,262161,6,0,L|332:108,1,68.0000012969971,0|0,3:0|0:0,0:0:0:0:
391,184,262411,2,0,L|380:259,1,68.0000012969971,2|0,0:2|0:0,0:0:0:0:
457,360,262661,1,8,3:2:0:0:
512,207,262911,1,2,0:2:0:0:
333,334,263161,6,0,P|273:330|250:299,1,102.000001945496,0|0,3:1|3:0,0:0:0:0:
153,294,263661,6,0,L|335:261,1,184.000003509522,10|2,3:1|0:2,0:0:0:0:
486,242,264161,5,0,3:0:0:0:
322,177,264411,1,2,0:2:0:0:
405,347,264661,1,8,3:2:0:0:
463,123,264911,1,2,0:2:0:0:
271,215,265161,2,0,L|169:204,1,102.000001945496,2|0,3:1|0:0,0:0:0:0:
154,187,265411,2,0,L|169:149,2,34.0000006484985,2|2|2,0:0|0:0|0:0,0:0:0:0:
110,246,265661,6,0,L|177:71,1,160,10|2,3:1|0:0,0:0:0:0:
351,56,266161,5,0,3:0:0:0:
249,271,266411,1,2,0:2:0:0:
185,106,266661,1,8,3:2:0:0:
359,211,266911,1,2,0:2:0:0:
129,254,267161,1,2,3:1:0:0:
240,366,267411,5,0,0:0:0:0:
240,366,267536,1,0,3:0:0:0:
240,366,267661,2,0,P|261:220|294:83,1,251.999992309571,10|0,3:2|0:0,0:0:0:0:
416,19,268161,6,0,L|434:103,1,68.0000012969971,0|0,3:0|0:0,0:0:0:0:
475,188,268411,2,0,L|463:274,1,68.0000012969971,2|0,0:2|0:0,0:0:0:0:
332,355,268661,1,8,3:2:0:0:
185,256,268911,1,2,0:2:0:0:
284,137,269161,2,0,L|386:148,1,102.000001945496,2|0,3:1|0:0,0:0:0:0:
399,169,269411,2,0,L|385:205,2,34.0000006484985,2|2|2,0:0|0:0|0:0,0:0:0:0:
441,116,269661,6,0,L|374:291,1,160,10|2,3:1|0:0,0:0:0:0:
187,359,270161,6,0,L|112:341,1,68.0000012969971,0|0,3:0|0:0,0:0:0:0:
0,226,270411,2,0,L|75:208,1,68.0000012969971,2|0,0:2|0:0,0:0:0:0:
223,162,270661,1,8,3:2:0:0:
183,345,270911,1,2,0:2:0:0:
40,114,271161,6,0,P|100:118|123:149,1,102.000001945496,2|0,3:1|3:0,0:0:0:0:
223,162,271661,6,0,L|40:192,1,184.000003509522,8|2,3:2|0:2,0:0:0:0:
24,298,272161,5,0,3:0:0:0:
224,330,272411,1,2,0:2:0:0:
77,191,272661,1,8,3:2:0:0:
125,383,272911,1,2,0:2:0:0:
247,205,273161,2,0,L|236:103,1,102.000001945496,2|0,3:1|0:0,0:0:0:0:
219,88,273411,2,0,L|181:103,2,34.0000006484985
278,44,273661,6,0,L|103:111,2,160,10|0|4,3:1|0:0|0:3,0:0:0:0:
494,332,275411,5,0,0:0:0:0:
494,332,275536,1,0,3:0:0:0:
494,332,275661,2,0,L|409:317,1,68.0000012969971,8|0,3:2|0:0,0:0:0:0:
343,246,275911,2,0,L|258:261,1,68.0000012969971,0|0,3:0|0:0,0:0:0:0:
140,198,276161,5,4,3:2:0:0:
207,337,276411,1,2,0:2:0:0:
232,128,276661,1,8,3:2:0:0:
114,278,276911,1,2,0:2:0:0:
292,362,277161,6,0,L|417:339,1,107.999996704102,0|0,3:2|0:0,0:0:0:0:
419,326,277411,2,0,L|460:335,2,35.9999989013672,2|2|2,0:2|0:2|0:2,0:0:0:0:
394,240,277661,6,0,L|412:331,1,71.9999978027344,8|0,3:2|0:0,0:0:0:0:
397,149,277911,2,0,L|379:240,1,71.9999978027344,2|0,0:2|0:0,0:0:0:0:
476,85,278161,5,0,3:2:0:0:
285,132,278411,1,2,0:2:0:0:
512,146,278661,1,8,3:2:0:0:
272,54,278911,1,2,0:2:0:0:
82,148,279161,6,0,L|105:273,1,107.999996704102,0|0,3:2|0:0,0:0:0:0:
118,275,279411,2,0,L|109:316,2,35.9999989013672,2|0|0,0:2|0:0|3:2,0:0:0:0:
40,351,279661,6,0,B|182:275|151:352|218:373|317:349,1,276.000005264282,8|0,3:2|0:0,0:0:0:0:
419,287,280161,5,0,3:2:0:0:
463,123,280411,1,2,0:2:0:0:
499,352,280661,1,8,3:2:0:0:
368,190,280911,1,2,0:2:0:0:
483,13,281161,6,0,L|356:35,1,107.999996704102,0|0,3:2|0:0,0:0:0:0:
351,46,281411,2,0,L|310:36,2,35.9999989013672,2|2|2,0:2|0:2|0:2,0:0:0:0:
244,54,281661,6,0,B|305:56|355:154|313:166|269:217|251:184|247:132|291:122|355:121,1,276.000005264282,8|0,3:2|0:0,0:0:0:0:
458,203,282161,5,0,3:2:0:0:
242,261,282411,1,2,0:2:0:0:
485,326,282661,1,8,3:2:0:0:
364,188,282911,1,2,0:2:0:0:
220,350,283161,6,0,L|95:327,1,107.999996704102,2|0,3:2|0:0,0:0:0:0:
93,314,283411,2,0,L|52:323,2,35.9999989013672,2|2|2,0:2|0:2|3:2,0:0:0:0:
53,239,283661,6,0,L|35:330,1,71.9999978027344,8|0,3:2|0:0,0:0:0:0:
50,148,283911,2,0,L|68:239,1,71.9999978027344,2|0,0:2|0:0,0:0:0:0:
11,76,284161,5,0,3:2:0:0:
157,134,284411,1,2,0:2:0:0:
351,58,284661,1,8,3:2:0:0:
497,116,284911,1,2,0:2:0:0:
377,298,285161,6,0,L|354:173,1,107.999996704102,0|0,3:2|0:0,0:0:0:0:
341,171,285411,2,0,L|350:130,2,35.9999989013672,2|2|2,0:2|0:2|0:2,0:0:0:0:
266,131,285661,6,0,L|357:113,1,71.9999978027344,8|0,3:2|0:0,0:0:0:0:
175,128,285911,2,0,L|266:146,1,71.9999978027344,2|0,0:2|0:0,0:0:0:0:
77,169,286161,5,0,3:2:0:0:
240,67,286411,1,2,0:2:0:0:
53,28,286661,1,8,3:2:0:0:
148,194,286911,1,2,0:2:0:0:
23,347,287161,6,0,L|40:220,1,107.999996704102,0|0,3:2|0:0,0:0:0:0:
49,212,287411,2,0,L|40:171,2,35.9999989013672,2|2|2,0:2|0:2|0:2,0:0:0:0:
1,120,287661,6,0,B|81:216|63:85|71:61|138:119|157:141|260:115|127:45|256:50,1,276.000005264282,8|0,3:2|0:0,0:0:0:0:
380,43,288161,5,0,3:2:0:0:
329,212,288411,1,2,0:2:0:0:
273,0,288661,1,8,3:2:0:0:
432,156,288911,1,2,0:2:0:0:
243,293,289161,6,0,L|116:276,1,107.999996704102,0|0,3:2|0:0,0:0:0:0:
108,267,289411,2,0,L|67:276,2,35.9999989013672,2|2|2,0:0|0:0|0:0,0:0:0:0:
20,356,289661,6,0,B|69:280|15:231|42:209|148:198|179:171|83:138|151:108,1,276.000005264282,8|0,3:2|0:0,0:0:0:0:
225,54,290161,5,0,3:2:0:0:
342,178,290411,1,2,0:2:0:0:
146,116,290661,1,8,3:2:0:0:
395,69,290911,1,2,0:2:0:0:
244,224,291161,6,0,L|85:207,1,143.999995605469,0|2,3:2|0:2,0:0:0:0:
24,277,291536,1,0,3:2:0:0:
24,277,291661,2,0,L|335:234,1,287.999991210938,8|4,3:2|3:2,0:0:0:0:
