osu file format v14

[General]
AudioFilename: audio.mp3
AudioLeadIn: 0
PreviewTime: 138496
Countdown: 0
SampleSet: Soft
StackLeniency: 0.2
Mode: 0
LetterboxInBreaks: 0
WidescreenStoryboard: 0

[Editor]
DistanceSpacing: 1.1
BeatDivisor: 4
GridSize: 32
TimelineZoom: 1.2

[Metadata]
Title:Apistat Commander
TitleUnicode:Apistat Commander
Artist:Xiu Xiu
ArtistUnicode:Xiu Xiu
Creator:sonic8889
Version:Loss
Source:
Tags:
BeatmapID:2180077
BeatmapSetID:1043031

[Difficulty]
HPDrainRate:6
CircleSize:4
OverallDifficulty:9.3
ApproachRate:9.3
SliderMultiplier:3.1
SliderTickRate:1

[Events]
//Background and Video events
0,0,"apistat.png",0,0
//Break Periods
2,649,1396
2,4967,8304
2,106926,108517
//Storyboard Layer 0 (Background)
//Storyboard Layer 1 (Fail)
//Storyboard Layer 2 (Pass)
//Storyboard Layer 3 (Foreground)
//Storyboard Layer 4 (Overlay)
//Storyboard Sound Samples

[TimingPoints]
330,426.439232409382,4,2,0,35,1,0
330,-100,4,2,0,5,0,0
1183,426.439232409382,4,2,0,35,1,0
1183,-100,4,2,0,5,0,0
14823,426.439232409382,4,2,0,35,1,0
14823,-100,4,2,0,5,0,0
35292,-333.333333333333,4,2,0,5,0,0
61091,-166.666666666667,4,2,0,5,0,0
62157,-100,4,2,0,5,0,0
69413,426.439232409382,4,2,0,5,1,0
69413,-250,4,2,0,5,0,0
84338,-125,4,2,0,5,0,0
84551,-250,4,2,0,5,0,0
86683,-166.666666666667,4,2,0,5,0,0
88815,-83.3333333333333,4,2,0,5,0,0
89242,-166.666666666667,4,2,0,5,0,0
91374,-200,4,2,0,5,0,0
92653,-333.333333333333,4,2,0,5,0,0
93080,-1000,4,2,0,5,0,0
93934,-250,4,2,0,5,0,0
98517,-125,4,2,0,40,0,0
109071,-125,4,2,0,15,0,0
109924,-100,4,2,0,15,0,0
110351,-100,4,2,0,40,0,1
123890,-100,4,2,0,40,0,0
123997,-100,4,2,0,40,0,1
137536,-100,4,2,0,40,0,0
137643,-100,4,2,0,40,0,1
147771,-100,4,2,0,40,0,0
147877,-100,4,2,0,40,0,1

[Colours]
Combo1 : 255,157,157
Combo2 : 255,255,255

[HitObjects]
248,197,330,22,0,L|266:186,4,19.375
256,192,2409,12,0,3421,0:0:0:0:
256,192,8858,12,0,9925,0:0:0:0:
256,192,9978,12,0,11310,0:0:0:0:
256,192,14823,5,0,0:0:0:0:
256,192,15249,1,0,0:0:0:0:
256,192,15675,1,0,0:0:0:0:
256,192,16102,5,0,0:0:0:0:
187,192,16315,1,0,0:0:0:0:
118,192,16528,1,0,0:0:0:0:
256,192,16955,1,0,0:0:0:0:
256,192,17808,1,0,0:0:0:0:
256,192,18234,5,0,0:0:0:0:
256,192,18660,1,0,0:0:0:0:
256,192,19087,1,0,0:0:0:0:
256,192,19513,5,0,0:0:0:0:
304,143,19726,1,0,0:0:0:0:
353,94,19939,1,0,0:0:0:0:
256,192,20366,1,0,0:0:0:0:
353,94,20793,1,0,0:0:0:0:
353,94,21432,5,0,0:0:0:0:
353,98,21486,1,0,0:0:0:0:
353,102,21539,1,0,0:0:0:0:
353,106,21592,1,0,0:0:0:0:
353,110,21646,5,0,0:0:0:0:
256,192,22072,1,0,0:0:0:0:
256,192,22498,1,0,0:0:0:0:
256,192,22925,5,0,0:0:0:0:
256,261,23138,1,0,0:0:0:0:
256,330,23351,1,0,0:0:0:0:
256,192,23778,1,0,0:0:0:0:
256,192,24631,1,0,0:0:0:0:
256,192,25057,5,0,0:0:0:0:
256,192,25483,1,0,0:0:0:0:
256,192,25910,1,0,0:0:0:0:
256,192,26336,5,0,0:0:0:0:
207,143,26549,1,0,0:0:0:0:
158,94,26762,1,0,0:0:0:0:
256,192,27189,1,0,0:0:0:0:
158,94,27616,1,0,0:0:0:0:
158,95,28255,5,0,0:0:0:0:
162,95,28309,1,0,0:0:0:0:
166,95,28362,1,0,0:0:0:0:
170,95,28415,1,0,0:0:0:0:
174,95,28469,5,0,0:0:0:0:
256,192,28895,1,0,0:0:0:0:
256,192,29321,1,0,0:0:0:0:
256,192,29748,5,0,0:0:0:0:
256,123,29961,1,0,0:0:0:0:
256,54,30174,1,0,0:0:0:0:
256,192,30601,1,0,0:0:0:0:
256,192,31454,1,0,0:0:0:0:
256,192,31880,5,0,0:0:0:0:
256,192,32306,1,0,0:0:0:0:
256,192,32733,1,0,0:0:0:0:
256,192,33159,5,0,0:0:0:0:
304,240,33372,1,0,0:0:0:0:
353,289,33585,1,0,0:0:0:0:
256,192,34012,1,0,0:0:0:0:
353,289,34439,1,0,0:0:0:0:
354,289,35078,5,0,0:0:0:0:
350,289,35132,1,0,0:0:0:0:
346,289,35185,1,0,0:0:0:0:
342,289,35238,1,0,0:0:0:0:
338,289,35292,6,0,L|338:223,1,46.4999985809327
378,175,35718,1,0,0:0:0:0:
378,175,36144,1,0,0:0:0:0:
378,175,36571,5,0,0:0:0:0:
299,187,36784,1,0,0:0:0:0:
220,199,36997,1,0,0:0:0:0:
378,175,37424,1,0,0:0:0:0:
378,175,38063,6,0,L|378:109,1,46.4999985809327
422,62,38490,1,0,0:0:0:0:
256,192,38703,6,0,P|233:184|216:157,1,46.4999985809327
229,88,39130,1,0,0:0:0:0:
292,270,39343,2,0,P|249:278|193:250,1,92.9999971618653
219,167,39982,6,0,P|234:184|256:192,1,46.4999985809327
335,175,40409,1,0,0:0:0:0:
183,90,40622,2,0,P|227:82|283:110,1,92.9999971618653
219,167,41262,1,0,0:0:0:0:
219,167,41901,5,0,0:0:0:0:
219,171,41955,1,0,0:0:0:0:
219,175,42008,1,0,0:0:0:0:
219,179,42061,1,0,0:0:0:0:
219,183,42115,5,0,0:0:0:0:
384,96,42328,6,0,B|384:131|384:131|394:253|498:276|554:154|464:128|464:128,1,278.999991485596
478,136,43820,1,0,0:0:0:0:
478,136,44247,1,0,0:0:0:0:
478,136,45100,5,0,0:0:0:0:
478,136,45526,2,0,L|423:163,1,46.4999985809327
437,228,45953,1,0,0:0:0:0:
396,320,46166,2,0,L|451:293,1,46.4999985809327
437,228,46593,1,0,0:0:0:0:
396,320,46805,6,0,P|389:270|349:237,1,92.9999971618653
266,222,47445,2,0,P|273:172|313:139,1,92.9999971618653
382,143,48085,1,0,0:0:0:0:
382,143,48724,5,0,0:0:0:0:
382,147,48778,1,0,0:0:0:0:
382,151,48831,1,0,0:0:0:0:
382,155,48884,1,0,0:0:0:0:
382,159,48938,5,0,0:0:0:0:
114,0,49364,6,0,B|114:35|114:35|104:157|0:180|-56:58|34:32|34:32,1,278.999991485596
20,40,51070,1,0,0:0:0:0:
20,40,51923,5,0,0:0:0:0:
20,40,52349,6,0,L|47:87,2,46.4999985809327
162,113,52989,2,0,L|135:66,2,46.4999985809327
152,195,53628,2,0,P|129:189|111:174,1,46.4999985809327
162,113,54055,1,0,0:0:0:0:
162,113,54481,1,0,0:0:0:0:
162,113,54908,1,0,0:0:0:0:
162,113,55547,5,0,0:0:0:0:
162,117,55601,1,0,0:0:0:0:
162,121,55654,1,0,0:0:0:0:
162,125,55707,1,0,0:0:0:0:
162,129,55761,6,0,P|179:147|211:157,1,46.4999985809327
355,186,56187,2,0,P|345:253|287:287,1,139.499995742798
288,288,57040,1,0,0:0:0:0:
277,209,57253,1,0,0:0:0:0:
265,130,57466,1,0,0:0:0:0:
265,130,57893,1,0,0:0:0:0:
265,130,58746,5,0,0:0:0:0:
265,130,59172,2,0,P|261:154|242:182,1,46.4999985809327
187,212,59599,1,0,0:0:0:0:
299,96,59812,2,0,P|299:144|269:197,1,92.9999971618653
183,283,60451,6,0,P|187:259|206:231,1,46.4999985809327
261,201,60878,1,0,0:0:0:0:
249,362,61091,2,0,P|234:342|237:263,1,92.9999971618653
296,178,61518,1,0,0:0:0:0:
310,306,61731,5,0,0:0:0:0:
192,192,61944,1,0,0:0:0:0:
428,192,62157,2,0,B|474:145|428:86|428:86|381:145|428:192|428:192,1,232.5
256,192,62584,5,0,0:0:0:0:
256,192,63010,1,0,0:0:0:0:
256,192,63436,1,0,0:0:0:0:
256,192,63863,5,0,0:0:0:0:
187,192,64076,1,0,0:0:0:0:
118,192,64289,1,0,0:0:0:0:
256,192,64716,1,0,0:0:0:0:
256,192,65569,1,0,0:0:0:0:
256,192,65995,5,0,0:0:0:0:
256,192,66421,1,0,0:0:0:0:
256,192,66848,1,0,0:0:0:0:
256,192,67274,5,0,0:0:0:0:
304,143,67487,1,0,0:0:0:0:
353,94,67700,1,0,0:0:0:0:
256,192,68127,1,0,0:0:0:0:
353,94,68554,1,0,0:0:0:0:
353,94,69193,5,0,0:0:0:0:
353,98,69247,1,0,0:0:0:0:
353,102,69300,1,0,0:0:0:0:
353,106,69353,1,0,0:0:0:0:
353,110,69413,5,0,0:0:0:0:
112,296,70265,1,0,0:0:0:0:
112,191,70479,1,0,0:0:0:0:
191,286,70692,1,0,0:0:0:0:
36,236,70905,2,0,L|36:112,1,124
191,286,71545,5,0,0:0:0:0:
36,236,71758,2,0,L|36:174,1,62
99,71,72184,2,0,L|99:133,1,62
99,236,72611,2,0,L|99:174,1,62
162,71,73037,5,0,0:0:0:0:
369,270,73677,1,0,0:0:0:0:
262,219,73890,1,0,0:0:0:0:
240,187,74103,1,0,0:0:0:0:
299,336,74317,2,0,L|234:335,1,62
185,271,74743,2,0,L|120:270,1,62
61,271,75169,2,0,L|126:270,1,62
175,206,75595,2,0,L|240:205,1,62
304,245,76022,1,0,0:0:0:0:
304,167,76236,5,0,0:0:0:0:
47,46,77088,1,0,0:0:0:0:
46,145,77302,1,0,0:0:0:0:
141,117,77515,1,0,0:0:0:0:
140,216,77728,2,0,L|79:171,1,62
236,150,78155,1,0,0:0:0:0:
141,117,78368,1,0,0:0:0:0:
140,216,78581,2,0,L|37:140,2,124
140,216,79647,5,0,0:0:0:0:
278,180,79860,1,0,0:0:0:0:
278,180,80073,1,0,0:0:0:0:
278,180,80287,2,0,L|143:180,1,124
340,180,80926,1,0,0:0:0:0:
267,83,81140,2,0,L|200:83,1,62
338,83,81566,5,0,0:0:0:0:
311,178,81779,1,0,0:0:0:0:
407,153,81992,2,0,L|335:153,1,62
437,231,82419,2,0,L|365:231,1,62
467,309,82845,1,0,0:0:0:0:
405,309,83058,5,0,0:0:0:0:
315,43,83911,1,0,0:0:0:0:
433,115,84125,1,0,0:0:0:0:
450,33,84338,2,0,P|415:35|381:88,1,62
307,193,84551,2,0,P|259:225|174:212,1,124
220,62,85191,5,0,0:0:0:0:
383,194,85404,2,0,P|430:226|515:213,2,124
459,136,86470,1,0,0:0:0:0:
426,309,86683,2,0,P|462:249|451:119,1,185.999994323731
241,333,87323,5,0,0:0:0:0:
318,193,87536,1,0,0:0:0:0:
159,197,87749,1,0,0:0:0:0:
389,325,87963,2,0,P|341:303|305:241,1,92.9999971618653
135,228,88389,2,0,P|183:206|219:144,1,92.9999971618653
447,44,88815,2,0,P|424:154|494:85,1,278.999991485596
312,43,89242,2,0,P|264:65|228:127,1,92.9999971618653
266,281,89668,1,0,0:0:0:0:
323,130,89882,5,0,0:0:0:0:
97,331,90734,1,0,0:0:0:0:
194,298,90948,1,0,0:0:0:0:
103,189,91161,1,0,0:0:0:0:
200,222,91374,2,0,L|243:149,1,77.5
377,122,91801,1,0,0:0:0:0:
286,13,92014,1,0,0:0:0:0:
280,89,92227,6,0,L|236:161,1,77.5
189,232,92653,2,0,L|219:282,1,46.4999985809327
275,345,93080,2,0,L|265:360,1,15.5
145,291,93506,1,0,0:0:0:0:
283,255,93720,1,0,0:0:0:0:
283,255,93934,6,0,L|148:255,1,124
345,255,94573,1,0,0:0:0:0:
272,158,94787,2,0,L|205:158,1,62
343,158,95213,5,0,0:0:0:0:
316,253,95426,1,0,0:0:0:0:
412,228,95639,2,0,L|340:228,1,62
442,306,96066,2,0,L|370:306,1,62
472,384,96492,1,0,0:0:0:0:
410,384,96705,5,0,0:0:0:0:
286,323,98517,6,0,L|257:281,1,31
267,45,98624,1,0,0:0:0:0:
341,55,98837,6,0,L|331:105,1,31
157,265,98943,1,0,0:0:0:0:
157,265,99689,6,0,L|207:254,1,31
363,77,99796,1,0,0:0:0:0:
303,33,100009,6,0,L|274:75,1,31
289,312,100115,1,0,0:0:0:0:
289,312,101875,6,0,L|238:308,1,31
60,151,101982,1,0,0:0:0:0:
115,99,102195,6,0,L|148:137,1,31
162,375,102301,1,0,0:0:0:0:
162,375,103261,6,0,L|200:341,1,31
251,111,103368,1,0,0:0:0:0:
436,308,103581,2,0,L|431:358,1,31
436,308,105127,6,0,L|397:274,1,31
347,44,105234,1,0,0:0:0:0:
162,241,105447,2,0,L|166:291,1,31
164,271,106353,6,0,L|175:221,1,31
76,6,106460,1,0,0:0:0:0:
342,52,106673,2,0,L|369:95,1,31
256,192,109071,5,0,0:0:0:0:
256,192,109285,1,0,0:0:0:0:
256,192,109498,2,0,L|192:192,1,62
352,192,109711,2,0,L|288:192,1,62
119,191,109924,5,0,0:0:0:0:
93,158,109995,2,0,P|79:100|90:70,1,51.6666666666667
300,20,110137,1,0,0:0:0:0:
286,59,110208,2,0,P|244:102|213:109,1,51.6666666666667
86,261,110351,5,0,0:0:0:0:
161,277,110457,1,0,0:0:0:0:
235,258,110564,1,0,0:0:0:0:
294,208,110670,1,0,0:0:0:0:
325,138,110777,1,0,0:0:0:0:
295,163,110883,1,0,0:0:0:0:
266,188,110990,1,0,0:0:0:0:
236,213,111096,1,0,0:0:0:0:
206,238,111204,5,0,0:0:0:0:
212,162,111310,1,0,0:0:0:0:
173,97,111417,1,0,0:0:0:0:
103,66,111523,1,0,0:0:0:0:
28,81,111630,1,0,0:0:0:0:
63,98,111736,1,0,0:0:0:0:
98,116,111843,1,0,0:0:0:0:
133,133,111949,1,0,0:0:0:0:
167,150,112056,5,0,0:0:0:0:
97,173,112162,1,0,0:0:0:0:
85,246,112269,1,0,0:0:0:0:
144,291,112375,1,0,0:0:0:0:
211,260,112483,1,0,0:0:0:0:
176,244,112589,1,0,0:0:0:0:
140,229,112696,1,0,0:0:0:0:
105,213,112802,1,0,0:0:0:0:
69,197,112909,5,0,0:0:0:0:
136,233,113015,1,0,0:0:0:0:
208,212,113122,1,0,0:0:0:0:
244,145,113228,1,0,0:0:0:0:
224,73,113336,1,0,0:0:0:0:
242,107,113442,1,0,0:0:0:0:
260,141,113549,1,0,0:0:0:0:
278,175,113655,1,0,0:0:0:0:
296,210,113762,5,0,0:0:0:0:
288,133,113868,1,0,0:0:0:0:
319,63,113975,1,0,0:0:0:0:
379,16,114081,1,0,0:0:0:0:
455,6,114188,1,0,0:0:0:0:
448,44,114295,1,0,0:0:0:0:
441,82,114402,1,0,0:0:0:0:
433,120,114508,1,0,0:0:0:0:
426,158,114615,5,0,0:0:0:0:
367,109,114721,1,0,0:0:0:0:
291,107,114828,1,0,0:0:0:0:
230,152,114934,1,0,0:0:0:0:
209,225,115041,1,0,0:0:0:0:
247,214,115147,1,0,0:0:0:0:
284,204,115254,1,0,0:0:0:0:
321,193,115360,1,0,0:0:0:0:
358,182,115467,5,0,0:0:0:0:
301,227,115574,1,0,0:0:0:0:
327,295,115681,1,0,0:0:0:0:
399,291,115787,1,0,0:0:0:0:
417,221,115894,1,0,0:0:0:0:
434,256,116000,1,0,0:0:0:0:
451,290,116107,1,0,0:0:0:0:
468,325,116213,1,0,0:0:0:0:
485,360,116320,5,0,0:0:0:0:
425,312,116427,1,0,0:0:0:0:
352,287,116534,1,0,0:0:0:0:
275,286,116640,1,0,0:0:0:0:
202,311,116747,1,0,0:0:0:0:
220,277,116853,1,0,0:0:0:0:
238,243,116960,1,0,0:0:0:0:
256,208,117066,1,0,0:0:0:0:
274,174,117173,5,0,0:0:0:0:
213,219,117280,1,0,0:0:0:0:
138,208,117387,1,0,0:0:0:0:
91,149,117493,1,0,0:0:0:0:
99,74,117600,1,0,0:0:0:0:
108,111,117706,1,0,0:0:0:0:
117,149,117813,1,0,0:0:0:0:
126,187,117919,1,0,0:0:0:0:
135,224,118027,5,0,0:0:0:0:
132,148,118133,1,0,0:0:0:0:
162,77,118240,1,0,0:0:0:0:
219,26,118346,1,0,0:0:0:0:
293,4,118453,1,0,0:0:0:0:
279,40,118559,1,0,0:0:0:0:
266,77,118666,1,0,0:0:0:0:
253,113,118772,1,0,0:0:0:0:
239,149,118879,5,0,0:0:0:0:
298,101,118985,1,0,0:0:0:0:
374,88,119092,1,0,0:0:0:0:
445,115,119198,1,0,0:0:0:0:
493,175,119305,1,0,0:0:0:0:
455,179,119412,1,0,0:0:0:0:
416,183,119519,1,0,0:0:0:0:
378,186,119625,1,0,0:0:0:0:
339,190,119732,5,0,0:0:0:0:
396,145,119838,1,0,0:0:0:0:
456,185,119945,1,0,0:0:0:0:
436,255,120051,1,0,0:0:0:0:
363,257,120158,1,0,0:0:0:0:
376,220,120265,1,0,0:0:0:0:
388,183,120372,1,0,0:0:0:0:
401,147,120478,1,0,0:0:0:0:
413,110,120585,5,0,0:0:0:0:
339,93,120691,1,0,0:0:0:0:
275,133,120798,1,0,0:0:0:0:
256,206,120904,1,0,0:0:0:0:
420,103,121012,5,0,0:0:0:0:
353,67,121118,1,0,0:0:0:0:
280,89,121225,1,0,0:0:0:0:
243,155,121331,1,0,0:0:0:0:
427,96,121438,5,0,0:0:0:0:
371,43,121544,1,0,0:0:0:0:
295,46,121651,1,0,0:0:0:0:
242,100,121757,1,0,0:0:0:0:
434,89,121865,5,0,0:0:0:0:
393,23,121971,1,0,0:0:0:0:
319,6,122078,1,0,0:0:0:0:
254,44,122184,1,0,0:0:0:0:
441,82,122291,5,0,0:0:0:0:
363,89,122398,1,0,0:0:0:0:
336,161,122504,1,0,0:0:0:0:
258,168,122611,1,0,0:0:0:0:
448,75,122717,5,0,0:0:0:0:
370,61,122824,1,0,0:0:0:0:
326,124,122930,1,0,0:0:0:0:
248,110,123037,1,0,0:0:0:0:
209,19,123144,5,0,0:0:0:0:
138,93,123250,1,0,0:0:0:0:
303,19,123357,1,0,0:0:0:0:
374,93,123463,1,0,0:0:0:0:
216,12,123570,5,0,0:0:0:0:
128,65,123676,1,0,0:0:0:0:
306,36,123783,1,0,0:0:0:0:
356,126,123889,1,0,0:0:0:0:
223,5,123997,5,0,0:0:0:0:
150,29,124103,1,0,0:0:0:0:
110,93,124210,1,0,0:0:0:0:
118,168,124316,1,0,0:0:0:0:
173,221,124423,1,0,0:0:0:0:
186,185,124529,1,0,0:0:0:0:
199,148,124636,1,0,0:0:0:0:
212,112,124742,1,0,0:0:0:0:
225,75,124849,5,0,0:0:0:0:
266,140,124956,1,0,0:0:0:0:
266,217,125063,1,0,0:0:0:0:
225,281,125169,1,0,0:0:0:0:
156,315,125276,1,0,0:0:0:0:
167,277,125382,1,0,0:0:0:0:
179,240,125489,1,0,0:0:0:0:
190,203,125595,1,0,0:0:0:0:
201,166,125702,5,0,0:0:0:0:
221,239,125808,1,0,0:0:0:0:
288,274,125915,1,0,0:0:0:0:
359,249,126021,1,0,0:0:0:0:
389,180,126129,1,0,0:0:0:0:
351,182,126235,1,0,0:0:0:0:
312,185,126342,1,0,0:0:0:0:
273,188,126448,1,0,0:0:0:0:
235,191,126555,5,0,0:0:0:0:
306,165,126661,1,0,0:0:0:0:
334,96,126768,1,0,0:0:0:0:
301,28,126874,1,0,0:0:0:0:
229,7,126981,1,0,0:0:0:0:
253,38,127088,1,0,0:0:0:0:
276,69,127195,1,0,0:0:0:0:
300,100,127301,1,0,0:0:0:0:
323,130,127408,5,0,0:0:0:0:
264,83,127514,1,0,0:0:0:0:
188,85,127621,1,0,0:0:0:0:
131,136,127727,1,0,0:0:0:0:
120,211,127834,1,0,0:0:0:0:
159,211,127941,1,0,0:0:0:0:
198,211,128048,1,0,0:0:0:0:
237,211,128154,1,0,0:0:0:0:
275,211,128261,5,0,0:0:0:0:
225,154,128367,1,0,0:0:0:0:
152,133,128474,1,0,0:0:0:0:
79,157,128580,1,0,0:0:0:0:
32,217,128687,1,0,0:0:0:0:
70,217,128794,1,0,0:0:0:0:
109,217,128901,1,0,0:0:0:0:
148,217,129007,1,0,0:0:0:0:
187,217,129114,5,0,0:0:0:0:
137,270,129220,1,0,0:0:0:0:
169,336,129327,1,0,0:0:0:0:
242,327,129433,1,0,0:0:0:0:
259,257,129540,1,0,0:0:0:0:
284,286,129646,1,0,0:0:0:0:
310,315,129753,1,0,0:0:0:0:
335,344,129859,1,0,0:0:0:0:
361,373,129966,5,0,0:0:0:0:
302,324,130073,1,0,0:0:0:0:
282,251,130180,1,0,0:0:0:0:
308,179,130286,1,0,0:0:0:0:
370,135,130393,1,0,0:0:0:0:
363,173,130499,1,0,0:0:0:0:
357,212,130606,1,0,0:0:0:0:
350,250,130712,1,0,0:0:0:0:
343,288,130819,5,0,0:0:0:0:
313,218,130926,1,0,0:0:0:0:
244,189,131033,1,0,0:0:0:0:
173,217,131139,1,0,0:0:0:0:
141,285,131246,1,0,0:0:0:0:
178,273,131352,1,0,0:0:0:0:
215,261,131459,1,0,0:0:0:0:
252,249,131565,1,0,0:0:0:0:
289,237,131673,5,0,0:0:0:0:
215,228,131779,1,0,0:0:0:0:
189,160,131886,1,0,0:0:0:0:
237,104,131992,1,0,0:0:0:0:
309,120,132099,1,0,0:0:0:0:
275,140,132205,1,0,0:0:0:0:
242,160,132312,1,0,0:0:0:0:
209,179,132418,1,0,0:0:0:0:
175,199,132526,5,0,0:0:0:0:
195,126,132632,1,0,0:0:0:0:
158,60,132739,1,0,0:0:0:0:
86,37,132845,1,0,0:0:0:0:
18,71,132952,1,0,0:0:0:0:
54,87,133058,1,0,0:0:0:0:
90,102,133165,1,0,0:0:0:0:
125,117,133271,1,0,0:0:0:0:
161,133,133378,5,0,0:0:0:0:
96,174,133484,1,0,0:0:0:0:
45,233,133591,1,0,0:0:0:0:
12,303,133697,1,0,0:0:0:0:
0,375,133805,1,0,0:0:0:0:
28,352,133911,1,0,0:0:0:0:
59,329,134018,1,0,0:0:0:0:
90,305,134124,1,0,0:0:0:0:
120,282,134231,5,0,0:0:0:0:
115,207,134337,1,0,0:0:0:0:
162,148,134444,1,0,0:0:0:0:
237,138,134550,1,0,0:0:0:0:
113,289,134658,5,0,0:0:0:0:
87,217,134764,1,0,0:0:0:0:
118,148,134871,1,0,0:0:0:0:
188,119,134977,1,0,0:0:0:0:
106,296,135084,5,0,0:0:0:0:
62,233,135190,1,0,0:0:0:0:
74,158,135297,1,0,0:0:0:0:
134,112,135403,1,0,0:0:0:0:
99,303,135511,5,0,0:0:0:0:
40,253,135617,1,0,0:0:0:0:
32,177,135724,1,0,0:0:0:0:
78,118,135830,1,0,0:0:0:0:
92,310,135937,5,0,0:0:0:0:
99,232,136044,1,0,0:0:0:0:
166,194,136150,1,0,0:0:0:0:
173,116,136257,1,0,0:0:0:0:
85,317,136363,5,0,0:0:0:0:
71,239,136470,1,0,0:0:0:0:
126,185,136576,1,0,0:0:0:0:
113,108,136683,1,0,0:0:0:0:
49,55,136790,5,0,0:0:0:0:
0,144,136896,1,0,0:0:0:0:
140,30,137003,1,0,0:0:0:0:
228,83,137109,1,0,0:0:0:0:
42,48,137216,5,0,0:0:0:0:
0,137,137322,1,0,0:0:0:0:
127,12,137429,1,0,0:0:0:0:
218,56,137535,1,0,0:0:0:0:
19,69,137643,5,0,0:0:0:0:
17,145,137749,1,0,0:0:0:0:
49,215,137856,1,0,0:0:0:0:
109,265,137963,1,0,0:0:0:0:
116,12,138069,5,0,0:0:0:0:
65,69,138176,1,0,0:0:0:0:
43,141,138282,1,0,0:0:0:0:
56,218,138389,1,0,0:0:0:0:
232,30,138496,5,0,0:0:0:0:
155,40,138602,1,0,0:0:0:0:
92,81,138709,1,0,0:0:0:0:
52,147,138815,1,0,0:0:0:0:
314,113,138922,5,0,0:0:0:0:
250,71,139029,1,0,0:0:0:0:
174,62,139135,1,0,0:0:0:0:
101,86,139242,1,0,0:0:0:0:
312,209,139349,5,0,0:0:0:0:
293,136,139456,1,0,0:0:0:0:
241,78,139563,1,0,0:0:0:0:
171,48,139669,1,0,0:0:0:0:
239,302,139775,5,0,0:0:0:0:
272,232,139881,1,0,0:0:0:0:
271,157,139988,1,0,0:0:0:0:
237,87,140095,1,0,0:0:0:0:
129,330,140201,5,0,0:0:0:0:
200,300,140308,1,0,0:0:0:0:
249,241,140414,1,0,0:0:0:0:
267,166,140521,1,0,0:0:0:0:
31,284,140628,5,0,0:0:0:0:
107,307,140734,1,0,0:0:0:0:
182,293,140841,1,0,0:0:0:0:
244,250,140947,1,0,0:0:0:0:
26,233,141054,5,0,0:0:0:0:
60,260,141161,1,0,0:0:0:0:
103,269,141267,1,0,0:0:0:0:
145,257,141374,1,0,0:0:0:0:
20,164,141481,5,0,0:0:0:0:
29,206,141588,1,0,0:0:0:0:
56,240,141695,1,0,0:0:0:0:
95,261,141801,1,0,0:0:0:0:
40,114,141907,5,0,0:0:0:0:
28,156,142013,1,0,0:0:0:0:
39,199,142120,1,0,0:0:0:0:
65,233,142227,1,0,0:0:0:0:
76,73,142334,5,0,0:0:0:0:
48,106,142441,1,0,0:0:0:0:
37,149,142547,1,0,0:0:0:0:
47,193,142654,1,0,0:0:0:0:
124,47,142760,5,0,0:0:0:0:
84,65,142866,1,0,0:0:0:0:
57,99,142973,1,0,0:0:0:0:
45,143,143079,1,0,0:0:0:0:
176,39,143186,5,0,0:0:0:0:
132,39,143293,1,0,0:0:0:0:
93,57,143399,1,0,0:0:0:0:
65,91,143506,1,0,0:0:0:0:
224,50,143613,5,0,0:0:0:0:
184,31,143720,1,0,0:0:0:0:
140,31,143827,1,0,0:0:0:0:
101,50,143933,1,0,0:0:0:0:
257,79,144039,5,0,0:0:0:0:
230,45,144145,1,0,0:0:0:0:
191,27,144252,1,0,0:0:0:0:
147,27,144359,1,0,0:0:0:0:
275,114,144466,5,0,0:0:0:0:
244,71,144572,1,0,0:0:0:0:
198,46,144679,1,0,0:0:0:0:
144,43,144786,1,0,0:0:0:0:
244,183,144892,5,0,0:0:0:0:
249,131,144999,1,0,0:0:0:0:
231,84,145105,1,0,0:0:0:0:
193,48,145212,1,0,0:0:0:0:
174,222,145319,5,0,0:0:0:0:
211,185,145425,1,0,0:0:0:0:
229,136,145532,1,0,0:0:0:0:
224,84,145638,1,0,0:0:0:0:
95,209,145745,5,0,0:0:0:0:
148,207,145852,1,0,0:0:0:0:
193,180,145958,1,0,0:0:0:0:
222,137,146065,1,0,0:0:0:0:
58,157,146172,5,0,0:0:0:0:
97,188,146279,1,0,0:0:0:0:
149,199,146386,1,0,0:0:0:0:
200,187,146492,1,0,0:0:0:0:
59,76,146598,5,0,0:0:0:0:
69,127,146704,1,0,0:0:0:0:
100,168,146811,1,0,0:0:0:0:
147,192,146918,1,0,0:0:0:0:
107,16,147024,5,0,0:0:0:0:
81,61,147131,1,0,0:0:0:0:
78,114,147237,1,0,0:0:0:0:
99,162,147344,1,0,0:0:0:0:
178,0,147451,5,0,0:0:0:0:
128,20,147557,1,0,0:0:0:0:
94,58,147664,1,0,0:0:0:0:
77,107,147770,1,0,0:0:0:0:
173,329,147877,5,0,0:0:0:0:
104,280,147984,1,0,0:0:0:0:
65,204,148090,1,0,0:0:0:0:
65,121,148197,1,0,0:0:0:0:
300,314,148304,5,0,0:0:0:0:
215,322,148411,1,0,0:0:0:0:
136,292,148518,1,0,0:0:0:0:
79,230,148624,1,0,0:0:0:0:
363,251,148730,5,0,0:0:0:0:
307,314,148836,1,0,0:0:0:0:
227,343,148943,1,0,0:0:0:0:
143,336,149050,1,0,0:0:0:0:
370,174,149157,5,0,0:0:0:0:
370,258,149264,1,0,0:0:0:0:
332,333,149370,1,0,0:0:0:0:
263,383,149477,1,0,0:0:0:0:
322,117,149583,5,0,0:0:0:0:
377,181,149689,1,0,0:0:0:0:
330,252,149796,1,0,0:0:0:0:
385,316,149902,1,0,0:0:0:0:
260,78,150010,5,0,0:0:0:0:
329,124,150116,1,0,0:0:0:0:
302,205,150223,1,0,0:0:0:0:
371,252,150329,1,0,0:0:0:0:
384,349,150436,5,0,0:0:0:0:
466,268,150542,1,0,0:0:0:0:
275,345,150649,1,0,0:0:0:0:
198,258,150755,1,0,0:0:0:0:
393,360,150862,5,0,0:0:0:0:
473,270,150968,1,0,0:0:0:0:
279,372,151075,1,0,0:0:0:0:
187,288,151181,1,0,0:0:0:0:
403,370,151289,5,0,0:0:0:0:
