osu file format v14

[General]
AudioFilename: audio.mp3
AudioLeadIn: 0
PreviewTime: 173548
Countdown: 0
SampleSet: Normal
StackLeniency: 0.7
Mode: 0
LetterboxInBreaks: 0
EpilepsyWarning: 1
WidescreenStoryboard: 1

[Editor]
Bookmarks: 5548,20317,35086,49856,57240,72010,79394,96010,110779,125548,127394,142163,158779,173548,188317,203086,217856,234471,249240
DistanceSpacing: 1
BeatDivisor: 4
GridSize: 32
TimelineZoom: 0.8999996

[Metadata]
Title:Hitotsume no Dokuhaku
TitleUnicode:ヒトツメの独白
Artist:Xitoo
ArtistUnicode:しとお
Creator:Noffy
Version:Normal
Source:
Tags:shitoo vocaloid one eye's monologue the of eye v_flower flower vflower story duet yandere green series murder love death school hatsune miku 初音ミク electronic japanese
BeatmapID:1184422
BeatmapSetID:554143

[Difficulty]
HPDrainRate:4
CircleSize:3.5
OverallDifficulty:4
ApproachRate:5
SliderMultiplier:1.3
SliderTickRate:1

[Events]
//Background and Video events
0,0,"a feeling.png",0,0
Video,0,"scarf man.avi"
//Break Periods
2,127394,140502
2,158979,164963
//Storyboard Layer 0 (Background)
//Storyboard Layer 1 (Fail)
//Storyboard Layer 2 (Pass)
//Storyboard Layer 3 (Foreground)
//Storyboard Layer 4 (Overlay)
//Storyboard Sound Samples

[TimingPoints]
10,461.538461538462,4,1,1,100,1,0
5548,461.538461538462,4,1,1,100,1,0
31394,-100,4,1,1,50,0,0
35086,-100,4,1,1,70,0,0
78932,-100,4,1,1,50,0,0
96010,461.538461538462,4,1,1,100,1,1
125548,-100,4,1,1,100,0,0
127394,461.538461538462,4,1,1,100,1,0
142163,-100,4,1,1,100,0,1
149547,-100,4,1,1,70,0,0
154855,-100,4,1,1,100,0,1
158779,461.538461538462,4,1,1,30,1,0
166163,-100,4,1,1,40,0,0
188317,-100,4,1,1,100,0,1
217855,-100,4,1,1,100,0,0
219702,461.538461538462,4,1,1,100,1,0
245548,-100,4,1,1,50,0,0

[Colours]
Combo1 : 74,88,61
Combo2 : 165,244,0
Combo3 : 137,248,192
Combo4 : 159,193,113

[HitObjects]
256,320,5086,53,0,0:0:0:0:
212,170,5548,6,0,P|141:142|86:154,1,130,12|8,0:3|0:0,0:0:0:0:
27,197,6240,1,8,0:2:0:0:
69,263,6471,2,0,P|127:289|190:281,1,130,8|8,0:3|0:0,0:0:0:0:
256,234,7163,1,12,0:2:0:0:
300,170,7394,6,0,P|371:142|426:154,1,130,12|8,0:3|0:0,0:0:0:0:
485,197,8086,1,8,0:2:0:0:
443,263,8317,2,0,P|384:289|321:281,1,130,8|8,0:3|0:0,0:0:0:0:
256,234,9009,1,12,0:2:0:0:
184,202,9240,6,0,B|124:185|118:236|38:199,1,130,12|8,0:3|0:0,0:0:0:0:
57,50,10163,2,0,B|120:27|125:71|185:54,1,130,8|8,0:3|0:0,0:0:0:0:
340,54,11086,6,0,B|400:71|405:27|468:49,1,130,12|8,0:3|0:0,0:0:0:0:
468,206,12009,2,0,B|407:235|401:184|341:201,1,130,8|8,0:3|0:0,0:0:0:0:
211,286,12933,6,0,P|165:336|100:351,1,130,12|8,0:3|0:0,0:0:0:0:
28,348,13625,1,8,0:2:0:0:
8,272,13856,2,0,P|17:204|61:155,1,130,8|8,0:3|0:0,0:0:0:0:
119,113,14548,1,12,0:2:0:0:
194,133,14779,6,0,P|256:149|318:134,1,130,12|8,0:3|0:0,0:0:0:0:
393,113,15471,1,8,0:2:0:0:
455,158,15702,2,0,P|496:208|504:272,1,130,8|8,0:3|0:0,0:0:0:0:
484,348,16394,1,12,0:2:0:0:
417,307,16625,6,0,B|351:289|352:334|275:301,1,130,12|8,0:3|0:0,0:0:0:0:
194,182,17548,2,0,P|256:164|318:182,1,130,8|8,0:3|0:0,0:0:0:0:
222,306,18471,6,0,B|160:334|161:289|95:307,1,130,12|8,0:3|0:0,0:0:0:0:
194,182,19394,2,0,P|256:164|318:182,1,130,8|8,0:3|0:0,0:0:0:0:
422,297,20317,6,0,L|422:382,2,65,12|2|10,0:3|0:1|0:0,0:0:0:0:
391,224,21010,1,10,0:2:0:0:
247,150,21471,2,0,B|184:135|185:178|121:160,1,130,0|12,0:0|0:2,0:0:0:0:
90,87,22163,6,0,L|90:2,2,65,12|2|10,0:3|0:1|0:0,0:0:0:0:
121,160,22856,1,10,0:2:0:0:
265,234,23317,2,0,B|328:249|327:206|391:224,1,130,0|12,0:0|0:2,0:0:0:0:
438,291,24010,6,0,L|475:360,2,65,12|2|10,0:3|0:1|0:0,0:0:0:0:
391,224,24702,1,10,0:2:0:0:
293,102,25163,2,0,B|222:119|250:149|181:163,1,130,0|12,0:0|0:2,0:0:0:0:
112,202,25856,6,0,L|55:233,2,65,12|2|10,0:3|0:1|0:0,0:0:0:0:
181,163,26548,1,10,0:2:0:0:
314,114,27009,2,0,P|325:188|303:242,1,130,0|12,0:0|0:2,0:0:0:0:
256,299,27702,6,0,L|256:372,2,65,12|2|10,0:3|0:1|0:0,0:0:0:0:
207,238,28394,1,10,0:2:0:0:
79,148,28855,2,0,B|132:169|148:130|206:145,1,130,0|12,0:0|0:2,0:0:0:0:
256,86,29548,6,0,L|256:13,2,65,12|2|10,0:3|0:1|0:0,0:0:0:0:
305,147,30240,1,10,0:2:0:0:
433,236,30701,2,0,B|379:214|363:253|305:238,1,130,0|12,0:0|0:2,0:0:0:0:
207,238,31394,6,0,P|187:176|205:114,1,130,12|0,0:3|0:0,0:0:0:0:
256,57,32086,1,10,0:3:0:0:
308,115,32317,2,0,P|325:176|306:237,1,130,10|0,0:3|0:0,0:0:0:0:
256,309,33010,1,10,0:3:0:0:
202,252,33240,5,12,0:3:0:0:
106,128,33702,1,12,0:3:0:0:
56,275,34163,1,12,0:3:0:0:
177,177,34625,2,0,L|234:133,1,65
290,90,35086,6,0,P|348:60|431:61,1,130,12|8,0:3|0:0,0:0:0:0:
487,73,35778,1,8,0:2:0:0:
484,151,36009,2,0,L|470:290,1,130,8|8,0:3|0:0,0:0:0:0:
461,358,36702,1,12,0:2:0:0:
389,327,36933,5,8,0:3:0:0:
237,364,37394,1,8,0:0:0:0:
128,251,37856,2,0,P|153:229|201:218,1,65,8|0,0:3|0:0,0:0:0:0:
260,209,38317,1,8,0:0:0:0:
286,135,38548,1,12,0:2:0:0:
221,91,38779,6,0,P|163:61|80:62,1,130,8|8,0:3|0:0,0:0:0:0:
24,74,39471,1,8,0:2:0:0:
27,152,39702,2,0,L|41:291,1,130,8|8,0:3|0:0,0:0:0:0:
50,359,40395,1,12,0:2:0:0:
119,320,40625,5,8,0:3:0:0:
232,212,41086,1,8,0:0:0:0:
344,104,41548,2,0,P|375:119|422:118,1,65,8|0,0:3|0:0,0:0:0:0:
483,118,42009,1,8,0:0:0:0:
484,196,42240,1,12,0:2:0:0:
442,261,42471,6,0,P|400:304|332:326,1,130,8|8,0:3|0:0,0:0:0:0:
256,330,43163,1,8,0:2:0:0:
177,325,43394,2,0,P|115:306|70:261,1,130,8|8,0:3|0:0,0:0:0:0:
31,192,44086,1,12,0:2:0:0:
39,114,44317,5,8,0:3:0:0:
176,188,44779,1,8,0:0:0:0:
313,260,45240,2,0,P|349:273|396:270,1,65,8|0,0:3|0:0,0:0:0:0:
452,253,45701,1,8,0:0:0:0:
491,185,45932,1,12,0:2:0:0:
442,123,46163,6,0,P|400:80|332:58,1,130,8|8,0:3|0:0,0:0:0:0:
256,54,46855,1,8,0:2:0:0:
177,59,47086,2,0,P|115:78|70:123,1,130,8|8,0:3|0:0,0:0:0:0:
31,192,47779,1,12,0:2:0:0:
39,270,48010,5,8,0:3:0:0:
179,199,48472,1,8,0:0:0:0:
332,226,48933,2,0,L|409:237,1,65,8|0,0:3|0:0,0:0:0:0:
472,217,49394,1,8,0:0:0:0:
486,140,49625,1,12,0:2:0:0:
455,68,49856,6,0,P|398:37|319:45,1,130,8|8,0:3|0:0,0:0:0:0:
178,39,50779,2,0,P|113:37|57:67,1,130,8|8,0:3|0:0,0:0:0:0:
150,192,51702,1,8,0:3:0:0:
126,266,51933,5,0,0:0:0:0:
163,333,52163,2,0,P|191:350|224:354,1,65,8|0,0:0|0:0,0:0:0:0:
300,350,52625,2,0,L|339:224,1,130,8|8,0:3|0:0,0:0:0:0:
364,152,53317,1,12,0:2:0:0:
382,76,53548,6,0,P|319:61|256:77,1,130,8|8,0:3|0:0,0:0:0:0:
192,218,54471,2,0,P|255:234|318:218,1,130,8|8,0:3|0:0,0:0:0:0:
256,76,55394,6,0,P|193:61|130:76,1,130,8|8,0:3|0:0,0:0:0:0:
70,219,56317,1,8,0:3:0:0:
112,284,56548,2,0,L|102:356,2,65,0|8|12,0:0|0:0|0:2,0:0:0:0:
167,222,57240,6,0,P|247:226|304:183,1,130,12|8,0:3|0:0,0:0:0:0:
328,134,57932,1,8,0:2:0:0:
368,202,58163,2,0,P|425:230|488:222,1,130,8|8,0:3|0:0,0:0:0:0:
454,68,59087,5,8,0:3:0:0:
305,19,59548,1,8,0:0:0:0:
148,17,60010,2,0,P|110:21|67:37,1,65,8|0,0:3|0:0,0:0:0:0:
18,70,60471,1,8,0:0:0:0:
0,146,60702,1,12,0:2:0:0:
22,221,60933,6,0,P|86:230|144:202,1,130,8|8,0:3|0:0,0:0:0:0:
184,134,61625,1,8,0:2:0:0:
223,201,61856,2,0,P|281:230|345:222,1,130,8|8,0:3|0:0,0:0:0:0:
459,116,62778,5,8,0:3:0:0:
312,72,63241,1,8,0:0:0:0:
223,201,63701,2,0,P|195:225|153:237,1,65,8|0,0:3|0:0,0:0:0:0:
91,243,64164,1,8,0:0:0:0:
38,185,64395,1,12,0:2:0:0:
42,107,64625,6,0,P|92:59|174:38,1,130,8|8,0:3|0:0,0:0:0:0:
226,32,65317,1,8,0:2:0:0:
297,63,65548,2,0,L|327:191,1,130,8|8,0:3|0:0,0:0:0:0:
341,345,66472,5,8,0:3:0:0:
221,245,66933,1,8,0:0:0:0:
157,102,67394,2,0,P|126:89|90:89,1,65,8|0,0:3|0:0,0:0:0:0:
26,127,67856,1,8,0:0:0:0:
15,204,68087,1,12,0:2:0:0:
42,277,68317,6,0,P|92:325|174:346,1,130,8|8,0:3|0:0,0:0:0:0:
226,352,69009,1,8,0:2:0:0:
297,321,69240,2,0,L|327:193,1,130,8|8,0:3|0:0,0:0:0:0:
341,39,70163,5,8,0:3:0:0:
221,139,70624,1,8,0:0:0:0:
157,282,71086,2,0,P|125:297|93:296,1,65,8|0,0:3|0:0,0:0:0:0:
21,268,71547,1,8,0:0:0:0:
12,190,71778,1,12,0:2:0:0:
31,113,72010,6,0,P|70:62|130:37,1,130,8|8,0:3|0:0,0:0:0:0:
193,179,72933,2,0,P|255:192|318:178,1,130,8|8,0:3|0:0,0:0:0:0:
349,107,73624,1,12,0:2:0:0:
382,37,73856,6,0,P|441:62|480:113,1,130,8|8,0:3|0:0,0:0:0:0:
480,270,74779,2,0,P|440:320|381:346,1,130,8|8,0:3|0:0,0:0:0:0:
348,277,75471,1,12,0:2:0:0:
318,205,75702,6,0,P|255:191|193:205,1,130,12|8,0:3|0:0,0:0:0:0:
130,346,76625,2,0,P|71:320|32:270,1,130,8|8,0:3|0:0,0:0:0:0:
25,190,77317,1,12,0:2:0:0:
44,113,77548,6,0,P|66:90|96:76,1,65,8|8,0:3|0:3,0:0:0:0:
174,80,78010,2,0,P|201:96|222:121,1,65,8|8,0:3|0:3,0:0:0:0:
256,192,78471,1,12,0:3:0:0:
374,90,78933,5,8,0:0:0:0:
387,245,79394,1,8,0:3:0:0:
256,301,79856,2,0,L|256:156,1,130,8|8,0:0|0:3,0:0:0:0:
138,90,80779,5,8,0:0:0:0:
125,245,81240,1,8,0:3:0:0:
256,301,81702,2,0,L|256:156,1,130,8|8,0:0|0:3,0:0:0:0:
256,14,82625,5,8,0:0:0:0:
134,111,83086,2,0,P|101:172|104:247,2,130,8|8|8,0:3|0:0|0:3,0:0:0:0:
256,14,84471,5,8,0:0:0:0:
378,111,84932,2,0,B|414:139|414:139|466:136|504:168,2,130,8|8|8,0:3|0:0|0:3,0:0:0:0:
256,14,86317,5,8,0:0:0:0:
103,46,86778,1,8,0:3:0:0:
49,192,87240,2,0,L|183:192,1,130,8|8,0:0|0:3,0:0:0:0:
329,235,88163,5,8,0:0:0:0:
278,87,88625,1,8,0:3:0:0:
126,120,89086,1,8,0:0:0:0:
137,275,89548,2,0,P|197:306|262:301,1,130,8|8,0:3|0:0,0:0:0:0:
63,90,90933,6,0,P|51:175|74:232,1,130,8|8,0:0|0:3,0:0:0:0:
224,212,91856,2,0,L|270:142,1,65,8|0,0:0|0:0,0:0:0:0:
480,90,92779,2,0,P|492:175|469:232,2,130,8|8|8,0:0|0:3|0:0,0:0:0:0:
336,150,94163,5,8,0:2:0:0:
256,284,94625,1,8,0:2:0:0:
176,150,95086,1,4,0:2:0:0:
481,86,96010,6,0,P|482:153|427:197,1,130,12|8,0:3|0:0,0:0:0:0:
362,213,96702,1,8,0:2:0:0:
285,198,96933,2,0,L|156:174,1,130,8|8,0:3|0:0,0:0:0:0:
21,97,97856,6,0,P|-3:158|30:219,1,130,12|8,0:3|0:0,0:0:0:0:
85,259,98548,1,8,0:2:0:0:
161,273,98779,2,0,L|289:299,1,130,8|8,0:3|0:0,0:0:0:0:
363,162,99702,5,12,0:3:0:0:
230,82,100163,2,0,P|194:95|167:120,1,65,8|8,0:0|0:2,0:0:0:0:
141,184,100625,2,0,P|158:255|204:294,1,130,8|8,0:3|0:0,0:0:0:0:
275,306,101317,1,12,0:2:0:0:
341,264,101548,6,0,P|367:196|348:127,1,130,12|8,0:3|0:0,0:0:0:0:
299,87,102241,1,8,0:2:0:0:
221,82,102471,1,8,0:3:0:0:
160,130,102702,2,0,P|144:164|143:201,2,65,0|8|12,0:0|0:0|0:2,0:0:0:0:
135,55,103394,6,0,P|78:62|24:122,1,130,12|8,0:3|0:0,0:0:0:0:
9,187,104086,1,8,0:2:0:0:
46,255,104317,2,0,L|119:374,1,130,8|8,0:3|0:0,0:0:0:0:
229,260,105240,2,0,P|279:233|358:251,1,130,12|8,0:3|0:0,0:0:0:0:
421,273,105932,1,8,0:2:0:0:
416,195,106163,2,0,L|399:42,1,130,8|8,0:3|0:0,0:0:0:0:
246,81,107086,5,12,0:3:0:0:
144,198,107548,2,0,P|150:236|166:260,1,65,8|8,0:0|0:2,0:0:0:0:
229,304,108009,2,0,P|302:299|348:261,1,130,8|8,0:3|0:0,0:0:0:0:
373,192,108701,1,12,0:2:0:0:
342,120,108932,6,0,P|280:83|208:90,1,130,12|8,0:3|0:0,0:0:0:0:
160,130,109625,1,8,0:2:0:0:
144,206,109855,1,8,0:3:0:0:
179,275,110086,2,0,P|209:297|246:305,2,65,0|8|12,0:0|0:0|0:2,0:0:0:0:
100,271,110779,6,0,P|56:272|11:195,1,130,12|8,0:3|0:0,0:0:0:0:
12,129,111471,1,8,0:2:0:0:
88,146,111702,2,0,P|132:145|174:66,1,130,8|8,0:3|0:0,0:0:0:0:
181,0,112394,1,12,0:2:0:0:
256,20,112625,5,12,0:3:0:0:
372,124,113086,1,8,0:0:0:0:
330,274,113548,2,0,P|316:307|284:335,1,65,8|0,0:3|0:0,0:0:0:0:
217,327,114010,2,0,P|194:303|182:273,1,65,8|12,0:0|0:2,0:0:0:0:
146,204,114471,5,12,0:3:0:0:
203,59,114933,1,8,0:0:0:0:
253,118,115163,1,8,0:2:0:0:
305,175,115394,2,0,B|357:215|357:215|409:175,1,130,8|8,0:3|0:0,0:0:0:0:
461,119,116086,1,12,0:2:0:0:
511,59,116317,5,12,0:3:0:0:
446,14,116548,1,0,0:0:0:0:
367,14,116779,2,0,L|314:56,1,65,8|8,0:0|0:2,0:0:0:0:
254,102,117240,2,0,P|192:121|119:95,1,130,8|8,0:3|0:0,0:0:0:0:
6,9,118163,5,12,0:3:0:0:
12,165,118625,1,8,0:0:0:0:
43,236,118856,1,8,0:2:0:0:
102,287,119087,2,0,P|162:304|228:288,1,130,8|8,0:3|0:0,0:0:0:0:
285,237,119779,1,12,0:2:0:0:
316,165,120010,5,12,0:3:0:0:
316,9,120471,1,8,0:0:0:0:
178,82,120933,2,0,P|167:123|170:168,1,65,8|0,0:3|0:0,0:0:0:0:
179,222,121394,2,0,P|197:256|238:289,1,65,8|12,0:0|0:2,0:0:0:0:
288,309,121856,5,12,0:3:0:0:
439,342,122318,1,8,0:0:0:0:
474,272,122548,1,8,0:2:0:0:
474,195,122779,2,0,P|447:149|376:118,1,130,8|8,0:3|0:0,0:0:0:0:
302,129,123471,1,12,0:2:0:0:
256,192,123702,5,12,0:3:0:0:
177,326,124163,1,8,0:0:0:0:
334,326,124625,1,8,0:3:0:0:
256,192,125086,1,8,0:0:0:0:
193,47,125548,6,0,P|254:30|316:48,1,130
256,192,126471,2,0,B|233:250|285:250|256:324,1,130
256,167,141702,5,0,0:0:0:0:
176,301,142163,6,0,L|135:166,1,130,0|2,0:0|0:2,0:0:0:0:
108,104,142856,1,0,0:0:0:0:
45,150,143086,1,2,0:2:0:0:
18,303,143548,1,2,0:2:0:0:
166,350,144010,5,8,0:0:0:0:
314,301,144471,2,0,L|343:229,1,65,2|0,0:2|0:0,0:0:0:0:
373,170,144933,2,0,P|419:162|450:138,1,65,2|0,0:2|0:0,0:0:0:0:
488,96,145394,1,2,0:2:0:0:
347,28,145856,6,0,P|282:29|222:54,1,130,0|2,0:0|0:2,0:0:0:0:
160,101,146547,1,0,0:0:0:0:
84,80,146779,1,2,0:2:0:0:
27,225,147241,1,2,0:2:0:0:
83,370,147702,5,8,0:3:0:0:
147,228,148163,2,0,L|177:158,1,65,8|0,0:0|0:0,0:0:0:0:
188,91,148625,2,0,P|157:67|129:60,1,65,8|0,0:3|0:0,0:0:0:0:
55,73,149086,1,8,0:0:0:0:
30,227,149548,6,0,P|63:313|107:339,1,130,12|8,0:3|0:0,0:0:0:0:
167,352,150240,1,8,0:2:0:0:
178,274,150471,2,0,L|192:137,1,130,8|8,0:3|0:0,0:0:0:0:
197,66,151164,1,12,0:2:0:0:
266,102,151395,5,12,0:3:0:0:
415,57,151856,1,8,0:0:0:0:
470,202,152318,2,0,P|452:230|420:256,1,65,8|0,0:3|0:0,0:0:0:0:
355,278,152779,1,8,0:0:0:0:
317,209,153010,5,12,0:2:0:0:
343,136,153240,2,0,L|382:31,1,97.5,12|8,0:3|0:3,0:0:0:0:
493,36,153933,1,0,0:0:0:0:
467,109,154163,2,0,L|428:214,1,97.5,8|8,0:3|0:3,0:0:0:0:
328,252,154856,5,8,0:3:0:0:
256,282,155086,1,8,0:3:0:0:
112,220,155548,1,8,0:3:0:0:
104,64,156010,1,8,0:3:0:0:
256,102,156471,2,0,L|256:167,1,65,8|8,0:3|0:0,0:0:0:0:
256,192,156933,12,0,158779,0:0:0:0:
44,269,166163,38,0,P|31:206|48:143,1,130,0|8,0:0|0:2,0:0:0:0:
197,192,167086,2,0,P|261:205|324:192,1,130,0|8,0:0|0:2,0:0:0:0:
472,143,168009,6,0,P|489:205|476:268,1,130,0|8,0:0|0:2,0:0:0:0:
319,268,168933,2,0,P|309:239|313:201,1,65,0|8,0:0|0:2,0:0:0:0:
330,129,169394,2,0,L|414:129,1,65,8|0,0:2|0:0,0:0:0:0:
472,143,169856,6,0,P|485:206|468:269,1,130,0|8,0:0|0:2,0:0:0:0:
319,220,170779,2,0,P|255:207|192:220,1,130,0|8,0:0|0:2,0:0:0:0:
44,269,171702,6,0,P|27:210|53:121,1,130,0|8,0:0|0:2,0:0:0:0:
125,13,172625,2,0,P|158:9|189:13,1,65,0|8,0:0|0:2,0:0:0:0:
256,51,173087,2,0,L|256:116,1,65,8|0,0:2|0:0,0:0:0:0:
301,180,173548,6,0,P|335:239|334:304,1,130,0|8,0:0|0:2,0:0:0:0:
178,299,174471,2,0,P|179:234|212:179,1,130,0|8,0:0|0:2,0:0:0:0:
335,83,175394,5,0,0:0:0:0:
179,83,175855,1,8,0:2:0:0:
80,204,176317,2,0,P|75:242|86:279,1,65,0|8,0:0|0:2,0:0:0:0:
132,327,176779,2,0,P|170:331|207:320,1,65,8|8,0:2|0:2,0:0:0:0:
256,276,177240,6,0,L|256:141,1,130,0|8,0:0|0:2,0:0:0:0:
366,35,178163,2,0,L|366:165,1,130,0|8,0:0|0:2,0:0:0:0:
256,276,179086,6,0,L|256:141,1,130,0|8,0:0|0:2,0:0:0:0:
145,35,180010,2,0,L|145:113,1,65,0|8,0:0|0:2,0:0:0:0:
145,178,180471,2,0,L|145:242,1,65,8|8,0:2|0:2,0:0:0:0:
145,321,180933,5,4,0:2:0:0:
248,204,181394,1,8,0:2:0:0:
389,138,181856,2,0,P|404:203|388:269,1,130,0|8,0:0|0:2,0:0:0:0:
256,345,182779,5,4,0:2:0:0:
180,364,183010,1,0,0:0:0:0:
104,345,183241,2,0,L|86:278,1,65,8|0,0:2|0:0,0:0:0:0:
82,205,183702,2,0,P|137:172|201:164,1,130,0|8,0:0|0:2,0:0:0:0:
347,220,184625,6,0,P|411:212|466:180,1,130,4|8,0:2|0:2,0:0:0:0:
467,24,185548,2,0,P|393:35|328:84,1,130,4|8,0:2|0:2,0:0:0:0:
256,192,186471,6,0,B|233:250|285:250|256:324,2,130,4|4|4,0:2|0:2|0:2,0:0:0:0:
296,125,187625,2,0,P|325:117|364:122,2,65,0|4|0,0:0|0:2|0:0,0:0:0:0:
217,125,188317,6,0,P|167:118|95:152,1,130,12|8,0:3|0:0,0:0:0:0:
57,218,189009,1,8,0:2:0:0:
90,288,189240,2,0,B|145:322|145:322|218:316,1,130,8|8,0:3|0:0,0:0:0:0:
366,316,190163,6,0,P|432:315|483:276,1,130,12|8,0:3|0:0,0:0:0:0:
508,205,190855,1,8,0:2:0:0:
511,126,191086,2,0,P|490:62|439:25,1,130,8|8,0:3|0:0,0:0:0:0:
363,162,192010,5,12,0:3:0:0:
230,82,192471,2,0,P|194:95|167:120,1,65,8|8,0:0|0:2,0:0:0:0:
141,184,192933,2,0,P|158:255|204:294,1,130,8|8,0:3|0:0,0:0:0:0:
276,303,193625,1,12,0:2:0:0:
304,232,193856,6,0,P|286:161|231:115,1,130,12|8,0:3|0:0,0:0:0:0:
169,110,194549,1,8,0:2:0:0:
102,152,194779,1,8,0:3:0:0:
80,226,195010,2,0,P|86:263|106:293,2,65,0|8|12,0:0|0:0|0:2,0:0:0:0:
18,177,195701,6,0,B|-3:113|-3:113|18:32,1,130,12|8,0:3|0:0,0:0:0:0:
82,17,196393,1,8,0:2:0:0:
159,29,196625,2,0,P|216:91|220:138,1,130,8|8,0:3|0:0,0:0:0:0:
269,281,197548,6,0,P|329:305|402:282,1,130,12|8,0:3|0:0,0:0:0:0:
463,258,198240,1,8,0:2:0:0:
416,195,198471,2,0,B|395:153|395:153|413:108|403:64,1,130,8|8,0:3|0:0,0:0:0:0:
246,81,199394,5,12,0:3:0:0:
144,198,199855,2,0,P|150:236|170:267,1,65,8|8,0:0|0:2,0:0:0:0:
239,274,200317,2,0,P|291:223|302:164,1,130,8|8,0:3|0:0,0:0:0:0:
278,96,201009,1,12,0:2:0:0:
199,94,201240,6,0,P|143:139|124:209,1,130,12|8,0:3|0:0,0:0:0:0:
150,266,201933,1,8,0:2:0:0:
220,298,202163,1,8,0:3:0:0:
288,261,202394,2,0,P|310:231|318:194,2,65,0|8|12,0:0|0:0|0:2,0:0:0:0:
288,339,203086,6,0,P|339:365|420:358,1,130,12|8,0:3|0:0,0:0:0:0:
476,320,203778,1,8,0:2:0:0:
455,244,204009,2,0,L|431:95,1,130,8|8,0:3|0:0,0:0:0:0:
415,39,204701,1,12,0:2:0:0:
357,91,204932,5,12,0:3:0:0:
256,209,205393,1,8,0:0:0:0:
155,91,205855,2,0,P|110:91|70:108,1,65,8|0,0:3|0:0,0:0:0:0:
66,171,206317,2,0,P|63:204|49:234,1,65,8|12,0:0|0:2,0:0:0:0:
11,300,206778,5,12,0:3:0:0:
155,359,207240,1,8,0:0:0:0:
224,323,207470,1,8,0:2:0:0:
292,286,207701,2,0,B|353:265|354:311|429:280,1,130,8|8,0:3|0:0,0:0:0:0:
487,246,208393,1,12,0:2:0:0:
492,168,208624,5,12,0:3:0:0:
417,189,208855,1,0,0:0:0:0:
341,168,209086,2,0,P|306:163|262:176,1,65,8|8,0:0|0:2,0:0:0:0:
207,203,209548,2,0,P|145:219|72:195,1,130,8|8,0:3|0:0,0:0:0:0:
17,61,210470,5,12,0:3:0:0:
164,11,210932,1,8,0:0:0:0:
233,47,211163,1,8,0:2:0:0:
287,103,211394,2,0,P|316:175|305:248,1,130,8|8,0:3|0:0,0:0:0:0:
293,301,212086,1,12,0:2:0:0:
260,372,212317,5,12,0:3:0:0:
415,366,212778,1,8,0:0:0:0:
444,213,213240,2,0,P|435:172|412:136,1,65,8|0,0:3|0:0,0:0:0:0:
380,86,213702,2,0,P|357:63|328:46,1,65,8|12,0:0|0:2,0:0:0:0:
256,22,214163,5,12,0:3:0:0:
217,173,214625,1,8,0:0:0:0:
183,243,214855,1,8,0:2:0:0:
139,307,215086,2,0,P|85:342|21:343,1,130,8|8,0:3|0:0,0:0:0:0:
35,266,215778,1,12,0:2:0:0:
52,190,216010,5,12,0:3:0:0:
178,99,216470,1,8,0:0:0:0:
334,99,216932,1,8,0:3:0:0:
460,190,217393,1,8,0:0:0:0:
491,343,217855,6,0,P|420:340|366:300,1,130
300,170,218779,1,0,0:0:0:0:
256,320,219240,1,0,0:0:0:0:
212,170,219702,6,0,B|158:142|158:142|85:156,1,130,12|8,0:3|0:0,0:0:0:0:
27,202,220394,1,8,0:2:0:0:
68,269,220625,2,0,B|123:295|123:295|191:280,1,130,8|8,0:3|0:0,0:0:0:0:
256,234,221317,1,12,0:2:0:0:
300,170,221548,6,0,B|354:142|354:142|427:156,1,130,12|8,0:3|0:0,0:0:0:0:
485,202,222240,1,8,0:2:0:0:
443,269,222471,2,0,B|388:295|388:295|321:280,1,130,8|8,0:3|0:0,0:0:0:0:
256,234,223163,1,12,0:2:0:0:
184,202,223394,6,0,B|148:190|148:190|97:223|38:199,1,130,12|8,0:3|0:0,0:0:0:0:
57,50,224317,2,0,B|93:36|145:66|145:66|179:54,1,130,8|8,0:3|0:0,0:0:0:0:
336,54,225240,6,0,B|370:65|370:65|422:35|458:49,1,130,12|8,0:3|0:0,0:0:0:0:
456,205,226163,2,0,B|418:221|367:188|367:188|331:200,1,130,8|8,0:3|0:0,0:0:0:0:
211,286,227086,6,0,L|101:365,1,130,12|8,0:3|0:0,0:0:0:0:
28,348,227779,1,8,0:2:0:0:
7,271,228010,2,0,L|82:157,1,130,8|8,0:3|0:0,0:0:0:0:
121,96,228702,1,12,0:2:0:0:
191,128,228933,6,0,B|254:142|254:142|326:128,1,130,12|8,0:3|0:0,0:0:0:0:
391,96,229625,1,8,0:2:0:0:
433,162,229856,2,0,L|504:271,1,130,8|8,0:3|0:0,0:0:0:0:
484,348,230548,1,12,0:2:0:0:
417,307,230779,6,0,B|375:292|375:292|340:314|274:298,1,130,12|8,0:3|0:0,0:0:0:0:
194,182,231702,2,0,B|256:164|256:164|318:182,1,130,8|8,0:3|0:0,0:0:0:0:
219,301,232625,6,0,B|172:314|137:292|137:292|95:307,1,130,12|8,0:3|0:0,0:0:0:0:
194,182,233548,2,0,B|256:164|256:164|318:182,1,130,8|8,0:3|0:0,0:0:0:0:
422,297,234471,6,0,P|417:340|395:371,2,65,12|2|10,0:3|0:1|0:0,0:0:0:0:
391,224,235164,1,10,0:2:0:0:
247,150,235625,2,0,B|190:150|190:150|174:160|174:160|116:160,1,130,0|12,0:0|0:2,0:0:0:0:
90,87,236317,6,0,P|95:44|117:13,2,65,12|2|10,0:3|0:1|0:0,0:0:0:0:
121,160,237010,1,10,0:2:0:0:
265,234,237471,2,0,B|322:234|322:234|338:224|338:224|396:224,1,130,0|12,0:0|0:2,0:0:0:0:
438,291,238164,6,0,P|472:301|507:294,2,65,12|2|10,0:3|0:1|0:0,0:0:0:0:
391,224,238856,1,10,0:2:0:0:
286,112,239317,2,0,B|246:163|246:163|177:162,1,130,0|12,0:0|0:2,0:0:0:0:
112,202,240010,6,0,P|78:212|43:205,2,65,12|2|10,0:3|0:1|0:0,0:0:0:0:
181,163,240702,1,10,0:2:0:0:
306,121,241163,2,0,B|334:179|334:179|305:237,1,130,0|12,0:0|0:2,0:3:0:0:
256,299,241855,6,0,L|256:372,2,65,12|2|10,0:3|0:1|0:0,0:0:0:0:
207,238,242547,1,10,0:2:0:0:
79,148,243009,2,0,B|133:152|133:152|151:142|151:142|206:145,1,130,0|12,0:0|0:2,0:0:0:0:
256,86,243701,6,0,L|256:13,2,65,12|2|10,0:3|0:1|0:0,0:0:0:0:
305,147,244393,1,10,0:2:0:0:
433,236,244855,2,0,B|379:232|379:232|361:242|361:242|305:238,1,130,0|12,0:0|0:2,0:0:0:0:
207,238,245547,6,0,P|187:176|205:114,1,130,12|0,0:3|0:0,0:0:0:0:
256,57,246239,1,10,0:3:0:0:
308,115,246470,2,0,P|325:176|306:237,1,130,10|0,0:3|0:0,0:0:0:0:
256,299,247163,1,10,0:3:0:0:
305,237,247394,5,12,0:3:0:0:
401,113,247856,1,12,0:3:0:0:
451,260,248317,1,12,0:3:0:0:
330,162,248779,1,0,0:0:0:0:
175,162,249240,1,4,0:0:0:0:
