osu file format v14

[General]
AudioFilename: audio.mp3
AudioLeadIn: 0
PreviewTime: 173548
Countdown: 0
SampleSet: Normal
StackLeniency: 0.7
Mode: 0
LetterboxInBreaks: 0
EpilepsyWarning: 1
WidescreenStoryboard: 1

[Editor]
Bookmarks: 5548,20317,35086,49856,57240,72010,79394,96010,110779,125548,127394,142163,158779,173548,188317,203086,217856,234471,249240
DistanceSpacing: 1
BeatDivisor: 4
GridSize: 32
TimelineZoom: 0.7999996

[Metadata]
Title:Hitotsume no Dokuhaku
TitleUnicode:ヒトツメの独白
Artist:Xitoo
ArtistUnicode:しとお
Creator:Noffy
Version:Hard
Source:
Tags:shitoo vocaloid one eye's monologue the of eye v_flower flower vflower story duet yandere green series murder love death school hatsune miku 初音ミク electronic japanese
BeatmapID:1173229
BeatmapSetID:554143

[Difficulty]
HPDrainRate:6
CircleSize:4
OverallDifficulty:6
ApproachRate:8
SliderMultiplier:1.6
SliderTickRate:1

[Events]
//Background and Video events
0,0,"a feeling.png",0,0
Video,0,"scarf man.avi"
//Break Periods
2,127394,140952
//Storyboard Layer 0 (Background)
//Storyboard Layer 1 (Fail)
//Storyboard Layer 2 (Pass)
//Storyboard Layer 3 (Foreground)
//Storyboard Layer 4 (Overlay)
//Storyboard Sound Samples

[TimingPoints]
10,461.538461538462,4,1,1,100,1,0
5548,461.538461538462,4,1,1,100,1,0
31394,-100,4,1,1,50,0,0
35086,-100,4,1,1,70,0,0
78932,-100,4,1,1,50,0,0
96010,461.538461538462,4,1,1,100,1,1
125548,-100,4,1,1,100,0,0
127394,461.538461538462,4,1,1,100,1,0
142163,-100,4,1,1,100,0,1
149547,-100,4,1,1,70,0,0
154855,-100,4,1,1,100,0,1
158779,461.538461538462,4,1,1,30,1,0
166163,-100,4,1,1,40,0,0
188317,-100,4,1,1,100,0,1
217855,-100,4,1,1,100,0,0
219702,461.538461538462,4,1,1,100,1,0
245548,-100,4,1,1,50,0,0

[Colours]
Combo1 : 74,88,61
Combo2 : 165,244,0
Combo3 : 137,248,192
Combo4 : 159,193,113

[HitObjects]
256,192,5086,53,0,0:0:0:0:
139,43,5548,5,12,0:3:0:0:
91,153,5894,1,8,0:2:0:0:
124,175,6010,2,0,P|175:175|217:142,1,80,8|8,0:0|0:2,0:0:0:0:
373,43,6471,1,8,0:3:0:0:
421,153,6817,1,8,0:2:0:0:
388,175,6933,2,0,P|337:175|295:142,1,80,8|12,0:0|0:2,0:0:0:0:
139,43,7394,5,12,0:3:0:0:
117,160,7740,1,8,0:2:0:0:
116,200,7856,2,0,P|127:250|145:273,1,80,8|8,0:0|0:2,0:0:0:0:
256,192,8317,1,8,0:3:0:0:
369,272,8663,1,8,0:2:0:0:
389,238,8779,2,0,P|401:188|396:159,1,80,8|12,0:0|0:2,0:0:0:0:
256,32,9240,6,0,L|256:180,1,120,12|8,0:3|0:2,0:0:0:0:
256,192,9702,2,0,P|223:214|154:199,1,80,8|8,0:0|0:2,0:0:0:0:
55,195,10163,2,0,L|55:75,1,120,8|8,0:3|0:2,0:0:0:0:
55,34,10625,2,0,P|87:55|127:56,1,80,8|12,0:0|0:2,0:0:0:0:
256,32,11086,6,0,L|256:180,1,120,12|8,0:3|0:2,0:0:0:0:
256,192,11548,2,0,P|289:214|358:199,1,80,8|8,0:0|0:2,0:0:0:0:
457,195,12010,2,0,L|457:75,1,120,8|8,0:3|0:2,0:0:0:0:
456,34,12471,2,0,P|423:55|383:56,1,80,8|12,0:0|0:2,0:0:0:0:
180,27,12933,5,12,0:3:0:0:
69,73,13279,1,8,0:2:0:0:
50,108,13394,2,0,P|41:158|66:205,1,80,8|8,0:0|0:2,0:0:0:0:
180,357,13856,1,8,0:3:0:0:
290,311,14202,1,8,0:2:0:0:
309,276,14317,2,0,P|317:225|292:178,1,80,8|12,0:0|0:2,0:0:0:0:
180,27,14779,5,12,0:3:0:0:
299,38,15125,1,8,0:2:0:0:
338,43,15240,2,0,P|380:53|422:94,1,80,8|8,0:0|0:2,0:0:0:0:
480,192,15702,1,8,0:3:0:0:
409,309,16048,1,8,0:2:0:0:
378,335,16163,2,0,P|346:358|307:367,1,80,8|12,0:0|0:2,0:0:0:0:
96,352,16625,6,0,L|96:224,1,120,12|8,0:3|0:2,0:0:0:0:
99,191,17086,2,0,P|135:155|177:143,1,80,8|8,0:0|0:2,0:0:0:0:
287,113,17548,2,0,L|287:233,1,120,8|8,0:3|0:2,0:0:0:0:
287,273,18010,2,0,P|323:309|365:321,1,80,8|12,0:0|0:2,0:0:0:0:
481,317,18471,6,0,L|481:189,1,120,12|8,0:3|0:2,0:0:0:0:
478,156,18933,2,0,P|442:120|400:108,1,80,8|8,0:0|0:2,0:0:0:0:
287,113,19394,2,0,L|287:233,1,120,8|8,0:3|0:2,0:0:0:0:
287,273,19856,2,0,P|251:309|209:321,1,80,8|12,0:0|0:2,0:0:0:0:
32,224,20317,6,0,L|84:152,1,80,12|2,0:3|0:1,0:0:0:0:
96,60,20779,1,10,0:0:0:0:
180,102,21009,1,10,0:2:0:0:
180,102,21124,2,0,L|220:148,1,40,2|8,0:2|0:3,0:0:0:0:
292,179,21471,2,0,L|318:211,4,40,0|8|8|0|12,0:0|0:2|0:0|0:0|0:2,0:0:0:0:
88,197,22163,6,0,L|140:269,1,80,12|2,0:3|0:1,0:0:0:0:
152,361,22625,1,10,0:0:0:0:
236,319,22855,1,10,0:2:0:0:
236,319,22970,2,0,L|276:273,1,40,2|8,0:2|0:3,0:0:0:0:
348,242,23317,2,0,L|374:210,4,40,0|8|8|0|12,0:0|0:2|0:0|0:0|0:2,0:0:0:0:
228,195,24010,6,0,P|188:193|130:216,1,80,12|2,0:3|0:1,0:0:0:0:
80,276,24471,1,10,0:0:0:0:
52,189,24701,1,10,0:2:0:0:
52,189,24817,2,0,L|33:132,1,40,2|8,0:2|0:3,0:0:0:0:
108,83,25163,2,0,L|123:22,4,40,0|8|8|0|12,0:0|0:2|0:0|0:0|0:2,0:0:0:0:
149,204,25855,6,0,P|189:206|247:183,1,80,12|2,0:3|0:1,0:0:0:0:
297,123,26317,1,10,0:0:0:0:
325,210,26547,1,10,0:2:0:0:
325,210,26663,2,0,L|344:267,1,40,2|8,0:2|0:3,0:0:0:0:
269,316,27009,2,0,L|254:377,4,40,0|8|8|0|12,0:0|0:2|0:0|0:0|0:2,0:0:0:0:
56,252,27702,6,0,L|41:153,1,80,12|2,0:3|0:1,0:0:0:0:
33,77,28163,1,10,0:0:0:0:
129,105,28394,1,10,0:2:0:0:
129,105,28509,2,0,L|183:121,1,40,2|8,0:2|0:3,0:0:0:0:
256,74,28856,2,0,L|256:14,4,40,0|8|8|0|12,0:0|0:2|0:0|0:0|0:2,0:0:0:0:
456,132,29548,6,0,L|471:231,1,80,12|2,0:3|0:1,0:0:0:0:
479,307,30010,1,10,0:0:0:0:
387,281,30240,1,10,0:2:0:0:
387,281,30355,2,0,L|332:264,1,40,2|8,0:2|0:3,0:0:0:0:
256,310,30702,2,0,L|256:370,4,40,0|8|8|0|8,0:0|0:2|0:0|0:0|0:3,0:0:0:0:
190,268,31394,6,0,P|166:192|190:115,1,160,12|0,0:3|0:0,0:0:0:0:
256,74,32086,1,10,0:3:0:0:
322,268,32317,2,0,P|345:192|322:115,1,160,10|0,0:3|0:0,0:0:0:0:
256,74,33010,1,10,0:3:0:0:
190,268,33240,5,12,0:3:0:0:
121,74,33702,1,12,0:3:0:0:
55,268,34163,1,12,0:3:0:0:
107,116,34625,1,0,0:0:0:0:
137,42,34856,1,0,0:0:0:0:
342,43,35086,5,12,0:3:0:0:
359,162,35433,1,8,0:2:0:0:
319,154,35548,2,0,P|277:144|223:164,1,80,8|8,0:0|0:2,0:0:0:0:
177,340,36010,1,8,0:3:0:0:
160,221,36356,1,8,0:2:0:0:
200,229,36471,2,0,P|242:239|296:219,1,80,8|12,0:0|0:2,0:0:0:0:
472,151,36933,6,0,L|477:71,1,80,8|0,0:3|0:0,0:0:0:0:
413,23,37394,2,0,P|377:52|330:58,1,80,8|0,0:0|0:0,0:0:0:0:
265,71,37856,2,0,L|270:150,1,80,8|0,0:3|0:0,0:0:0:0:
278,230,38317,1,8,0:0:0:0:
285,309,38548,1,12,0:2:0:0:
76,283,38779,5,8,0:3:0:0:
21,175,39125,1,8,0:2:0:0:
57,159,39240,2,0,P|97:158|138:174,1,80,8|8,0:0|0:2,0:0:0:0:
302,281,39702,1,8,0:3:0:0:
384,369,40048,1,8,0:2:0:0:
410,339,40163,2,0,P|422:304|422:257,1,80,8|12,0:0|0:2,0:0:0:0:
370,56,40625,6,0,L|307:111,1,80,8|0,0:3|0:0,0:0:0:0:
238,145,41086,2,0,P|209:109|203:62,1,80,8|0,0:0|0:0,0:0:0:0:
130,39,41548,2,0,L|61:101,1,80,8|0,0:3|0:0,0:0:0:0:
19,153,42010,1,8,0:0:0:0:
8,232,42240,1,12,0:2:0:0:
173,361,42471,5,8,0:3:0:0:
239,260,42817,1,8,0:2:0:0:
260,226,42933,2,0,P|269:190|252:141,1,80,8|8,0:0|0:2,0:0:0:0:
107,15,43394,1,8,0:3:0:0:
32,109,43740,1,8,0:2:0:0:
18,146,43856,2,0,P|6:183|15:222,1,80,8|12,0:0|0:2,0:0:0:0:
198,337,44317,6,0,L|281:362,1,80,8|0,0:3|0:0,0:0:0:0:
354,366,44779,2,0,P|394:352|425:297,1,80,8|0,0:0|0:0,0:0:0:0:
437,246,45240,2,0,L|360:222,1,80,8|0,0:3|0:0,0:0:0:0:
284,195,45702,1,8,0:0:0:0:
209,165,45933,1,12,0:2:0:0:
46,34,46163,5,8,0:3:0:0:
35,153,46510,1,8,0:2:0:0:
75,148,46625,2,0,P|112:132|145:94,1,80,8|8,0:0|0:2,0:0:0:0:
336,34,47086,1,8,0:3:0:0:
347,153,47433,1,8,0:2:0:0:
307,148,47548,2,0,P|270:132|237:94,1,80,8|12,0:0|0:2,0:0:0:0:
46,34,48010,6,0,L|39:121,1,80,8|0,0:3|0:0,0:0:0:0:
92,173,48471,2,0,P|121:225|119:251,1,80,8|0,0:0|0:0,0:0:0:0:
104,322,48933,2,0,L|190:352,1,80,8|0,0:3|0:0,0:0:0:0:
256,376,49394,1,8,0:0:0:0:
333,348,49625,1,12,0:2:0:0:
343,130,49856,6,0,P|386:75|433:59,1,120,8|0,0:3|0:0,0:0:0:0:
470,67,50317,2,0,L|502:164,1,80,8|0,0:0|0:0,0:0:0:0:
482,278,50779,2,0,P|439:333|392:349,1,120,8|0,0:3|0:0,0:0:0:0:
355,341,51240,2,0,L|323:244,1,80,8|4,0:0|0:2,0:0:0:0:
290,143,51702,1,8,0:3:0:0:
256,26,51933,5,0,0:0:0:0:
218,96,52163,1,8,0:0:0:0:
179,165,52394,1,0,0:0:0:0:
113,286,52625,2,0,P|83:262|61:217,1,80,8|0,0:3|0:0,0:0:0:0:
51,187,52971,1,0,0:0:0:0:
53,147,53086,1,8,0:0:0:0:
77,39,53317,1,12,0:2:0:0:
226,121,53548,6,0,P|287:133|350:111,1,120,8|0,0:3|0:0,0:0:0:0:
377,100,54010,2,0,L|411:186,1,80,8|0,0:0|0:0,0:0:0:0:
399,307,54471,2,0,P|340:294|283:311,1,120,8|0,0:3|0:0,0:0:0:0:
248,328,54933,2,0,L|218:253,1,80,8|12,0:0|0:2,0:0:0:0:
156,53,55394,6,0,P|135:105|164:183,1,120,8|0,0:3|0:0,0:0:0:0:
189,162,55856,2,0,P|240:161|267:172,1,80,8|0,0:0|0:0,0:0:0:0:
332,290,56317,1,8,0:3:0:0:
368,159,56548,1,0,0:0:0:0:
350,80,56779,1,8,0:0:0:0:
332,1,57010,1,12,0:2:0:0:
157,80,57240,5,12,0:3:0:0:
57,12,57586,1,8,0:2:0:0:
38,47,57702,2,0,P|30:88|42:130,1,80,8|8,0:0|0:2,0:0:0:0:
157,304,58163,1,8,0:3:0:0:
57,372,58510,1,8,0:2:0:0:
38,337,58625,2,0,P|30:296|42:254,1,80,8|12,0:0|0:2,0:0:0:0:
198,122,59086,6,0,L|244:205,1,80,8|0,0:3|0:0,0:0:0:0:
305,232,59548,2,0,P|337:204|353:169,1,80,8|0,0:0|0:0,0:0:0:0:
366,92,60010,2,0,P|384:56|413:30,1,80,8|0,0:3|0:0,0:0:0:0:
493,26,60471,1,8,0:0:0:0:
504,105,60702,1,12,0:2:0:0:
410,291,60933,5,8,0:3:0:0:
302,236,61279,1,8,0:2:0:0:
282,201,61394,2,0,P|273:166|287:107,1,80,8|8,0:0|0:2,0:0:0:0:
111,291,61856,1,8,0:3:0:0:
51,186,62202,1,8,0:2:0:0:
31,151,62317,2,0,P|22:116|36:57,1,80,8|12,0:0|0:2,0:0:0:0:
239,109,62779,6,0,P|286:96|319:63,1,80,8|0,0:3|0:0,0:0:0:0:
374,29,63240,2,0,L|412:111,1,80,8|0,0:0|0:0,0:0:0:0:
470,152,63702,2,0,L|449:235,1,80,8|0,0:3|0:0,0:0:0:0:
428,306,64163,1,8,0:0:0:0:
402,381,64394,1,12,0:2:0:0:
256,232,64625,5,8,0:3:0:0:
193,129,64971,1,8,0:2:0:0:
229,111,65086,2,0,P|269:107|310:118,1,80,8|8,0:0|0:2,0:0:0:0:
475,237,65548,1,8,0:3:0:0:
488,356,65894,1,8,0:2:0:0:
447,355,66010,2,0,P|411:342|378:310,1,80,8|12,0:0|0:2,0:0:0:0:
288,127,66471,6,0,L|246:40,1,80,8|0,0:3|0:0,0:0:0:0:
185,12,66933,2,0,P|161:28|131:86,1,80,8|0,0:0|0:0,0:0:0:0:
132,152,67394,2,0,L|170:231,1,80,8|0,0:3|0:0,0:0:0:0:
205,294,67856,1,8,0:0:0:0:
280,320,68086,1,12,0:2:0:0:
475,237,68317,5,8,0:3:0:0:
488,118,68663,1,8,0:2:0:0:
447,119,68779,2,0,P|411:132|378:164,1,80,8|8,0:0|0:2,0:0:0:0:
256,327,69240,1,8,0:3:0:0:
194,224,69586,1,8,0:2:0:0:
165,194,69702,2,0,P|128:177|89:176,1,80,8|12,0:0|0:2,0:0:0:0:
10,192,70163,5,8,0:3:0:0:
44,76,70510,1,0,0:0:0:0:
77,54,70625,2,0,P|122:41|184:50,1,80,8|0,0:0|0:0,0:0:0:0:
230,67,71086,2,0,L|251:148,1,80,8|0,0:3|0:0,0:0:0:0:
261,183,71433,1,0,0:0:0:0:
271,220,71548,1,8,0:0:0:0:
389,270,71779,1,12,0:2:0:0:
469,74,72010,6,0,P|406:57|334:88,1,120,8|0,0:3|0:0,0:0:0:0:
317,84,72471,2,0,L|236:44,1,80,8|0,0:0|0:0,0:0:0:0:
124,11,72933,2,0,P|107:74|138:146,1,120,8|0,0:3|0:0,0:0:0:0:
134,163,73394,2,0,L|94:244,1,80,8|4,0:0|0:2,0:0:0:0:
53,355,73856,6,0,P|116:372|188:341,1,120,8|0,0:3|0:0,0:0:0:0:
202,338,74317,2,0,P|249:330|294:354,1,80,8|0,0:0|0:0,0:0:0:0:
405,368,74779,2,0,P|422:305|391:233,1,120,8|0,0:3|0:0,0:0:0:0:
388,219,75240,2,0,P|380:172|404:127,1,80,8|12,0:0|0:2,0:0:0:0:
330,29,75702,6,0,P|263:18|202:32,1,120,12|0,0:3|0:0,0:0:0:0:
180,51,76163,2,0,L|145:132,1,80,8|0,0:0|0:0,0:0:0:0:
114,252,76625,2,0,P|181:241|242:255,1,120,8|0,0:3|0:0,0:0:0:0:
264,274,77086,2,0,L|299:355,1,80,8|12,0:0|0:2,0:0:0:0:
375,355,77548,5,8,0:3:0:0:
408,282,77779,1,8,0:3:0:0:
417,202,78010,1,8,0:3:0:0:
412,122,78240,1,8,0:3:0:0:
373,55,78471,1,12,0:3:0:0:
139,55,78933,6,0,B|130:110|130:110|138:174,1,106.666666666667,8|0,0:0|0:0,0:0:0:0:
147,213,79394,1,8,0:3:0:0:
256,324,79856,2,0,L|256:210,1,106.666666666667,8|0,0:0|0:0,0:0:0:0:
256,164,80317,1,8,0:3:0:0:
373,55,80779,6,0,B|382:110|382:110|374:174,1,106.666666666667,8|0,0:0|0:0,0:0:0:0:
365,213,81240,1,8,0:3:0:0:
256,324,81702,2,0,L|256:210,1,106.666666666667,8|0,0:0|0:0,0:0:0:0:
256,164,82163,1,8,0:3:0:0:
256,57,82471,1,0,0:0:0:0:
204,59,82625,2,0,P|161:67|107:116,1,106.666666666667,8|0,0:0|0:0,0:0:0:0:
89,153,83086,5,8,0:3:0:0:
55,256,83394,2,0,L|88:298,1,53.3333333333333,0|8,0:0|0:0,0:0:0:0:
157,379,83856,1,0,0:0:0:0:
187,337,84010,2,0,P|237:299|296:287,1,106.666666666667,8|0,0:3|0:0,0:0:0:0:
332,291,84471,1,8,0:0:0:0:
434,325,84779,1,0,0:0:0:0:
445,274,84933,6,0,B|450:234|450:234|423:205|420:153,1,106.666666666667,8|0,0:3|0:0,0:0:0:0:
419,121,85394,1,8,0:0:0:0:
335,51,85702,2,0,L|335:112,1,53.3333333333333,0|8,0:0|0:3,0:0:0:0:
287,200,86163,1,0,0:0:0:0:
236,218,86317,6,0,B|183:227|183:227|130:218,1,106.666666666667,8|0,0:0|0:0,0:0:0:0:
80,204,86779,1,8,0:3:0:0:
45,101,87086,1,0,0:0:0:0:
96,101,87240,2,0,L|217:101,1,106.666666666667,8|0,0:0|0:0,0:0:0:0:
256,101,87702,1,8,0:3:0:0:
290,205,88010,1,0,0:0:0:0:
325,243,88163,2,0,P|394:265|445:248,1,106.666666666667,8|0,0:0|0:0,0:0:0:0:
469,227,88625,6,0,P|495:179|483:100,1,106.666666666667,8|0,0:3|0:0,0:0:0:0:
468,82,89086,2,0,P|414:50|333:61,1,106.666666666667,8|0,0:0|0:0,0:0:0:0:
319,58,89548,1,8,0:3:0:0:
223,110,89856,2,0,L|182:60,1,53.3333333333333,0|8,0:0|0:0,0:0:0:0:
390,155,90779,5,0,0:0:0:0:
411,201,90933,2,0,P|416:260|390:313,1,106.666666666667,8|0,0:0|0:0,0:0:0:0:
359,340,91394,1,8,0:3:0:0:
250,340,91740,2,0,L|219:293,3,40,0|8|0|0,0:0|0:0|0:0|0:0,0:0:0:0:
124,166,92625,5,0,0:0:0:0:
102,214,92779,2,0,P|96:273|122:326,1,106.666666666667,8|0,0:0|0:0,0:0:0:0:
154,347,93240,2,0,P|189:329|230:329,1,80,8|0,0:3|0:0,0:0:0:0:
270,338,93586,1,0,0:0:0:0:
306,354,93702,1,8,0:0:0:0:
324,247,94010,1,0,0:0:0:0:
327,195,94163,2,0,B|331:163|368:179|374:123|355:91|312:84|282:111,1,160,8|8,0:2|0:2,0:0:0:0:
467,27,96010,5,12,0:3:0:0:
427,136,96356,1,8,0:2:0:0:
422,175,96471,2,0,P|418:217|437:260,1,80,8|8,0:0|0:2,0:0:0:0:
369,54,96933,2,0,P|315:39|240:52,1,120,8|8,0:3|0:2,0:0:0:0:
214,58,97394,2,0,L|201:137,1,80,8|12,0:0|0:2,0:0:0:0:
174,344,97856,5,12,0:3:0:0:
58,311,98202,1,8,0:2:0:0:
64,271,98317,2,0,L|77:192,1,80,8|8,0:0|0:2,0:0:0:0:
87,64,98779,2,0,P|141:24|203:17,1,120,8|8,0:3|0:2,0:0:0:0:
230,30,99240,2,0,L|243:108,1,80,8|12,0:0|0:2,0:0:0:0:
256,192,99702,5,12,0:3:0:0:
348,196,100163,2,0,P|334:239|309:266,1,80,8|8,0:0|0:2,0:0:0:0:
229,280,100625,2,0,P|191:256|170:226,1,80,8|0,0:3|0:0,0:0:0:0:
175,147,101086,1,8,0:0:0:0:
239,101,101317,1,12,0:2:0:0:
317,123,101548,6,0,P|341:160|347:197,1,80,12|0,0:3|0:0,0:0:0:0:
310,266,102010,2,0,P|268:282|231:280,1,80,8|8,0:0|0:2,0:0:0:0:
171,227,102471,1,8,0:3:0:0:
175,147,102702,2,0,P|204:114|241:101,2,80,0|8|12,0:0|0:0|0:2,0:0:0:0:
136,352,103394,5,12,0:3:0:0:
56,262,103740,1,8,0:2:0:0:
44,223,103856,2,0,P|42:178|55:138,1,80,8|8,0:0|0:2,0:0:0:0:
143,54,104317,2,0,P|204:68|270:46,1,120,8|8,0:3|0:2,0:0:0:0:
298,58,104779,2,0,L|311:137,1,80,8|12,0:0|0:2,0:0:0:0:
356,342,105240,5,12,0:3:0:0:
468,300,105586,1,8,0:2:0:0:
474,260,105702,2,0,L|487:181,1,80,8|8,0:0|0:2,0:0:0:0:
432,62,106163,2,0,P|360:69|308:44,1,120,8|8,0:3|0:2,0:0:0:0:
282,30,106625,2,0,L|269:108,1,80,8|12,0:0|0:2,0:0:0:0:
256,192,107086,5,12,0:3:0:0:
333,325,107548,2,0,P|292:343|246:345,1,80,8|8,0:0|0:2,0:0:0:0:
178,325,108010,2,0,P|143:298|118:259,1,80,8|0,0:3|0:0,0:0:0:0:
101,191,108471,1,8,0:0:0:0:
122,114,108702,1,12,0:2:0:0:
178,58,108933,6,0,P|220:41|266:39,1,80,12|0,0:3|0:0,0:0:0:0:
333,58,109394,2,0,P|368:85|393:124,1,80,8|8,0:0|0:2,0:0:0:0:
410,192,109856,1,8,0:3:0:0:
389,269,110086,1,0,0:0:0:0:
333,325,110317,2,0,P|292:343|246:345,1,80,8|12,0:0|0:2,0:0:0:0:
256,191,110779,6,0,P|247:125|167:117,1,160,12|8,0:3|0:0,0:0:0:0:
105,168,111471,1,8,0:2:0:0:
60,101,111702,2,0,P|59:59|76:21,2,80,8|0|8,0:3|0:0|0:0,0:0:0:0:
105,168,112394,1,12,0:2:0:0:
157,228,112625,5,12,0:3:0:0:
117,297,112856,1,0,0:0:0:0:
178,347,113086,2,0,P|229:353|271:336,1,80,8|8,0:0|0:2,0:0:0:0:
326,306,113548,2,0,P|377:300|419:317,1,80,8|0,0:3|0:0,0:0:0:0:
478,338,114010,2,0,L|489:258,1,80,8|12,0:0|0:2,0:0:0:0:
488,50,114471,5,12,0:3:0:0:
328,41,114933,1,8,0:0:0:0:
288,110,115163,1,8,0:2:0:0:
299,189,115394,2,0,P|333:236|387:262,1,120,8|8,0:3|0:2,0:0:0:0:
427,269,115856,2,0,B|409:358,1,80,8|12,0:0|0:2,0:0:0:0:
335,372,116317,5,12,0:3:0:0:
258,347,116548,1,0,0:0:0:0:
250,308,116663,1,8,0:2:0:0:
242,269,116779,1,8,0:0:0:0:
223,190,117010,1,8,0:2:0:0:
216,110,117240,2,0,P|180:123|145:176,1,80,8|0,0:3|0:0,0:0:0:0:
119,226,117702,2,0,P|92:255|55:269,1,80,8|12,0:0|0:2,0:0:0:0:
15,68,118163,5,12,0:3:0:0:
161,133,118625,1,8,0:0:0:0:
234,164,118856,1,8,0:2:0:0:
308,193,119086,2,0,B|308:281,2,80,8|0|8,0:3|0:0|0:0,0:0:0:0:
383,164,119779,1,12,0:2:0:0:
456,133,120010,5,12,0:3:0:0:
472,54,120240,1,0,0:0:0:0:
411,1,120471,2,0,P|361:-1|312:27,1,80,8|8,0:0|0:2,0:0:0:0:
283,72,120933,2,0,P|245:84|205:79,1,80,8|0,0:3|0:0,0:0:0:0:
125,86,121394,2,0,L|99:191,1,80,8|12,0:0|0:2,0:0:0:0:
105,374,121856,5,12,0:3:0:0:
266,373,122317,1,8,0:0:0:0:
337,336,122548,1,8,0:2:0:0:
370,263,122779,2,0,B|369:158,1,80,8|0,0:3|0:0,0:0:0:0:
369,102,123240,1,8,0:0:0:0:
370,22,123471,1,12,0:2:0:0:
162,22,123702,6,0,L|162:164,1,120,12|8,0:3|0:2,0:0:0:0:
165,181,124163,2,0,P|209:214|260:217,1,80,8|8,0:0|0:2,0:0:0:0:
350,159,124625,2,0,L|350:301,1,120,8|8,0:3|0:2,0:0:0:0:
347,318,125086,2,0,P|303:351|252:354,1,80,8|12,0:0|0:2,0:0:0:0:
159,185,125548,6,0,P|180:151|213:129,1,80
298,130,126010,2,0,P|331:152|353:186,1,80
256,308,126471,2,0,L|256:228,2,80
256,87,141702,54,0,L|256:192,1,80
180,298,142163,5,0,0:0:0:0:
132,187,142510,2,0,L|119:149,1,40,2|2,0:2|0:2,0:0:0:0:
78,79,142856,2,0,P|50:110|39:146,1,80,0|2,0:0|0:2,0:0:0:0:
48,265,143433,2,0,L|60:302,1,40,2|2,0:2|0:2,0:0:0:0:
91,376,143779,1,0,0:0:0:0:
264,349,144010,5,8,0:0:0:0:
325,247,144356,1,0,0:0:0:0:
350,216,144471,2,0,P|357:176|348:137,1,80,2|0,0:2|0:0,0:0:0:0:
295,77,144933,2,0,P|255:69|216:78,1,80,2|0,0:2|0:0,0:0:0:0:
164,137,145394,1,2,0:2:0:0:
159,216,145625,1,0,0:0:0:0:
315,296,145856,5,0,0:0:0:0:
340,178,146202,2,0,L|318:139,1,40,2|2,0:2|0:2,0:0:0:0:
360,73,146548,2,0,P|398:83|446:68,1,80,0|2,0:0|0:2,0:0:0:0:
486,183,147125,2,0,L|473:220,1,40,2|2,0:2|0:2,0:0:0:0:
444,295,147471,1,0,0:0:0:0:
343,157,147702,5,8,0:3:0:0:
285,262,148048,1,0,0:0:0:0:
246,272,148163,2,0,P|204:276|156:263,1,80,8|0,0:0|0:0,0:0:0:0:
97,228,148625,2,0,L|77:140,1,80,8|0,0:3|0:0,0:0:0:0:
58,72,149086,1,8,0:0:0:0:
104,6,149317,1,0,0:0:0:0:
308,53,149548,5,12,0:3:0:0:
358,162,149894,1,8,0:2:0:0:
397,163,150010,2,0,P|444:159|489:115,1,80,8|8,0:0|0:2,0:0:0:0:
266,146,150471,1,8,0:3:0:0:
216,255,150817,1,8,0:2:0:0:
177,256,150933,2,0,P|130:252|85:208,1,80,8|12,0:0|0:2,0:0:0:0:
40,151,151394,6,0,L|35:71,1,80,12|0,0:3|0:0,0:0:0:0:
99,23,151856,2,0,P|135:52|182:58,1,80,8|0,0:0|0:0,0:0:0:0:
247,71,152317,2,0,L|242:150,1,80,8|0,0:3|0:0,0:0:0:0:
234,230,152779,1,8,0:0:0:0:
350,305,153010,6,0,L|362:226,1,80,12|12,0:2|0:3,0:0:0:0:
386,112,153586,1,8,0:3:0:0:
503,141,153933,2,0,L|490:219,1,80,0|8,0:0|0:3,0:0:0:0:
467,334,154510,1,8,0:3:0:0:
467,334,154856,5,8,0:3:0:0:
410,278,155086,1,8,0:3:0:0:
329,265,155317,1,8,0:0:0:0:
255,296,155548,1,8,0:3:0:0:
182,265,155779,1,8,0:0:0:0:
151,192,156010,1,8,0:3:0:0:
182,118,156240,1,8,0:0:0:0:
256,87,156471,2,0,L|256:192,1,80,8|8,0:3|0:0,0:0:0:0:
256,192,156933,12,0,158317,0:0:0:0:
256,192,158779,5,0,0:0:0:0:
256,192,159702,1,0,0:0:0:0:
256,192,160625,1,0,0:0:0:0:
256,192,161548,1,0,0:0:0:0:
256,192,162471,5,0,0:0:0:0:
256,192,163394,1,0,0:0:0:0:
256,192,164317,1,0,0:0:0:0:
256,192,165240,1,0,0:0:0:0:
256,192,166163,6,0,P|234:117|271:35,1,160,0|8,0:0|0:2,0:0:0:0:
256,192,167086,2,0,P|181:213|99:176,1,160,0|8,0:0|0:2,0:0:0:0:
256,192,168010,2,0,P|277:266|240:348,1,160,0|8,0:0|0:2,0:0:0:0:
256,192,168933,2,0,P|330:170|362:176,1,80,0|8,0:0|0:2,0:0:0:0:
404,199,169625,1,0,0:0:0:0:
256,192,169856,6,0,P|235:118|271:36,1,160,0|8,0:0|0:2,0:0:0:0:
256,192,170779,2,0,P|181:213|99:176,1,160,0|8,0:0|0:2,0:0:0:0:
256,192,171702,2,0,P|277:266|240:348,1,160,0|8,0:0|0:2,0:0:0:0:
256,192,172625,2,0,P|330:170|362:176,1,80,0|8,0:0|0:2,0:0:0:0:
404,199,173317,1,0,0:0:0:0:
256,192,173548,5,0,0:0:0:0:
146,75,174010,2,0,P|121:104|101:157,1,80,8|0,0:2|0:0,0:0:0:0:
98,221,174471,1,0,0:0:0:0:
256,192,174933,1,8,0:2:0:0:
366,75,175394,5,0,0:0:0:0:
409,229,175856,1,8,0:2:0:0:
256,272,176317,2,0,L|256:352,2,80,0|8|8,0:0|0:2|0:2,0:0:0:0:
256,191,177010,1,8,0:2:0:0:
256,63,177240,6,0,P|181:87|129:180,1,160,0|8,0:0|0:2,0:0:0:0:
367,256,178163,2,0,P|384:179|329:88,1,160,0|8,0:0|0:2,0:0:0:0:
144,256,179086,2,0,P|202:309|309:307,1,160,0|8,0:0|0:2,0:0:0:0:
256,63,180010,2,0,P|216:70|168:99,1,80,0|8,0:0|0:2,0:0:0:0:
134,153,180471,2,0,P|128:195|139:243,1,80,8|8,0:2|0:2,0:0:0:0:
256,192,180933,5,4,0:2:0:0:
359,314,181394,2,0,P|404:319|448:307,1,80,8|0,0:2|0:0,0:0:0:0:
508,274,181856,1,0,0:0:0:0:
395,159,182317,1,8,0:2:0:0:
117,159,182779,5,4,0:2:0:0:
48,118,183010,2,0,P|38:154|61:214,1,80,0|8,0:0|0:2,0:0:0:0:
99,255,183471,1,0,0:0:0:0:
168,295,183702,2,0,L|168:395,2,80,0|8|8,0:0|0:2|0:2,0:0:0:0:
244,271,184394,1,8,0:2:0:0:
256,192,184625,6,0,P|195:132|94:128,1,160,4|8,0:2|0:2,0:0:0:0:
256,192,185548,2,0,P|337:169|391:83,1,160,4|8,0:2|0:2,0:0:0:0:
256,192,186471,2,0,B|226:271|296:271|256:370,2,160,4|4|4,0:2|0:2|0:2,0:0:0:0:
327,101,187625,1,0,0:0:0:0:
185,101,187856,1,4,0:2:0:0:
256,12,188086,1,0,0:0:0:0:
256,192,188317,5,12,0:3:0:0:
329,287,188663,1,8,0:2:0:0:
295,308,188779,2,0,P|251:316|214:307,1,80,8|8,0:0|0:2,0:0:0:0:
99,243,189240,2,0,L|75:126,1,120,8|8,0:3|0:2,0:0:0:0:
91,88,189702,2,0,P|132:82|175:97,1,80,8|12,0:0|0:2,0:0:0:0:
256,282,190163,5,12,0:3:0:0:
369,320,190510,1,8,0:2:0:0:
408,320,190625,2,0,P|451:308|486:267,1,80,8|8,0:0|0:2,0:0:0:0:
472,74,191086,2,0,B|430:82|430:82|405:54|361:47,1,120,8|8,0:3|0:2,0:0:0:0:
322,52,191548,2,0,P|287:76|267:115,1,80,8|12,0:0|0:2,0:0:0:0:
256,192,192010,5,12,0:3:0:0:
348,196,192471,2,0,P|334:239|309:266,1,80,8|8,0:0|0:2,0:0:0:0:
229,280,192933,2,0,P|191:256|170:226,1,80,8|0,0:3|0:0,0:0:0:0:
175,147,193394,1,8,0:0:0:0:
239,101,193625,1,12,0:2:0:0:
264,177,193856,6,0,P|239:214|208:234,1,80,12|0,0:3|0:0,0:0:0:0:
130,231,194317,2,0,P|98:199|84:165,1,80,8|8,0:0|0:2,0:0:0:0:
108,86,194779,1,8,0:3:0:0:
184,57,195010,2,0,P|225:59|259:78,2,80,0|8|12,0:0|0:0|0:2,0:0:0:0:
7,168,195702,5,12,0:3:0:0:
50,279,196048,1,8,0:2:0:0:
84,258,196163,2,0,P|123:245|182:248,1,80,8|8,0:0|0:2,0:0:0:0:
283,293,196625,2,0,B|339:319|339:319|418:312,1,120,8|8,0:3|0:2,0:0:0:0:
435,304,197086,2,0,P|456:275|461:231,1,80,8|12,0:0|0:2,0:0:0:0:
256,192,197548,5,12,0:3:0:0:
148,245,197894,1,8,0:2:0:0:
108,240,198010,2,0,P|74:215|53:177,1,80,8|8,0:0|0:2,0:0:0:0:
32,57,198471,2,0,B|90:68|90:68|157:55,1,120,8|8,0:3|0:2,0:0:0:0:
190,52,198933,2,0,P|225:76|245:115,1,80,8|12,0:0|0:2,0:0:0:0:
256,192,199394,5,12,0:3:0:0:
333,325,199856,2,0,P|292:343|246:345,1,80,8|8,0:0|0:2,0:0:0:0:
178,325,200317,2,0,P|143:298|118:259,1,80,8|0,0:3|0:0,0:0:0:0:
101,191,200779,1,8,0:0:0:0:
122,114,201010,1,12,0:2:0:0:
201,85,201240,6,0,P|241:104|274:137,1,80,12|0,0:3|0:0,0:0:0:0:
305,200,201702,2,0,P|308:244|296:288,1,80,8|8,0:0|0:2,0:0:0:0:
257,346,202163,1,8,0:3:0:0:
186,382,202394,1,0,0:0:0:0:
107,378,202625,2,0,P|66:359|33:326,1,80,8|12,0:0|0:2,0:0:0:0:
192,192,203086,6,0,B|211:153|194:115|194:115|147:115|122:152,1,160,12|8,0:3|0:0,0:0:0:0:
60,196,203779,1,8,0:2:0:0:
11,133,204010,2,0,P|5:88|17:46,2,80,8|0|8,0:3|0:0|0:0,0:0:0:0:
60,196,204702,1,12,0:2:0:0:
125,149,204933,5,12,0:3:0:0:
161,77,205163,1,0,0:0:0:0:
216,20,205394,2,0,P|237:63|232:114,1,80,8|8,0:0|0:2,0:0:0:0:
207,169,205856,2,0,P|209:208|228:243,1,80,8|0,0:3|0:0,0:0:0:0:
298,282,206317,2,0,P|337:286|375:273,1,80,8|12,0:0|0:2,0:0:0:0:
476,91,206779,5,12,0:3:0:0:
320,139,207240,1,8,0:0:0:0:
241,155,207471,1,8,0:2:0:0:
162,169,207702,2,0,B|101:186|103:141|22:172,1,120,8|8,0:3|0:2,0:0:0:0:
9,185,208163,2,0,P|-2:227|9:264,1,80,8|12,0:0|0:2,0:0:0:0:
62,319,208625,5,12,0:3:0:0:
126,271,208856,1,0,0:0:0:0:
163,258,208971,1,8,0:2:0:0:
200,271,209086,1,8,0:0:0:0:
263,319,209317,1,8,0:2:0:0:
319,262,209548,2,0,P|332:227|326:175,1,80,8|0,0:3|0:0,0:0:0:0:
274,126,210010,2,0,P|266:93|274:43,1,80,8|12,0:0|0:2,0:0:0:0:
464,80,210471,5,12,0:3:0:0:
409,230,210933,1,8,0:0:0:0:
332,207,211163,1,8,0:2:0:0:
274,262,211394,2,0,P|261:298|271:348,2,80,8|0|8,0:3|0:0|0:0,0:0:0:0:
332,207,212086,5,12,0:2:0:0:
365,134,212317,1,12,0:3:0:0:
335,59,212548,1,0,0:0:0:0:
256,45,212779,2,0,L|256:135,1,80,8|8,0:0|0:2,0:0:0:0:
225,199,213240,2,0,P|185:210|140:196,1,80,8|0,0:3|0:0,0:0:0:0:
71,177,213702,2,0,L|71:270,1,80,8|12,0:0|0:2,0:0:0:0:
71,48,214163,5,12,0:3:0:0:
230,61,214625,1,8,0:0:0:0:
299,100,214856,1,8,0:2:0:0:
353,40,215086,2,0,P|388:25|431:30,1,80,8|0,0:3|0:0,0:0:0:0:
486,84,215548,1,8,0:0:0:0:
486,164,215779,1,12,0:2:0:0:
382,344,216010,6,0,B|348:323|348:323|348:235,1,120,12|8,0:3|0:2,0:0:0:0:
347,203,216471,2,0,P|303:170|252:167,1,80,8|8,0:0|0:2,0:0:0:0:
131,207,216933,2,0,B|165:186|165:186|165:105,1,120,8|8,0:3|0:2,0:0:0:0:
165,66,217394,2,0,P|209:33|260:30,1,80,8|12,0:0|0:2,0:0:0:0:
312,24,217856,5,0,0:0:0:0:
387,50,218086,1,0,0:0:0:0:
397,129,218317,1,0,0:0:0:0:
341,184,218548,1,0,0:0:0:0:
256,192,218779,2,0,L|256:288,2,80
139,43,219702,5,12,0:3:0:0:
84,149,220048,1,8,0:2:0:0:
120,166,220163,2,0,B|157:173|157:173|202:147,1,80,8|8,0:0|0:2,0:0:0:0:
373,43,220625,1,8,0:3:0:0:
428,149,220971,1,8,0:2:0:0:
391,166,221086,2,0,B|355:173|355:173|310:147,1,80,8|12,0:0|0:2,0:0:0:0:
139,43,221548,5,12,0:3:0:0:
117,160,221894,1,8,0:2:0:0:
124,199,222010,2,0,L|138:277,1,80,8|8,0:0|0:2,0:0:0:0:
256,192,222471,1,8,0:3:0:0:
374,277,222817,1,8,0:2:0:0:
381,238,222933,2,0,L|399:143,1,80,8|12,0:0|0:2,0:0:0:0:
256,32,223394,6,0,B|208:75|208:75|208:150,1,120,12|8,0:3|0:2,0:0:0:0:
207,170,223856,2,0,P|196:220|168:247,1,80,8|8,0:0|0:2,0:0:0:0:
46,213,224317,2,0,L|46:93,1,120,8|8,0:3|0:2,0:0:0:0:
46,52,224779,2,0,B|88:59|88:59|130:51,1,80,8|12,0:0|0:2,0:0:0:0:
256,32,225240,6,0,B|304:75|304:75|304:150,1,120,12|8,0:3|0:2,0:0:0:0:
305,170,225702,2,0,P|316:220|344:247,1,80,8|8,0:0|0:2,0:0:0:0:
466,213,226163,2,0,L|466:93,1,120,8|8,0:3|0:2,0:0:0:0:
466,52,226625,2,0,B|424:59|424:59|382:51,1,80,8|12,0:0|0:2,0:0:0:0:
180,27,227086,5,12,0:3:0:0:
71,78,227433,1,8,0:2:0:0:
105,98,227548,2,0,P|125:138|116:195,1,80,8|8,0:0|0:2,0:0:0:0:
77,376,228010,1,8,0:3:0:0:
186,325,228356,1,8,0:2:0:0:
152,305,228471,2,0,P|132:265|141:208,1,80,8|12,0:0|0:2,0:0:0:0:
180,27,228933,5,12,0:3:0:0:
299,37,229279,1,8,0:2:0:0:
309,75,229394,2,0,P|330:115|375:141,1,80,8|8,0:0|0:2,0:0:0:0:
480,192,229856,1,8,0:3:0:0:
357,249,230202,1,8,0:2:0:0:
325,274,230317,2,0,P|304:309|298:359,1,80,8|12,0:0|0:2,0:0:0:0:
96,352,230779,6,0,P|85:282|100:225,1,120,12|8,0:3|0:2,0:0:0:0:
110,197,231240,2,0,L|191:197,1,80,8|8,0:0|0:2,0:0:0:0:
287,113,231702,2,0,L|287:233,1,120,8|8,0:3|0:2,0:0:0:0:
287,273,232163,2,0,B|311:307|311:307|365:321,1,80,8|12,0:0|0:2,0:0:0:0:
483,320,232625,6,0,P|493:250|479:193,1,120,12|8,0:3|0:2,0:0:0:0:
469,165,233086,2,0,L|388:165,1,80,8|8,0:0|0:2,0:0:0:0:
287,113,233548,2,0,L|287:233,1,120,8|8,0:3|0:2,0:0:0:0:
287,273,234010,2,0,B|263:307|263:307|209:321,1,80,8|12,0:0|0:2,0:0:0:0:
32,224,234471,6,0,L|32:142,1,80,12|2,0:3|0:1,0:0:0:0:
90,67,234933,1,10,0:0:0:0:
180,102,235163,1,10,0:2:0:0:
180,102,235278,2,0,L|180:160,1,40,2|8,0:2|0:3,0:0:0:0:
271,107,235625,2,0,L|271:67,4,40,0|8|8|0|12,0:0|0:2|0:0|0:0|0:2,0:0:0:0:
88,197,236317,6,0,L|88:288,1,80,12|2,0:3|0:1,0:0:0:0:
146,353,236779,1,10,0:0:0:0:
236,319,237009,1,10,0:2:0:0:
236,319,237124,2,0,L|236:261,1,40,2|8,0:2|0:3,0:0:0:0:
327,314,237471,2,0,L|327:354,4,40,0|8|8|0|12,0:0|0:2|0:0|0:0|0:2,0:0:0:0:
228,195,238163,6,0,B|228:234|228:234|184:275,1,80,12|2,0:3|0:1,0:0:0:0:
112,306,238625,1,10,0:0:0:0:
63,223,238855,1,10,0:2:0:0:
63,223,238971,2,0,L|63:165,1,40,2|8,0:2|0:3,0:0:0:0:
63,86,239317,2,0,L|62:26,4,40,0|8|8|0|12,0:0|0:2|0:0|0:0|0:2,0:0:0:0:
149,204,240010,6,0,B|188:204|188:204|229:160,1,80,12|2,0:3|0:1,0:0:0:0:
274,97,240471,1,10,0:0:0:0:
323,179,240702,1,10,0:2:0:0:
323,179,240817,2,0,L|323:231,1,40,2|8,0:2|0:3,0:0:0:0:
256,289,241163,2,0,L|255:345,4,40,0|8|8|0|12,0:0|0:2|0:0|0:0|0:2,0:0:0:0:
56,252,241856,6,0,P|30:236|17:179,1,80,12|2,0:3|0:1,0:0:0:0:
25,94,242317,1,10,0:0:0:0:
125,94,242548,1,10,0:2:0:0:
125,94,242663,2,0,L|174:94,1,40,2|8,0:2|0:3,0:0:0:0:
256,74,243010,2,0,L|256:14,4,40,0|8|8|0|12,0:0|0:2|0:0|0:0|0:2,0:0:0:0:
456,132,243702,6,0,P|482:148|495:205,1,80,12|2,0:3|0:1,0:0:0:0:
487,290,244163,1,10,0:0:0:0:
387,290,244394,1,10,0:2:0:0:
387,290,244509,2,0,L|338:290,1,40,2|8,0:2|0:3,0:0:0:0:
256,310,244856,2,0,L|256:370,4,40,0|8|8|0|12,0:0|0:2|0:0|0:0|0:2,0:0:0:0:
322,268,245548,6,0,P|346:192|322:115,1,160,12|0,0:3|0:0,0:0:0:0:
256,74,246240,1,10,0:3:0:0:
190,268,246471,2,0,P|167:192|190:115,1,160,10|0,0:3|0:0,0:0:0:0:
256,74,247163,1,10,0:3:0:0:
322,268,247394,5,12,0:3:0:0:
391,74,247856,1,12,0:3:0:0:
457,268,248317,1,12,0:3:0:0:
256,192,248779,1,0,0:0:0:0:
256,351,249240,1,4,0:2:0:0:
