osu file format v14

[General]
AudioFilename: audio.mp3
AudioLeadIn: 0
PreviewTime: 173548
Countdown: 0
SampleSet: Normal
StackLeniency: 0.7
Mode: 0
LetterboxInBreaks: 0
EpilepsyWarning: 1
WidescreenStoryboard: 1

[Editor]
Bookmarks: 5548,20317,35086,49856,57240,72010,79394,96010,110779,125548,127394,142163,158779,173548,188317,203086,217856,234471,249240
DistanceSpacing: 1
BeatDivisor: 4
GridSize: 32
TimelineZoom: 0.5999995

[Metadata]
Title:Hitotsume no Dokuhaku
TitleUnicode:ヒトツメの独白
Artist:Xitoo
ArtistUnicode:しとお
Creator:Noffy
Version:Easy
Source:
Tags:shitoo vocaloid one eye's monologue the of eye v_flower flower vflower story duet yandere green series murder love death school hatsune miku 初音ミク electronic japanese
BeatmapID:1179669
BeatmapSetID:554143

[Difficulty]
HPDrainRate:3
CircleSize:3
OverallDifficulty:3
ApproachRate:3
SliderMultiplier:1
SliderTickRate:1

[Events]
//Background and Video events
0,0,"a feeling.png",0,0
Video,0,"scarf man.avi"
//Break Periods
2,127394,140262
2,158979,172108
//Storyboard Layer 0 (Background)
//Storyboard Layer 1 (Fail)
//Storyboard Layer 2 (Pass)
//Storyboard Layer 3 (Foreground)
//Storyboard Layer 4 (Overlay)
//Storyboard Sound Samples

[TimingPoints]
10,461.538461538462,4,1,1,100,1,0
5548,461.538461538462,4,1,1,100,1,0
31394,-100,4,1,1,50,0,0
35086,-100,4,1,1,70,0,0
78932,-100,4,1,1,50,0,0
96010,461.538461538462,4,1,1,100,1,1
125548,-100,4,1,1,100,0,0
127394,461.538461538462,4,1,1,100,1,0
142163,-100,4,1,1,100,0,1
149547,-100,4,1,1,70,0,0
154855,-100,4,1,1,100,0,1
158779,461.538461538462,4,1,1,30,1,0
166163,-100,4,1,1,40,0,0
188317,-100,4,1,1,100,0,1
217855,-100,4,1,1,100,0,0
219702,461.538461538462,4,1,1,100,1,0
245548,-100,4,1,1,50,0,0

[Colours]
Combo1 : 74,88,61
Combo2 : 165,244,0
Combo3 : 137,248,192
Combo4 : 159,193,113

[HitObjects]
177,118,5548,6,0,P|178:75|218:18,1,100,12|8,0:3|0:0,0:0:0:0:
306,28,6471,2,0,P|332:69|335:118,1,100,8|8,0:3|0:0,0:0:0:0:
256,184,7394,1,12,0:3:0:0:
232,281,7855,1,8,0:0:0:0:
204,377,8317,1,8,0:3:0:0:
63,235,9240,6,0,P|92:120|171:76,1,200,12|8,0:3|0:3,0:0:0:0:
256,78,10624,1,8,0:0:0:0:
356,79,11086,2,0,P|433:138|449:234,1,200,12|8,0:3|0:3,0:0:0:0:
256,297,12933,6,0,P|208:279|171:234,1,100,12|8,0:3|0:0,0:0:0:0:
175,140,13856,2,0,P|209:104|256:87,1,100,8|8,0:3|0:0,0:0:0:0:
355,93,14779,1,12,0:3:0:0:
381,189,15240,1,8,0:0:0:0:
413,284,15702,1,8,0:3:0:0:
232,365,16625,6,0,P|115:345|52:285,1,200,12|8,0:3|0:3,0:0:0:0:
50,192,18009,1,8,0:0:0:0:
56,91,18471,2,0,P|133:29|232:19,1,200,12|8,0:3|0:3,0:0:0:0:
430,19,20317,6,0,B|430:119|430:119|400:179,1,150,12|10,0:3|0:3,0:0:0:0:
356,249,21471,1,0,0:0:0:0:
278,377,22163,2,0,B|255:332|255:332|255:232,1,150,8|10,0:3|0:3,0:0:0:0:
255,132,23317,1,0,0:0:0:0:
82,19,24009,6,0,B|82:119|82:119|112:179,1,150,12|10,0:3|0:3,0:0:0:0:
156,249,25163,1,0,0:0:0:0:
234,377,25855,2,0,B|256:332|256:332|256:232,1,150,8|10,0:3|0:3,0:0:0:0:
258,130,27008,1,0,0:0:0:0:
386,62,27702,6,0,P|428:96|446:143,1,100,12|10,0:3|0:0,0:0:0:0:
445,246,28625,2,0,P|425:291|386:321,1,100,10|8,0:3|0:0,0:0:0:0:
287,336,29548,1,12,0:3:0:0:
188,320,30009,1,8,0:0:0:0:
90,299,30471,1,10,0:3:0:0:
156,110,31394,5,12,0:3:0:0:
355,110,32317,1,10,0:3:0:0:
256,283,33240,2,0,L|256:167,2,100,12|12|12,0:3|0:3|0:3,0:0:0:0:
453,253,35086,6,0,L|470:140,1,100,12|8,0:3|0:0,0:0:0:0:
480,54,36010,1,8,0:3:0:0:
380,38,36471,1,8,0:0:0:0:
322,120,36933,2,0,P|282:149|230:160,2,100,8|8|8,0:3|0:0|0:3,0:0:0:0:
146,24,38779,6,0,L|109:132,1,100,8|8,0:3|0:0,0:0:0:0:
85,216,39702,1,8,0:3:0:0:
95,315,40163,1,8,0:0:0:0:
187,277,40625,2,0,P|295:273|384:326,1,200,8|8,0:3|0:3,0:0:0:0:
483,148,42471,6,0,L|404:68,1,100,8|8,0:3|0:0,0:0:0:0:
339,7,43394,1,8,0:3:0:0:
267,77,43856,1,8,0:0:0:0:
221,165,44317,2,0,P|209:208|226:267,2,100,8|8|8,0:3|0:0|0:3,0:0:0:0:
420,165,46163,6,0,P|432:208|415:267,1,100,8|8,0:3|0:0,0:0:0:0:
351,335,47086,1,8,0:3:0:0:
256,367,47548,1,8,0:0:0:0:
165,334,48010,2,0,B|137:291|137:291|137:223,1,100,8|8,0:3|0:0,0:0:0:0:
137,142,48933,2,0,B|137:93|137:93|165:50,1,100,8|8,0:3|0:0,0:0:0:0:
256,9,49856,6,0,P|306:10|364:36,2,100,8|8|8,0:3|0:0|0:3,0:0:0:0:
164,50,51240,1,8,0:0:0:0:
98,130,51702,2,0,B|69:328|69:328|130:309|166:330,1,300,8|8,0:3|0:0,0:0:0:0:
256,375,53548,6,0,P|306:374|364:348,2,100,8|8|8,0:3|0:0|0:3,0:0:0:0:
114,233,55394,2,0,P|114:183|132:136,2,100,8|8|8,0:3|0:0|0:3,0:0:0:0:
150,326,56779,1,8,0:0:0:0:
221,256,57240,6,0,L|289:174,1,100,12|8,0:3|0:0,0:0:0:0:
350,103,58163,1,8,0:3:0:0:
437,150,58625,1,8,0:0:0:0:
489,235,59086,2,0,P|494:289|480:341,2,100,8|8|8,0:3|0:0|0:3,0:0:0:0:
291,256,60933,6,0,L|223:174,1,100,8|8,0:3|0:0,0:0:0:0:
162,103,61856,1,8,0:3:0:0:
75,150,62317,1,8,0:0:0:0:
35,242,62779,2,0,P|81:343|176:366,1,200,8|8,0:3|0:3,0:0:0:0:
359,365,64625,6,0,P|396:312|405:267,1,100,8|8,0:3|0:0,0:0:0:0:
389,179,65548,1,8,0:3:0:0:
316,110,66010,1,8,0:0:0:0:
256,190,66471,2,0,L|256:293,2,100,8|8|8,0:3|0:0|0:3,0:0:0:0:
153,19,68317,6,0,P|116:72|107:117,1,100,8|8,0:3|0:0,0:0:0:0:
123,205,69240,1,8,0:3:0:0:
196,274,69702,1,8,0:0:0:0:
256,194,70163,2,0,L|256:91,1,100,8|8,0:3|0:0,0:0:0:0:
322,19,71086,2,0,P|374:56|398:95,1,100,8|8,0:3|0:0,0:0:0:0:
399,185,72010,6,0,L|371:295,2,100,8|8|8,0:3|0:0|0:3,0:0:0:0:
205,135,73856,2,0,L|177:25,2,100,8|8|8,0:3|0:0|0:3,0:0:0:0:
232,230,75240,1,8,0:0:0:0:
280,317,75702,6,0,P|319:346|367:362,2,100,12|8|8,0:3|0:0|0:3,0:0:0:0:
145,166,77548,1,8,0:3:0:0:
145,166,78009,1,8,0:3:0:0:
145,166,78471,1,12,0:3:0:0:
206,358,79394,5,8,0:3:0:0:
306,358,79856,2,0,L|362:149,1,200,8|8,0:0|0:3,0:0:0:0:
310,76,81240,1,8,0:3:0:0:
209,74,81702,2,0,L|183:170,1,100,8|8,0:0|0:3,0:0:0:0:
105,232,82625,5,8,0:0:0:0:
161,314,83086,2,0,P|255:341|350:313,1,200,8|8,0:3|0:3,0:0:0:0:
349,113,84933,2,0,B|290:108|256:140|256:140|225:107|158:113,1,200,8|8,0:3|0:3,0:0:0:0:
35,238,86779,5,8,0:3:0:0:
81,326,87240,2,0,P|120:349|179:347,1,100,8|8,0:0|0:3,0:0:0:0:
260,299,88163,1,8,0:0:0:0:
270,198,88625,2,0,P|205:126|108:117,1,200,8|8,0:3|0:3,0:0:0:0:
40,192,90010,1,8,0:0:0:0:
163,345,90933,6,0,B|222:350|256:318|256:318|287:351|354:345,1,200,8|8,0:0|0:0,0:0:0:0:
508,224,92779,1,8,0:0:0:0:
411,196,93240,2,0,P|365:217|334:255,1,100,8|8,0:3|0:0,0:0:0:0:
256,318,94163,6,0,P|205:344|150:344,2,100,8|8|4,0:2|0:2|0:2,0:0:0:0:
331,148,96010,6,0,P|284:117|231:115,1,100,12|8,0:3|0:0,0:0:0:0:
142,125,96933,1,8,0:3:0:0:
60,69,97394,1,8,0:0:0:0:
45,168,97856,2,0,L|34:271,1,100,12|8,0:3|0:0,0:0:0:0:
26,367,98779,1,8,0:3:0:0:
123,343,99240,1,8,0:0:0:0:
216,307,99702,6,0,P|311:299|376:202,1,200,12|8,0:3|0:3,0:0:0:0:
356,122,101086,1,8,0:0:0:0:
269,71,101548,2,0,P|176:101|135:189,1,200,12|8,0:3|0:3,0:0:0:0:
309,288,103394,6,0,L|264:198,1,100,12|8,0:3|0:0,0:0:0:0:
218,109,104317,1,8,0:3:0:0:
260,18,104779,1,8,0:0:0:0:
359,12,105240,2,0,L|405:104,1,100,12|8,0:3|0:0,0:0:0:0:
445,192,106163,1,8,0:3:0:0:
391,276,106625,1,8,0:0:0:0:
296,307,107086,6,0,P|201:299|136:202,1,200,12|8,0:3|0:3,0:0:0:0:
156,122,108471,1,8,0:0:0:0:
243,71,108933,2,0,P|335:101|376:189,1,200,12|8,0:3|0:3,0:0:0:0:
256,349,110779,5,12,0:3:0:0:
156,345,111240,1,8,0:0:0:0:
64,303,111702,2,0,P|28:251|30:195,1,100,8|8,0:3|0:0,0:0:0:0:
82,133,112625,2,0,P|143:144|227:261,1,200,12|8,0:3|0:3,0:0:0:0:
251,343,114010,1,8,0:0:0:0:
328,280,114471,5,12,0:3:0:0:
417,234,114933,2,0,P|478:245|516:286,2,100,8|8|8,0:0|0:3|0:0,0:0:0:0:
329,281,116317,1,12,0:3:0:0:
256,211,116779,2,0,L|256:110,1,100,8|8,0:0|0:3,0:0:0:0:
72,31,118163,5,12,0:3:0:0:
43,128,118625,1,8,0:0:0:0:
26,226,119086,2,0,P|37:287|78:325,1,100,8|8,0:3|0:0,0:0:0:0:
160,319,120010,2,0,P|195:267|196:127,1,200,12|8,0:3|0:3,0:0:0:0:
170,37,121394,1,8,0:0:0:0:
270,53,121856,6,0,L|382:74,1,100,12|8,0:3|0:0,0:0:0:0:
467,88,122779,1,8,0:3:0:0:
480,186,123240,1,8,0:0:0:0:
384,214,123702,2,0,B|315:242|315:242|290:313|214:315,2,200,12|8|0,0:3|0:3|0:0,0:0:0:0:
256,167,141702,53,0,0:0:0:0:
167,212,142163,6,0,L|132:114,1,100,0|2,0:0|0:2,0:0:0:0:
102,22,143086,1,2,0:2:0:0:
28,90,143548,1,2,0:2:0:0:
11,188,144010,2,0,P|28:278|131:350,1,200,8|2,0:0|0:2,0:0:0:0:
308,360,145856,6,0,L|343:262,1,100,0|2,0:0|0:2,0:0:0:0:
371,170,146779,2,0,P|423:156|472:110,1,100,2|2,0:2|0:2,0:0:0:0:
503,38,147702,1,8,0:3:0:0:
405,16,148163,2,0,P|356:27|316:57,1,100,8|8,0:0|0:3,0:0:0:0:
158,180,149548,6,0,L|207:282,1,100,12|8,0:3|0:0,0:0:0:0:
255,354,150471,1,8,0:3:0:0:
351,330,150933,1,8,0:0:0:0:
436,277,151394,2,0,P|461:240|466:179,2,100,12|8|8,0:3|0:0|0:3,0:0:0:0:
253,367,153240,5,12,0:3:0:0:
256,167,154163,1,8,0:3:0:0:
55,175,155086,2,0,P|64:235|83:274,1,100,8|8,0:3|0:3,0:0:0:0:
157,341,156010,2,0,P|203:360|252:366,1,100,8|8,0:3|0:3,0:0:0:0:
256,192,156933,12,0,158779,0:0:0:0:
256,192,173548,37,0,0:0:0:0:
163,232,174010,1,8,0:2:0:0:
104,151,174471,2,0,P|95:86|117:45,1,100,0|8,0:0|0:2,0:0:0:0:
205,31,175394,2,0,L|312:31,1,100,0|8,0:0|0:2,0:0:0:0:
397,68,176317,1,0,0:0:0:0:
349,152,176779,1,8,0:2:0:0:
256,192,177240,5,0,0:0:0:0:
81,94,178163,1,0,0:0:0:0:
19,284,179086,1,0,0:0:0:0:
207,351,180010,2,0,P|255:360|304:350,1,100,0|8,0:0|0:2,0:0:0:0:
384,290,180933,5,4,0:2:0:0:
446,212,181394,2,0,P|455:147|433:106,2,100,8|0|8,0:2|0:0|0:2,0:0:0:0:
385,292,182779,1,4,0:2:0:0:
305,353,183240,2,0,L|205:353,1,100,8|0,0:2|0:0,0:0:0:0:
24,267,184625,5,4,0:2:0:0:
91,78,185548,1,4,0:2:0:0:
256,192,186471,2,0,B|266:241|238:241|256:290,2,100,4|4|4,0:2|0:2|0:2,0:0:0:0:
121,44,188317,6,0,P|90:91|88:144,1,100,12|8,0:3|0:0,0:0:0:0:
93,233,189240,1,8,0:3:0:0:
141,320,189702,1,8,0:0:0:0:
224,374,190163,2,0,L|305:286,1,100,12|8,0:3|0:0,0:0:0:0:
358,226,191086,1,8,0:3:0:0:
379,128,191548,1,8,0:0:0:0:
296,77,192010,6,0,P|201:85|136:182,1,200,12|8,0:3|0:3,0:0:0:0:
113,260,193394,1,8,0:0:0:0:
139,357,193856,2,0,P|231:327|272:239,1,200,12|8,0:3|0:3,0:0:0:0:
454,155,195702,6,0,P|436:111|398:74,1,100,12|8,0:3|0:0,0:0:0:0:
307,33,196625,1,8,0:3:0:0:
207,21,197086,1,8,0:0:0:0:
107,29,197548,2,0,P|64:50|31:91,1,100,12|8,0:3|0:0,0:0:0:0:
9,188,198471,1,8,0:3:0:0:
40,282,198933,1,8,0:0:0:0:
127,332,199394,6,0,P|222:324|287:227,1,200,12|8,0:3|0:3,0:0:0:0:
314,151,200779,1,8,0:0:0:0:
336,53,201240,2,0,P|428:83|469:171,1,200,12|8,0:3|0:3,0:0:0:0:
420,365,203086,5,12,0:3:0:0:
364,281,203548,1,8,0:0:0:0:
302,201,204010,2,0,P|250:176|197:186,1,100,8|8,0:3|0:0,0:0:0:0:
157,266,204933,2,0,P|195:313|334:325,1,200,12|8,0:3|0:3,0:0:0:0:
412,276,206317,1,8,0:0:0:0:
412,175,206779,5,12,0:3:0:0:
367,85,207240,2,0,P|414:55|472:50,2,100,8|8|8,0:0|0:3|0:0,0:0:0:0:
297,157,208625,1,12,0:3:0:0:
256,248,209086,2,0,L|256:348,1,100,8|8,0:0|0:3,0:0:0:0:
62,298,210471,5,12,0:3:0:0:
20,206,210933,1,8,0:0:0:0:
8,106,211394,2,0,P|26:63|83:16,1,100,8|8,0:3|0:0,0:0:0:0:
146,83,212317,2,0,P|197:135|328:159,1,200,12|8,0:3|0:3,0:0:0:0:
417,150,213702,1,8,0:0:0:0:
389,246,214163,6,0,L|345:343,1,100,12|8,0:3|0:0,0:0:0:0:
256,377,215086,1,8,0:3:0:0:
165,337,215548,1,8,0:0:0:0:
161,236,216010,2,0,P|205:148|295:109,1,200,12|8,0:3|0:3,0:0:0:0:
400,278,217856,6,0,P|375:323|333:350,1,100
255,288,218779,2,0,L|256:189,1,100
177,126,219702,6,0,B|177:75|177:75|213:25,1,100,12|8,0:3|0:0,0:0:0:0:
306,35,220625,2,0,B|335:75|335:75|335:126,1,100,8|8,0:3|0:0,0:0:0:0:
256,184,221548,1,12,0:3:0:0:
233,281,222009,1,8,0:0:0:0:
204,377,222471,1,8,0:3:0:0:
63,235,223394,6,0,L|164:44,1,200,12|8,0:3|0:3,0:0:0:0:
256,58,224778,1,8,0:0:0:0:
355,58,225240,2,0,L|449:235,1,200,12|8,0:3|0:3,0:0:0:0:
256,297,227086,6,0,B|206:276|206:276|169:231,1,100,12|8,0:3|0:0,0:0:0:0:
176,143,228010,2,0,B|206:108|206:108|256:87,1,100,8|8,0:3|0:0,0:0:0:0:
350,55,228933,1,12,0:3:0:0:
370,152,229394,1,8,0:0:0:0:
395,249,229856,1,8,0:3:0:0:
232,365,230779,6,0,L|46:290,1,200,12|8,0:3|0:3,0:0:0:0:
46,190,232163,1,8,0:0:0:0:
46,93,232625,2,0,L|232:19,1,200,12|8,0:3|0:3,0:0:0:0:
424,73,234471,6,0,B|414:111|426:156|426:156|386:160|359:202,1,150,6|10,0:3|0:2,0:0:0:0:
331,280,235625,1,0,0:1:0:0:
186,319,236317,2,0,B|176:281|188:236|188:236|148:232|121:190,1,150,12|10,0:3|0:2,0:0:0:0:
93,112,237471,1,0,0:0:0:0:
220,33,238163,6,0,P|299:29|362:66,1,150,12|10,0:3|0:2,0:0:0:0:
427,136,239317,1,0,0:0:0:0:
427,286,240010,2,0,P|348:290|284:252,1,150,12|10,0:3|0:2,0:0:0:0:
220,183,241164,1,0,0:0:0:0:
350,107,241856,6,0,B|398:107|398:107|436:142,1,100,12|10,0:3|0:0,0:0:0:0:
436,241,242779,2,0,B|398:277|398:277|350:277,1,100,10|8,0:3|0:0,0:0:0:0:
250,277,243702,1,12,0:3:0:0:
150,277,244163,1,8,0:0:0:0:
50,277,244625,1,10,0:3:0:0:
156,110,245548,5,12,0:3:0:0:
355,110,246471,1,10,0:3:0:0:
256,283,247394,2,0,L|256:167,2,100,12|12|12,0:3|0:3|0:3,0:0:0:0:
