osu file format v14

[General]
AudioFilename: audio.mp3
AudioLeadIn: 0
PreviewTime: -1
Countdown: 1
SampleSet: None
StackLeniency: 0.7
Mode: 0
LetterboxInBreaks: 0
WidescreenStoryboard: 0

[Editor]
DistanceSpacing: 1
BeatDivisor: 4
GridSize: 4
TimelineZoom: 1

[Metadata]
Title:Darren Styles Remix
TitleUnicode:Darren Styles Remix
Artist:XinCrin
ArtistUnicode:XinCrin
Creator:SLDplays
Version:Hard
Source:
Tags:
BeatmapID:1025803
BeatmapSetID:480507

[Difficulty]
HPDrainRate:5
CircleSize:5
OverallDifficulty:5
ApproachRate:5
SliderMultiplier:1.6
SliderTickRate:1

[Events]
//Background and Video events
//Break Periods
//Storyboard Layer 0 (Background)
//Storyboard Layer 1 (Fail)
//Storyboard Layer 2 (Pass)
//Storyboard Layer 3 (Foreground)
//Storyboard Sound Samples

[TimingPoints]
0,689.655172413793,4,1,0,100,1,0
5856,-100,4,1,0,100,0,0
34406,306.122448979592,4,1,0,100,1,0

[HitObjects]
136,208,689,5,0,0:0:0:0:
304,228,1206,1,0,0:0:0:0:
132,200,1896,1,0,0:0:0:0:
276,188,2586,1,0,0:0:0:0:
360,152,3103,2,0,L|208:216,1,160
128,184,4655,1,0,0:0:0:0:
128,108,5344,1,0,0:0:0:0:
144,68,6034,2,0,L|280:208,1,160
284,116,7586,1,0,0:0:0:0:
296,72,8103,1,0,0:0:0:0:
296,72,8965,2,0,L|304:244,1,160
172,232,10344,1,0,0:0:0:0:
108,204,11034,1,0,0:0:0:0:
100,244,11724,2,0,L|264:324,1,160
372,220,13103,1,0,0:0:0:0:
376,164,13793,1,0,0:0:0:0:
376,104,14655,1,0,0:0:0:0:
332,80,15172,1,0,0:0:0:0:
328,80,15689,2,0,L|220:144,1,120
108,116,16551,1,0,0:0:0:0:
64,152,17241,1,0,0:0:0:0:
64,232,18103,1,0,0:0:0:0:
72,240,18620,2,0,L|128:160,1,80
168,112,19655,1,0,0:0:0:0:
168,116,20172,2,0,L|240:232,1,120
244,216,21206,2,0,L|288:120,2,80
300,104,22931,2,0,L|344:216,2,120
328,192,24482,2,0,L|176:280,1,160
116,224,25689,1,0,0:0:0:0:
96,176,26379,1,0,0:0:0:0:
96,152,27068,2,0,L|152:76,1,80
216,36,28103,1,0,0:0:0:0:
260,56,28793,2,0,L|308:144,2,80
300,128,30000,1,0,0:0:0:0:
240,120,30689,1,0,0:0:0:0:
216,128,31379,2,0,L|192:268,1,120
112,160,32586,1,0,0:0:0:0:
236,144,33448,1,0,0:0:0:0:
172,64,34310,1,0,0:0:0:0:
300,88,34482,1,0,0:0:0:0:
256,96,34635,1,0,0:0:0:0:
340,112,34941,1,0,0:0:0:0:
356,112,35324,1,0,0:0:0:0:
260,112,35707,2,0,L|192:320,1,200
96,212,36472,1,0,0:0:0:0:
104,156,36701,1,0,0:0:0:0:
132,88,37084,1,0,0:0:0:0:
148,88,37390,2,0,L|244:188,1,120
344,112,38002,1,0,0:0:0:0:
316,68,38385,1,0,0:0:0:0:
304,76,38538,1,0,0:0:0:0:
236,96,38921,1,0,0:0:0:0:
204,112,39150,1,0,0:0:0:0:
184,124,39303,1,0,0:0:0:0:
152,128,39610,1,0,0:0:0:0:
140,160,39992,2,0,L|288:320,1,200
384,188,40681,1,0,0:0:0:0:
376,164,40987,1,0,0:0:0:0:
344,104,41370,1,0,0:0:0:0:
264,76,41676,1,0,0:0:0:0:
200,80,42059,1,0,0:0:0:0:
364,160,42365,1,0,0:0:0:0:
212,176,42824,2,0,L|260:304,1,120
40,156,43589,1,0,0:0:0:0:
56,136,43895,1,0,0:0:0:0:
56,136,44201,1,0,0:0:0:0:
92,136,44508,1,0,0:0:0:0:
96,132,45502,2,0,L|84:252,2,120
124,128,46574,2,0,L|108:240,2,80
176,124,47492,2,0,L|172:264,2,120
228,128,48487,2,0,L|208:240,3,80
272,132,49482,2,0,L|272:220,2,80
336,140,50324,2,0,L|332:256,2,80
376,144,51242,2,0,L|376:232,2,80
416,144,52008,2,0,L|408:212,4,40
448,152,52696,2,0,L|444:204,37,40
256,192,56829,12,0,57977,0:0:0:0:
304,136,58360,5,0,0:0:0:0:
248,136,58666,1,0,0:0:0:0:
180,136,59048,1,0,0:0:0:0:
148,136,59354,1,0,0:0:0:0:
148,232,59737,2,0,L|232:284,2,80
164,196,60426,1,0,0:0:0:0:
184,184,60732,1,0,0:0:0:0:
188,152,61115,1,0,0:0:0:0:
200,136,61497,1,0,0:0:0:0:
200,136,61727,1,0,0:0:0:0:
208,128,61803,1,0,0:0:0:0:
220,108,62110,1,0,0:0:0:0:
224,96,62416,2,0,L|336:244,1,160
380,184,63181,1,0,0:0:0:0:
376,160,63487,1,0,0:0:0:0:
364,128,63870,2,0,L|300:160,7,40
272,152,64712,1,0,0:0:0:0:
244,148,65018,1,0,0:0:0:0:
176,140,65400,2,0,L|200:184,9,40
148,152,66472,1,0,0:0:0:0:
144,144,66778,1,0,0:0:0:0:
180,104,67467,1,0,0:0:0:0:
144,152,68232,2,0,L|128:216,6,40
60,200,68997,1,0,0:0:0:0:
60,252,69303,1,0,0:0:0:0:
100,276,69686,2,0,L|152:304,8,40
180,268,70681,1,0,0:0:0:0:
216,272,70987,1,0,0:0:0:0:
192,268,71446,2,0,L|260:268,6,40
296,240,72441,1,0,0:0:0:0:
328,208,72747,1,0,0:0:0:0:
348,160,73130,1,0,0:0:0:0:
356,120,73436,1,0,0:0:0:0:
352,108,73819,2,0,L|300:164,2,40
216,108,74508,1,0,0:0:0:0:
164,104,74890,1,0,0:0:0:0:
132,108,75196,2,0,L|148:272,2,160
84,240,76344,1,0,0:0:0:0:
92,268,76727,1,0,0:0:0:0:
180,328,77033,1,0,0:0:0:0:
204,324,77339,1,0,0:0:0:0:
236,296,77722,1,0,0:0:0:0:
240,248,78028,1,0,0:0:0:0:
240,248,78411,1,0,0:0:0:0:
240,248,78717,1,0,0:0:0:0:
228,232,79712,1,0,0:0:0:0:
256,192,80094,12,0,82314,0:0:0:0:
240,248,82620,5,0,0:0:0:0:
280,236,83002,1,0,0:0:0:0:
304,204,83385,1,0,0:0:0:0:
308,180,83691,2,0,L|216:304,2,120
148,232,84457,1,0,0:0:0:0:
144,144,85222,1,0,0:0:0:0:
160,104,85528,1,0,0:0:0:0:
180,80,85834,1,0,0:0:0:0:
180,80,86217,1,0,0:0:0:0:
276,80,86446,1,0,0:0:0:0:
276,88,86829,2,0,L|224:244,1,160
76,152,87594,1,0,0:0:0:0:
88,136,87824,1,0,0:0:0:0:
108,112,87977,1,0,0:0:0:0:
148,104,88130,1,0,0:0:0:0:
196,100,88283,1,0,0:0:0:0:
272,112,88436,1,0,0:0:0:0:
336,120,88589,1,0,0:0:0:0:
376,104,88972,1,0,0:0:0:0:
448,136,89201,1,0,0:0:0:0:
448,160,89354,1,0,0:0:0:0:
444,192,89508,1,0,0:0:0:0:
428,216,89661,1,0,0:0:0:0:
416,228,89814,1,0,0:0:0:0:
404,236,89967,1,0,0:0:0:0:
344,208,90196,1,0,0:0:0:0:
336,176,90349,1,0,0:0:0:0:
312,132,90502,1,0,0:0:0:0:
292,112,90656,1,0,0:0:0:0:
276,112,90885,1,0,0:0:0:0:
276,136,91038,1,0,0:0:0:0:
276,184,91191,2,0,L|224:304,2,120
88,228,91880,1,0,0:0:0:0:
92,192,92033,1,0,0:0:0:0:
104,152,92186,1,0,0:0:0:0:
124,124,92416,1,0,0:0:0:0:
160,112,92569,1,0,0:0:0:0:
220,136,92722,1,0,0:0:0:0:
272,192,92875,1,0,0:0:0:0:
324,232,93028,1,0,0:0:0:0:
372,240,93258,1,0,0:0:0:0:
388,224,93411,1,0,0:0:0:0:
388,192,93564,1,0,0:0:0:0:
388,160,93946,1,0,0:0:0:0:
384,140,94176,1,0,0:0:0:0:
368,124,94329,1,0,0:0:0:0:
328,108,94482,1,0,0:0:0:0:
280,108,94712,1,0,0:0:0:0:
256,136,94865,1,0,0:0:0:0:
244,168,95018,1,0,0:0:0:0:
216,208,95171,1,0,0:0:0:0:
188,240,95400,1,0,0:0:0:0:
136,256,95707,1,0,0:0:0:0:
104,240,96089,1,0,0:0:0:0:
88,208,96395,1,0,0:0:0:0:
88,176,96625,1,0,0:0:0:0:
88,156,96778,1,0,0:0:0:0:
104,120,97084,1,0,0:0:0:0:
116,96,97467,1,0,0:0:0:0:
124,92,97696,1,0,0:0:0:0:
144,84,97849,1,0,0:0:0:0:
196,76,98002,1,0,0:0:0:0:
216,76,98309,1,0,0:0:0:0:
276,92,98615,1,0,0:0:0:0:
280,104,98921,1,0,0:0:0:0:
300,176,99150,1,0,0:0:0:0:
328,228,99303,1,0,0:0:0:0:
360,200,99763,2,0,L|332:284,2,80
204,252,100681,1,0,0:0:0:0:
256,192,102212,12,0,104737,0:0:0:0:
204,252,104967,5,0,0:0:0:0:
224,256,105579,1,0,0:0:0:0:
264,256,105962,1,0,0:0:0:0:
296,248,106344,1,0,0:0:0:0:
304,236,106650,1,0,0:0:0:0:
312,220,106803,1,0,0:0:0:0:
320,192,107033,1,0,0:0:0:0:
328,172,107186,1,0,0:0:0:0:
328,152,107339,1,0,0:0:0:0:
320,136,107722,1,0,0:0:0:0:
256,96,108028,1,0,0:0:0:0:
252,100,108181,1,0,0:0:0:0:
232,112,108411,1,0,0:0:0:0:
224,120,108564,1,0,0:0:0:0:
196,144,108717,1,0,0:0:0:0:
168,192,109099,2,0,L|172:284,3,80
140,248,109788,1,0,0:0:0:0:
128,224,110018,1,0,0:0:0:0:
128,200,110171,1,0,0:0:0:0:
256,192,110553,12,0,111625,0:0:0:0:
300,220,112008,5,0,0:0:0:0:
328,192,112467,1,0,0:0:0:0:
332,180,112620,1,0,0:0:0:0:
352,128,112926,1,0,0:0:0:0:
356,128,113079,1,0,0:0:0:0:
360,144,113385,2,0,L|204:276,1,200
108,176,114533,1,0,0:0:0:0:
112,156,114610,1,0,0:0:0:0:
132,120,114763,1,0,0:0:0:0:
200,72,115604,2,0,L|180:336,1,240
120,252,116905,1,0,0:0:0:0:
176,288,117441,2,0,L|372:340,1,200
360,296,118895,1,0,0:0:0:0:
372,288,119661,1,0,0:0:0:0:
372,288,120273,2,0,L|372:168,2,120
344,120,121727,1,0,0:0:0:0:
304,120,122492,1,0,0:0:0:0:
296,132,122875,2,0,L|212:232,1,120
104,120,124099,1,0,0:0:0:0:
104,128,124635,2,0,L|124:276,2,120
96,136,125936,1,0,0:0:0:0:
124,128,126089,1,0,0:0:0:0:
160,112,126625,2,0,L|212:280,1,160
88,188,127390,1,0,0:0:0:0:
156,96,128462,2,0,L|180:288,1,160
352,96,129533,1,0,0:0:0:0:
408,84,130145,2,0,L|40:360,1,440
100,172,131599,1,0,0:0:0:0:
156,80,132365,1,0,0:0:0:0:
168,60,132977,2,0,L|200:216,1,160
132,124,133666,1,0,0:0:0:0:
192,68,134354,1,0,0:0:0:0:
412,88,135196,1,0,0:0:0:0:
456,296,135885,2,0,L|300:296,1,120
212,264,136497,1,0,0:0:0:0:
232,248,136803,1,0,0:0:0:0:
236,196,137186,2,0,L|556:244,1,320
512,160,138258,1,0,0:0:0:0:
492,152,138640,1,0,0:0:0:0:
424,152,139099,1,0,0:0:0:0:
344,152,139406,1,0,0:0:0:0:
296,148,139865,1,0,0:0:0:0:
240,152,140247,2,0,L|76:180,1,160
44,132,140936,1,0,0:0:0:0:
48,96,141319,1,0,0:0:0:0:
48,56,141625,2,0,L|188:80,2,120
204,92,142467,1,0,0:0:0:0:
192,120,142926,1,0,0:0:0:0:
180,192,143385,2,0,L|140:304,2,80
200,216,144150,1,0,0:0:0:0:
228,192,144533,2,0,L|196:312,2,120
320,172,145451,1,0,0:0:0:0:
320,172,145758,1,0,0:0:0:0:
320,184,146140,1,0,0:0:0:0:
320,184,146523,1,0,0:0:0:0:
320,164,147212,1,0,0:0:0:0:
292,180,147594,2,0,L|288:240,15,40
284,212,149125,1,0,0:0:0:0:
272,180,149431,1,0,0:0:0:0:
260,160,149737,1,0,0:0:0:0:
260,176,150120,2,0,L|256:232,11,40
224,164,151421,1,0,0:0:0:0:
204,120,151803,1,0,0:0:0:0:
192,96,152110,1,0,0:0:0:0:
176,68,152416,1,0,0:0:0:0:
168,88,152798,2,0,L|168:144,40,40
188,112,156166,1,0,0:0:0:0:
212,92,156395,1,0,0:0:0:0:
224,92,156548,1,0,0:0:0:0:
252,84,156701,1,0,0:0:0:0:
276,80,156854,1,0,0:0:0:0:
292,80,157008,1,0,0:0:0:0:
304,80,157237,1,0,0:0:0:0:
304,80,157390,1,0,0:0:0:0:
312,96,157543,1,0,0:0:0:0:
308,112,157696,1,0,0:0:0:0:
304,128,157849,1,0,0:0:0:0:
296,144,158002,1,0,0:0:0:0:
288,152,158079,1,0,0:0:0:0:
288,180,158232,1,0,0:0:0:0:
256,192,158615,12,0,161064,0:0:0:0:
336,124,161370,5,0,0:0:0:0:
332,112,161676,1,0,0:0:0:0:
240,72,162059,1,0,0:0:0:0:
192,76,162365,1,0,0:0:0:0:
172,88,162671,1,0,0:0:0:0:
120,52,163053,2,0,L|104:192,3,120
112,96,164278,1,0,0:0:0:0:
120,68,164508,1,0,0:0:0:0:
156,40,164890,1,0,0:0:0:0:
156,40,165196,1,0,0:0:0:0:
156,40,165579,1,0,0:0:0:0:
156,44,165885,1,0,0:0:0:0:
148,116,166344,2,0,L|144:260,2,120
220,232,167186,1,0,0:0:0:0:
220,228,167492,1,0,0:0:0:0:
248,184,167875,1,0,0:0:0:0:
256,168,168181,1,0,0:0:0:0:
272,116,168487,1,0,0:0:0:0:
280,72,168946,1,0,0:0:0:0:
280,72,169023,1,0,0:0:0:0:
280,72,169176,1,0,0:0:0:0:
280,60,169788,2,0,L|156:284,1,240
100,200,170553,1,0,0:0:0:0:
108,144,170936,1,0,0:0:0:0:
128,72,171242,1,0,0:0:0:0:
132,56,171548,1,0,0:0:0:0:
136,84,172008,2,0,L|140:244,2,160
188,112,173079,1,0,0:0:0:0:
192,88,173385,1,0,0:0:0:0:
192,64,173768,1,0,0:0:0:0:
192,64,174150,2,0,L|240:248,2,160
300,40,175069,1,0,0:0:0:0:
300,40,175375,1,0,0:0:0:0:
304,36,175758,1,0,0:0:0:0:
296,48,176140,2,0,L|168:196,2,160
140,152,177135,1,0,0:0:0:0:
140,136,177441,1,0,0:0:0:0:
160,120,177824,1,0,0:0:0:0:
164,112,178207,1,0,0:0:0:0:
164,112,178283,1,0,0:0:0:0:
172,104,178666,2,0,L|168:232,2,120
136,132,179737,1,0,0:0:0:0:
136,132,180043,1,0,0:0:0:0:
136,132,180349,1,0,0:0:0:0:
256,192,181268,12,0,182492,0:0:0:0:
140,128,182875,5,0,0:0:0:0:
160,104,183258,1,0,0:0:0:0:
192,76,183564,1,0,0:0:0:0:
224,48,183946,1,0,0:0:0:0:
264,48,184329,1,0,0:0:0:0:
288,56,184635,1,0,0:0:0:0:
320,76,185018,1,0,0:0:0:0:
368,120,185400,1,0,0:0:0:0:
368,144,185707,2,0,L|264:360,1,240
160,288,186854,1,0,0:0:0:0:
140,256,187161,1,0,0:0:0:0:
128,212,187543,1,0,0:0:0:0:
104,136,187849,1,0,0:0:0:0:
112,84,188232,1,0,0:0:0:0:
128,64,188538,1,0,0:0:0:0:
196,60,188844,1,0,0:0:0:0:
224,72,189227,1,0,0:0:0:0:
228,80,189610,2,0,L|168:296,1,200
72,204,190298,1,0,0:0:0:0:
76,164,190681,1,0,0:0:0:0:
100,100,190987,1,0,0:0:0:0:
144,64,191293,1,0,0:0:0:0:
248,64,191676,1,0,0:0:0:0:
288,64,192059,1,0,0:0:0:0:
312,64,192518,2,0,L|232:184,1,120
200,164,193207,1,0,0:0:0:0:
200,156,193513,1,0,0:0:0:0:
216,224,193819,1,0,0:0:0:0:
248,252,194201,1,0,0:0:0:0:
292,260,194508,1,0,0:0:0:0:
312,260,194814,1,0,0:0:0:0:
312,268,195273,2,0,L|384:168,2,120
392,112,196191,1,0,0:0:0:0:
384,96,196497,1,0,0:0:0:0:
344,64,196880,1,0,0:0:0:0:
288,64,197186,1,0,0:0:0:0:
256,76,197492,1,0,0:0:0:0:
236,92,197798,1,0,0:0:0:0:
240,128,198181,2,0,L|244:308,2,160
152,204,199099,1,0,0:0:0:0:
172,168,199482,1,0,0:0:0:0:
236,96,199788,1,0,0:0:0:0:
276,72,200171,1,0,0:0:0:0:
316,64,200477,1,0,0:0:0:0:
488,112,200860,1,0,0:0:0:0:
472,264,201166,1,0,0:0:0:0:
412,304,201548,1,0,0:0:0:0:
256,192,202161,12,0,203234,0:0:0:0:
