osu file format v14

[General]
AudioFilename: audio.mp3
AudioLeadIn: 0
PreviewTime: -1
Countdown: 1
SampleSet: None
StackLeniency: 0.7
Mode: 0
LetterboxInBreaks: 0
WidescreenStoryboard: 1

[Editor]
DistanceSpacing: 1
BeatDivisor: 16
GridSize: 4
TimelineZoom: 1

[Metadata]
Title:Darren Styles Remix
TitleUnicode:Darren Styles Remix
Artist:XinCrin
ArtistUnicode:XinCrin
Creator:SLDplays
Version:Dont Try This At Home LOL:)
Source:
Tags:
BeatmapID:1025802
BeatmapSetID:480507

[Difficulty]
HPDrainRate:10
CircleSize:1
OverallDifficulty:10
ApproachRate:10
SliderMultiplier:1.63
SliderTickRate:8

[Events]
//Background and Video events
0,0,"pause-overlay.png",0,0
//Break Periods
//Storyboard Layer 0 (Background)
//Storyboard Layer 1 (Fail)
//Storyboard Layer 2 (Pass)
//Storyboard Layer 3 (Foreground)
//Storyboard Sound Samples

[TimingPoints]
0,689.655172413793,4,1,0,100,1,0
5856,-100,4,1,0,100,0,0
34406,306.122448979592,4,1,0,100,1,0

[HitObjects]
184,216,344,5,0,0:0:0:0:
232,216,387,5,0,0:0:0:0:
136,228,431,5,0,0:0:0:0:
232,208,474,5,0,0:0:0:0:
136,188,517,5,0,0:0:0:0:
232,248,560,5,0,0:0:0:0:
188,204,1206,1,0,0:0:0:0:
236,204,1249,1,0,0:0:0:0:
140,216,1293,1,0,0:0:0:0:
236,196,1336,1,0,0:0:0:0:
140,176,1379,1,0,0:0:0:0:
236,236,1422,1,0,0:0:0:0:
192,200,1896,1,0,0:0:0:0:
240,200,1939,1,0,0:0:0:0:
144,212,1983,1,0,0:0:0:0:
240,192,2026,1,0,0:0:0:0:
144,172,2069,1,0,0:0:0:0:
240,232,2112,1,0,0:0:0:0:
192,200,2586,1,0,0:0:0:0:
240,200,2629,1,0,0:0:0:0:
144,212,2673,1,0,0:0:0:0:
240,192,2716,1,0,0:0:0:0:
144,172,2759,1,0,0:0:0:0:
240,232,2802,1,0,0:0:0:0:
236,180,3232,1,0,0:0:0:0:
284,180,3275,1,0,0:0:0:0:
188,192,3319,1,0,0:0:0:0:
284,172,3362,1,0,0:0:0:0:
188,152,3405,1,0,0:0:0:0:
284,212,3448,1,0,0:0:0:0:
312,112,3922,1,0,0:0:0:0:
312,112,3965,1,0,0:0:0:0:
340,144,4009,1,0,0:0:0:0:
360,104,4052,1,0,0:0:0:0:
264,84,4095,1,0,0:0:0:0:
360,144,4138,1,0,0:0:0:0:
364,56,4698,1,0,0:0:0:0:
364,56,4741,1,0,0:0:0:0:
392,88,4785,1,0,0:0:0:0:
412,48,4828,1,0,0:0:0:0:
316,28,4871,1,0,0:0:0:0:
412,88,4914,1,0,0:0:0:0:
436,72,5431,1,0,0:0:0:0:
436,72,5474,1,0,0:0:0:0:
464,104,5518,1,0,0:0:0:0:
32,312,5560,1,0,0:0:0:0:
484,64,5561,1,0,0:0:0:0:
388,44,5604,1,0,0:0:0:0:
484,104,5647,1,0,0:0:0:0:
128,64,6120,1,0,0:0:0:0:
156,96,6164,1,0,0:0:0:0:
176,56,6207,1,0,0:0:0:0:
80,36,6250,1,0,0:0:0:0:
176,96,6293,1,0,0:0:0:0:
80,340,6853,1,0,0:0:0:0:
80,340,6896,1,0,0:0:0:0:
128,332,6983,1,0,0:0:0:0:
32,312,7026,1,0,0:0:0:0:
128,372,7069,1,0,0:0:0:0:
416,332,7586,1,0,0:0:0:0:
416,332,7629,1,0,0:0:0:0:
444,364,7673,1,0,0:0:0:0:
464,324,7716,1,0,0:0:0:0:
368,304,7759,1,0,0:0:0:0:
464,364,7802,1,0,0:0:0:0:
180,336,8232,1,0,0:0:0:0:
180,336,8275,1,0,0:0:0:0:
208,368,8319,1,0,0:0:0:0:
228,328,8362,1,0,0:0:0:0:
132,308,8405,1,0,0:0:0:0:
228,368,8448,1,0,0:0:0:0:
340,332,8922,1,0,0:0:0:0:
368,364,9009,1,0,0:0:0:0:
292,304,9095,1,0,0:0:0:0:
388,364,9138,1,0,0:0:0:0:
192,64,9655,1,0,0:0:0:0:
192,64,9698,1,0,0:0:0:0:
220,96,9742,1,0,0:0:0:0:
240,56,9785,1,0,0:0:0:0:
144,36,9828,1,0,0:0:0:0:
240,96,9871,1,0,0:0:0:0:
304,56,10344,1,0,0:0:0:0:
352,56,10387,1,0,0:0:0:0:
332,88,10431,1,0,0:0:0:0:
352,48,10474,1,0,0:0:0:0:
256,28,10517,1,0,0:0:0:0:
352,88,10560,1,0,0:0:0:0:
96,132,11077,1,0,0:0:0:0:
144,132,11120,1,0,0:0:0:0:
124,164,11164,1,0,0:0:0:0:
144,124,11207,1,0,0:0:0:0:
48,104,11250,1,0,0:0:0:0:
144,164,11293,1,0,0:0:0:0:
408,176,11810,1,0,0:0:0:0:
408,176,11853,1,0,0:0:0:0:
436,208,11897,1,0,0:0:0:0:
456,168,11940,1,0,0:0:0:0:
360,148,11983,1,0,0:0:0:0:
456,208,12026,1,0,0:0:0:0:
104,184,12543,1,0,0:0:0:0:
104,184,12586,1,0,0:0:0:0:
132,216,12630,1,0,0:0:0:0:
152,176,12673,1,0,0:0:0:0:
56,156,12716,1,0,0:0:0:0:
152,216,12759,1,0,0:0:0:0:
264,336,13189,1,0,0:0:0:0:
264,336,13232,1,0,0:0:0:0:
292,368,13276,1,0,0:0:0:0:
312,328,13319,1,0,0:0:0:0:
216,308,13362,1,0,0:0:0:0:
312,368,13405,1,0,0:0:0:0:
244,36,13922,1,0,0:0:0:0:
244,36,13965,1,0,0:0:0:0:
272,68,14009,1,0,0:0:0:0:
196,8,14095,1,0,0:0:0:0:
292,68,14138,1,0,0:0:0:0:
428,176,14525,1,0,0:0:0:0:
428,176,14568,1,0,0:0:0:0:
456,208,14612,1,0,0:0:0:0:
476,168,14655,1,0,0:0:0:0:
380,148,14698,1,0,0:0:0:0:
476,208,14741,1,0,0:0:0:0:
420,44,15258,1,0,0:0:0:0:
420,44,15301,1,0,0:0:0:0:
448,76,15345,1,0,0:0:0:0:
468,36,15388,1,0,0:0:0:0:
372,16,15431,1,0,0:0:0:0:
468,76,15474,1,0,0:0:0:0:
56,332,15948,1,0,0:0:0:0:
56,332,15991,1,0,0:0:0:0:
84,364,16035,1,0,0:0:0:0:
8,304,16121,1,0,0:0:0:0:
104,364,16164,1,0,0:0:0:0:
60,48,16637,1,0,0:0:0:0:
60,48,16680,1,0,0:0:0:0:
88,80,16724,1,0,0:0:0:0:
108,40,16767,1,0,0:0:0:0:
12,20,16810,1,0,0:0:0:0:
108,80,16853,1,0,0:0:0:0:
420,332,17370,1,0,0:0:0:0:
420,332,17413,1,0,0:0:0:0:
448,364,17457,1,0,0:0:0:0:
468,324,17500,1,0,0:0:0:0:
372,304,17543,1,0,0:0:0:0:
468,364,17586,1,0,0:0:0:0:
392,60,18103,1,0,0:0:0:0:
392,60,18146,1,0,0:0:0:0:
420,92,18190,1,0,0:0:0:0:
440,52,18233,1,0,0:0:0:0:
344,32,18276,1,0,0:0:0:0:
440,92,18319,1,0,0:0:0:0:
208,232,18749,1,0,0:0:0:0:
208,232,18792,1,0,0:0:0:0:
236,264,18836,1,0,0:0:0:0:
256,224,18879,1,0,0:0:0:0:
160,204,18922,1,0,0:0:0:0:
256,264,18965,1,0,0:0:0:0:
320,136,19439,1,0,0:0:0:0:
348,168,19483,1,0,0:0:0:0:
368,128,19526,1,0,0:0:0:0:
272,108,19569,1,0,0:0:0:0:
368,168,19612,1,0,0:0:0:0:
216,144,20086,1,0,0:0:0:0:
216,144,20129,1,0,0:0:0:0:
244,176,20173,1,0,0:0:0:0:
264,136,20216,1,0,0:0:0:0:
168,116,20259,1,0,0:0:0:0:
264,176,20302,1,0,0:0:0:0:
308,252,20905,1,0,0:0:0:0:
308,252,20948,1,0,0:0:0:0:
336,284,20992,1,0,0:0:0:0:
356,244,21035,1,0,0:0:0:0:
260,224,21078,1,0,0:0:0:0:
356,284,21121,1,0,0:0:0:0:
48,84,21594,1,0,0:0:0:0:
48,84,21637,1,0,0:0:0:0:
76,116,21681,1,0,0:0:0:0:
96,76,21724,1,0,0:0:0:0:
0,56,21767,1,0,0:0:0:0:
96,116,21810,1,0,0:0:0:0:
432,324,22327,1,0,0:0:0:0:
432,324,22370,1,0,0:0:0:0:
460,356,22414,1,0,0:0:0:0:
480,316,22457,1,0,0:0:0:0:
384,296,22500,1,0,0:0:0:0:
480,356,22543,1,0,0:0:0:0:
100,336,22974,1,0,0:0:0:0:
100,336,23017,1,0,0:0:0:0:
128,368,23061,1,0,0:0:0:0:
148,328,23104,1,0,0:0:0:0:
52,308,23147,1,0,0:0:0:0:
148,368,23190,1,0,0:0:0:0:
440,64,23749,1,0,0:0:0:0:
440,64,23792,1,0,0:0:0:0:
392,76,23836,1,0,0:0:0:0:
488,56,23879,1,0,0:0:0:0:
392,36,23922,1,0,0:0:0:0:
488,96,23965,1,0,0:0:0:0:
192,272,24439,1,0,0:0:0:0:
192,272,24482,1,0,0:0:0:0:
220,304,24526,1,0,0:0:0:0:
240,264,24569,1,0,0:0:0:0:
144,244,24612,1,0,0:0:0:0:
240,304,24655,1,0,0:0:0:0:
364,256,25086,1,0,0:0:0:0:
364,256,25129,1,0,0:0:0:0:
392,288,25173,1,0,0:0:0:0:
412,248,25216,1,0,0:0:0:0:
316,228,25259,1,0,0:0:0:0:
412,288,25302,1,0,0:0:0:0:
364,120,25732,1,0,0:0:0:0:
364,120,25775,1,0,0:0:0:0:
392,152,25819,1,0,0:0:0:0:
412,112,25862,1,0,0:0:0:0:
316,92,25905,1,0,0:0:0:0:
412,152,25948,1,0,0:0:0:0:
200,112,26508,1,0,0:0:0:0:
200,112,26551,1,0,0:0:0:0:
228,144,26595,1,0,0:0:0:0:
248,104,26638,1,0,0:0:0:0:
152,84,26681,1,0,0:0:0:0:
248,144,26724,1,0,0:0:0:0:
76,64,27112,1,0,0:0:0:0:
76,64,27155,1,0,0:0:0:0:
104,96,27199,1,0,0:0:0:0:
124,56,27242,1,0,0:0:0:0:
28,36,27285,1,0,0:0:0:0:
124,96,27328,1,0,0:0:0:0:
88,316,27931,1,0,0:0:0:0:
88,316,27974,1,0,0:0:0:0:
116,348,28018,1,0,0:0:0:0:
136,308,28061,1,0,0:0:0:0:
40,288,28104,1,0,0:0:0:0:
136,348,28147,1,0,0:0:0:0:
416,312,28663,1,0,0:0:0:0:
416,312,28706,1,0,0:0:0:0:
444,344,28750,1,0,0:0:0:0:
464,304,28793,1,0,0:0:0:0:
368,284,28836,1,0,0:0:0:0:
464,344,28879,1,0,0:0:0:0:
408,80,29439,1,0,0:0:0:0:
408,80,29482,1,0,0:0:0:0:
436,112,29526,1,0,0:0:0:0:
456,72,29569,1,0,0:0:0:0:
360,52,29612,1,0,0:0:0:0:
456,112,29655,1,0,0:0:0:0:
508,40,30043,1,0,0:0:0:0:
508,40,30086,1,0,0:0:0:0:
508,40,30129,1,0,0:0:0:0:
508,40,30172,1,0,0:0:0:0:
508,40,30215,1,0,0:0:0:0:
412,12,30216,1,0,0:0:0:0:
508,72,30259,1,0,0:0:0:0:
72,336,30689,1,0,0:0:0:0:
120,336,30732,1,0,0:0:0:0:
100,368,30776,1,0,0:0:0:0:
120,328,30819,1,0,0:0:0:0:
24,308,30862,1,0,0:0:0:0:
120,368,30905,1,0,0:0:0:0:
56,32,31379,1,0,0:0:0:0:
56,32,31422,1,0,0:0:0:0:
84,64,31466,1,0,0:0:0:0:
104,24,31509,1,0,0:0:0:0:
8,4,31552,1,0,0:0:0:0:
104,64,31595,1,0,0:0:0:0:
464,352,31982,1,0,0:0:0:0:
464,352,32025,1,0,0:0:0:0:
492,384,32069,1,0,0:0:0:0:
512,344,32112,1,0,0:0:0:0:
416,324,32155,1,0,0:0:0:0:
512,384,32198,1,0,0:0:0:0:
440,108,32672,1,0,0:0:0:0:
440,108,32715,1,0,0:0:0:0:
468,140,32759,1,0,0:0:0:0:
488,100,32802,1,0,0:0:0:0:
392,80,32845,1,0,0:0:0:0:
488,140,32888,1,0,0:0:0:0:
240,216,33448,1,0,0:0:0:0:
240,216,33491,1,0,0:0:0:0:
268,248,33535,1,0,0:0:0:0:
288,208,33578,1,0,0:0:0:0:
192,188,33621,1,0,0:0:0:0:
288,248,33664,1,0,0:0:0:0:
200,152,34396,1,0,0:0:0:0:
56,304,34425,1,0,0:0:0:0:
52,56,34444,1,0,0:0:0:0:
440,52,34463,1,0,0:0:0:0:
452,332,34482,1,0,0:0:0:0:
300,152,34501,1,0,0:0:0:0:
200,152,34559,1,0,0:0:0:0:
56,304,34588,1,0,0:0:0:0:
52,56,34607,1,0,0:0:0:0:
440,52,34626,1,0,0:0:0:0:
452,332,34645,1,0,0:0:0:0:
300,152,34664,1,0,0:0:0:0:
200,152,34731,1,0,0:0:0:0:
56,304,34760,1,0,0:0:0:0:
52,56,34779,1,0,0:0:0:0:
440,52,34798,1,0,0:0:0:0:
452,332,34817,1,0,0:0:0:0:
300,152,34836,1,0,0:0:0:0:
200,152,34884,1,0,0:0:0:0:
56,304,34913,1,0,0:0:0:0:
52,56,34932,1,0,0:0:0:0:
440,52,34951,1,0,0:0:0:0:
452,332,34970,1,0,0:0:0:0:
300,152,34989,1,0,0:0:0:0:
200,152,35037,1,0,0:0:0:0:
56,304,35066,1,0,0:0:0:0:
52,56,35085,1,0,0:0:0:0:
440,52,35104,1,0,0:0:0:0:
452,332,35123,1,0,0:0:0:0:
300,152,35142,1,0,0:0:0:0:
288,144,35362,1,0,0:0:0:0:
264,184,35381,1,0,0:0:0:0:
384,116,35400,1,0,0:0:0:0:
328,180,35420,1,0,0:0:0:0:
264,184,35439,1,0,0:0:0:0:
344,124,35458,1,0,0:0:0:0:
200,112,35477,1,0,0:0:0:0:
320,148,35515,1,0,0:0:0:0:
356,108,35726,1,0,0:0:0:0:
332,148,35745,1,0,0:0:0:0:
452,80,35764,1,0,0:0:0:0:
396,144,35784,1,0,0:0:0:0:
332,148,35803,1,0,0:0:0:0:
412,88,35822,1,0,0:0:0:0:
268,76,35841,1,0,0:0:0:0:
388,112,35879,1,0,0:0:0:0:
304,168,36108,1,0,0:0:0:0:
280,208,36127,1,0,0:0:0:0:
400,140,36146,1,0,0:0:0:0:
344,204,36166,1,0,0:0:0:0:
280,208,36185,1,0,0:0:0:0:
360,148,36204,1,0,0:0:0:0:
216,136,36223,1,0,0:0:0:0:
336,172,36261,1,0,0:0:0:0:
348,240,36472,1,0,0:0:0:0:
324,280,36491,1,0,0:0:0:0:
444,212,36510,1,0,0:0:0:0:
388,276,36530,1,0,0:0:0:0:
324,280,36549,1,0,0:0:0:0:
404,220,36568,1,0,0:0:0:0:
260,208,36587,1,0,0:0:0:0:
380,244,36625,1,0,0:0:0:0:
232,224,36835,1,0,0:0:0:0:
208,264,36854,1,0,0:0:0:0:
328,196,36873,1,0,0:0:0:0:
272,260,36893,1,0,0:0:0:0:
208,264,36912,1,0,0:0:0:0:
288,204,36931,1,0,0:0:0:0:
144,192,36950,1,0,0:0:0:0:
264,228,36988,1,0,0:0:0:0:
224,228,37141,1,0,0:0:0:0:
200,268,37160,1,0,0:0:0:0:
320,200,37179,1,0,0:0:0:0:
264,264,37199,1,0,0:0:0:0:
200,268,37218,1,0,0:0:0:0:
280,208,37237,1,0,0:0:0:0:
136,196,37256,1,0,0:0:0:0:
256,232,37294,1,0,0:0:0:0:
224,228,37314,1,0,0:0:0:0:
200,268,37333,1,0,0:0:0:0:
320,200,37352,1,0,0:0:0:0:
264,264,37372,1,0,0:0:0:0:
200,268,37391,1,0,0:0:0:0:
280,208,37410,1,0,0:0:0:0:
136,196,37429,1,0,0:0:0:0:
232,228,37448,1,0,0:0:0:0:
256,232,37467,1,0,0:0:0:0:
328,200,37486,1,0,0:0:0:0:
272,264,37506,1,0,0:0:0:0:
208,268,37525,1,0,0:0:0:0:
288,208,37544,1,0,0:0:0:0:
144,196,37563,1,0,0:0:0:0:
264,232,37601,1,0,0:0:0:0:
232,228,37620,1,0,0:0:0:0:
208,268,37639,1,0,0:0:0:0:
328,200,37658,1,0,0:0:0:0:
272,264,37678,1,0,0:0:0:0:
208,268,37697,1,0,0:0:0:0:
288,208,37716,1,0,0:0:0:0:
144,196,37735,1,0,0:0:0:0:
264,232,37773,1,0,0:0:0:0:
232,228,37792,1,0,0:0:0:0:
208,268,37811,1,0,0:0:0:0:
328,200,37830,1,0,0:0:0:0:
272,264,37850,1,0,0:0:0:0:
208,268,37869,1,0,0:0:0:0:
288,208,37888,1,0,0:0:0:0:
144,196,37907,1,0,0:0:0:0:
264,232,37945,1,0,0:0:0:0:
236,224,38117,1,0,0:0:0:0:
212,264,38136,1,0,0:0:0:0:
332,196,38155,1,0,0:0:0:0:
276,260,38175,1,0,0:0:0:0:
212,264,38194,1,0,0:0:0:0:
292,204,38213,1,0,0:0:0:0:
148,192,38232,1,0,0:0:0:0:
268,228,38270,1,0,0:0:0:0:
288,224,38538,1,0,0:0:0:0:
264,264,38557,1,0,0:0:0:0:
384,196,38576,1,0,0:0:0:0:
328,260,38596,1,0,0:0:0:0:
264,264,38615,1,0,0:0:0:0:
344,204,38634,1,0,0:0:0:0:
200,192,38653,1,0,0:0:0:0:
320,228,38691,1,0,0:0:0:0:
288,224,38729,1,0,0:0:0:0:
264,264,38748,1,0,0:0:0:0:
384,196,38767,1,0,0:0:0:0:
328,260,38787,1,0,0:0:0:0:
264,264,38806,1,0,0:0:0:0:
344,204,38825,1,0,0:0:0:0:
200,192,38844,1,0,0:0:0:0:
320,228,38882,1,0,0:0:0:0:
288,224,38883,1,0,0:0:0:0:
264,264,38902,1,0,0:0:0:0:
384,196,38921,1,0,0:0:0:0:
328,260,38941,1,0,0:0:0:0:
264,264,38960,1,0,0:0:0:0:
344,204,38979,1,0,0:0:0:0:
200,192,38998,1,0,0:0:0:0:
320,228,39036,1,0,0:0:0:0:
288,224,39074,1,0,0:0:0:0:
264,264,39093,1,0,0:0:0:0:
384,196,39112,1,0,0:0:0:0:
328,260,39132,1,0,0:0:0:0:
264,264,39151,1,0,0:0:0:0:
344,204,39170,1,0,0:0:0:0:
200,192,39189,1,0,0:0:0:0:
288,224,39227,1,0,0:0:0:0:
320,228,39227,1,0,0:0:0:0:
264,264,39246,1,0,0:0:0:0:
384,196,39265,1,0,0:0:0:0:
328,260,39285,1,0,0:0:0:0:
264,264,39304,1,0,0:0:0:0:
344,204,39323,1,0,0:0:0:0:
200,192,39342,1,0,0:0:0:0:
320,228,39380,1,0,0:0:0:0:
288,224,39571,1,0,0:0:0:0:
264,264,39590,1,0,0:0:0:0:
384,196,39609,1,0,0:0:0:0:
328,260,39629,1,0,0:0:0:0:
264,264,39648,1,0,0:0:0:0:
344,204,39667,1,0,0:0:0:0:
200,192,39686,1,0,0:0:0:0:
320,228,39724,1,0,0:0:0:0:
220,204,39973,1,0,0:0:0:0:
196,244,39992,1,0,0:0:0:0:
316,176,40011,1,0,0:0:0:0:
260,240,40031,1,0,0:0:0:0:
196,244,40050,1,0,0:0:0:0:
276,184,40069,1,0,0:0:0:0:
132,172,40088,1,0,0:0:0:0:
252,208,40126,1,0,0:0:0:0:
172,204,40356,1,0,0:0:0:0:
148,244,40375,1,0,0:0:0:0:
268,176,40394,1,0,0:0:0:0:
212,240,40414,1,0,0:0:0:0:
148,244,40433,1,0,0:0:0:0:
228,184,40452,1,0,0:0:0:0:
84,172,40471,1,0,0:0:0:0:
204,208,40509,1,0,0:0:0:0:
156,180,40528,1,0,0:0:0:0:
132,220,40547,1,0,0:0:0:0:
252,152,40566,1,0,0:0:0:0:
196,216,40586,1,0,0:0:0:0:
132,220,40605,1,0,0:0:0:0:
212,160,40624,1,0,0:0:0:0:
68,148,40643,1,0,0:0:0:0:
156,160,40681,1,0,0:0:0:0:
188,184,40681,1,0,0:0:0:0:
132,200,40700,1,0,0:0:0:0:
252,132,40719,1,0,0:0:0:0:
196,196,40739,1,0,0:0:0:0:
132,200,40758,1,0,0:0:0:0:
212,140,40777,1,0,0:0:0:0:
68,128,40796,1,0,0:0:0:0:
188,164,40834,1,0,0:0:0:0:
156,128,41025,1,0,0:0:0:0:
132,168,41044,1,0,0:0:0:0:
252,100,41063,1,0,0:0:0:0:
196,164,41083,1,0,0:0:0:0:
132,168,41102,1,0,0:0:0:0:
212,108,41121,1,0,0:0:0:0:
68,96,41140,1,0,0:0:0:0:
188,132,41178,1,0,0:0:0:0:
176,96,41370,1,0,0:0:0:0:
152,136,41389,1,0,0:0:0:0:
272,68,41408,1,0,0:0:0:0:
216,132,41428,1,0,0:0:0:0:
152,136,41447,1,0,0:0:0:0:
232,76,41466,1,0,0:0:0:0:
88,64,41485,1,0,0:0:0:0:
208,100,41523,1,0,0:0:0:0:
200,80,41714,1,0,0:0:0:0:
176,120,41733,1,0,0:0:0:0:
296,52,41752,1,0,0:0:0:0:
240,116,41772,1,0,0:0:0:0:
176,120,41791,1,0,0:0:0:0:
256,60,41810,1,0,0:0:0:0:
112,48,41829,1,0,0:0:0:0:
232,84,41867,1,0,0:0:0:0:
200,80,41886,1,0,0:0:0:0:
176,120,41905,1,0,0:0:0:0:
296,52,41924,1,0,0:0:0:0:
240,116,41944,1,0,0:0:0:0:
176,120,41963,1,0,0:0:0:0:
256,60,41982,1,0,0:0:0:0:
112,48,42001,1,0,0:0:0:0:
232,84,42039,1,0,0:0:0:0:
232,84,42039,1,0,0:0:0:0:
208,124,42058,1,0,0:0:0:0:
328,56,42077,1,0,0:0:0:0:
272,120,42097,1,0,0:0:0:0:
208,124,42116,1,0,0:0:0:0:
288,64,42135,1,0,0:0:0:0:
144,52,42154,1,0,0:0:0:0:
264,88,42192,1,0,0:0:0:0:
276,76,42403,1,0,0:0:0:0:
252,116,42422,1,0,0:0:0:0:
372,48,42441,1,0,0:0:0:0:
316,112,42461,1,0,0:0:0:0:
252,116,42480,1,0,0:0:0:0:
332,56,42499,1,0,0:0:0:0:
188,44,42518,1,0,0:0:0:0:
308,80,42556,1,0,0:0:0:0:
304,56,42747,1,0,0:0:0:0:
280,96,42766,1,0,0:0:0:0:
400,28,42785,1,0,0:0:0:0:
344,92,42805,1,0,0:0:0:0:
280,96,42824,1,0,0:0:0:0:
360,36,42843,1,0,0:0:0:0:
216,24,42862,1,0,0:0:0:0:
336,60,42900,1,0,0:0:0:0:
320,64,43149,1,0,0:0:0:0:
296,104,43168,1,0,0:0:0:0:
416,36,43187,1,0,0:0:0:0:
360,100,43207,1,0,0:0:0:0:
296,104,43226,1,0,0:0:0:0:
376,44,43245,1,0,0:0:0:0:
232,32,43264,1,0,0:0:0:0:
340,92,43302,1,0,0:0:0:0:
352,68,43302,1,0,0:0:0:0:
316,132,43321,1,0,0:0:0:0:
436,64,43340,1,0,0:0:0:0:
380,128,43360,1,0,0:0:0:0:
316,132,43379,1,0,0:0:0:0:
396,72,43398,1,0,0:0:0:0:
252,60,43417,1,0,0:0:0:0:
348,104,43455,1,0,0:0:0:0:
372,96,43455,1,0,0:0:0:0:
324,144,43474,1,0,0:0:0:0:
444,76,43493,1,0,0:0:0:0:
388,140,43513,1,0,0:0:0:0:
324,144,43532,1,0,0:0:0:0:
404,84,43551,1,0,0:0:0:0:
260,72,43570,1,0,0:0:0:0:
380,108,43608,1,0,0:0:0:0:
412,188,43857,1,0,0:0:0:0:
388,228,43876,1,0,0:0:0:0:
508,160,43895,1,0,0:0:0:0:
452,224,43915,1,0,0:0:0:0:
388,228,43934,1,0,0:0:0:0:
468,168,43953,1,0,0:0:0:0:
324,156,43972,1,0,0:0:0:0:
444,192,44010,1,0,0:0:0:0:
408,216,44221,1,0,0:0:0:0:
384,256,44240,1,0,0:0:0:0:
504,188,44259,1,0,0:0:0:0:
448,252,44279,1,0,0:0:0:0:
384,256,44298,1,0,0:0:0:0:
464,196,44317,1,0,0:0:0:0:
320,184,44336,1,0,0:0:0:0:
440,220,44374,1,0,0:0:0:0:
372,232,44565,1,0,0:0:0:0:
348,272,44584,1,0,0:0:0:0:
468,204,44603,1,0,0:0:0:0:
412,268,44623,1,0,0:0:0:0:
348,272,44642,1,0,0:0:0:0:
428,212,44661,1,0,0:0:0:0:
284,200,44680,1,0,0:0:0:0:
404,236,44718,1,0,0:0:0:0:
360,244,44756,1,0,0:0:0:0:
336,284,44775,1,0,0:0:0:0:
456,216,44794,1,0,0:0:0:0:
400,280,44814,1,0,0:0:0:0:
336,284,44833,1,0,0:0:0:0:
416,224,44852,1,0,0:0:0:0:
272,212,44871,1,0,0:0:0:0:
352,256,44909,1,0,0:0:0:0:
392,248,44909,1,0,0:0:0:0:
328,296,44928,1,0,0:0:0:0:
448,228,44947,1,0,0:0:0:0:
392,292,44967,1,0,0:0:0:0:
328,296,44986,1,0,0:0:0:0:
408,236,45005,1,0,0:0:0:0:
264,224,45024,1,0,0:0:0:0:
384,260,45062,1,0,0:0:0:0:
308,272,45235,1,0,0:0:0:0:
284,312,45254,1,0,0:0:0:0:
404,244,45273,1,0,0:0:0:0:
348,308,45293,1,0,0:0:0:0:
284,312,45312,1,0,0:0:0:0:
364,252,45331,1,0,0:0:0:0:
220,240,45350,1,0,0:0:0:0:
340,276,45388,1,0,0:0:0:0:
176,208,45617,1,0,0:0:0:0:
152,248,45636,1,0,0:0:0:0:
272,180,45655,1,0,0:0:0:0:
216,244,45675,1,0,0:0:0:0:
152,248,45694,1,0,0:0:0:0:
232,188,45713,1,0,0:0:0:0:
88,176,45732,1,0,0:0:0:0:
208,212,45770,1,0,0:0:0:0:
88,208,45904,1,0,0:0:0:0:
64,248,45923,1,0,0:0:0:0:
184,180,45942,1,0,0:0:0:0:
128,244,45962,1,0,0:0:0:0:
64,248,45981,1,0,0:0:0:0:
144,188,46000,1,0,0:0:0:0:
0,176,46019,1,0,0:0:0:0:
120,212,46057,1,0,0:0:0:0:
124,188,46096,1,0,0:0:0:0:
100,228,46115,1,0,0:0:0:0:
220,160,46134,1,0,0:0:0:0:
164,224,46154,1,0,0:0:0:0:
100,228,46173,1,0,0:0:0:0:
180,168,46192,1,0,0:0:0:0:
36,156,46211,1,0,0:0:0:0:
156,192,46249,1,0,0:0:0:0:
108,128,46268,1,0,0:0:0:0:
84,168,46287,1,0,0:0:0:0:
204,100,46306,1,0,0:0:0:0:
148,164,46326,1,0,0:0:0:0:
84,168,46345,1,0,0:0:0:0:
164,108,46364,1,0,0:0:0:0:
20,96,46383,1,0,0:0:0:0:
140,132,46421,1,0,0:0:0:0:
144,80,46459,1,0,0:0:0:0:
120,120,46478,1,0,0:0:0:0:
240,52,46497,1,0,0:0:0:0:
184,116,46517,1,0,0:0:0:0:
120,120,46536,1,0,0:0:0:0:
200,60,46555,1,0,0:0:0:0:
56,48,46574,1,0,0:0:0:0:
176,84,46612,1,0,0:0:0:0:
172,56,46631,1,0,0:0:0:0:
148,96,46650,1,0,0:0:0:0:
268,28,46669,1,0,0:0:0:0:
212,92,46689,1,0,0:0:0:0:
148,96,46708,1,0,0:0:0:0:
228,36,46727,1,0,0:0:0:0:
84,24,46746,1,0,0:0:0:0:
204,60,46784,1,0,0:0:0:0:
208,48,46803,1,0,0:0:0:0:
184,88,46822,1,0,0:0:0:0:
304,20,46841,1,0,0:0:0:0:
248,84,46861,1,0,0:0:0:0:
184,88,46880,1,0,0:0:0:0:
264,28,46899,1,0,0:0:0:0:
120,16,46918,1,0,0:0:0:0:
240,52,46956,1,0,0:0:0:0:
228,48,46957,1,0,0:0:0:0:
204,88,46976,1,0,0:0:0:0:
324,20,46995,1,0,0:0:0:0:
268,84,47015,1,0,0:0:0:0:
204,88,47034,1,0,0:0:0:0:
284,28,47053,1,0,0:0:0:0:
140,16,47072,1,0,0:0:0:0:
260,52,47110,1,0,0:0:0:0:
252,48,47129,1,0,0:0:0:0:
228,88,47148,1,0,0:0:0:0:
348,20,47167,1,0,0:0:0:0:
292,84,47187,1,0,0:0:0:0:
228,88,47206,1,0,0:0:0:0:
308,28,47225,1,0,0:0:0:0:
164,16,47244,1,0,0:0:0:0:
284,52,47282,1,0,0:0:0:0:
292,64,47339,1,0,0:0:0:0:
268,104,47358,1,0,0:0:0:0:
388,36,47377,1,0,0:0:0:0:
332,100,47397,1,0,0:0:0:0:
268,104,47416,1,0,0:0:0:0:
348,44,47435,1,0,0:0:0:0:
204,32,47454,1,0,0:0:0:0:
332,88,47473,1,0,0:0:0:0:
308,128,47492,1,0,0:0:0:0:
324,68,47492,1,0,0:0:0:0:
428,60,47511,1,0,0:0:0:0:
372,124,47531,1,0,0:0:0:0:
308,128,47550,1,0,0:0:0:0:
388,68,47569,1,0,0:0:0:0:
244,56,47588,1,0,0:0:0:0:
364,92,47626,1,0,0:0:0:0:
352,112,47664,1,0,0:0:0:0:
328,152,47683,1,0,0:0:0:0:
448,84,47702,1,0,0:0:0:0:
392,148,47722,1,0,0:0:0:0:
328,152,47741,1,0,0:0:0:0:
408,92,47760,1,0,0:0:0:0:
264,80,47779,1,0,0:0:0:0:
384,116,47817,1,0,0:0:0:0:
372,128,47837,1,0,0:0:0:0:
348,168,47856,1,0,0:0:0:0:
468,100,47875,1,0,0:0:0:0:
412,164,47895,1,0,0:0:0:0:
348,168,47914,1,0,0:0:0:0:
428,108,47933,1,0,0:0:0:0:
284,96,47952,1,0,0:0:0:0:
404,132,47990,1,0,0:0:0:0:
400,96,48124,1,0,0:0:0:0:
376,136,48143,1,0,0:0:0:0:
496,68,48162,1,0,0:0:0:0:
440,132,48182,1,0,0:0:0:0:
376,136,48201,1,0,0:0:0:0:
456,76,48220,1,0,0:0:0:0:
312,64,48239,1,0,0:0:0:0:
432,100,48277,1,0,0:0:0:0:
376,64,48525,1,0,0:0:0:0:
352,104,48544,1,0,0:0:0:0:
472,36,48563,1,0,0:0:0:0:
416,100,48583,1,0,0:0:0:0:
352,104,48602,1,0,0:0:0:0:
432,44,48621,1,0,0:0:0:0:
288,32,48640,1,0,0:0:0:0:
408,68,48678,1,0,0:0:0:0:
336,88,48736,1,0,0:0:0:0:
312,128,48755,1,0,0:0:0:0:
432,60,48774,1,0,0:0:0:0:
376,124,48794,1,0,0:0:0:0:
312,128,48813,1,0,0:0:0:0:
392,68,48832,1,0,0:0:0:0:
248,56,48851,1,0,0:0:0:0:
368,92,48889,1,0,0:0:0:0:
276,88,48946,1,0,0:0:0:0:
252,128,48965,1,0,0:0:0:0:
372,60,48984,1,0,0:0:0:0:
316,124,49004,1,0,0:0:0:0:
252,128,49023,1,0,0:0:0:0:
332,68,49042,1,0,0:0:0:0:
188,56,49061,1,0,0:0:0:0:
308,92,49099,1,0,0:0:0:0:
252,92,49119,1,0,0:0:0:0:
228,132,49138,1,0,0:0:0:0:
348,64,49157,1,0,0:0:0:0:
292,128,49177,1,0,0:0:0:0:
228,132,49196,1,0,0:0:0:0:
308,72,49215,1,0,0:0:0:0:
164,60,49234,1,0,0:0:0:0:
284,96,49272,1,0,0:0:0:0:
204,116,49310,1,0,0:0:0:0:
180,156,49329,1,0,0:0:0:0:
300,88,49348,1,0,0:0:0:0:
244,152,49368,1,0,0:0:0:0:
180,156,49387,1,0,0:0:0:0:
260,96,49406,1,0,0:0:0:0:
116,84,49425,1,0,0:0:0:0:
236,120,49463,1,0,0:0:0:0:
160,120,49501,1,0,0:0:0:0:
136,160,49520,1,0,0:0:0:0:
256,92,49539,1,0,0:0:0:0:
200,156,49559,1,0,0:0:0:0:
136,160,49578,1,0,0:0:0:0:
216,100,49597,1,0,0:0:0:0:
72,88,49616,1,0,0:0:0:0:
192,124,49654,1,0,0:0:0:0:
120,76,49922,1,0,0:0:0:0:
96,116,49941,1,0,0:0:0:0:
216,48,49960,1,0,0:0:0:0:
160,112,49980,1,0,0:0:0:0:
96,116,49999,1,0,0:0:0:0:
176,56,50018,1,0,0:0:0:0:
32,44,50037,1,0,0:0:0:0:
152,80,50075,1,0,0:0:0:0:
92,56,50228,1,0,0:0:0:0:
68,96,50247,1,0,0:0:0:0:
188,28,50266,1,0,0:0:0:0:
132,92,50286,1,0,0:0:0:0:
68,96,50305,1,0,0:0:0:0:
148,36,50324,1,0,0:0:0:0:
4,24,50343,1,0,0:0:0:0:
116,84,50381,1,0,0:0:0:0:
124,60,50381,1,0,0:0:0:0:
92,124,50400,1,0,0:0:0:0:
212,56,50419,1,0,0:0:0:0:
156,120,50439,1,0,0:0:0:0:
92,124,50458,1,0,0:0:0:0:
172,64,50477,1,0,0:0:0:0:
28,52,50496,1,0,0:0:0:0:
148,88,50534,1,0,0:0:0:0:
136,96,50573,1,0,0:0:0:0:
112,136,50592,1,0,0:0:0:0:
232,68,50611,1,0,0:0:0:0:
176,132,50631,1,0,0:0:0:0:
112,136,50650,1,0,0:0:0:0:
192,76,50669,1,0,0:0:0:0:
48,64,50688,1,0,0:0:0:0:
164,108,50726,1,0,0:0:0:0:
168,100,50726,1,0,0:0:0:0:
140,148,50745,1,0,0:0:0:0:
260,80,50764,1,0,0:0:0:0:
204,144,50784,1,0,0:0:0:0:
140,148,50803,1,0,0:0:0:0:
220,88,50822,1,0,0:0:0:0:
76,76,50841,1,0,0:0:0:0:
196,112,50879,1,0,0:0:0:0:
204,124,50936,1,0,0:0:0:0:
180,164,50955,1,0,0:0:0:0:
300,96,50974,1,0,0:0:0:0:
244,160,50994,1,0,0:0:0:0:
180,164,51013,1,0,0:0:0:0:
260,104,51032,1,0,0:0:0:0:
116,92,51051,1,0,0:0:0:0:
236,128,51089,1,0,0:0:0:0:
216,112,51127,1,0,0:0:0:0:
192,152,51146,1,0,0:0:0:0:
312,84,51165,1,0,0:0:0:0:
256,148,51185,1,0,0:0:0:0:
192,152,51204,1,0,0:0:0:0:
272,92,51223,1,0,0:0:0:0:
128,80,51242,1,0,0:0:0:0:
248,116,51280,1,0,0:0:0:0:
248,80,51319,1,0,0:0:0:0:
224,120,51338,1,0,0:0:0:0:
344,52,51357,1,0,0:0:0:0:
288,116,51377,1,0,0:0:0:0:
224,120,51396,1,0,0:0:0:0:
304,60,51415,1,0,0:0:0:0:
160,48,51434,1,0,0:0:0:0:
280,84,51472,1,0,0:0:0:0:
272,112,51491,1,0,0:0:0:0:
248,152,51510,1,0,0:0:0:0:
368,84,51529,1,0,0:0:0:0:
312,148,51549,1,0,0:0:0:0:
248,152,51568,1,0,0:0:0:0:
328,92,51587,1,0,0:0:0:0:
184,80,51606,1,0,0:0:0:0:
304,116,51644,1,0,0:0:0:0:
296,120,51682,1,0,0:0:0:0:
272,160,51701,1,0,0:0:0:0:
392,92,51720,1,0,0:0:0:0:
336,156,51740,1,0,0:0:0:0:
272,160,51759,1,0,0:0:0:0:
352,100,51778,1,0,0:0:0:0:
208,88,51797,1,0,0:0:0:0:
328,124,51835,1,0,0:0:0:0:
320,120,51874,1,0,0:0:0:0:
296,160,51893,1,0,0:0:0:0:
416,92,51912,1,0,0:0:0:0:
360,156,51932,1,0,0:0:0:0:
296,160,51951,1,0,0:0:0:0:
376,100,51970,1,0,0:0:0:0:
232,88,51989,1,0,0:0:0:0:
352,124,52027,1,0,0:0:0:0:
344,108,52065,1,0,0:0:0:0:
320,148,52084,1,0,0:0:0:0:
440,80,52103,1,0,0:0:0:0:
384,144,52123,1,0,0:0:0:0:
320,148,52142,1,0,0:0:0:0:
400,88,52161,1,0,0:0:0:0:
256,76,52180,1,0,0:0:0:0:
376,112,52218,1,0,0:0:0:0:
364,80,52428,1,0,0:0:0:0:
340,120,52447,1,0,0:0:0:0:
460,52,52466,1,0,0:0:0:0:
404,116,52486,1,0,0:0:0:0:
340,120,52505,1,0,0:0:0:0:
420,60,52524,1,0,0:0:0:0:
276,48,52543,1,0,0:0:0:0:
396,84,52581,1,0,0:0:0:0:
416,204,52773,1,0,0:0:0:0:
392,244,52792,1,0,0:0:0:0:
512,176,52811,1,0,0:0:0:0:
456,240,52831,1,0,0:0:0:0:
392,244,52850,1,0,0:0:0:0:
472,184,52869,1,0,0:0:0:0:
328,172,52888,1,0,0:0:0:0:
448,208,52926,1,0,0:0:0:0:
388,248,52945,1,0,0:0:0:0:
364,288,52964,1,0,0:0:0:0:
484,220,52983,1,0,0:0:0:0:
428,284,53003,1,0,0:0:0:0:
364,288,53022,1,0,0:0:0:0:
444,228,53041,1,0,0:0:0:0:
300,216,53060,1,0,0:0:0:0:
420,252,53098,1,0,0:0:0:0:
368,280,53136,1,0,0:0:0:0:
344,320,53155,1,0,0:0:0:0:
464,252,53174,1,0,0:0:0:0:
408,316,53194,1,0,0:0:0:0:
344,320,53213,1,0,0:0:0:0:
424,260,53232,1,0,0:0:0:0:
280,248,53251,1,0,0:0:0:0:
400,284,53289,1,0,0:0:0:0:
336,304,53347,1,0,0:0:0:0:
312,344,53366,1,0,0:0:0:0:
432,276,53385,1,0,0:0:0:0:
376,340,53405,1,0,0:0:0:0:
312,344,53424,1,0,0:0:0:0:
392,284,53443,1,0,0:0:0:0:
248,272,53462,1,0,0:0:0:0:
368,308,53500,1,0,0:0:0:0:
312,296,53538,1,0,0:0:0:0:
288,336,53557,1,0,0:0:0:0:
408,268,53576,1,0,0:0:0:0:
352,332,53596,1,0,0:0:0:0:
288,336,53615,1,0,0:0:0:0:
368,276,53634,1,0,0:0:0:0:
224,264,53653,1,0,0:0:0:0:
344,300,53691,1,0,0:0:0:0:
272,256,53768,1,0,0:0:0:0:
248,296,53787,1,0,0:0:0:0:
368,228,53806,1,0,0:0:0:0:
312,292,53826,1,0,0:0:0:0:
248,296,53845,1,0,0:0:0:0:
328,236,53864,1,0,0:0:0:0:
184,224,53883,1,0,0:0:0:0:
304,260,53921,1,0,0:0:0:0:
224,260,53959,1,0,0:0:0:0:
200,300,53978,1,0,0:0:0:0:
320,232,53997,1,0,0:0:0:0:
264,296,54017,1,0,0:0:0:0:
200,300,54036,1,0,0:0:0:0:
280,240,54055,1,0,0:0:0:0:
136,228,54074,1,0,0:0:0:0:
256,264,54112,1,0,0:0:0:0:
192,288,54150,1,0,0:0:0:0:
168,328,54169,1,0,0:0:0:0:
288,260,54188,1,0,0:0:0:0:
232,324,54208,1,0,0:0:0:0:
168,328,54227,1,0,0:0:0:0:
248,268,54246,1,0,0:0:0:0:
104,256,54265,1,0,0:0:0:0:
224,292,54303,1,0,0:0:0:0:
132,296,54361,1,0,0:0:0:0:
108,336,54380,1,0,0:0:0:0:
228,268,54399,1,0,0:0:0:0:
172,332,54419,1,0,0:0:0:0:
108,336,54438,1,0,0:0:0:0:
188,276,54457,1,0,0:0:0:0:
44,264,54476,1,0,0:0:0:0:
164,300,54514,1,0,0:0:0:0:
108,256,54571,1,0,0:0:0:0:
84,296,54590,1,0,0:0:0:0:
204,228,54609,1,0,0:0:0:0:
148,292,54629,1,0,0:0:0:0:
84,296,54648,1,0,0:0:0:0:
164,236,54667,1,0,0:0:0:0:
20,224,54686,1,0,0:0:0:0:
140,260,54724,1,0,0:0:0:0:
100,248,54897,1,0,0:0:0:0:
76,288,54916,1,0,0:0:0:0:
196,220,54935,1,0,0:0:0:0:
140,284,54955,1,0,0:0:0:0:
76,288,54974,1,0,0:0:0:0:
156,228,54993,1,0,0:0:0:0:
12,216,55012,1,0,0:0:0:0:
132,252,55050,1,0,0:0:0:0:
104,260,55164,1,0,0:0:0:0:
80,300,55183,1,0,0:0:0:0:
200,232,55202,1,0,0:0:0:0:
144,296,55222,1,0,0:0:0:0:
80,300,55241,1,0,0:0:0:0:
160,240,55260,1,0,0:0:0:0:
16,228,55279,1,0,0:0:0:0:
136,264,55317,1,0,0:0:0:0:
124,280,55471,1,0,0:0:0:0:
100,320,55490,1,0,0:0:0:0:
220,252,55509,1,0,0:0:0:0:
164,316,55529,1,0,0:0:0:0:
100,320,55548,1,0,0:0:0:0:
180,260,55567,1,0,0:0:0:0:
36,248,55586,1,0,0:0:0:0:
156,284,55624,1,0,0:0:0:0:
144,296,55662,1,0,0:0:0:0:
120,336,55681,1,0,0:0:0:0:
240,268,55700,1,0,0:0:0:0:
184,332,55720,1,0,0:0:0:0:
120,336,55739,1,0,0:0:0:0:
200,276,55758,1,0,0:0:0:0:
56,264,55777,1,0,0:0:0:0:
152,300,55815,1,0,0:0:0:0:
176,300,55815,1,0,0:0:0:0:
128,340,55834,1,0,0:0:0:0:
248,272,55853,1,0,0:0:0:0:
192,336,55873,1,0,0:0:0:0:
128,340,55892,1,0,0:0:0:0:
208,280,55911,1,0,0:0:0:0:
64,268,55930,1,0,0:0:0:0:
184,304,55968,1,0,0:0:0:0:
188,296,56006,1,0,0:0:0:0:
164,336,56025,1,0,0:0:0:0:
284,268,56044,1,0,0:0:0:0:
228,332,56064,1,0,0:0:0:0:
164,336,56083,1,0,0:0:0:0:
244,276,56102,1,0,0:0:0:0:
100,264,56121,1,0,0:0:0:0:
224,272,56159,1,0,0:0:0:0:
220,300,56159,1,0,0:0:0:0:
200,312,56178,1,0,0:0:0:0:
320,244,56197,1,0,0:0:0:0:
264,308,56217,1,0,0:0:0:0:
200,312,56236,1,0,0:0:0:0:
280,252,56255,1,0,0:0:0:0:
136,240,56274,1,0,0:0:0:0:
256,276,56312,1,0,0:0:0:0:
256,272,56351,1,0,0:0:0:0:
232,312,56370,1,0,0:0:0:0:
352,244,56389,1,0,0:0:0:0:
296,308,56409,1,0,0:0:0:0:
232,312,56428,1,0,0:0:0:0:
312,252,56447,1,0,0:0:0:0:
168,240,56466,1,0,0:0:0:0:
288,276,56504,1,0,0:0:0:0:
268,284,56523,1,0,0:0:0:0:
244,324,56542,1,0,0:0:0:0:
364,256,56561,1,0,0:0:0:0:
308,320,56581,1,0,0:0:0:0:
244,324,56600,1,0,0:0:0:0:
324,264,56619,1,0,0:0:0:0:
180,252,56638,1,0,0:0:0:0:
300,288,56676,1,0,0:0:0:0:
336,272,56867,1,0,0:0:0:0:
312,312,56886,1,0,0:0:0:0:
432,244,56905,1,0,0:0:0:0:
376,308,56925,1,0,0:0:0:0:
312,312,56944,1,0,0:0:0:0:
392,252,56963,1,0,0:0:0:0:
248,240,56982,1,0,0:0:0:0:
368,276,57020,1,0,0:0:0:0:
328,248,57212,1,0,0:0:0:0:
304,288,57231,1,0,0:0:0:0:
424,220,57250,1,0,0:0:0:0:
368,284,57270,1,0,0:0:0:0:
304,288,57289,1,0,0:0:0:0:
384,228,57308,1,0,0:0:0:0:
240,216,57327,1,0,0:0:0:0:
360,252,57365,1,0,0:0:0:0:
328,248,57575,1,0,0:0:0:0:
304,288,57594,1,0,0:0:0:0:
424,220,57613,1,0,0:0:0:0:
368,284,57633,1,0,0:0:0:0:
304,288,57652,1,0,0:0:0:0:
384,228,57671,1,0,0:0:0:0:
240,216,57690,1,0,0:0:0:0:
360,252,57728,1,0,0:0:0:0:
328,248,57939,1,0,0:0:0:0:
304,288,57958,1,0,0:0:0:0:
424,220,57977,1,0,0:0:0:0:
368,284,57997,1,0,0:0:0:0:
304,288,58016,1,0,0:0:0:0:
384,228,58035,1,0,0:0:0:0:
240,216,58054,1,0,0:0:0:0:
360,252,58092,1,0,0:0:0:0:
328,208,58340,1,0,0:0:0:0:
304,248,58359,1,0,0:0:0:0:
424,180,58378,1,0,0:0:0:0:
368,244,58398,1,0,0:0:0:0:
304,248,58417,1,0,0:0:0:0:
384,188,58436,1,0,0:0:0:0:
240,176,58455,1,0,0:0:0:0:
360,212,58493,1,0,0:0:0:0:
320,184,58666,1,0,0:0:0:0:
296,224,58685,1,0,0:0:0:0:
416,156,58704,1,0,0:0:0:0:
360,220,58724,1,0,0:0:0:0:
296,224,58743,1,0,0:0:0:0:
376,164,58762,1,0,0:0:0:0:
232,152,58781,1,0,0:0:0:0:
352,188,58819,1,0,0:0:0:0:
320,148,59048,1,0,0:0:0:0:
296,188,59067,1,0,0:0:0:0:
416,120,59086,1,0,0:0:0:0:
360,184,59106,1,0,0:0:0:0:
296,188,59125,1,0,0:0:0:0:
376,128,59144,1,0,0:0:0:0:
232,116,59163,1,0,0:0:0:0:
352,152,59201,1,0,0:0:0:0:
324,112,59412,1,0,0:0:0:0:
300,152,59431,1,0,0:0:0:0:
420,84,59450,1,0,0:0:0:0:
364,148,59470,1,0,0:0:0:0:
300,152,59489,1,0,0:0:0:0:
380,92,59508,1,0,0:0:0:0:
236,80,59527,1,0,0:0:0:0:
356,116,59565,1,0,0:0:0:0:
320,76,59756,1,0,0:0:0:0:
296,116,59775,1,0,0:0:0:0:
416,48,59794,1,0,0:0:0:0:
360,112,59814,1,0,0:0:0:0:
296,116,59833,1,0,0:0:0:0:
376,56,59852,1,0,0:0:0:0:
232,44,59871,1,0,0:0:0:0:
352,80,59909,1,0,0:0:0:0:
320,48,60139,1,0,0:0:0:0:
296,88,60158,1,0,0:0:0:0:
416,20,60177,1,0,0:0:0:0:
360,84,60197,1,0,0:0:0:0:
296,88,60216,1,0,0:0:0:0:
376,28,60235,1,0,0:0:0:0:
232,16,60254,1,0,0:0:0:0:
352,52,60292,1,0,0:0:0:0:
352,48,60464,1,0,0:0:0:0:
328,88,60483,1,0,0:0:0:0:
448,20,60502,1,0,0:0:0:0:
392,84,60522,1,0,0:0:0:0:
328,88,60541,1,0,0:0:0:0:
408,28,60560,1,0,0:0:0:0:
264,16,60579,1,0,0:0:0:0:
384,52,60617,1,0,0:0:0:0:
380,64,60847,1,0,0:0:0:0:
356,104,60866,1,0,0:0:0:0:
476,36,60885,1,0,0:0:0:0:
420,100,60905,1,0,0:0:0:0:
356,104,60924,1,0,0:0:0:0:
436,44,60943,1,0,0:0:0:0:
292,32,60962,1,0,0:0:0:0:
412,68,61000,1,0,0:0:0:0:
380,96,61210,1,0,0:0:0:0:
356,136,61229,1,0,0:0:0:0:
476,68,61248,1,0,0:0:0:0:
420,132,61268,1,0,0:0:0:0:
356,136,61287,1,0,0:0:0:0:
436,76,61306,1,0,0:0:0:0:
292,64,61325,1,0,0:0:0:0:
412,100,61363,1,0,0:0:0:0:
384,136,61536,1,0,0:0:0:0:
360,176,61555,1,0,0:0:0:0:
480,108,61574,1,0,0:0:0:0:
424,172,61594,1,0,0:0:0:0:
360,176,61613,1,0,0:0:0:0:
440,116,61632,1,0,0:0:0:0:
296,104,61651,1,0,0:0:0:0:
416,140,61689,1,0,0:0:0:0:
384,168,61899,1,0,0:0:0:0:
360,208,61918,1,0,0:0:0:0:
480,140,61937,1,0,0:0:0:0:
424,204,61957,1,0,0:0:0:0:
360,208,61976,1,0,0:0:0:0:
440,148,61995,1,0,0:0:0:0:
296,136,62014,1,0,0:0:0:0:
416,172,62052,1,0,0:0:0:0:
384,200,62263,1,0,0:0:0:0:
360,240,62282,1,0,0:0:0:0:
480,172,62301,1,0,0:0:0:0:
424,236,62321,1,0,0:0:0:0:
360,240,62340,1,0,0:0:0:0:
440,180,62359,1,0,0:0:0:0:
296,168,62378,1,0,0:0:0:0:
416,204,62416,1,0,0:0:0:0:
384,236,62569,1,0,0:0:0:0:
360,276,62588,1,0,0:0:0:0:
480,208,62607,1,0,0:0:0:0:
424,272,62627,1,0,0:0:0:0:
360,276,62646,1,0,0:0:0:0:
440,216,62665,1,0,0:0:0:0:
296,204,62684,1,0,0:0:0:0:
416,240,62722,1,0,0:0:0:0:
384,292,62913,1,0,0:0:0:0:
360,332,62932,1,0,0:0:0:0:
480,264,62951,1,0,0:0:0:0:
424,328,62971,1,0,0:0:0:0:
360,332,62990,1,0,0:0:0:0:
440,272,63009,1,0,0:0:0:0:
296,260,63028,1,0,0:0:0:0:
416,296,63066,1,0,0:0:0:0:
384,320,63277,1,0,0:0:0:0:
360,360,63296,1,0,0:0:0:0:
480,292,63315,1,0,0:0:0:0:
424,356,63335,1,0,0:0:0:0:
360,360,63354,1,0,0:0:0:0:
440,300,63373,1,0,0:0:0:0:
296,288,63392,1,0,0:0:0:0:
416,324,63430,1,0,0:0:0:0:
408,344,63621,1,0,0:0:0:0:
384,384,63640,1,0,0:0:0:0:
504,316,63659,1,0,0:0:0:0:
448,380,63679,1,0,0:0:0:0:
384,384,63698,1,0,0:0:0:0:
464,324,63717,1,0,0:0:0:0:
320,312,63736,1,0,0:0:0:0:
440,348,63774,1,0,0:0:0:0:
436,340,64004,1,0,0:0:0:0:
336,384,64042,1,0,0:0:0:0:
384,356,64061,1,0,0:0:0:0:
476,316,64080,1,0,0:0:0:0:
472,336,64348,1,0,0:0:0:0:
372,380,64386,1,0,0:0:0:0:
420,352,64405,1,0,0:0:0:0:
512,312,64424,1,0,0:0:0:0:
472,300,64731,1,0,0:0:0:0:
372,344,64769,1,0,0:0:0:0:
420,316,64788,1,0,0:0:0:0:
512,276,64807,1,0,0:0:0:0:
468,264,65037,1,0,0:0:0:0:
368,308,65075,1,0,0:0:0:0:
416,280,65094,1,0,0:0:0:0:
508,240,65113,1,0,0:0:0:0:
468,216,65420,1,0,0:0:0:0:
368,260,65458,1,0,0:0:0:0:
416,232,65477,1,0,0:0:0:0:
508,192,65496,1,0,0:0:0:0:
468,176,65745,1,0,0:0:0:0:
368,220,65783,1,0,0:0:0:0:
416,192,65802,1,0,0:0:0:0:
508,152,65821,1,0,0:0:0:0:
468,132,66108,1,0,0:0:0:0:
368,176,66146,1,0,0:0:0:0:
416,148,66165,1,0,0:0:0:0:
508,108,66184,1,0,0:0:0:0:
468,108,66434,1,0,0:0:0:0:
368,152,66472,1,0,0:0:0:0:
416,124,66491,1,0,0:0:0:0:
508,84,66510,1,0,0:0:0:0:
460,68,66778,1,0,0:0:0:0:
360,112,66816,1,0,0:0:0:0:
408,84,66835,1,0,0:0:0:0:
500,44,66854,1,0,0:0:0:0:
452,56,67141,1,0,0:0:0:0:
352,100,67179,1,0,0:0:0:0:
400,72,67198,1,0,0:0:0:0:
492,32,67217,1,0,0:0:0:0:
408,48,67486,1,0,0:0:0:0:
308,92,67524,1,0,0:0:0:0:
356,64,67543,1,0,0:0:0:0:
448,24,67562,1,0,0:0:0:0:
336,48,67830,1,0,0:0:0:0:
236,92,67868,1,0,0:0:0:0:
284,64,67887,1,0,0:0:0:0:
376,24,67906,1,0,0:0:0:0:
296,48,68213,1,0,0:0:0:0:
196,92,68251,1,0,0:0:0:0:
244,64,68270,1,0,0:0:0:0:
336,24,68289,1,0,0:0:0:0:
232,52,68538,1,0,0:0:0:0:
132,96,68576,1,0,0:0:0:0:
180,68,68595,1,0,0:0:0:0:
272,28,68614,1,0,0:0:0:0:
216,52,68710,1,0,0:0:0:0:
116,96,68748,1,0,0:0:0:0:
164,68,68767,1,0,0:0:0:0:
256,28,68786,1,0,0:0:0:0:
184,52,68883,1,0,0:0:0:0:
84,96,68921,1,0,0:0:0:0:
132,68,68940,1,0,0:0:0:0:
224,28,68959,1,0,0:0:0:0:
136,52,69284,1,0,0:0:0:0:
36,96,69322,1,0,0:0:0:0:
84,68,69341,1,0,0:0:0:0:
176,28,69360,1,0,0:0:0:0:
100,56,69629,1,0,0:0:0:0:
0,100,69667,1,0,0:0:0:0:
48,72,69686,1,0,0:0:0:0:
140,32,69705,1,0,0:0:0:0:
80,72,69992,1,0,0:0:0:0:
120,44,70011,1,0,0:0:0:0:
36,108,70031,1,0,0:0:0:0:
168,12,70050,1,0,0:0:0:0:
80,92,70164,1,0,0:0:0:0:
120,64,70183,1,0,0:0:0:0:
36,128,70203,1,0,0:0:0:0:
168,32,70222,1,0,0:0:0:0:
84,116,70356,1,0,0:0:0:0:
124,88,70375,1,0,0:0:0:0:
40,152,70395,1,0,0:0:0:0:
172,56,70414,1,0,0:0:0:0:
84,160,70662,1,0,0:0:0:0:
124,132,70681,1,0,0:0:0:0:
40,196,70701,1,0,0:0:0:0:
172,100,70720,1,0,0:0:0:0:
80,184,71045,1,0,0:0:0:0:
120,156,71064,1,0,0:0:0:0:
36,220,71084,1,0,0:0:0:0:
168,124,71103,1,0,0:0:0:0:
80,212,71370,1,0,0:0:0:0:
120,184,71389,1,0,0:0:0:0:
36,248,71409,1,0,0:0:0:0:
168,152,71428,1,0,0:0:0:0:
80,236,71542,1,0,0:0:0:0:
120,208,71561,1,0,0:0:0:0:
36,272,71581,1,0,0:0:0:0:
168,176,71600,1,0,0:0:0:0:
84,256,71714,1,0,0:0:0:0:
124,228,71733,1,0,0:0:0:0:
40,292,71753,1,0,0:0:0:0:
172,196,71772,1,0,0:0:0:0:
88,296,72116,1,0,0:0:0:0:
128,268,72135,1,0,0:0:0:0:
44,332,72155,1,0,0:0:0:0:
176,236,72174,1,0,0:0:0:0:
96,324,72479,1,0,0:0:0:0:
136,296,72498,1,0,0:0:0:0:
52,360,72518,1,0,0:0:0:0:
184,264,72537,1,0,0:0:0:0:
128,332,72824,1,0,0:0:0:0:
168,304,72843,1,0,0:0:0:0:
84,368,72863,1,0,0:0:0:0:
216,272,72882,1,0,0:0:0:0:
164,332,72996,1,0,0:0:0:0:
204,304,73015,1,0,0:0:0:0:
120,368,73035,1,0,0:0:0:0:
252,272,73054,1,0,0:0:0:0:
184,336,73149,1,0,0:0:0:0:
224,308,73168,1,0,0:0:0:0:
140,372,73188,1,0,0:0:0:0:
272,276,73207,1,0,0:0:0:0:
232,332,73532,1,0,0:0:0:0:
272,304,73551,1,0,0:0:0:0:
188,368,73571,1,0,0:0:0:0:
320,272,73590,1,0,0:0:0:0:
272,328,73895,1,0,0:0:0:0:
312,300,73914,1,0,0:0:0:0:
228,364,73934,1,0,0:0:0:0:
360,268,73953,1,0,0:0:0:0:
304,332,74221,1,0,0:0:0:0:
344,304,74240,1,0,0:0:0:0:
260,368,74260,1,0,0:0:0:0:
392,272,74279,1,0,0:0:0:0:
320,332,74431,1,0,0:0:0:0:
360,304,74450,1,0,0:0:0:0:
276,368,74470,1,0,0:0:0:0:
408,272,74489,1,0,0:0:0:0:
336,332,74584,1,0,0:0:0:0:
376,304,74603,1,0,0:0:0:0:
292,368,74623,1,0,0:0:0:0:
424,272,74642,1,0,0:0:0:0:
344,324,74909,1,0,0:0:0:0:
384,296,74928,1,0,0:0:0:0:
300,360,74948,1,0,0:0:0:0:
432,264,74967,1,0,0:0:0:0:
336,288,75273,1,0,0:0:0:0:
304,312,75292,1,0,0:0:0:0:
380,304,75311,1,0,0:0:0:0:
344,336,75330,1,0,0:0:0:0:
324,256,75636,1,0,0:0:0:0:
292,280,75655,1,0,0:0:0:0:
368,272,75674,1,0,0:0:0:0:
332,304,75693,1,0,0:0:0:0:
312,232,75809,1,0,0:0:0:0:
280,256,75828,1,0,0:0:0:0:
356,248,75847,1,0,0:0:0:0:
320,280,75866,1,0,0:0:0:0:
312,224,76000,1,0,0:0:0:0:
280,248,76019,1,0,0:0:0:0:
356,240,76038,1,0,0:0:0:0:
320,272,76057,1,0,0:0:0:0:
256,184,76344,1,0,0:0:0:0:
224,208,76363,1,0,0:0:0:0:
300,200,76382,1,0,0:0:0:0:
264,232,76401,1,0,0:0:0:0:
216,160,76708,1,0,0:0:0:0:
184,184,76727,1,0,0:0:0:0:
260,176,76746,1,0,0:0:0:0:
224,208,76765,1,0,0:0:0:0:
184,140,77033,1,0,0:0:0:0:
152,164,77052,1,0,0:0:0:0:
228,156,77071,1,0,0:0:0:0:
192,188,77090,1,0,0:0:0:0:
136,120,77416,1,0,0:0:0:0:
104,144,77435,1,0,0:0:0:0:
180,136,77454,1,0,0:0:0:0:
144,168,77473,1,0,0:0:0:0:
100,88,77741,1,0,0:0:0:0:
68,112,77760,1,0,0:0:0:0:
144,104,77779,1,0,0:0:0:0:
108,136,77798,1,0,0:0:0:0:
72,56,78085,1,0,0:0:0:0:
40,80,78104,1,0,0:0:0:0:
116,72,78123,1,0,0:0:0:0:
80,104,78142,1,0,0:0:0:0:
120,56,78525,1,0,0:0:0:0:
152,88,78545,1,0,0:0:0:0:
112,120,78564,1,0,0:0:0:0:
64,88,78583,1,0,0:0:0:0:
120,56,78793,1,0,0:0:0:0:
152,88,78813,1,0,0:0:0:0:
112,120,78832,1,0,0:0:0:0:
64,88,78851,1,0,0:0:0:0:
160,56,79119,1,0,0:0:0:0:
192,88,79139,1,0,0:0:0:0:
152,120,79158,1,0,0:0:0:0:
104,88,79177,1,0,0:0:0:0:
172,56,79482,1,0,0:0:0:0:
204,88,79502,1,0,0:0:0:0:
164,120,79521,1,0,0:0:0:0:
116,88,79540,1,0,0:0:0:0:
216,60,79846,1,0,0:0:0:0:
248,92,79866,1,0,0:0:0:0:
208,124,79885,1,0,0:0:0:0:
160,92,79904,1,0,0:0:0:0:
248,64,80190,1,0,0:0:0:0:
280,96,80210,1,0,0:0:0:0:
240,128,80229,1,0,0:0:0:0:
192,96,80248,1,0,0:0:0:0:
288,64,80573,1,0,0:0:0:0:
320,96,80593,1,0,0:0:0:0:
280,128,80612,1,0,0:0:0:0:
232,96,80631,1,0,0:0:0:0:
360,64,80917,1,0,0:0:0:0:
392,96,80937,1,0,0:0:0:0:
352,128,80956,1,0,0:0:0:0:
304,96,80975,1,0,0:0:0:0:
396,64,81261,1,0,0:0:0:0:
428,96,81281,1,0,0:0:0:0:
388,128,81300,1,0,0:0:0:0:
340,96,81319,1,0,0:0:0:0:
128,336,81644,1,0,0:0:0:0:
200,340,81682,1,0,0:0:0:0:
132,280,81701,1,0,0:0:0:0:
200,280,81721,1,0,0:0:0:0:
264,344,82008,1,0,0:0:0:0:
336,348,82046,1,0,0:0:0:0:
268,288,82065,1,0,0:0:0:0:
336,288,82085,1,0,0:0:0:0:
328,340,82390,1,0,0:0:0:0:
400,344,82428,1,0,0:0:0:0:
332,284,82447,1,0,0:0:0:0:
400,284,82467,1,0,0:0:0:0:
388,336,82715,1,0,0:0:0:0:
460,340,82753,1,0,0:0:0:0:
392,280,82772,1,0,0:0:0:0:
460,280,82792,1,0,0:0:0:0:
384,304,83079,1,0,0:0:0:0:
456,308,83117,1,0,0:0:0:0:
388,248,83136,1,0,0:0:0:0:
456,248,83156,1,0,0:0:0:0:
260,236,83385,1,0,0:0:0:0:
248,288,83404,1,0,0:0:0:0:
320,228,83423,1,0,0:0:0:0:
320,168,83442,1,0,0:0:0:0:
184,288,83462,1,0,0:0:0:0:
216,200,83729,1,0,0:0:0:0:
204,252,83748,1,0,0:0:0:0:
276,192,83767,1,0,0:0:0:0:
276,132,83786,1,0,0:0:0:0:
140,252,83806,1,0,0:0:0:0:
160,156,84093,1,0,0:0:0:0:
148,208,84112,1,0,0:0:0:0:
220,148,84131,1,0,0:0:0:0:
220,88,84150,1,0,0:0:0:0:
84,208,84170,1,0,0:0:0:0:
120,112,84457,1,0,0:0:0:0:
108,164,84476,1,0,0:0:0:0:
180,104,84495,1,0,0:0:0:0:
180,44,84514,1,0,0:0:0:0:
44,164,84534,1,0,0:0:0:0:
140,88,84877,1,0,0:0:0:0:
124,136,84897,1,0,0:0:0:0:
96,180,84916,1,0,0:0:0:0:
80,224,84935,1,0,0:0:0:0:
268,92,85145,1,0,0:0:0:0:
252,140,85165,1,0,0:0:0:0:
224,184,85184,1,0,0:0:0:0:
208,228,85203,1,0,0:0:0:0:
312,80,85490,1,0,0:0:0:0:
296,128,85510,1,0,0:0:0:0:
268,172,85529,1,0,0:0:0:0:
252,216,85548,1,0,0:0:0:0:
408,80,85853,1,0,0:0:0:0:
392,128,85873,1,0,0:0:0:0:
364,172,85892,1,0,0:0:0:0:
348,216,85911,1,0,0:0:0:0:
416,72,86236,1,0,0:0:0:0:
400,120,86256,1,0,0:0:0:0:
372,164,86275,1,0,0:0:0:0:
356,208,86294,1,0,0:0:0:0:
404,72,86599,1,0,0:0:0:0:
388,120,86619,1,0,0:0:0:0:
360,164,86638,1,0,0:0:0:0:
344,208,86657,1,0,0:0:0:0:
144,64,87039,1,0,0:0:0:0:
128,112,87059,1,0,0:0:0:0:
100,156,87078,1,0,0:0:0:0:
84,200,87097,1,0,0:0:0:0:
264,72,87346,1,0,0:0:0:0:
248,120,87366,1,0,0:0:0:0:
220,164,87385,1,0,0:0:0:0:
204,208,87404,1,0,0:0:0:0:
300,72,87671,1,0,0:0:0:0:
284,120,87691,1,0,0:0:0:0:
256,164,87710,1,0,0:0:0:0:
240,208,87729,1,0,0:0:0:0:
400,68,87996,1,0,0:0:0:0:
384,116,88016,1,0,0:0:0:0:
356,160,88035,1,0,0:0:0:0:
340,204,88054,1,0,0:0:0:0:
184,88,88360,1,0,0:0:0:0:
168,136,88380,1,0,0:0:0:0:
140,180,88399,1,0,0:0:0:0:
124,224,88418,1,0,0:0:0:0:
256,136,88666,1,0,0:0:0:0:
236,176,88685,1,0,0:0:0:0:
272,96,88704,1,0,0:0:0:0:
288,56,88723,1,0,0:0:0:0:
288,184,89010,1,0,0:0:0:0:
268,224,89029,1,0,0:0:0:0:
304,144,89048,1,0,0:0:0:0:
320,104,89067,1,0,0:0:0:0:
312,216,89374,1,0,0:0:0:0:
292,256,89393,1,0,0:0:0:0:
328,176,89412,1,0,0:0:0:0:
344,136,89431,1,0,0:0:0:0:
376,272,89756,1,0,0:0:0:0:
356,312,89775,1,0,0:0:0:0:
392,232,89794,1,0,0:0:0:0:
408,192,89813,1,0,0:0:0:0:
384,304,90082,1,0,0:0:0:0:
364,344,90101,1,0,0:0:0:0:
400,264,90120,1,0,0:0:0:0:
416,224,90139,1,0,0:0:0:0:
312,324,90445,1,0,0:0:0:0:
292,364,90464,1,0,0:0:0:0:
328,284,90483,1,0,0:0:0:0:
344,244,90502,1,0,0:0:0:0:
244,324,90789,1,0,0:0:0:0:
224,364,90808,1,0,0:0:0:0:
260,284,90827,1,0,0:0:0:0:
276,244,90846,1,0,0:0:0:0:
184,324,91153,1,0,0:0:0:0:
164,364,91172,1,0,0:0:0:0:
200,284,91191,1,0,0:0:0:0:
216,244,91210,1,0,0:0:0:0:
140,320,91516,1,0,0:0:0:0:
120,360,91535,1,0,0:0:0:0:
156,280,91554,1,0,0:0:0:0:
172,240,91573,1,0,0:0:0:0:
108,136,91880,1,0,0:0:0:0:
148,156,91899,1,0,0:0:0:0:
68,120,91918,1,0,0:0:0:0:
32,100,91937,1,0,0:0:0:0:
112,144,92224,1,0,0:0:0:0:
152,164,92243,1,0,0:0:0:0:
72,128,92262,1,0,0:0:0:0:
36,108,92281,1,0,0:0:0:0:
120,96,92588,1,0,0:0:0:0:
160,116,92607,1,0,0:0:0:0:
80,80,92626,1,0,0:0:0:0:
44,60,92645,1,0,0:0:0:0:
128,68,92894,1,0,0:0:0:0:
168,88,92913,1,0,0:0:0:0:
88,52,92932,1,0,0:0:0:0:
52,32,92951,1,0,0:0:0:0:
152,56,93238,1,0,0:0:0:0:
192,76,93257,1,0,0:0:0:0:
112,40,93276,1,0,0:0:0:0:
76,20,93295,1,0,0:0:0:0:
216,100,93583,1,0,0:0:0:0:
256,120,93602,1,0,0:0:0:0:
176,84,93621,1,0,0:0:0:0:
140,64,93640,1,0,0:0:0:0:
264,144,93965,1,0,0:0:0:0:
304,164,93984,1,0,0:0:0:0:
224,128,94003,1,0,0:0:0:0:
188,108,94022,1,0,0:0:0:0:
296,184,94329,1,0,0:0:0:0:
336,204,94348,1,0,0:0:0:0:
256,168,94367,1,0,0:0:0:0:
220,148,94386,1,0,0:0:0:0:
328,224,94692,1,0,0:0:0:0:
368,244,94711,1,0,0:0:0:0:
288,208,94730,1,0,0:0:0:0:
252,188,94749,1,0,0:0:0:0:
360,252,95018,1,0,0:0:0:0:
400,272,95037,1,0,0:0:0:0:
320,236,95056,1,0,0:0:0:0:
284,216,95075,1,0,0:0:0:0:
400,268,95420,1,0,0:0:0:0:
440,288,95439,1,0,0:0:0:0:
360,252,95458,1,0,0:0:0:0:
324,232,95477,1,0,0:0:0:0:
412,248,95745,1,0,0:0:0:0:
452,268,95764,1,0,0:0:0:0:
372,232,95783,1,0,0:0:0:0:
336,212,95802,1,0,0:0:0:0:
404,204,96089,1,0,0:0:0:0:
444,224,96108,1,0,0:0:0:0:
364,188,96127,1,0,0:0:0:0:
328,168,96146,1,0,0:0:0:0:
404,156,96453,1,0,0:0:0:0:
444,176,96472,1,0,0:0:0:0:
364,140,96491,1,0,0:0:0:0:
328,120,96510,1,0,0:0:0:0:
392,108,96797,1,0,0:0:0:0:
432,128,96816,1,0,0:0:0:0:
352,92,96835,1,0,0:0:0:0:
316,72,96854,1,0,0:0:0:0:
392,56,97141,1,0,0:0:0:0:
432,76,97160,1,0,0:0:0:0:
352,40,97179,1,0,0:0:0:0:
316,20,97198,1,0,0:0:0:0:
328,48,97582,1,0,0:0:0:0:
368,68,97601,1,0,0:0:0:0:
288,32,97620,1,0,0:0:0:0:
252,12,97639,1,0,0:0:0:0:
320,52,97773,1,0,0:0:0:0:
360,72,97792,1,0,0:0:0:0:
280,36,97811,1,0,0:0:0:0:
244,16,97830,1,0,0:0:0:0:
288,96,97964,1,0,0:0:0:0:
328,116,97983,1,0,0:0:0:0:
248,80,98002,1,0,0:0:0:0:
212,60,98021,1,0,0:0:0:0:
264,152,98309,1,0,0:0:0:0:
304,172,98328,1,0,0:0:0:0:
224,136,98347,1,0,0:0:0:0:
188,116,98366,1,0,0:0:0:0:
244,184,98653,1,0,0:0:0:0:
284,204,98672,1,0,0:0:0:0:
204,168,98691,1,0,0:0:0:0:
168,148,98710,1,0,0:0:0:0:
244,184,98978,1,0,0:0:0:0:
284,204,98997,1,0,0:0:0:0:
204,168,99016,1,0,0:0:0:0:
168,148,99035,1,0,0:0:0:0:
236,204,99150,1,0,0:0:0:0:
276,224,99169,1,0,0:0:0:0:
196,188,99188,1,0,0:0:0:0:
160,168,99207,1,0,0:0:0:0:
236,216,99265,1,0,0:0:0:0:
276,236,99284,1,0,0:0:0:0:
196,200,99303,1,0,0:0:0:0:
160,180,99322,1,0,0:0:0:0:
260,296,99667,1,0,0:0:0:0:
300,316,99686,1,0,0:0:0:0:
220,280,99705,1,0,0:0:0:0:
184,260,99724,1,0,0:0:0:0:
304,296,99992,1,0,0:0:0:0:
344,316,100011,1,0,0:0:0:0:
264,280,100030,1,0,0:0:0:0:
228,260,100049,1,0,0:0:0:0:
304,296,100317,1,0,0:0:0:0:
344,316,100336,1,0,0:0:0:0:
264,280,100355,1,0,0:0:0:0:
228,260,100374,1,0,0:0:0:0:
304,296,100643,1,0,0:0:0:0:
344,316,100662,1,0,0:0:0:0:
264,280,100681,1,0,0:0:0:0:
228,260,100700,1,0,0:0:0:0:
252,296,102097,1,0,0:0:0:0:
292,316,102116,1,0,0:0:0:0:
212,280,102135,1,0,0:0:0:0:
176,260,102154,1,0,0:0:0:0:
192,296,102652,1,0,0:0:0:0:
232,316,102671,1,0,0:0:0:0:
152,280,102690,1,0,0:0:0:0:
116,260,102709,1,0,0:0:0:0:
120,272,103015,1,0,0:0:0:0:
160,292,103034,1,0,0:0:0:0:
80,256,103053,1,0,0:0:0:0:
44,236,103072,1,0,0:0:0:0:
120,272,103187,1,0,0:0:0:0:
160,292,103206,1,0,0:0:0:0:
80,256,103225,1,0,0:0:0:0:
44,236,103244,1,0,0:0:0:0:
112,248,103360,1,0,0:0:0:0:
152,268,103379,1,0,0:0:0:0:
72,232,103398,1,0,0:0:0:0:
36,212,103417,1,0,0:0:0:0:
112,228,103513,1,0,0:0:0:0:
152,248,103532,1,0,0:0:0:0:
72,212,103551,1,0,0:0:0:0:
36,192,103570,1,0,0:0:0:0:
116,200,103704,1,0,0:0:0:0:
156,220,103723,1,0,0:0:0:0:
76,184,103742,1,0,0:0:0:0:
40,164,103761,1,0,0:0:0:0:
120,184,103895,1,0,0:0:0:0:
160,204,103914,1,0,0:0:0:0:
80,168,103933,1,0,0:0:0:0:
44,148,103952,1,0,0:0:0:0:
160,136,104259,1,0,0:0:0:0:
188,160,104278,1,0,0:0:0:0:
228,184,104297,1,0,0:0:0:0:
120,108,104316,1,0,0:0:0:0:
168,128,104431,1,0,0:0:0:0:
196,152,104450,1,0,0:0:0:0:
236,176,104469,1,0,0:0:0:0:
128,100,104488,1,0,0:0:0:0:
208,80,104756,1,0,0:0:0:0:
236,104,104775,1,0,0:0:0:0:
276,128,104794,1,0,0:0:0:0:
168,52,104813,1,0,0:0:0:0:
232,68,104986,1,0,0:0:0:0:
260,92,105005,1,0,0:0:0:0:
300,116,105024,1,0,0:0:0:0:
192,40,105043,1,0,0:0:0:0:
260,72,105139,1,0,0:0:0:0:
288,96,105158,1,0,0:0:0:0:
328,120,105177,1,0,0:0:0:0:
220,44,105196,1,0,0:0:0:0:
296,84,105330,1,0,0:0:0:0:
324,108,105349,1,0,0:0:0:0:
364,132,105368,1,0,0:0:0:0:
256,56,105387,1,0,0:0:0:0:
336,100,105675,1,0,0:0:0:0:
364,124,105694,1,0,0:0:0:0:
404,148,105713,1,0,0:0:0:0:
296,72,105732,1,0,0:0:0:0:
356,116,105866,1,0,0:0:0:0:
384,140,105885,1,0,0:0:0:0:
424,164,105904,1,0,0:0:0:0:
316,88,105923,1,0,0:0:0:0:
412,156,106191,1,0,0:0:0:0:
440,180,106210,1,0,0:0:0:0:
480,204,106229,1,0,0:0:0:0:
372,128,106248,1,0,0:0:0:0:
416,176,106536,1,0,0:0:0:0:
444,200,106555,1,0,0:0:0:0:
484,224,106574,1,0,0:0:0:0:
376,148,106593,1,0,0:0:0:0:
416,208,106727,1,0,0:0:0:0:
444,232,106746,1,0,0:0:0:0:
484,256,106765,1,0,0:0:0:0:
376,180,106784,1,0,0:0:0:0:
420,224,106899,1,0,0:0:0:0:
448,248,106918,1,0,0:0:0:0:
488,272,106937,1,0,0:0:0:0:
380,196,106956,1,0,0:0:0:0:
420,240,107071,1,0,0:0:0:0:
448,264,107090,1,0,0:0:0:0:
488,288,107109,1,0,0:0:0:0:
380,212,107128,1,0,0:0:0:0:
416,248,107244,1,0,0:0:0:0:
444,272,107263,1,0,0:0:0:0:
484,296,107282,1,0,0:0:0:0:
376,220,107301,1,0,0:0:0:0:
416,260,107416,1,0,0:0:0:0:
444,284,107435,1,0,0:0:0:0:
484,308,107454,1,0,0:0:0:0:
376,232,107473,1,0,0:0:0:0:
372,268,107760,1,0,0:0:0:0:
352,308,107779,1,0,0:0:0:0:
396,228,107817,1,0,0:0:0:0:
332,344,107837,1,0,0:0:0:0:
340,276,108085,1,0,0:0:0:0:
320,316,108104,1,0,0:0:0:0:
364,236,108142,1,0,0:0:0:0:
300,352,108162,1,0,0:0:0:0:
332,280,108258,1,0,0:0:0:0:
312,320,108277,1,0,0:0:0:0:
356,240,108315,1,0,0:0:0:0:
292,356,108335,1,0,0:0:0:0:
312,280,108602,1,0,0:0:0:0:
292,320,108621,1,0,0:0:0:0:
336,240,108659,1,0,0:0:0:0:
272,356,108679,1,0,0:0:0:0:
300,280,108774,1,0,0:0:0:0:
280,320,108793,1,0,0:0:0:0:
324,240,108831,1,0,0:0:0:0:
260,356,108851,1,0,0:0:0:0:
272,272,108927,1,0,0:0:0:0:
252,312,108946,1,0,0:0:0:0:
296,232,108984,1,0,0:0:0:0:
232,348,109004,1,0,0:0:0:0:
256,268,109080,1,0,0:0:0:0:
236,308,109099,1,0,0:0:0:0:
280,228,109137,1,0,0:0:0:0:
216,344,109157,1,0,0:0:0:0:
216,248,109252,1,0,0:0:0:0:
196,288,109271,1,0,0:0:0:0:
240,208,109309,1,0,0:0:0:0:
176,324,109329,1,0,0:0:0:0:
188,200,109539,1,0,0:0:0:0:
168,240,109558,1,0,0:0:0:0:
212,160,109596,1,0,0:0:0:0:
148,276,109616,1,0,0:0:0:0:
176,180,109712,1,0,0:0:0:0:
156,220,109731,1,0,0:0:0:0:
200,140,109769,1,0,0:0:0:0:
136,256,109789,1,0,0:0:0:0:
168,152,109979,1,0,0:0:0:0:
148,192,109998,1,0,0:0:0:0:
192,112,110036,1,0,0:0:0:0:
128,228,110056,1,0,0:0:0:0:
168,124,110171,1,0,0:0:0:0:
148,164,110190,1,0,0:0:0:0:
192,84,110228,1,0,0:0:0:0:
128,200,110248,1,0,0:0:0:0:
176,96,110439,1,0,0:0:0:0:
156,136,110458,1,0,0:0:0:0:
200,56,110496,1,0,0:0:0:0:
136,172,110516,1,0,0:0:0:0:
192,84,110726,1,0,0:0:0:0:
172,124,110745,1,0,0:0:0:0:
216,44,110783,1,0,0:0:0:0:
152,160,110803,1,0,0:0:0:0:
200,76,110917,1,0,0:0:0:0:
180,116,110936,1,0,0:0:0:0:
224,36,110974,1,0,0:0:0:0:
160,152,110994,1,0,0:0:0:0:
216,72,111070,1,0,0:0:0:0:
196,112,111089,1,0,0:0:0:0:
240,32,111127,1,0,0:0:0:0:
176,148,111147,1,0,0:0:0:0:
224,72,111242,1,0,0:0:0:0:
204,112,111261,1,0,0:0:0:0:
248,32,111299,1,0,0:0:0:0:
184,148,111319,1,0,0:0:0:0:
248,72,111414,1,0,0:0:0:0:
228,112,111433,1,0,0:0:0:0:
272,32,111471,1,0,0:0:0:0:
208,148,111491,1,0,0:0:0:0:
272,72,111587,1,0,0:0:0:0:
252,112,111606,1,0,0:0:0:0:
296,32,111644,1,0,0:0:0:0:
232,148,111664,1,0,0:0:0:0:
328,72,111950,1,0,0:0:0:0:
308,112,111969,1,0,0:0:0:0:
352,32,112007,1,0,0:0:0:0:
288,148,112027,1,0,0:0:0:0:
332,72,112295,1,0,0:0:0:0:
312,112,112314,1,0,0:0:0:0:
356,32,112352,1,0,0:0:0:0:
292,148,112372,1,0,0:0:0:0:
332,72,112486,1,0,0:0:0:0:
312,112,112505,1,0,0:0:0:0:
356,32,112543,1,0,0:0:0:0:
292,148,112563,1,0,0:0:0:0:
332,72,112658,1,0,0:0:0:0:
312,112,112677,1,0,0:0:0:0:
356,32,112715,1,0,0:0:0:0:
292,148,112735,1,0,0:0:0:0:
332,72,112830,1,0,0:0:0:0:
312,112,112849,1,0,0:0:0:0:
356,32,112887,1,0,0:0:0:0:
292,148,112907,1,0,0:0:0:0:
360,88,113022,1,0,0:0:0:0:
340,128,113041,1,0,0:0:0:0:
384,48,113079,1,0,0:0:0:0:
320,164,113099,1,0,0:0:0:0:
400,112,113385,1,0,0:0:0:0:
380,152,113404,1,0,0:0:0:0:
424,72,113442,1,0,0:0:0:0:
360,188,113462,1,0,0:0:0:0:
420,156,113749,1,0,0:0:0:0:
400,196,113768,1,0,0:0:0:0:
444,116,113806,1,0,0:0:0:0:
380,232,113826,1,0,0:0:0:0:
420,168,114093,1,0,0:0:0:0:
400,208,114112,1,0,0:0:0:0:
444,128,114150,1,0,0:0:0:0:
380,244,114170,1,0,0:0:0:0:
424,208,114457,1,0,0:0:0:0:
404,248,114476,1,0,0:0:0:0:
448,168,114514,1,0,0:0:0:0:
384,284,114534,1,0,0:0:0:0:
400,240,114820,1,0,0:0:0:0:
380,280,114839,1,0,0:0:0:0:
424,200,114877,1,0,0:0:0:0:
360,316,114897,1,0,0:0:0:0:
360,264,115164,1,0,0:0:0:0:
340,304,115183,1,0,0:0:0:0:
384,224,115221,1,0,0:0:0:0:
320,340,115241,1,0,0:0:0:0:
280,268,115528,1,0,0:0:0:0:
260,308,115547,1,0,0:0:0:0:
304,228,115585,1,0,0:0:0:0:
240,344,115605,1,0,0:0:0:0:
216,272,115872,1,0,0:0:0:0:
204,300,115891,1,0,0:0:0:0:
184,324,115911,1,0,0:0:0:0:
240,240,115930,1,0,0:0:0:0:
136,268,116217,1,0,0:0:0:0:
124,296,116236,1,0,0:0:0:0:
104,320,116256,1,0,0:0:0:0:
160,236,116275,1,0,0:0:0:0:
96,256,116580,1,0,0:0:0:0:
84,284,116599,1,0,0:0:0:0:
64,308,116619,1,0,0:0:0:0:
120,224,116638,1,0,0:0:0:0:
100,216,116925,1,0,0:0:0:0:
88,244,116944,1,0,0:0:0:0:
68,268,116964,1,0,0:0:0:0:
124,184,116983,1,0,0:0:0:0:
104,176,117250,1,0,0:0:0:0:
92,204,117269,1,0,0:0:0:0:
72,228,117289,1,0,0:0:0:0:
128,144,117308,1,0,0:0:0:0:
116,112,117633,1,0,0:0:0:0:
104,140,117652,1,0,0:0:0:0:
84,164,117672,1,0,0:0:0:0:
140,80,117691,1,0,0:0:0:0:
152,80,117958,1,0,0:0:0:0:
140,108,117977,1,0,0:0:0:0:
120,132,117997,1,0,0:0:0:0:
176,48,118016,1,0,0:0:0:0:
236,112,118302,1,0,0:0:0:0:
264,140,118321,1,0,0:0:0:0:
204,76,118340,1,0,0:0:0:0:
296,172,118360,1,0,0:0:0:0:
188,124,118379,1,0,0:0:0:0:
252,176,118398,1,0,0:0:0:0:
220,152,118417,1,0,0:0:0:0:
236,112,118647,1,0,0:0:0:0:
264,140,118666,1,0,0:0:0:0:
204,76,118685,1,0,0:0:0:0:
296,172,118705,1,0,0:0:0:0:
188,124,118724,1,0,0:0:0:0:
252,176,118743,1,0,0:0:0:0:
220,152,118762,1,0,0:0:0:0:
240,112,118953,1,0,0:0:0:0:
268,140,118972,1,0,0:0:0:0:
208,76,118991,1,0,0:0:0:0:
300,172,119011,1,0,0:0:0:0:
192,124,119030,1,0,0:0:0:0:
256,176,119049,1,0,0:0:0:0:
224,152,119068,1,0,0:0:0:0:
240,112,119335,1,0,0:0:0:0:
268,140,119354,1,0,0:0:0:0:
208,76,119373,1,0,0:0:0:0:
300,172,119393,1,0,0:0:0:0:
192,124,119412,1,0,0:0:0:0:
256,176,119431,1,0,0:0:0:0:
224,152,119450,1,0,0:0:0:0:
240,112,119699,1,0,0:0:0:0:
268,140,119718,1,0,0:0:0:0:
208,76,119737,1,0,0:0:0:0:
300,172,119757,1,0,0:0:0:0:
192,124,119776,1,0,0:0:0:0:
256,176,119795,1,0,0:0:0:0:
224,152,119814,1,0,0:0:0:0:
240,112,120062,1,0,0:0:0:0:
268,140,120081,1,0,0:0:0:0:
208,76,120100,1,0,0:0:0:0:
300,172,120120,1,0,0:0:0:0:
192,124,120139,1,0,0:0:0:0:
256,176,120158,1,0,0:0:0:0:
224,152,120177,1,0,0:0:0:0:
216,124,120426,1,0,0:0:0:0:
244,152,120445,1,0,0:0:0:0:
184,88,120464,1,0,0:0:0:0:
276,184,120484,1,0,0:0:0:0:
168,136,120503,1,0,0:0:0:0:
232,188,120522,1,0,0:0:0:0:
200,164,120541,1,0,0:0:0:0:
200,152,120751,1,0,0:0:0:0:
228,180,120770,1,0,0:0:0:0:
168,116,120789,1,0,0:0:0:0:
260,212,120809,1,0,0:0:0:0:
152,164,120828,1,0,0:0:0:0:
216,216,120847,1,0,0:0:0:0:
184,192,120866,1,0,0:0:0:0:
188,168,121153,1,0,0:0:0:0:
216,196,121172,1,0,0:0:0:0:
156,132,121191,1,0,0:0:0:0:
248,228,121211,1,0,0:0:0:0:
140,180,121230,1,0,0:0:0:0:
204,232,121249,1,0,0:0:0:0:
172,208,121268,1,0,0:0:0:0:
176,192,121478,1,0,0:0:0:0:
204,220,121497,1,0,0:0:0:0:
144,156,121516,1,0,0:0:0:0:
236,252,121536,1,0,0:0:0:0:
128,204,121555,1,0,0:0:0:0:
192,256,121574,1,0,0:0:0:0:
160,232,121593,1,0,0:0:0:0:
172,228,121842,1,0,0:0:0:0:
200,256,121861,1,0,0:0:0:0:
140,192,121880,1,0,0:0:0:0:
232,288,121900,1,0,0:0:0:0:
124,240,121919,1,0,0:0:0:0:
188,292,121938,1,0,0:0:0:0:
156,268,121957,1,0,0:0:0:0:
180,248,122205,1,0,0:0:0:0:
208,276,122224,1,0,0:0:0:0:
148,212,122243,1,0,0:0:0:0:
240,308,122263,1,0,0:0:0:0:
132,260,122282,1,0,0:0:0:0:
196,312,122301,1,0,0:0:0:0:
164,288,122320,1,0,0:0:0:0:
212,272,122569,1,0,0:0:0:0:
240,300,122588,1,0,0:0:0:0:
180,236,122607,1,0,0:0:0:0:
272,332,122627,1,0,0:0:0:0:
164,284,122646,1,0,0:0:0:0:
228,336,122665,1,0,0:0:0:0:
196,312,122684,1,0,0:0:0:0:
232,272,122932,1,0,0:0:0:0:
260,300,122951,1,0,0:0:0:0:
200,236,122970,1,0,0:0:0:0:
292,332,122990,1,0,0:0:0:0:
184,284,123009,1,0,0:0:0:0:
248,336,123028,1,0,0:0:0:0:
216,312,123047,1,0,0:0:0:0:
260,268,123296,1,0,0:0:0:0:
288,296,123315,1,0,0:0:0:0:
228,232,123334,1,0,0:0:0:0:
320,328,123354,1,0,0:0:0:0:
212,280,123373,1,0,0:0:0:0:
276,332,123392,1,0,0:0:0:0:
244,308,123411,1,0,0:0:0:0:
304,264,123621,1,0,0:0:0:0:
332,292,123640,1,0,0:0:0:0:
272,228,123659,1,0,0:0:0:0:
364,324,123679,1,0,0:0:0:0:
256,276,123698,1,0,0:0:0:0:
320,328,123717,1,0,0:0:0:0:
288,304,123736,1,0,0:0:0:0:
312,248,123985,1,0,0:0:0:0:
340,276,124004,1,0,0:0:0:0:
280,212,124023,1,0,0:0:0:0:
372,308,124043,1,0,0:0:0:0:
264,260,124062,1,0,0:0:0:0:
328,312,124081,1,0,0:0:0:0:
296,288,124100,1,0,0:0:0:0:
328,220,124310,1,0,0:0:0:0:
356,248,124329,1,0,0:0:0:0:
296,184,124348,1,0,0:0:0:0:
388,280,124368,1,0,0:0:0:0:
280,232,124387,1,0,0:0:0:0:
344,284,124406,1,0,0:0:0:0:
312,260,124425,1,0,0:0:0:0:
328,188,124654,1,0,0:0:0:0:
356,216,124673,1,0,0:0:0:0:
296,152,124692,1,0,0:0:0:0:
388,248,124712,1,0,0:0:0:0:
280,200,124731,1,0,0:0:0:0:
344,252,124750,1,0,0:0:0:0:
312,228,124769,1,0,0:0:0:0:
328,164,125018,1,0,0:0:0:0:
356,192,125037,1,0,0:0:0:0:
296,128,125056,1,0,0:0:0:0:
388,224,125076,1,0,0:0:0:0:
280,176,125095,1,0,0:0:0:0:
344,228,125114,1,0,0:0:0:0:
312,204,125133,1,0,0:0:0:0:
312,128,125381,1,0,0:0:0:0:
340,156,125400,1,0,0:0:0:0:
280,92,125419,1,0,0:0:0:0:
372,188,125439,1,0,0:0:0:0:
264,140,125458,1,0,0:0:0:0:
328,192,125477,1,0,0:0:0:0:
296,168,125496,1,0,0:0:0:0:
276,112,125764,1,0,0:0:0:0:
304,140,125783,1,0,0:0:0:0:
244,76,125802,1,0,0:0:0:0:
336,172,125822,1,0,0:0:0:0:
228,124,125841,1,0,0:0:0:0:
292,176,125860,1,0,0:0:0:0:
260,152,125879,1,0,0:0:0:0:
236,112,126108,1,0,0:0:0:0:
264,140,126127,1,0,0:0:0:0:
204,76,126146,1,0,0:0:0:0:
296,172,126166,1,0,0:0:0:0:
188,124,126185,1,0,0:0:0:0:
252,176,126204,1,0,0:0:0:0:
220,152,126223,1,0,0:0:0:0:
228,116,126453,1,0,0:0:0:0:
256,144,126472,1,0,0:0:0:0:
196,80,126491,1,0,0:0:0:0:
288,176,126511,1,0,0:0:0:0:
180,128,126530,1,0,0:0:0:0:
244,180,126549,1,0,0:0:0:0:
212,156,126568,1,0,0:0:0:0:
208,128,126778,1,0,0:0:0:0:
236,156,126797,1,0,0:0:0:0:
176,92,126816,1,0,0:0:0:0:
268,188,126836,1,0,0:0:0:0:
160,140,126855,1,0,0:0:0:0:
224,192,126874,1,0,0:0:0:0:
192,168,126893,1,0,0:0:0:0:
192,148,127103,1,0,0:0:0:0:
220,176,127122,1,0,0:0:0:0:
160,112,127141,1,0,0:0:0:0:
252,208,127161,1,0,0:0:0:0:
144,160,127180,1,0,0:0:0:0:
208,212,127199,1,0,0:0:0:0:
176,188,127218,1,0,0:0:0:0:
184,176,127486,1,0,0:0:0:0:
212,204,127505,1,0,0:0:0:0:
152,140,127524,1,0,0:0:0:0:
244,236,127544,1,0,0:0:0:0:
136,188,127563,1,0,0:0:0:0:
200,240,127582,1,0,0:0:0:0:
168,216,127601,1,0,0:0:0:0:
180,200,127811,1,0,0:0:0:0:
208,228,127830,1,0,0:0:0:0:
148,164,127849,1,0,0:0:0:0:
240,260,127869,1,0,0:0:0:0:
132,212,127888,1,0,0:0:0:0:
196,264,127907,1,0,0:0:0:0:
164,240,127926,1,0,0:0:0:0:
192,204,128136,1,0,0:0:0:0:
220,232,128155,1,0,0:0:0:0:
160,168,128174,1,0,0:0:0:0:
252,264,128194,1,0,0:0:0:0:
144,216,128213,1,0,0:0:0:0:
208,268,128232,1,0,0:0:0:0:
176,244,128251,1,0,0:0:0:0:
212,208,128481,1,0,0:0:0:0:
240,236,128500,1,0,0:0:0:0:
180,172,128519,1,0,0:0:0:0:
272,268,128539,1,0,0:0:0:0:
164,220,128558,1,0,0:0:0:0:
228,272,128577,1,0,0:0:0:0:
196,248,128596,1,0,0:0:0:0:
228,208,128806,1,0,0:0:0:0:
256,236,128825,1,0,0:0:0:0:
196,172,128844,1,0,0:0:0:0:
288,268,128864,1,0,0:0:0:0:
180,220,128883,1,0,0:0:0:0:
244,272,128902,1,0,0:0:0:0:
212,248,128921,1,0,0:0:0:0:
240,208,129150,1,0,0:0:0:0:
268,236,129169,1,0,0:0:0:0:
208,172,129188,1,0,0:0:0:0:
300,268,129208,1,0,0:0:0:0:
192,220,129227,1,0,0:0:0:0:
256,272,129246,1,0,0:0:0:0:
224,248,129265,1,0,0:0:0:0:
260,208,129495,1,0,0:0:0:0:
288,236,129514,1,0,0:0:0:0:
228,172,129533,1,0,0:0:0:0:
320,268,129553,1,0,0:0:0:0:
212,220,129572,1,0,0:0:0:0:
276,272,129591,1,0,0:0:0:0:
244,248,129610,1,0,0:0:0:0:
276,208,129820,1,0,0:0:0:0:
304,236,129839,1,0,0:0:0:0:
244,172,129858,1,0,0:0:0:0:
336,268,129878,1,0,0:0:0:0:
228,220,129897,1,0,0:0:0:0:
292,272,129916,1,0,0:0:0:0:
260,248,129935,1,0,0:0:0:0:
280,200,130164,1,0,0:0:0:0:
308,228,130183,1,0,0:0:0:0:
248,164,130202,1,0,0:0:0:0:
340,260,130222,1,0,0:0:0:0:
232,212,130241,1,0,0:0:0:0:
296,264,130260,1,0,0:0:0:0:
264,240,130279,1,0,0:0:0:0:
280,184,130566,1,0,0:0:0:0:
308,212,130585,1,0,0:0:0:0:
248,148,130604,1,0,0:0:0:0:
340,244,130624,1,0,0:0:0:0:
232,196,130643,1,0,0:0:0:0:
296,248,130662,1,0,0:0:0:0:
264,224,130681,1,0,0:0:0:0:
264,176,130911,1,0,0:0:0:0:
292,204,130930,1,0,0:0:0:0:
232,140,130949,1,0,0:0:0:0:
324,236,130969,1,0,0:0:0:0:
216,188,130988,1,0,0:0:0:0:
280,240,131007,1,0,0:0:0:0:
248,216,131026,1,0,0:0:0:0:
256,180,131236,1,0,0:0:0:0:
284,208,131255,1,0,0:0:0:0:
224,144,131274,1,0,0:0:0:0:
316,240,131294,1,0,0:0:0:0:
208,192,131313,1,0,0:0:0:0:
272,244,131332,1,0,0:0:0:0:
240,220,131351,1,0,0:0:0:0:
244,188,131542,1,0,0:0:0:0:
272,216,131561,1,0,0:0:0:0:
212,152,131580,1,0,0:0:0:0:
304,248,131600,1,0,0:0:0:0:
196,200,131619,1,0,0:0:0:0:
260,252,131638,1,0,0:0:0:0:
228,228,131657,1,0,0:0:0:0:
252,204,131733,1,0,0:0:0:0:
280,232,131752,1,0,0:0:0:0:
220,168,131771,1,0,0:0:0:0:
312,264,131791,1,0,0:0:0:0:
204,216,131810,1,0,0:0:0:0:
268,268,131829,1,0,0:0:0:0:
236,244,131848,1,0,0:0:0:0:
264,168,132862,1,0,0:0:0:0:
292,196,132881,1,0,0:0:0:0:
232,132,132900,1,0,0:0:0:0:
324,228,132920,1,0,0:0:0:0:
216,180,132939,1,0,0:0:0:0:
280,232,132958,1,0,0:0:0:0:
248,208,132977,1,0,0:0:0:0:
260,200,133034,1,0,0:0:0:0:
288,228,133053,1,0,0:0:0:0:
228,164,133072,1,0,0:0:0:0:
320,260,133092,1,0,0:0:0:0:
212,212,133111,1,0,0:0:0:0:
276,264,133130,1,0,0:0:0:0:
244,240,133149,1,0,0:0:0:0:
308,152,133455,1,0,0:0:0:0:
336,180,133474,1,0,0:0:0:0:
276,116,133493,1,0,0:0:0:0:
368,212,133513,1,0,0:0:0:0:
260,164,133532,1,0,0:0:0:0:
324,216,133551,1,0,0:0:0:0:
292,192,133570,1,0,0:0:0:0:
316,184,133627,1,0,0:0:0:0:
344,212,133646,1,0,0:0:0:0:
284,148,133665,1,0,0:0:0:0:
376,244,133685,1,0,0:0:0:0:
268,196,133704,1,0,0:0:0:0:
332,248,133723,1,0,0:0:0:0:
300,224,133742,1,0,0:0:0:0:
376,124,134527,1,0,0:0:0:0:
164,128,134546,1,0,0:0:0:0:
272,128,134565,1,0,0:0:0:0:
324,128,134584,1,0,0:0:0:0:
220,128,134603,1,0,0:0:0:0:
368,64,136229,1,0,0:0:0:0:
340,96,136249,1,0,0:0:0:0:
304,128,136268,1,0,0:0:0:0:
260,164,136287,1,0,0:0:0:0:
352,68,136402,1,0,0:0:0:0:
324,100,136422,1,0,0:0:0:0:
288,132,136441,1,0,0:0:0:0:
244,168,136460,1,0,0:0:0:0:
312,72,136555,1,0,0:0:0:0:
284,104,136575,1,0,0:0:0:0:
248,136,136594,1,0,0:0:0:0:
204,172,136613,1,0,0:0:0:0:
288,72,136727,1,0,0:0:0:0:
260,104,136747,1,0,0:0:0:0:
224,136,136766,1,0,0:0:0:0:
180,172,136785,1,0,0:0:0:0:
240,68,137014,1,0,0:0:0:0:
212,100,137034,1,0,0:0:0:0:
176,132,137053,1,0,0:0:0:0:
132,168,137072,1,0,0:0:0:0:
160,84,137358,1,0,0:0:0:0:
196,120,137377,1,0,0:0:0:0:
128,60,137397,1,0,0:0:0:0:
232,148,137416,1,0,0:0:0:0:
144,100,137531,1,0,0:0:0:0:
180,136,137550,1,0,0:0:0:0:
112,76,137570,1,0,0:0:0:0:
216,164,137589,1,0,0:0:0:0:
136,128,137722,1,0,0:0:0:0:
172,164,137741,1,0,0:0:0:0:
104,104,137761,1,0,0:0:0:0:
208,192,137780,1,0,0:0:0:0:
136,160,137875,1,0,0:0:0:0:
172,196,137894,1,0,0:0:0:0:
104,136,137914,1,0,0:0:0:0:
208,224,137933,1,0,0:0:0:0:
136,200,138047,1,0,0:0:0:0:
172,236,138066,1,0,0:0:0:0:
104,176,138086,1,0,0:0:0:0:
208,264,138105,1,0,0:0:0:0:
364,100,138449,1,0,0:0:0:0:
328,144,138468,1,0,0:0:0:0:
300,176,138487,1,0,0:0:0:0:
268,208,138506,1,0,0:0:0:0:
388,64,138812,1,0,0:0:0:0:
352,108,138831,1,0,0:0:0:0:
324,140,138850,1,0,0:0:0:0:
292,172,138869,1,0,0:0:0:0:
408,156,139004,1,0,0:0:0:0:
372,200,139023,1,0,0:0:0:0:
344,232,139042,1,0,0:0:0:0:
312,264,139061,1,0,0:0:0:0:
408,168,139157,1,0,0:0:0:0:
372,212,139176,1,0,0:0:0:0:
344,244,139195,1,0,0:0:0:0:
312,276,139214,1,0,0:0:0:0:
408,200,139329,1,0,0:0:0:0:
372,244,139348,1,0,0:0:0:0:
344,276,139367,1,0,0:0:0:0:
312,308,139386,1,0,0:0:0:0:
408,240,139501,1,0,0:0:0:0:
372,284,139520,1,0,0:0:0:0:
344,316,139539,1,0,0:0:0:0:
312,348,139558,1,0,0:0:0:0:
368,308,139922,1,0,0:0:0:0:
344,288,139960,1,0,0:0:0:0:
312,264,139979,1,0,0:0:0:0:
292,236,139999,1,0,0:0:0:0:
356,312,140247,1,0,0:0:0:0:
332,292,140285,1,0,0:0:0:0:
300,268,140304,1,0,0:0:0:0:
280,240,140324,1,0,0:0:0:0:
320,320,140420,1,0,0:0:0:0:
296,300,140458,1,0,0:0:0:0:
264,276,140477,1,0,0:0:0:0:
244,248,140497,1,0,0:0:0:0:
288,324,140611,1,0,0:0:0:0:
264,304,140649,1,0,0:0:0:0:
232,280,140668,1,0,0:0:0:0:
212,252,140688,1,0,0:0:0:0:
260,328,140994,1,0,0:0:0:0:
236,308,141032,1,0,0:0:0:0:
204,284,141051,1,0,0:0:0:0:
184,256,141071,1,0,0:0:0:0:
232,328,141300,1,0,0:0:0:0:
208,308,141338,1,0,0:0:0:0:
176,284,141357,1,0,0:0:0:0:
156,256,141377,1,0,0:0:0:0:
200,328,141663,1,0,0:0:0:0:
176,308,141701,1,0,0:0:0:0:
144,284,141720,1,0,0:0:0:0:
124,256,141740,1,0,0:0:0:0:
108,276,141988,1,0,0:0:0:0:
88,260,142008,1,0,0:0:0:0:
68,248,142027,1,0,0:0:0:0:
48,232,142046,1,0,0:0:0:0:
112,264,142161,1,0,0:0:0:0:
92,248,142181,1,0,0:0:0:0:
72,236,142200,1,0,0:0:0:0:
52,220,142219,1,0,0:0:0:0:
108,216,142333,1,0,0:0:0:0:
88,200,142353,1,0,0:0:0:0:
68,188,142372,1,0,0:0:0:0:
48,172,142391,1,0,0:0:0:0:
100,132,142735,1,0,0:0:0:0:
80,116,142755,1,0,0:0:0:0:
60,104,142774,1,0,0:0:0:0:
40,88,142793,1,0,0:0:0:0:
104,96,143060,1,0,0:0:0:0:
84,80,143080,1,0,0:0:0:0:
64,68,143099,1,0,0:0:0:0:
44,52,143118,1,0,0:0:0:0:
152,36,143442,1,0,0:0:0:0:
132,72,143462,1,0,0:0:0:0:
104,108,143481,1,0,0:0:0:0:
84,148,143500,1,0,0:0:0:0:
200,28,143634,1,0,0:0:0:0:
180,64,143654,1,0,0:0:0:0:
152,100,143673,1,0,0:0:0:0:
132,140,143692,1,0,0:0:0:0:
252,24,143787,1,0,0:0:0:0:
232,60,143807,1,0,0:0:0:0:
204,96,143826,1,0,0:0:0:0:
184,136,143845,1,0,0:0:0:0:
316,28,144131,1,0,0:0:0:0:
296,64,144151,1,0,0:0:0:0:
268,100,144170,1,0,0:0:0:0:
248,140,144189,1,0,0:0:0:0:
332,100,144514,1,0,0:0:0:0:
336,136,144533,1,0,0:0:0:0:
344,184,144552,1,0,0:0:0:0:
356,224,144571,1,0,0:0:0:0:
304,136,144820,1,0,0:0:0:0:
308,172,144839,1,0,0:0:0:0:
316,220,144858,1,0,0:0:0:0:
328,260,144877,1,0,0:0:0:0:
272,160,144992,1,0,0:0:0:0:
276,196,145011,1,0,0:0:0:0:
284,244,145030,1,0,0:0:0:0:
296,284,145049,1,0,0:0:0:0:
244,192,145126,1,0,0:0:0:0:
248,228,145145,1,0,0:0:0:0:
256,276,145164,1,0,0:0:0:0:
268,316,145183,1,0,0:0:0:0:
204,232,145279,1,0,0:0:0:0:
208,268,145298,1,0,0:0:0:0:
216,316,145317,1,0,0:0:0:0:
228,356,145336,1,0,0:0:0:0:
112,228,145643,1,0,0:0:0:0:
152,264,145662,1,0,0:0:0:0:
68,200,145681,1,0,0:0:0:0:
192,296,145700,1,0,0:0:0:0:
104,164,145987,1,0,0:0:0:0:
144,200,146006,1,0,0:0:0:0:
60,136,146025,1,0,0:0:0:0:
184,232,146044,1,0,0:0:0:0:
104,112,146293,1,0,0:0:0:0:
144,148,146312,1,0,0:0:0:0:
60,84,146331,1,0,0:0:0:0:
184,180,146350,1,0,0:0:0:0:
104,80,146619,1,0,0:0:0:0:
144,116,146638,1,0,0:0:0:0:
60,52,146657,1,0,0:0:0:0:
184,148,146676,1,0,0:0:0:0:
108,60,146944,1,0,0:0:0:0:
148,96,146963,1,0,0:0:0:0:
64,32,146982,1,0,0:0:0:0:
188,128,147001,1,0,0:0:0:0:
108,44,147250,1,0,0:0:0:0:
148,80,147269,1,0,0:0:0:0:
64,16,147288,1,0,0:0:0:0:
188,112,147307,1,0,0:0:0:0:
180,104,147422,1,0,0:0:0:0:
168,136,147441,1,0,0:0:0:0:
188,68,147460,1,0,0:0:0:0:
152,164,147479,1,0,0:0:0:0:
212,136,147594,1,0,0:0:0:0:
200,168,147613,1,0,0:0:0:0:
220,100,147632,1,0,0:0:0:0:
184,196,147651,1,0,0:0:0:0:
240,168,147766,1,0,0:0:0:0:
228,200,147785,1,0,0:0:0:0:
248,132,147804,1,0,0:0:0:0:
212,228,147823,1,0,0:0:0:0:
284,228,147939,1,0,0:0:0:0:
272,260,147958,1,0,0:0:0:0:
292,192,147977,1,0,0:0:0:0:
256,288,147996,1,0,0:0:0:0:
316,248,148111,1,0,0:0:0:0:
304,280,148130,1,0,0:0:0:0:
324,212,148149,1,0,0:0:0:0:
288,308,148168,1,0,0:0:0:0:
344,272,148264,1,0,0:0:0:0:
332,304,148283,1,0,0:0:0:0:
352,236,148302,1,0,0:0:0:0:
316,332,148321,1,0,0:0:0:0:
380,284,148666,1,0,0:0:0:0:
368,316,148685,1,0,0:0:0:0:
388,248,148704,1,0,0:0:0:0:
352,344,148723,1,0,0:0:0:0:
380,256,148800,1,0,0:0:0:0:
368,288,148819,1,0,0:0:0:0:
388,220,148838,1,0,0:0:0:0:
352,316,148857,1,0,0:0:0:0:
380,232,148991,1,0,0:0:0:0:
368,264,149010,1,0,0:0:0:0:
388,196,149029,1,0,0:0:0:0:
352,292,149048,1,0,0:0:0:0:
376,172,149182,1,0,0:0:0:0:
364,204,149201,1,0,0:0:0:0:
384,136,149220,1,0,0:0:0:0:
348,232,149239,1,0,0:0:0:0:
376,128,149374,1,0,0:0:0:0:
364,160,149393,1,0,0:0:0:0:
384,92,149412,1,0,0:0:0:0:
348,188,149431,1,0,0:0:0:0:
376,80,149488,1,0,0:0:0:0:
364,112,149507,1,0,0:0:0:0:
384,44,149526,1,0,0:0:0:0:
348,140,149545,1,0,0:0:0:0:
368,36,149775,1,0,0:0:0:0:
356,68,149794,1,0,0:0:0:0:
376,0,149813,1,0,0:0:0:0:
340,96,149832,1,0,0:0:0:0:
248,40,150101,1,0,0:0:0:0:
232,72,150139,1,0,0:0:0:0:
272,8,150158,1,0,0:0:0:0:
228,40,150254,1,0,0:0:0:0:
212,72,150292,1,0,0:0:0:0:
252,8,150311,1,0,0:0:0:0:
168,40,150445,1,0,0:0:0:0:
152,72,150483,1,0,0:0:0:0:
192,8,150502,1,0,0:0:0:0:
132,40,150636,1,0,0:0:0:0:
116,72,150674,1,0,0:0:0:0:
156,8,150693,1,0,0:0:0:0:
84,36,150809,1,0,0:0:0:0:
68,68,150847,1,0,0:0:0:0:
108,4,150866,1,0,0:0:0:0:
64,44,151153,1,0,0:0:0:0:
48,76,151191,1,0,0:0:0:0:
88,12,151210,1,0,0:0:0:0:
64,56,151497,1,0,0:0:0:0:
48,88,151535,1,0,0:0:0:0:
88,24,151554,1,0,0:0:0:0:
64,112,151670,1,0,0:0:0:0:
48,144,151708,1,0,0:0:0:0:
88,80,151727,1,0,0:0:0:0:
64,156,151823,1,0,0:0:0:0:
48,188,151861,1,0,0:0:0:0:
88,124,151880,1,0,0:0:0:0:
64,196,152014,1,0,0:0:0:0:
48,228,152052,1,0,0:0:0:0:
88,164,152071,1,0,0:0:0:0:
64,248,152205,1,0,0:0:0:0:
48,280,152243,1,0,0:0:0:0:
88,216,152262,1,0,0:0:0:0:
64,276,152550,1,0,0:0:0:0:
48,308,152588,1,0,0:0:0:0:
88,244,152607,1,0,0:0:0:0:
136,352,152951,1,0,0:0:0:0:
120,384,152989,1,0,0:0:0:0:
160,320,153008,1,0,0:0:0:0:
152,352,153124,1,0,0:0:0:0:
136,384,153162,1,0,0:0:0:0:
176,320,153181,1,0,0:0:0:0:
224,352,153277,1,0,0:0:0:0:
208,384,153315,1,0,0:0:0:0:
248,320,153334,1,0,0:0:0:0:
236,352,153449,1,0,0:0:0:0:
220,384,153487,1,0,0:0:0:0:
260,320,153506,1,0,0:0:0:0:
268,352,153621,1,0,0:0:0:0:
252,384,153659,1,0,0:0:0:0:
292,320,153678,1,0,0:0:0:0:
296,348,153793,1,0,0:0:0:0:
280,380,153831,1,0,0:0:0:0:
320,316,153850,1,0,0:0:0:0:
316,344,153946,1,0,0:0:0:0:
300,376,153984,1,0,0:0:0:0:
340,312,154003,1,0,0:0:0:0:
336,344,154099,1,0,0:0:0:0:
320,376,154137,1,0,0:0:0:0:
360,312,154156,1,0,0:0:0:0:
352,340,154272,1,0,0:0:0:0:
336,372,154310,1,0,0:0:0:0:
376,308,154329,1,0,0:0:0:0:
360,336,154425,1,0,0:0:0:0:
344,368,154463,1,0,0:0:0:0:
384,304,154482,1,0,0:0:0:0:
368,328,154578,1,0,0:0:0:0:
352,360,154616,1,0,0:0:0:0:
392,296,154635,1,0,0:0:0:0:
384,316,154750,1,0,0:0:0:0:
368,348,154788,1,0,0:0:0:0:
408,284,154807,1,0,0:0:0:0:
392,300,154922,1,0,0:0:0:0:
376,332,154960,1,0,0:0:0:0:
416,268,154979,1,0,0:0:0:0:
396,284,155113,1,0,0:0:0:0:
380,316,155151,1,0,0:0:0:0:
420,252,155170,1,0,0:0:0:0:
400,264,155286,1,0,0:0:0:0:
384,296,155324,1,0,0:0:0:0:
424,232,155343,1,0,0:0:0:0:
404,244,155477,1,0,0:0:0:0:
388,276,155515,1,0,0:0:0:0:
428,212,155534,1,0,0:0:0:0:
404,224,155668,1,0,0:0:0:0:
388,256,155706,1,0,0:0:0:0:
428,192,155725,1,0,0:0:0:0:
392,192,155860,1,0,0:0:0:0:
376,224,155898,1,0,0:0:0:0:
416,160,155917,1,0,0:0:0:0:
360,160,156013,1,0,0:0:0:0:
344,192,156051,1,0,0:0:0:0:
384,128,156070,1,0,0:0:0:0:
344,152,156223,1,0,0:0:0:0:
328,184,156261,1,0,0:0:0:0:
368,120,156280,1,0,0:0:0:0:
304,144,156414,1,0,0:0:0:0:
288,176,156452,1,0,0:0:0:0:
328,112,156471,1,0,0:0:0:0:
252,148,156606,1,0,0:0:0:0:
236,180,156644,1,0,0:0:0:0:
276,116,156663,1,0,0:0:0:0:
248,176,156797,1,0,0:0:0:0:
232,208,156835,1,0,0:0:0:0:
272,144,156854,1,0,0:0:0:0:
276,216,156988,1,0,0:0:0:0:
260,248,157026,1,0,0:0:0:0:
300,184,157045,1,0,0:0:0:0:
272,168,157161,1,0,0:0:0:0:
256,200,157199,1,0,0:0:0:0:
296,136,157218,1,0,0:0:0:0:
252,200,157333,1,0,0:0:0:0:
236,232,157371,1,0,0:0:0:0:
276,168,157390,1,0,0:0:0:0:
280,184,157505,1,0,0:0:0:0:
264,216,157543,1,0,0:0:0:0:
304,152,157562,1,0,0:0:0:0:
256,192,157677,1,0,0:0:0:0:
240,224,157715,1,0,0:0:0:0:
280,160,157734,1,0,0:0:0:0:
272,184,157830,1,0,0:0:0:0:
256,216,157868,1,0,0:0:0:0:
296,152,157887,1,0,0:0:0:0:
268,192,157983,1,0,0:0:0:0:
252,224,158021,1,0,0:0:0:0:
292,160,158040,1,0,0:0:0:0:
272,184,158136,1,0,0:0:0:0:
256,216,158174,1,0,0:0:0:0:
296,152,158193,1,0,0:0:0:0:
256,184,158289,1,0,0:0:0:0:
240,216,158327,1,0,0:0:0:0:
280,152,158346,1,0,0:0:0:0:
264,168,158557,1,0,0:0:0:0:
248,200,158595,1,0,0:0:0:0:
288,136,158614,1,0,0:0:0:0:
252,184,158883,1,0,0:0:0:0:
236,216,158921,1,0,0:0:0:0:
276,152,158940,1,0,0:0:0:0:
248,180,159189,1,0,0:0:0:0:
176,140,159208,1,0,0:0:0:0:
284,204,159227,1,0,0:0:0:0:
216,160,159265,1,0,0:0:0:0:
128,128,159552,1,0,0:0:0:0:
56,88,159571,1,0,0:0:0:0:
164,152,159590,1,0,0:0:0:0:
96,108,159628,1,0,0:0:0:0:
132,108,159935,1,0,0:0:0:0:
60,68,159954,1,0,0:0:0:0:
168,132,159973,1,0,0:0:0:0:
100,88,160011,1,0,0:0:0:0:
192,92,160279,1,0,0:0:0:0:
120,52,160298,1,0,0:0:0:0:
228,116,160317,1,0,0:0:0:0:
160,72,160355,1,0,0:0:0:0:
280,88,160662,1,0,0:0:0:0:
208,48,160681,1,0,0:0:0:0:
316,112,160700,1,0,0:0:0:0:
248,68,160738,1,0,0:0:0:0:
340,84,161006,1,0,0:0:0:0:
268,44,161025,1,0,0:0:0:0:
376,108,161044,1,0,0:0:0:0:
308,64,161082,1,0,0:0:0:0:
444,88,161351,1,0,0:0:0:0:
372,48,161370,1,0,0:0:0:0:
480,112,161389,1,0,0:0:0:0:
412,68,161427,1,0,0:0:0:0:
468,168,161714,1,0,0:0:0:0:
396,128,161733,1,0,0:0:0:0:
504,192,161752,1,0,0:0:0:0:
436,148,161790,1,0,0:0:0:0:
280,176,162078,1,0,0:0:0:0:
208,136,162097,1,0,0:0:0:0:
316,200,162116,1,0,0:0:0:0:
248,156,162154,1,0,0:0:0:0:
148,196,162403,1,0,0:0:0:0:
76,156,162422,1,0,0:0:0:0:
184,220,162441,1,0,0:0:0:0:
116,176,162479,1,0,0:0:0:0:
232,308,162747,1,0,0:0:0:0:
260,340,162766,1,0,0:0:0:0:
212,280,162786,1,0,0:0:0:0:
284,368,162805,1,0,0:0:0:0:
104,300,163092,1,0,0:0:0:0:
132,332,163111,1,0,0:0:0:0:
84,272,163131,1,0,0:0:0:0:
156,360,163150,1,0,0:0:0:0:
224,244,163474,1,0,0:0:0:0:
252,276,163493,1,0,0:0:0:0:
204,216,163513,1,0,0:0:0:0:
276,304,163532,1,0,0:0:0:0:
240,160,163857,1,0,0:0:0:0:
212,184,163876,1,0,0:0:0:0:
272,136,163895,1,0,0:0:0:0:
184,204,163914,1,0,0:0:0:0:
320,260,164221,1,0,0:0:0:0:
292,284,164240,1,0,0:0:0:0:
352,236,164259,1,0,0:0:0:0:
264,304,164278,1,0,0:0:0:0:
320,148,164565,1,0,0:0:0:0:
292,172,164584,1,0,0:0:0:0:
352,124,164603,1,0,0:0:0:0:
264,192,164622,1,0,0:0:0:0:
200,232,164890,1,0,0:0:0:0:
172,256,164909,1,0,0:0:0:0:
232,208,164928,1,0,0:0:0:0:
144,276,164947,1,0,0:0:0:0:
360,268,165254,1,0,0:0:0:0:
332,292,165273,1,0,0:0:0:0:
392,244,165292,1,0,0:0:0:0:
304,312,165311,1,0,0:0:0:0:
212,204,165445,1,0,0:0:0:0:
184,228,165464,1,0,0:0:0:0:
244,180,165483,1,0,0:0:0:0:
156,248,165502,1,0,0:0:0:0:
100,116,165656,1,0,0:0:0:0:
112,152,165675,1,0,0:0:0:0:
128,184,165694,1,0,0:0:0:0:
80,84,165713,1,0,0:0:0:0:
128,84,166019,1,0,0:0:0:0:
140,120,166038,1,0,0:0:0:0:
156,152,166057,1,0,0:0:0:0:
108,52,166076,1,0,0:0:0:0:
128,92,166325,1,0,0:0:0:0:
140,128,166344,1,0,0:0:0:0:
156,160,166363,1,0,0:0:0:0:
108,60,166382,1,0,0:0:0:0:
144,192,166670,1,0,0:0:0:0:
156,228,166689,1,0,0:0:0:0:
172,260,166708,1,0,0:0:0:0:
124,160,166727,1,0,0:0:0:0:
156,208,166842,1,0,0:0:0:0:
168,244,166861,1,0,0:0:0:0:
184,276,166880,1,0,0:0:0:0:
136,176,166899,1,0,0:0:0:0:
208,232,167014,1,0,0:0:0:0:
220,268,167033,1,0,0:0:0:0:
236,300,167052,1,0,0:0:0:0:
188,200,167071,1,0,0:0:0:0:
260,208,167377,1,0,0:0:0:0:
272,244,167396,1,0,0:0:0:0:
288,276,167415,1,0,0:0:0:0:
240,176,167434,1,0,0:0:0:0:
276,112,167760,1,0,0:0:0:0:
288,148,167779,1,0,0:0:0:0:
304,180,167798,1,0,0:0:0:0:
256,80,167817,1,0,0:0:0:0:
332,100,168066,1,0,0:0:0:0:
344,136,168085,1,0,0:0:0:0:
360,168,168104,1,0,0:0:0:0:
312,68,168123,1,0,0:0:0:0:
376,112,168411,1,0,0:0:0:0:
388,148,168430,1,0,0:0:0:0:
404,180,168449,1,0,0:0:0:0:
356,80,168468,1,0,0:0:0:0:
380,176,168774,1,0,0:0:0:0:
392,212,168793,1,0,0:0:0:0:
408,244,168812,1,0,0:0:0:0:
360,144,168831,1,0,0:0:0:0:
376,188,168946,1,0,0:0:0:0:
388,224,168965,1,0,0:0:0:0:
404,256,168984,1,0,0:0:0:0:
356,156,169003,1,0,0:0:0:0:
372,216,169119,1,0,0:0:0:0:
384,252,169138,1,0,0:0:0:0:
400,284,169157,1,0,0:0:0:0:
352,184,169176,1,0,0:0:0:0:
360,232,169252,1,0,0:0:0:0:
372,268,169271,1,0,0:0:0:0:
388,300,169290,1,0,0:0:0:0:
340,200,169309,1,0,0:0:0:0:
316,224,169501,1,0,0:0:0:0:
328,260,169520,1,0,0:0:0:0:
344,292,169539,1,0,0:0:0:0:
296,192,169558,1,0,0:0:0:0:
212,152,169865,1,0,0:0:0:0:
224,188,169884,1,0,0:0:0:0:
240,220,169903,1,0,0:0:0:0:
192,120,169922,1,0,0:0:0:0:
136,88,170209,1,0,0:0:0:0:
148,124,170228,1,0,0:0:0:0:
164,156,170247,1,0,0:0:0:0:
116,56,170266,1,0,0:0:0:0:
132,216,170515,1,0,0:0:0:0:
144,252,170534,1,0,0:0:0:0:
160,284,170553,1,0,0:0:0:0:
112,184,170572,1,0,0:0:0:0:
168,232,170687,1,0,0:0:0:0:
180,268,170706,1,0,0:0:0:0:
196,300,170725,1,0,0:0:0:0:
148,200,170744,1,0,0:0:0:0:
196,232,170860,1,0,0:0:0:0:
208,268,170879,1,0,0:0:0:0:
224,300,170898,1,0,0:0:0:0:
176,200,170917,1,0,0:0:0:0:
212,228,171032,1,0,0:0:0:0:
224,264,171051,1,0,0:0:0:0:
240,296,171070,1,0,0:0:0:0:
192,196,171089,1,0,0:0:0:0:
212,200,171204,1,0,0:0:0:0:
224,236,171223,1,0,0:0:0:0:
240,268,171242,1,0,0:0:0:0:
192,168,171261,1,0,0:0:0:0:
212,128,171376,1,0,0:0:0:0:
224,164,171395,1,0,0:0:0:0:
240,196,171414,1,0,0:0:0:0:
192,96,171433,1,0,0:0:0:0:
216,96,171682,1,0,0:0:0:0:
228,132,171701,1,0,0:0:0:0:
244,164,171720,1,0,0:0:0:0:
196,64,171739,1,0,0:0:0:0:
256,80,171988,1,0,0:0:0:0:
268,116,172007,1,0,0:0:0:0:
284,148,172026,1,0,0:0:0:0:
236,48,172045,1,0,0:0:0:0:
336,64,172295,1,0,0:0:0:0:
348,100,172314,1,0,0:0:0:0:
364,132,172333,1,0,0:0:0:0:
316,32,172352,1,0,0:0:0:0:
348,104,172467,1,0,0:0:0:0:
360,140,172486,1,0,0:0:0:0:
376,172,172505,1,0,0:0:0:0:
328,72,172524,1,0,0:0:0:0:
352,140,172639,1,0,0:0:0:0:
364,176,172658,1,0,0:0:0:0:
380,208,172677,1,0,0:0:0:0:
332,108,172696,1,0,0:0:0:0:
352,188,172849,1,0,0:0:0:0:
364,224,172868,1,0,0:0:0:0:
380,256,172887,1,0,0:0:0:0:
332,156,172906,1,0,0:0:0:0:
356,256,173041,1,0,0:0:0:0:
340,280,173060,1,0,0:0:0:0:
324,304,173079,1,0,0:0:0:0:
308,328,173098,1,0,0:0:0:0:
380,288,173213,1,0,0:0:0:0:
364,312,173232,1,0,0:0:0:0:
348,336,173251,1,0,0:0:0:0:
332,360,173270,1,0,0:0:0:0:
408,280,173423,1,0,0:0:0:0:
392,304,173442,1,0,0:0:0:0:
376,328,173461,1,0,0:0:0:0:
360,352,173480,1,0,0:0:0:0:
424,256,173729,1,0,0:0:0:0:
408,280,173748,1,0,0:0:0:0:
392,304,173767,1,0,0:0:0:0:
376,328,173786,1,0,0:0:0:0:
428,232,174093,1,0,0:0:0:0:
412,256,174112,1,0,0:0:0:0:
396,280,174131,1,0,0:0:0:0:
380,304,174150,1,0,0:0:0:0:
428,168,174571,1,0,0:0:0:0:
412,192,174590,1,0,0:0:0:0:
396,216,174609,1,0,0:0:0:0:
380,240,174628,1,0,0:0:0:0:
424,148,174763,1,0,0:0:0:0:
408,172,174782,1,0,0:0:0:0:
392,196,174801,1,0,0:0:0:0:
376,220,174820,1,0,0:0:0:0:
416,116,174973,1,0,0:0:0:0:
400,140,174992,1,0,0:0:0:0:
384,164,175011,1,0,0:0:0:0:
368,188,175030,1,0,0:0:0:0:
416,96,175490,1,0,0:0:0:0:
400,120,175509,1,0,0:0:0:0:
384,144,175528,1,0,0:0:0:0:
368,168,175547,1,0,0:0:0:0:
400,84,175834,1,0,0:0:0:0:
384,108,175853,1,0,0:0:0:0:
368,132,175872,1,0,0:0:0:0:
352,156,175891,1,0,0:0:0:0:
376,96,176045,1,0,0:0:0:0:
360,120,176064,1,0,0:0:0:0:
344,144,176083,1,0,0:0:0:0:
328,168,176102,1,0,0:0:0:0:
368,112,176198,1,0,0:0:0:0:
352,136,176217,1,0,0:0:0:0:
336,160,176236,1,0,0:0:0:0:
320,184,176255,1,0,0:0:0:0:
360,140,176389,1,0,0:0:0:0:
344,164,176408,1,0,0:0:0:0:
328,188,176427,1,0,0:0:0:0:
312,212,176446,1,0,0:0:0:0:
364,168,176580,1,0,0:0:0:0:
348,192,176599,1,0,0:0:0:0:
332,216,176618,1,0,0:0:0:0:
316,240,176637,1,0,0:0:0:0:
376,200,176752,1,0,0:0:0:0:
360,224,176771,1,0,0:0:0:0:
344,248,176790,1,0,0:0:0:0:
328,272,176809,1,0,0:0:0:0:
392,204,176906,1,0,0:0:0:0:
376,228,176925,1,0,0:0:0:0:
360,252,176944,1,0,0:0:0:0:
344,276,176963,1,0,0:0:0:0:
404,192,177078,1,0,0:0:0:0:
388,216,177097,1,0,0:0:0:0:
372,240,177116,1,0,0:0:0:0:
356,264,177135,1,0,0:0:0:0:
404,176,177231,1,0,0:0:0:0:
388,200,177250,1,0,0:0:0:0:
372,224,177269,1,0,0:0:0:0:
356,248,177288,1,0,0:0:0:0:
404,152,177441,1,0,0:0:0:0:
388,176,177460,1,0,0:0:0:0:
372,200,177479,1,0,0:0:0:0:
356,224,177498,1,0,0:0:0:0:
416,120,177613,1,0,0:0:0:0:
400,144,177632,1,0,0:0:0:0:
384,168,177651,1,0,0:0:0:0:
368,192,177670,1,0,0:0:0:0:
436,112,177958,1,0,0:0:0:0:
420,136,177977,1,0,0:0:0:0:
404,160,177996,1,0,0:0:0:0:
388,184,178015,1,0,0:0:0:0:
440,128,178168,1,0,0:0:0:0:
424,152,178187,1,0,0:0:0:0:
408,176,178206,1,0,0:0:0:0:
392,200,178225,1,0,0:0:0:0:
440,148,178340,1,0,0:0:0:0:
424,172,178359,1,0,0:0:0:0:
408,196,178378,1,0,0:0:0:0:
392,220,178397,1,0,0:0:0:0:
440,180,178532,1,0,0:0:0:0:
424,204,178551,1,0,0:0:0:0:
408,228,178570,1,0,0:0:0:0:
392,252,178589,1,0,0:0:0:0:
444,192,178723,1,0,0:0:0:0:
428,216,178742,1,0,0:0:0:0:
412,240,178761,1,0,0:0:0:0:
396,264,178780,1,0,0:0:0:0:
448,176,178934,1,0,0:0:0:0:
432,200,178953,1,0,0:0:0:0:
416,224,178972,1,0,0:0:0:0:
400,248,178991,1,0,0:0:0:0:
448,128,179125,1,0,0:0:0:0:
432,152,179144,1,0,0:0:0:0:
416,176,179163,1,0,0:0:0:0:
400,200,179182,1,0,0:0:0:0:
444,168,179297,1,0,0:0:0:0:
428,192,179316,1,0,0:0:0:0:
412,216,179335,1,0,0:0:0:0:
396,240,179354,1,0,0:0:0:0:
440,184,179527,1,0,0:0:0:0:
424,208,179546,1,0,0:0:0:0:
408,232,179565,1,0,0:0:0:0:
392,256,179584,1,0,0:0:0:0:
436,128,179699,1,0,0:0:0:0:
420,152,179718,1,0,0:0:0:0:
404,176,179737,1,0,0:0:0:0:
388,200,179756,1,0,0:0:0:0:
428,200,180024,1,0,0:0:0:0:
412,224,180043,1,0,0:0:0:0:
396,248,180062,1,0,0:0:0:0:
380,272,180081,1,0,0:0:0:0:
404,208,180330,1,0,0:0:0:0:
388,232,180349,1,0,0:0:0:0:
372,256,180368,1,0,0:0:0:0:
356,280,180387,1,0,0:0:0:0:
368,68,181134,1,0,0:0:0:0:
352,92,181153,1,0,0:0:0:0:
336,116,181172,1,0,0:0:0:0:
320,140,181191,1,0,0:0:0:0:
356,152,181440,1,0,0:0:0:0:
340,176,181459,1,0,0:0:0:0:
324,200,181478,1,0,0:0:0:0:
308,224,181497,1,0,0:0:0:0:
324,240,181670,1,0,0:0:0:0:
308,264,181689,1,0,0:0:0:0:
292,288,181708,1,0,0:0:0:0:
276,312,181727,1,0,0:0:0:0:
316,232,181861,1,0,0:0:0:0:
300,256,181880,1,0,0:0:0:0:
284,280,181899,1,0,0:0:0:0:
268,304,181918,1,0,0:0:0:0:
264,56,182244,1,0,0:0:0:0:
272,80,182263,1,0,0:0:0:0:
288,104,182282,1,0,0:0:0:0:
248,28,182301,1,0,0:0:0:0:
176,44,182531,1,0,0:0:0:0:
184,68,182550,1,0,0:0:0:0:
200,92,182569,1,0,0:0:0:0:
160,16,182588,1,0,0:0:0:0:
160,92,182875,1,0,0:0:0:0:
168,116,182894,1,0,0:0:0:0:
184,140,182913,1,0,0:0:0:0:
144,64,182932,1,0,0:0:0:0:
160,160,183047,1,0,0:0:0:0:
168,184,183066,1,0,0:0:0:0:
184,208,183085,1,0,0:0:0:0:
144,132,183104,1,0,0:0:0:0:
160,224,183219,1,0,0:0:0:0:
168,248,183238,1,0,0:0:0:0:
184,272,183257,1,0,0:0:0:0:
144,196,183276,1,0,0:0:0:0:
224,232,183583,1,0,0:0:0:0:
232,256,183602,1,0,0:0:0:0:
248,280,183621,1,0,0:0:0:0:
208,204,183640,1,0,0:0:0:0:
320,120,183965,1,0,0:0:0:0:
240,160,183985,1,0,0:0:0:0:
276,144,184004,1,0,0:0:0:0:
356,104,184023,1,0,0:0:0:0:
304,40,184291,1,0,0:0:0:0:
224,80,184311,1,0,0:0:0:0:
260,64,184330,1,0,0:0:0:0:
340,24,184349,1,0,0:0:0:0:
388,16,184597,1,0,0:0:0:0:
308,56,184617,1,0,0:0:0:0:
344,40,184636,1,0,0:0:0:0:
424,0,184655,1,0,0:0:0:0:
412,48,184903,1,0,0:0:0:0:
332,88,184923,1,0,0:0:0:0:
368,72,184942,1,0,0:0:0:0:
448,32,184961,1,0,0:0:0:0:
408,124,185113,1,0,0:0:0:0:
328,164,185133,1,0,0:0:0:0:
364,148,185152,1,0,0:0:0:0:
444,108,185171,1,0,0:0:0:0:
400,180,185305,1,0,0:0:0:0:
320,220,185325,1,0,0:0:0:0:
356,204,185344,1,0,0:0:0:0:
436,164,185363,1,0,0:0:0:0:
400,216,185458,1,0,0:0:0:0:
320,256,185478,1,0,0:0:0:0:
356,240,185497,1,0,0:0:0:0:
436,200,185516,1,0,0:0:0:0:
432,180,185802,1,0,0:0:0:0:
352,220,185822,1,0,0:0:0:0:
388,204,185841,1,0,0:0:0:0:
468,164,185860,1,0,0:0:0:0:
396,100,186108,1,0,0:0:0:0:
316,140,186128,1,0,0:0:0:0:
352,124,186147,1,0,0:0:0:0:
432,84,186166,1,0,0:0:0:0:
244,60,186434,1,0,0:0:0:0:
164,100,186454,1,0,0:0:0:0:
200,84,186473,1,0,0:0:0:0:
280,44,186492,1,0,0:0:0:0:
132,56,186778,1,0,0:0:0:0:
52,96,186798,1,0,0:0:0:0:
88,80,186817,1,0,0:0:0:0:
168,40,186836,1,0,0:0:0:0:
112,76,187084,1,0,0:0:0:0:
32,116,187104,1,0,0:0:0:0:
68,100,187123,1,0,0:0:0:0:
148,60,187142,1,0,0:0:0:0:
96,144,187275,1,0,0:0:0:0:
16,184,187295,1,0,0:0:0:0:
52,168,187314,1,0,0:0:0:0:
132,128,187333,1,0,0:0:0:0:
96,188,187467,1,0,0:0:0:0:
16,228,187487,1,0,0:0:0:0:
52,212,187506,1,0,0:0:0:0:
132,172,187525,1,0,0:0:0:0:
112,224,187620,1,0,0:0:0:0:
32,264,187640,1,0,0:0:0:0:
68,248,187659,1,0,0:0:0:0:
148,208,187678,1,0,0:0:0:0:
168,204,187907,1,0,0:0:0:0:
88,244,187927,1,0,0:0:0:0:
124,228,187946,1,0,0:0:0:0:
204,188,187965,1,0,0:0:0:0:
168,136,188232,1,0,0:0:0:0:
88,176,188252,1,0,0:0:0:0:
124,160,188271,1,0,0:0:0:0:
204,120,188290,1,0,0:0:0:0:
208,40,188557,1,0,0:0:0:0:
128,80,188577,1,0,0:0:0:0:
164,64,188596,1,0,0:0:0:0:
244,24,188615,1,0,0:0:0:0:
240,36,188729,1,0,0:0:0:0:
160,76,188749,1,0,0:0:0:0:
196,60,188768,1,0,0:0:0:0:
276,20,188787,1,0,0:0:0:0:
260,128,188921,1,0,0:0:0:0:
180,168,188941,1,0,0:0:0:0:
216,152,188960,1,0,0:0:0:0:
296,112,188979,1,0,0:0:0:0:
304,200,189170,1,0,0:0:0:0:
224,240,189190,1,0,0:0:0:0:
260,224,189209,1,0,0:0:0:0:
340,184,189228,1,0,0:0:0:0:
380,100,189610,1,0,0:0:0:0:
300,140,189630,1,0,0:0:0:0:
336,124,189649,1,0,0:0:0:0:
416,84,189668,1,0,0:0:0:0:
336,16,189897,1,0,0:0:0:0:
256,56,189917,1,0,0:0:0:0:
292,40,189936,1,0,0:0:0:0:
372,0,189955,1,0,0:0:0:0:
384,88,190126,1,0,0:0:0:0:
304,128,190146,1,0,0:0:0:0:
340,112,190165,1,0,0:0:0:0:
420,72,190184,1,0,0:0:0:0:
368,136,190298,1,0,0:0:0:0:
288,176,190318,1,0,0:0:0:0:
324,160,190337,1,0,0:0:0:0:
404,120,190356,1,0,0:0:0:0:
316,160,190662,1,0,0:0:0:0:
236,200,190682,1,0,0:0:0:0:
272,184,190701,1,0,0:0:0:0:
352,144,190720,1,0,0:0:0:0:
232,172,191006,1,0,0:0:0:0:
152,212,191026,1,0,0:0:0:0:
188,196,191045,1,0,0:0:0:0:
268,156,191064,1,0,0:0:0:0:
160,196,191332,1,0,0:0:0:0:
80,236,191352,1,0,0:0:0:0:
116,220,191371,1,0,0:0:0:0:
196,180,191390,1,0,0:0:0:0:
120,256,191714,1,0,0:0:0:0:
40,296,191734,1,0,0:0:0:0:
76,280,191753,1,0,0:0:0:0:
156,240,191772,1,0,0:0:0:0:
176,292,192059,1,0,0:0:0:0:
96,332,192079,1,0,0:0:0:0:
132,316,192098,1,0,0:0:0:0:
212,276,192117,1,0,0:0:0:0:
284,292,192422,1,0,0:0:0:0:
204,332,192442,1,0,0:0:0:0:
240,316,192461,1,0,0:0:0:0:
320,276,192480,1,0,0:0:0:0:
312,280,192786,1,0,0:0:0:0:
232,320,192806,1,0,0:0:0:0:
268,304,192825,1,0,0:0:0:0:
348,264,192844,1,0,0:0:0:0:
320,272,192958,1,0,0:0:0:0:
240,312,192978,1,0,0:0:0:0:
276,296,192997,1,0,0:0:0:0:
356,256,193016,1,0,0:0:0:0:
328,268,193111,1,0,0:0:0:0:
248,308,193131,1,0,0:0:0:0:
284,292,193150,1,0,0:0:0:0:
364,252,193169,1,0,0:0:0:0:
340,264,193283,1,0,0:0:0:0:
260,304,193303,1,0,0:0:0:0:
296,288,193322,1,0,0:0:0:0:
376,248,193341,1,0,0:0:0:0:
352,236,193474,1,0,0:0:0:0:
272,276,193494,1,0,0:0:0:0:
308,260,193513,1,0,0:0:0:0:
388,220,193532,1,0,0:0:0:0:
352,184,193857,1,0,0:0:0:0:
272,224,193877,1,0,0:0:0:0:
308,208,193896,1,0,0:0:0:0:
388,168,193915,1,0,0:0:0:0:
352,176,194048,1,0,0:0:0:0:
272,216,194068,1,0,0:0:0:0:
308,200,194087,1,0,0:0:0:0:
388,160,194106,1,0,0:0:0:0:
352,152,194221,1,0,0:0:0:0:
272,192,194241,1,0,0:0:0:0:
308,176,194260,1,0,0:0:0:0:
388,136,194279,1,0,0:0:0:0:
352,136,194412,1,0,0:0:0:0:
272,176,194432,1,0,0:0:0:0:
308,160,194451,1,0,0:0:0:0:
388,120,194470,1,0,0:0:0:0:
344,100,194584,1,0,0:0:0:0:
264,140,194604,1,0,0:0:0:0:
300,124,194623,1,0,0:0:0:0:
380,84,194642,1,0,0:0:0:0:
336,52,194928,1,0,0:0:0:0:
256,92,194948,1,0,0:0:0:0:
292,76,194967,1,0,0:0:0:0:
372,36,194986,1,0,0:0:0:0:
260,32,195273,1,0,0:0:0:0:
180,72,195293,1,0,0:0:0:0:
216,56,195312,1,0,0:0:0:0:
296,16,195331,1,0,0:0:0:0:
232,40,195464,1,0,0:0:0:0:
152,80,195484,1,0,0:0:0:0:
188,64,195503,1,0,0:0:0:0:
268,24,195522,1,0,0:0:0:0:
208,48,195617,1,0,0:0:0:0:
128,88,195637,1,0,0:0:0:0:
164,72,195656,1,0,0:0:0:0:
244,32,195675,1,0,0:0:0:0:
176,76,195809,1,0,0:0:0:0:
96,116,195829,1,0,0:0:0:0:
132,100,195848,1,0,0:0:0:0:
212,60,195867,1,0,0:0:0:0:
156,96,195981,1,0,0:0:0:0:
76,136,196001,1,0,0:0:0:0:
112,120,196020,1,0,0:0:0:0:
192,80,196039,1,0,0:0:0:0:
132,128,196115,1,0,0:0:0:0:
52,168,196135,1,0,0:0:0:0:
88,152,196154,1,0,0:0:0:0:
168,112,196173,1,0,0:0:0:0:
88,204,196363,1,0,0:0:0:0:
8,244,196383,1,0,0:0:0:0:
44,228,196402,1,0,0:0:0:0:
124,188,196421,1,0,0:0:0:0:
100,244,196689,1,0,0:0:0:0:
20,284,196709,1,0,0:0:0:0:
56,268,196728,1,0,0:0:0:0:
136,228,196747,1,0,0:0:0:0:
116,276,196861,1,0,0:0:0:0:
36,316,196881,1,0,0:0:0:0:
72,300,196900,1,0,0:0:0:0:
152,260,196919,1,0,0:0:0:0:
152,308,197052,1,0,0:0:0:0:
72,348,197072,1,0,0:0:0:0:
108,332,197091,1,0,0:0:0:0:
188,292,197110,1,0,0:0:0:0:
176,332,197224,1,0,0:0:0:0:
96,372,197244,1,0,0:0:0:0:
132,356,197263,1,0,0:0:0:0:
212,316,197282,1,0,0:0:0:0:
216,344,197377,1,0,0:0:0:0:
136,384,197397,1,0,0:0:0:0:
172,368,197416,1,0,0:0:0:0:
252,328,197435,1,0,0:0:0:0:
240,344,197531,1,0,0:0:0:0:
160,384,197551,1,0,0:0:0:0:
196,368,197570,1,0,0:0:0:0:
276,328,197589,1,0,0:0:0:0:
292,344,197798,1,0,0:0:0:0:
212,384,197818,1,0,0:0:0:0:
248,368,197837,1,0,0:0:0:0:
328,328,197856,1,0,0:0:0:0:
336,332,198143,1,0,0:0:0:0:
256,372,198163,1,0,0:0:0:0:
292,356,198182,1,0,0:0:0:0:
372,316,198201,1,0,0:0:0:0:
368,304,198449,1,0,0:0:0:0:
288,344,198469,1,0,0:0:0:0:
324,328,198488,1,0,0:0:0:0:
404,288,198507,1,0,0:0:0:0:
404,260,198774,1,0,0:0:0:0:
324,300,198794,1,0,0:0:0:0:
360,284,198813,1,0,0:0:0:0:
440,244,198832,1,0,0:0:0:0:
340,196,199099,1,0,0:0:0:0:
260,236,199119,1,0,0:0:0:0:
296,220,199138,1,0,0:0:0:0:
376,180,199157,1,0,0:0:0:0:
272,192,199482,1,0,0:0:0:0:
192,232,199502,1,0,0:0:0:0:
228,216,199521,1,0,0:0:0:0:
308,176,199540,1,0,0:0:0:0:
208,144,199846,1,0,0:0:0:0:
128,184,199866,1,0,0:0:0:0:
164,168,199885,1,0,0:0:0:0:
244,128,199904,1,0,0:0:0:0:
136,88,200228,1,0,0:0:0:0:
56,128,200248,1,0,0:0:0:0:
92,112,200267,1,0,0:0:0:0:
172,72,200286,1,0,0:0:0:0:
104,48,200553,1,0,0:0:0:0:
24,88,200573,1,0,0:0:0:0:
60,72,200592,1,0,0:0:0:0:
140,32,200611,1,0,0:0:0:0:
248,36,200917,1,0,0:0:0:0:
168,76,200937,1,0,0:0:0:0:
204,60,200956,1,0,0:0:0:0:
284,20,200975,1,0,0:0:0:0:
360,52,201242,1,0,0:0:0:0:
280,92,201262,1,0,0:0:0:0:
316,76,201281,1,0,0:0:0:0:
396,36,201300,1,0,0:0:0:0:
416,104,201606,1,0,0:0:0:0:
336,144,201626,1,0,0:0:0:0:
372,128,201645,1,0,0:0:0:0:
452,88,201664,1,0,0:0:0:0:
392,144,201912,1,0,0:0:0:0:
312,184,201932,1,0,0:0:0:0:
348,168,201951,1,0,0:0:0:0:
428,128,201970,1,0,0:0:0:0:
332,168,202275,1,0,0:0:0:0:
252,208,202295,1,0,0:0:0:0:
288,192,202314,1,0,0:0:0:0:
368,152,202333,1,0,0:0:0:0:
