osu file format v14

[General]
AudioFilename: audio.mp3
AudioLeadIn: 0
PreviewTime: -1
Countdown: 1
SampleSet: None
StackLeniency: 0.7
Mode: 0
LetterboxInBreaks: 0
WidescreenStoryboard: 1

[Editor]
DistanceSpacing: 1
BeatDivisor: 8
GridSize: 4
TimelineZoom: 1

[Metadata]
Title:Darren Styles Remix
TitleUnicode:Darren Styles Remix
Artist:XinCrin
ArtistUnicode:XinCrin
Creator:SLDplays
Version:Crazys
Source:
Tags:
BeatmapID:1025801
BeatmapSetID:480507

[Difficulty]
HPDrainRate:5
CircleSize:7
OverallDifficulty:10
ApproachRate:10
SliderMultiplier:3.59999990463257
SliderTickRate:8

[Events]
//Background and Video events
0,0,"pause-overlay.jpg",0,0
//Break Periods
//Storyboard Layer 0 (Background)
//Storyboard Layer 1 (Fail)
//Storyboard Layer 2 (Pass)
//Storyboard Layer 3 (Foreground)
//Storyboard Sound Samples

[TimingPoints]
0,30,4,1,0,100,1,0
5856,-100,4,1,0,100,0,0

[HitObjects]
80,208,609,5,0,0:0:0:0:
72,304,630,1,0,0:0:0:0:
80,108,637,1,0,0:0:0:0:
76,148,645,1,0,0:0:0:0:
72,256,652,1,0,0:0:0:0:
144,208,660,1,0,0:0:0:0:
136,204,667,1,0,0:0:0:0:
136,304,681,1,0,0:0:0:0:
144,108,688,1,0,0:0:0:0:
136,104,695,1,0,0:0:0:0:
140,148,696,1,0,0:0:0:0:
136,256,703,1,0,0:0:0:0:
128,252,710,1,0,0:0:0:0:
232,200,1230,1,0,0:0:0:0:
232,200,1245,1,0,0:0:0:0:
224,296,1251,1,0,0:0:0:0:
232,100,1258,1,0,0:0:0:0:
224,296,1266,1,0,0:0:0:0:
232,100,1273,1,0,0:0:0:0:
228,140,1281,1,0,0:0:0:0:
224,248,1288,1,0,0:0:0:0:
296,200,1296,1,0,0:0:0:0:
288,196,1303,1,0,0:0:0:0:
288,296,1317,1,0,0:0:0:0:
296,100,1324,1,0,0:0:0:0:
288,96,1331,1,0,0:0:0:0:
292,140,1332,1,0,0:0:0:0:
288,248,1339,1,0,0:0:0:0:
280,244,1346,1,0,0:0:0:0:
372,156,1860,1,0,0:0:0:0:
376,216,1875,1,0,0:0:0:0:
368,312,1896,1,0,0:0:0:0:
376,116,1903,1,0,0:0:0:0:
372,156,1911,1,0,0:0:0:0:
368,264,1918,1,0,0:0:0:0:
440,216,1926,1,0,0:0:0:0:
432,212,1933,1,0,0:0:0:0:
432,312,1947,1,0,0:0:0:0:
440,116,1954,1,0,0:0:0:0:
432,112,1961,1,0,0:0:0:0:
436,156,1962,1,0,0:0:0:0:
432,264,1969,1,0,0:0:0:0:
424,260,1976,1,0,0:0:0:0:
196,144,2539,1,0,0:0:0:0:
200,204,2550,1,0,0:0:0:0:
192,300,2571,1,0,0:0:0:0:
200,104,2578,1,0,0:0:0:0:
196,144,2586,1,0,0:0:0:0:
192,252,2593,1,0,0:0:0:0:
264,204,2601,1,0,0:0:0:0:
256,200,2608,1,0,0:0:0:0:
256,300,2622,1,0,0:0:0:0:
264,104,2629,1,0,0:0:0:0:
256,100,2636,1,0,0:0:0:0:
260,144,2637,1,0,0:0:0:0:
256,252,2644,1,0,0:0:0:0:
248,248,2651,1,0,0:0:0:0:
80,160,3261,1,0,0:0:0:0:
80,208,3270,1,0,0:0:0:0:
72,304,3291,1,0,0:0:0:0:
80,108,3298,1,0,0:0:0:0:
76,148,3306,1,0,0:0:0:0:
72,256,3313,1,0,0:0:0:0:
144,208,3321,1,0,0:0:0:0:
136,204,3328,1,0,0:0:0:0:
136,304,3342,1,0,0:0:0:0:
144,108,3349,1,0,0:0:0:0:
136,104,3356,1,0,0:0:0:0:
140,148,3357,1,0,0:0:0:0:
136,256,3364,1,0,0:0:0:0:
128,252,3371,1,0,0:0:0:0:
136,280,3978,1,0,0:0:0:0:
148,176,3990,1,0,0:0:0:0:
140,272,4011,1,0,0:0:0:0:
148,76,4018,1,0,0:0:0:0:
144,116,4026,1,0,0:0:0:0:
140,224,4033,1,0,0:0:0:0:
212,176,4041,1,0,0:0:0:0:
204,172,4048,1,0,0:0:0:0:
204,272,4062,1,0,0:0:0:0:
212,76,4069,1,0,0:0:0:0:
204,72,4076,1,0,0:0:0:0:
208,116,4077,1,0,0:0:0:0:
204,224,4084,1,0,0:0:0:0:
196,220,4091,1,0,0:0:0:0:
344,200,4680,1,0,0:0:0:0:
408,296,4689,1,0,0:0:0:0:
336,296,4701,1,0,0:0:0:0:
344,100,4708,1,0,0:0:0:0:
340,140,4716,1,0,0:0:0:0:
336,248,4723,1,0,0:0:0:0:
408,200,4731,1,0,0:0:0:0:
400,196,4738,1,0,0:0:0:0:
400,296,4752,1,0,0:0:0:0:
408,100,4759,1,0,0:0:0:0:
400,96,4766,1,0,0:0:0:0:
404,140,4767,1,0,0:0:0:0:
400,248,4774,1,0,0:0:0:0:
392,244,4781,1,0,0:0:0:0:
432,208,5335,1,0,0:0:0:0:
372,240,5355,1,0,0:0:0:0:
364,336,5376,1,0,0:0:0:0:
372,140,5383,1,0,0:0:0:0:
368,180,5391,1,0,0:0:0:0:
364,288,5398,1,0,0:0:0:0:
436,240,5406,1,0,0:0:0:0:
428,236,5413,1,0,0:0:0:0:
428,336,5427,1,0,0:0:0:0:
436,140,5434,1,0,0:0:0:0:
428,136,5441,1,0,0:0:0:0:
432,180,5442,1,0,0:0:0:0:
428,288,5449,1,0,0:0:0:0:
420,284,5456,1,0,0:0:0:0:
416,68,6080,1,0,0:0:0:0:
348,176,6090,1,0,0:0:0:0:
340,272,6111,1,0,0:0:0:0:
348,76,6118,1,0,0:0:0:0:
344,116,6126,1,0,0:0:0:0:
340,224,6133,1,0,0:0:0:0:
412,176,6141,1,0,0:0:0:0:
404,172,6148,1,0,0:0:0:0:
404,272,6162,1,0,0:0:0:0:
32,180,6165,1,0,0:0:0:0:
412,76,6169,1,0,0:0:0:0:
404,72,6176,1,0,0:0:0:0:
408,116,6177,1,0,0:0:0:0:
404,224,6184,1,0,0:0:0:0:
24,276,6186,1,0,0:0:0:0:
396,220,6191,1,0,0:0:0:0:
32,80,6193,1,0,0:0:0:0:
28,120,6201,1,0,0:0:0:0:
24,228,6208,1,0,0:0:0:0:
96,180,6216,1,0,0:0:0:0:
88,176,6223,1,0,0:0:0:0:
88,276,6237,1,0,0:0:0:0:
96,80,6244,1,0,0:0:0:0:
88,76,6251,1,0,0:0:0:0:
92,120,6252,1,0,0:0:0:0:
88,228,6259,1,0,0:0:0:0:
80,224,6266,1,0,0:0:0:0:
224,68,6808,1,0,0:0:0:0:
412,176,6825,1,0,0:0:0:0:
344,284,6835,1,0,0:0:0:0:
336,380,6856,1,0,0:0:0:0:
344,184,6863,1,0,0:0:0:0:
412,8,6870,1,0,0:0:0:0:
340,224,6871,1,0,0:0:0:0:
336,332,6878,1,0,0:0:0:0:
344,116,6880,1,0,0:0:0:0:
412,8,6885,1,0,0:0:0:0:
408,284,6886,1,0,0:0:0:0:
400,280,6893,1,0,0:0:0:0:
344,116,6895,1,0,0:0:0:0:
336,212,6901,1,0,0:0:0:0:
400,380,6907,1,0,0:0:0:0:
344,16,6908,1,0,0:0:0:0:
88,60,6910,1,0,0:0:0:0:
408,184,6914,1,0,0:0:0:0:
340,56,6916,1,0,0:0:0:0:
400,180,6921,1,0,0:0:0:0:
404,224,6922,1,0,0:0:0:0:
336,164,6923,1,0,0:0:0:0:
400,332,6929,1,0,0:0:0:0:
408,116,6931,1,0,0:0:0:0:
392,328,6936,1,0,0:0:0:0:
400,112,6938,1,0,0:0:0:0:
412,176,6945,1,0,0:0:0:0:
408,116,6946,1,0,0:0:0:0:
400,212,6952,1,0,0:0:0:0:
400,112,6953,1,0,0:0:0:0:
344,284,6955,1,0,0:0:0:0:
408,16,6959,1,0,0:0:0:0:
92,288,6961,1,0,0:0:0:0:
400,12,6966,1,0,0:0:0:0:
404,56,6967,1,0,0:0:0:0:
84,284,6968,1,0,0:0:0:0:
28,120,6970,1,0,0:0:0:0:
400,164,6974,1,0,0:0:0:0:
336,380,6976,1,0,0:0:0:0:
392,160,6981,1,0,0:0:0:0:
404,56,6982,1,0,0:0:0:0:
344,184,6983,1,0,0:0:0:0:
400,164,6989,1,0,0:0:0:0:
340,224,6991,1,0,0:0:0:0:
392,160,6996,1,0,0:0:0:0:
48,44,6997,1,0,0:0:0:0:
336,332,6998,1,0,0:0:0:0:
84,336,7004,1,0,0:0:0:0:
408,284,7006,1,0,0:0:0:0:
76,332,7011,1,0,0:0:0:0:
400,280,7013,1,0,0:0:0:0:
92,120,7021,1,0,0:0:0:0:
400,380,7027,1,0,0:0:0:0:
84,116,7028,1,0,0:0:0:0:
28,288,7030,1,0,0:0:0:0:
408,184,7034,1,0,0:0:0:0:
400,180,7041,1,0,0:0:0:0:
404,224,7042,1,0,0:0:0:0:
400,332,7049,1,0,0:0:0:0:
20,384,7051,1,0,0:0:0:0:
392,328,7056,1,0,0:0:0:0:
88,60,7057,1,0,0:0:0:0:
28,188,7058,1,0,0:0:0:0:
84,168,7064,1,0,0:0:0:0:
24,228,7066,1,0,0:0:0:0:
76,164,7071,1,0,0:0:0:0:
20,336,7073,1,0,0:0:0:0:
92,288,7081,1,0,0:0:0:0:
84,284,7088,1,0,0:0:0:0:
84,384,7102,1,0,0:0:0:0:
92,188,7109,1,0,0:0:0:0:
84,184,7116,1,0,0:0:0:0:
88,228,7117,1,0,0:0:0:0:
84,336,7124,1,0,0:0:0:0:
76,332,7131,1,0,0:0:0:0:
116,60,7499,1,0,0:0:0:0:
324,68,7500,1,0,0:0:0:0:
512,176,7517,1,0,0:0:0:0:
444,284,7527,1,0,0:0:0:0:
436,380,7548,1,0,0:0:0:0:
444,184,7555,1,0,0:0:0:0:
512,8,7562,1,0,0:0:0:0:
440,224,7563,1,0,0:0:0:0:
436,332,7570,1,0,0:0:0:0:
444,116,7572,1,0,0:0:0:0:
512,8,7577,1,0,0:0:0:0:
508,284,7578,1,0,0:0:0:0:
500,280,7585,1,0,0:0:0:0:
444,116,7587,1,0,0:0:0:0:
436,212,7593,1,0,0:0:0:0:
500,380,7599,1,0,0:0:0:0:
444,16,7600,1,0,0:0:0:0:
188,60,7602,1,0,0:0:0:0:
508,184,7606,1,0,0:0:0:0:
440,56,7608,1,0,0:0:0:0:
500,180,7613,1,0,0:0:0:0:
504,224,7614,1,0,0:0:0:0:
436,164,7615,1,0,0:0:0:0:
208,68,7620,1,0,0:0:0:0:
500,332,7621,1,0,0:0:0:0:
508,116,7623,1,0,0:0:0:0:
492,328,7628,1,0,0:0:0:0:
500,112,7630,1,0,0:0:0:0:
396,176,7637,1,0,0:0:0:0:
508,116,7638,1,0,0:0:0:0:
500,212,7644,1,0,0:0:0:0:
500,112,7645,1,0,0:0:0:0:
328,284,7647,1,0,0:0:0:0:
508,16,7651,1,0,0:0:0:0:
192,288,7653,1,0,0:0:0:0:
500,12,7658,1,0,0:0:0:0:
504,56,7659,1,0,0:0:0:0:
184,284,7660,1,0,0:0:0:0:
128,120,7662,1,0,0:0:0:0:
500,164,7666,1,0,0:0:0:0:
320,380,7668,1,0,0:0:0:0:
492,160,7673,1,0,0:0:0:0:
504,56,7674,1,0,0:0:0:0:
328,184,7675,1,0,0:0:0:0:
500,164,7681,1,0,0:0:0:0:
396,8,7682,1,0,0:0:0:0:
324,224,7683,1,0,0:0:0:0:
492,160,7688,1,0,0:0:0:0:
148,44,7689,1,0,0:0:0:0:
320,332,7690,1,0,0:0:0:0:
328,116,7692,1,0,0:0:0:0:
184,336,7696,1,0,0:0:0:0:
396,8,7697,1,0,0:0:0:0:
392,284,7698,1,0,0:0:0:0:
176,332,7703,1,0,0:0:0:0:
384,280,7705,1,0,0:0:0:0:
328,116,7707,1,0,0:0:0:0:
320,212,7713,1,0,0:0:0:0:
384,380,7719,1,0,0:0:0:0:
328,16,7720,1,0,0:0:0:0:
72,60,7722,1,0,0:0:0:0:
392,184,7726,1,0,0:0:0:0:
324,56,7728,1,0,0:0:0:0:
384,180,7733,1,0,0:0:0:0:
388,224,7734,1,0,0:0:0:0:
320,164,7735,1,0,0:0:0:0:
384,332,7741,1,0,0:0:0:0:
392,116,7743,1,0,0:0:0:0:
376,328,7748,1,0,0:0:0:0:
188,60,7749,1,0,0:0:0:0:
384,112,7750,1,0,0:0:0:0:
184,168,7756,1,0,0:0:0:0:
396,176,7757,1,0,0:0:0:0:
392,116,7758,1,0,0:0:0:0:
176,164,7763,1,0,0:0:0:0:
384,212,7764,1,0,0:0:0:0:
384,112,7765,1,0,0:0:0:0:
328,284,7767,1,0,0:0:0:0:
392,16,7771,1,0,0:0:0:0:
76,288,7773,1,0,0:0:0:0:
384,12,7778,1,0,0:0:0:0:
388,56,7779,1,0,0:0:0:0:
68,284,7780,1,0,0:0:0:0:
12,120,7782,1,0,0:0:0:0:
384,164,7786,1,0,0:0:0:0:
320,380,7788,1,0,0:0:0:0:
376,160,7793,1,0,0:0:0:0:
388,56,7794,1,0,0:0:0:0:
328,184,7795,1,0,0:0:0:0:
384,164,7801,1,0,0:0:0:0:
324,224,7803,1,0,0:0:0:0:
376,160,7808,1,0,0:0:0:0:
32,44,7809,1,0,0:0:0:0:
320,332,7810,1,0,0:0:0:0:
68,336,7816,1,0,0:0:0:0:
392,284,7818,1,0,0:0:0:0:
60,332,7823,1,0,0:0:0:0:
384,280,7825,1,0,0:0:0:0:
76,120,7833,1,0,0:0:0:0:
384,380,7839,1,0,0:0:0:0:
68,116,7840,1,0,0:0:0:0:
12,288,7842,1,0,0:0:0:0:
392,184,7846,1,0,0:0:0:0:
384,180,7853,1,0,0:0:0:0:
388,224,7854,1,0,0:0:0:0:
384,332,7861,1,0,0:0:0:0:
4,384,7863,1,0,0:0:0:0:
376,328,7868,1,0,0:0:0:0:
72,60,7869,1,0,0:0:0:0:
12,188,7870,1,0,0:0:0:0:
68,168,7876,1,0,0:0:0:0:
8,228,7878,1,0,0:0:0:0:
60,164,7883,1,0,0:0:0:0:
4,336,7885,1,0,0:0:0:0:
76,288,7893,1,0,0:0:0:0:
68,284,7900,1,0,0:0:0:0:
68,384,7914,1,0,0:0:0:0:
76,188,7921,1,0,0:0:0:0:
68,184,7928,1,0,0:0:0:0:
72,228,7929,1,0,0:0:0:0:
68,336,7936,1,0,0:0:0:0:
60,332,7943,1,0,0:0:0:0:
64,64,8212,1,0,0:0:0:0:
116,60,8220,1,0,0:0:0:0:
324,68,8221,1,0,0:0:0:0:
512,176,8238,1,0,0:0:0:0:
444,284,8248,1,0,0:0:0:0:
436,380,8269,1,0,0:0:0:0:
444,184,8276,1,0,0:0:0:0:
512,8,8283,1,0,0:0:0:0:
440,224,8284,1,0,0:0:0:0:
436,332,8291,1,0,0:0:0:0:
444,116,8293,1,0,0:0:0:0:
512,8,8298,1,0,0:0:0:0:
508,284,8299,1,0,0:0:0:0:
500,280,8306,1,0,0:0:0:0:
444,116,8308,1,0,0:0:0:0:
436,212,8314,1,0,0:0:0:0:
500,380,8320,1,0,0:0:0:0:
444,16,8321,1,0,0:0:0:0:
188,60,8323,1,0,0:0:0:0:
508,184,8327,1,0,0:0:0:0:
440,56,8329,1,0,0:0:0:0:
500,180,8334,1,0,0:0:0:0:
504,224,8335,1,0,0:0:0:0:
436,164,8336,1,0,0:0:0:0:
208,68,8341,1,0,0:0:0:0:
500,332,8342,1,0,0:0:0:0:
508,116,8344,1,0,0:0:0:0:
492,328,8349,1,0,0:0:0:0:
500,112,8351,1,0,0:0:0:0:
396,176,8358,1,0,0:0:0:0:
508,116,8359,1,0,0:0:0:0:
500,212,8365,1,0,0:0:0:0:
500,112,8366,1,0,0:0:0:0:
328,284,8368,1,0,0:0:0:0:
508,16,8372,1,0,0:0:0:0:
192,288,8374,1,0,0:0:0:0:
500,12,8379,1,0,0:0:0:0:
504,56,8380,1,0,0:0:0:0:
184,284,8381,1,0,0:0:0:0:
128,120,8383,1,0,0:0:0:0:
500,164,8387,1,0,0:0:0:0:
320,380,8389,1,0,0:0:0:0:
492,160,8394,1,0,0:0:0:0:
504,56,8395,1,0,0:0:0:0:
328,184,8396,1,0,0:0:0:0:
500,164,8402,1,0,0:0:0:0:
396,8,8403,1,0,0:0:0:0:
324,224,8404,1,0,0:0:0:0:
492,160,8409,1,0,0:0:0:0:
148,44,8410,1,0,0:0:0:0:
320,332,8411,1,0,0:0:0:0:
328,116,8413,1,0,0:0:0:0:
184,336,8417,1,0,0:0:0:0:
396,8,8418,1,0,0:0:0:0:
392,284,8419,1,0,0:0:0:0:
176,332,8424,1,0,0:0:0:0:
384,280,8426,1,0,0:0:0:0:
328,116,8428,1,0,0:0:0:0:
320,212,8434,1,0,0:0:0:0:
384,380,8440,1,0,0:0:0:0:
328,16,8441,1,0,0:0:0:0:
72,60,8443,1,0,0:0:0:0:
392,184,8447,1,0,0:0:0:0:
324,56,8449,1,0,0:0:0:0:
384,180,8454,1,0,0:0:0:0:
388,224,8455,1,0,0:0:0:0:
320,164,8456,1,0,0:0:0:0:
384,332,8462,1,0,0:0:0:0:
392,116,8464,1,0,0:0:0:0:
376,328,8469,1,0,0:0:0:0:
188,60,8470,1,0,0:0:0:0:
384,112,8471,1,0,0:0:0:0:
184,168,8477,1,0,0:0:0:0:
396,176,8478,1,0,0:0:0:0:
392,116,8479,1,0,0:0:0:0:
176,164,8484,1,0,0:0:0:0:
384,212,8485,1,0,0:0:0:0:
384,112,8486,1,0,0:0:0:0:
328,284,8488,1,0,0:0:0:0:
392,16,8492,1,0,0:0:0:0:
76,288,8494,1,0,0:0:0:0:
384,12,8499,1,0,0:0:0:0:
388,56,8500,1,0,0:0:0:0:
68,284,8501,1,0,0:0:0:0:
12,120,8503,1,0,0:0:0:0:
384,164,8507,1,0,0:0:0:0:
320,380,8509,1,0,0:0:0:0:
376,160,8514,1,0,0:0:0:0:
388,56,8515,1,0,0:0:0:0:
328,184,8516,1,0,0:0:0:0:
384,164,8522,1,0,0:0:0:0:
324,224,8524,1,0,0:0:0:0:
376,160,8529,1,0,0:0:0:0:
32,44,8530,1,0,0:0:0:0:
320,332,8531,1,0,0:0:0:0:
68,336,8537,1,0,0:0:0:0:
392,284,8539,1,0,0:0:0:0:
60,332,8544,1,0,0:0:0:0:
384,280,8546,1,0,0:0:0:0:
76,120,8554,1,0,0:0:0:0:
384,380,8560,1,0,0:0:0:0:
68,116,8561,1,0,0:0:0:0:
12,288,8563,1,0,0:0:0:0:
392,184,8567,1,0,0:0:0:0:
384,180,8574,1,0,0:0:0:0:
388,224,8575,1,0,0:0:0:0:
384,332,8582,1,0,0:0:0:0:
4,384,8584,1,0,0:0:0:0:
376,328,8589,1,0,0:0:0:0:
72,60,8590,1,0,0:0:0:0:
12,188,8591,1,0,0:0:0:0:
68,168,8597,1,0,0:0:0:0:
8,228,8599,1,0,0:0:0:0:
60,164,8604,1,0,0:0:0:0:
4,336,8606,1,0,0:0:0:0:
76,288,8614,1,0,0:0:0:0:
68,284,8621,1,0,0:0:0:0:
68,384,8635,1,0,0:0:0:0:
76,188,8642,1,0,0:0:0:0:
68,184,8649,1,0,0:0:0:0:
72,228,8650,1,0,0:0:0:0:
68,336,8657,1,0,0:0:0:0:
60,332,8664,1,0,0:0:0:0:
28,80,8963,1,0,0:0:0:0:
116,60,8970,1,0,0:0:0:0:
324,68,8971,1,0,0:0:0:0:
512,176,8988,1,0,0:0:0:0:
444,284,8998,1,0,0:0:0:0:
436,380,9019,1,0,0:0:0:0:
444,184,9026,1,0,0:0:0:0:
116,60,9030,1,0,0:0:0:0:
324,68,9031,1,0,0:0:0:0:
512,8,9033,1,0,0:0:0:0:
440,224,9034,1,0,0:0:0:0:
436,332,9041,1,0,0:0:0:0:
444,116,9043,1,0,0:0:0:0:
512,176,9048,1,0,0:0:0:0:
508,284,9049,1,0,0:0:0:0:
500,280,9056,1,0,0:0:0:0:
444,284,9058,1,0,0:0:0:0:
436,212,9064,1,0,0:0:0:0:
500,380,9070,1,0,0:0:0:0:
444,16,9071,1,0,0:0:0:0:
188,60,9073,1,0,0:0:0:0:
508,184,9077,1,0,0:0:0:0:
436,380,9079,1,0,0:0:0:0:
500,180,9084,1,0,0:0:0:0:
504,224,9085,1,0,0:0:0:0:
444,184,9086,1,0,0:0:0:0:
208,68,9091,1,0,0:0:0:0:
500,332,9092,1,0,0:0:0:0:
512,8,9093,1,0,0:0:0:0:
440,224,9094,1,0,0:0:0:0:
492,328,9099,1,0,0:0:0:0:
436,332,9101,1,0,0:0:0:0:
444,116,9103,1,0,0:0:0:0:
512,8,9108,1,0,0:0:0:0:
508,284,9109,1,0,0:0:0:0:
500,212,9115,1,0,0:0:0:0:
500,280,9116,1,0,0:0:0:0:
444,116,9118,1,0,0:0:0:0:
508,16,9122,1,0,0:0:0:0:
436,212,9124,1,0,0:0:0:0:
500,12,9129,1,0,0:0:0:0:
500,380,9130,1,0,0:0:0:0:
444,16,9131,1,0,0:0:0:0:
188,60,9133,1,0,0:0:0:0:
508,184,9137,1,0,0:0:0:0:
440,56,9139,1,0,0:0:0:0:
500,180,9144,1,0,0:0:0:0:
504,224,9145,1,0,0:0:0:0:
436,164,9146,1,0,0:0:0:0:
208,68,9151,1,0,0:0:0:0:
500,332,9152,1,0,0:0:0:0:
396,8,9153,1,0,0:0:0:0:
508,116,9154,1,0,0:0:0:0:
492,328,9159,1,0,0:0:0:0:
148,44,9160,1,0,0:0:0:0:
500,112,9161,1,0,0:0:0:0:
328,116,9163,1,0,0:0:0:0:
184,336,9167,1,0,0:0:0:0:
396,176,9168,1,0,0:0:0:0:
508,116,9169,1,0,0:0:0:0:
176,332,9174,1,0,0:0:0:0:
500,212,9175,1,0,0:0:0:0:
500,112,9176,1,0,0:0:0:0:
328,284,9178,1,0,0:0:0:0:
508,16,9182,1,0,0:0:0:0:
192,288,9184,1,0,0:0:0:0:
500,12,9189,1,0,0:0:0:0:
504,56,9190,1,0,0:0:0:0:
184,284,9191,1,0,0:0:0:0:
128,120,9193,1,0,0:0:0:0:
500,164,9197,1,0,0:0:0:0:
320,380,9199,1,0,0:0:0:0:
492,160,9204,1,0,0:0:0:0:
504,56,9205,1,0,0:0:0:0:
328,184,9206,1,0,0:0:0:0:
500,164,9212,1,0,0:0:0:0:
396,8,9213,1,0,0:0:0:0:
324,224,9214,1,0,0:0:0:0:
492,160,9219,1,0,0:0:0:0:
148,44,9220,1,0,0:0:0:0:
320,332,9221,1,0,0:0:0:0:
328,116,9223,1,0,0:0:0:0:
184,336,9227,1,0,0:0:0:0:
396,8,9228,1,0,0:0:0:0:
392,284,9229,1,0,0:0:0:0:
176,332,9234,1,0,0:0:0:0:
384,212,9235,1,0,0:0:0:0:
384,280,9236,1,0,0:0:0:0:
328,116,9238,1,0,0:0:0:0:
392,16,9242,1,0,0:0:0:0:
320,212,9244,1,0,0:0:0:0:
384,12,9249,1,0,0:0:0:0:
384,380,9250,1,0,0:0:0:0:
328,16,9251,1,0,0:0:0:0:
72,60,9253,1,0,0:0:0:0:
392,184,9257,1,0,0:0:0:0:
324,56,9259,1,0,0:0:0:0:
384,180,9264,1,0,0:0:0:0:
388,224,9265,1,0,0:0:0:0:
320,164,9266,1,0,0:0:0:0:
384,332,9272,1,0,0:0:0:0:
392,116,9274,1,0,0:0:0:0:
376,328,9279,1,0,0:0:0:0:
188,60,9280,1,0,0:0:0:0:
384,112,9281,1,0,0:0:0:0:
184,168,9287,1,0,0:0:0:0:
396,176,9288,1,0,0:0:0:0:
392,116,9289,1,0,0:0:0:0:
176,164,9294,1,0,0:0:0:0:
384,212,9295,1,0,0:0:0:0:
384,112,9296,1,0,0:0:0:0:
328,284,9298,1,0,0:0:0:0:
392,16,9302,1,0,0:0:0:0:
76,288,9304,1,0,0:0:0:0:
384,12,9309,1,0,0:0:0:0:
388,56,9310,1,0,0:0:0:0:
68,284,9311,1,0,0:0:0:0:
12,120,9313,1,0,0:0:0:0:
384,164,9317,1,0,0:0:0:0:
320,380,9319,1,0,0:0:0:0:
376,160,9324,1,0,0:0:0:0:
388,56,9325,1,0,0:0:0:0:
328,184,9326,1,0,0:0:0:0:
384,164,9332,1,0,0:0:0:0:
324,224,9334,1,0,0:0:0:0:
376,160,9339,1,0,0:0:0:0:
32,44,9340,1,0,0:0:0:0:
320,332,9341,1,0,0:0:0:0:
68,336,9347,1,0,0:0:0:0:
392,284,9349,1,0,0:0:0:0:
60,332,9354,1,0,0:0:0:0:
384,280,9356,1,0,0:0:0:0:
76,120,9364,1,0,0:0:0:0:
384,380,9370,1,0,0:0:0:0:
68,116,9371,1,0,0:0:0:0:
12,288,9373,1,0,0:0:0:0:
392,184,9377,1,0,0:0:0:0:
384,180,9384,1,0,0:0:0:0:
388,224,9385,1,0,0:0:0:0:
384,332,9392,1,0,0:0:0:0:
4,384,9394,1,0,0:0:0:0:
376,328,9399,1,0,0:0:0:0:
72,60,9400,1,0,0:0:0:0:
12,188,9401,1,0,0:0:0:0:
68,168,9407,1,0,0:0:0:0:
8,228,9409,1,0,0:0:0:0:
60,164,9414,1,0,0:0:0:0:
4,336,9416,1,0,0:0:0:0:
76,288,9424,1,0,0:0:0:0:
68,284,9431,1,0,0:0:0:0:
68,384,9445,1,0,0:0:0:0:
76,188,9452,1,0,0:0:0:0:
68,184,9459,1,0,0:0:0:0:
72,228,9460,1,0,0:0:0:0:
68,336,9467,1,0,0:0:0:0:
60,332,9474,1,0,0:0:0:0:
16,120,9625,1,0,0:0:0:0:
12,168,10326,1,0,0:0:0:0:
12,212,11025,1,0,0:0:0:0:
36,276,11719,1,0,0:0:0:0:
36,208,11730,1,0,0:0:0:0:
40,144,11745,1,0,0:0:0:0:
40,80,11760,1,0,0:0:0:0:
36,316,11767,1,0,0:0:0:0:
80,28,11775,1,0,0:0:0:0:
144,28,11782,1,0,0:0:0:0:
196,76,11790,1,0,0:0:0:0:
192,120,11797,1,0,0:0:0:0:
192,176,11805,1,0,0:0:0:0:
192,216,11812,1,0,0:0:0:0:
192,264,11820,1,0,0:0:0:0:
188,304,11827,1,0,0:0:0:0:
236,312,11831,1,0,0:0:0:0:
292,304,11835,1,0,0:0:0:0:
300,260,11838,1,0,0:0:0:0:
304,228,11842,1,0,0:0:0:0:
312,180,11846,1,0,0:0:0:0:
316,136,11850,1,0,0:0:0:0:
324,84,11853,1,0,0:0:0:0:
320,44,11857,1,0,0:0:0:0:
360,40,11861,1,0,0:0:0:0:
420,44,11865,1,0,0:0:0:0:
448,84,11868,1,0,0:0:0:0:
452,128,11872,1,0,0:0:0:0:
444,180,11876,1,0,0:0:0:0:
440,240,11880,1,0,0:0:0:0:
440,272,11883,1,0,0:0:0:0:
440,312,11887,1,0,0:0:0:0:
88,308,12418,1,0,0:0:0:0:
36,276,12435,1,0,0:0:0:0:
36,208,12446,1,0,0:0:0:0:
40,144,12461,1,0,0:0:0:0:
40,80,12476,1,0,0:0:0:0:
36,316,12483,1,0,0:0:0:0:
80,28,12491,1,0,0:0:0:0:
144,28,12498,1,0,0:0:0:0:
196,76,12506,1,0,0:0:0:0:
192,120,12513,1,0,0:0:0:0:
96,280,12517,1,0,0:0:0:0:
192,176,12521,1,0,0:0:0:0:
96,212,12528,1,0,0:0:0:0:
192,264,12536,1,0,0:0:0:0:
100,148,12543,1,0,0:0:0:0:
236,312,12547,1,0,0:0:0:0:
292,304,12551,1,0,0:0:0:0:
300,260,12554,1,0,0:0:0:0:
100,84,12558,1,0,0:0:0:0:
312,180,12562,1,0,0:0:0:0:
96,320,12565,1,0,0:0:0:0:
316,136,12566,1,0,0:0:0:0:
324,84,12569,1,0,0:0:0:0:
140,32,12573,1,0,0:0:0:0:
360,40,12577,1,0,0:0:0:0:
204,32,12580,1,0,0:0:0:0:
420,44,12581,1,0,0:0:0:0:
448,84,12584,1,0,0:0:0:0:
256,80,12588,1,0,0:0:0:0:
444,180,12592,1,0,0:0:0:0:
252,124,12595,1,0,0:0:0:0:
440,240,12596,1,0,0:0:0:0:
440,272,12599,1,0,0:0:0:0:
252,180,12603,1,0,0:0:0:0:
252,220,12610,1,0,0:0:0:0:
252,268,12618,1,0,0:0:0:0:
248,308,12625,1,0,0:0:0:0:
296,316,12629,1,0,0:0:0:0:
352,308,12633,1,0,0:0:0:0:
360,264,12636,1,0,0:0:0:0:
364,232,12640,1,0,0:0:0:0:
372,184,12644,1,0,0:0:0:0:
376,140,12648,1,0,0:0:0:0:
384,88,12651,1,0,0:0:0:0:
380,48,12655,1,0,0:0:0:0:
420,44,12659,1,0,0:0:0:0:
480,48,12663,1,0,0:0:0:0:
508,88,12666,1,0,0:0:0:0:
512,132,12670,1,0,0:0:0:0:
504,184,12674,1,0,0:0:0:0:
500,244,12678,1,0,0:0:0:0:
500,276,12681,1,0,0:0:0:0:
500,316,12685,1,0,0:0:0:0:
144,312,13104,1,0,0:0:0:0:
184,308,13885,1,0,0:0:0:0:
328,308,13908,1,0,0:0:0:0:
60,308,13912,1,0,0:0:0:0:
60,240,13916,1,0,0:0:0:0:
188,240,13920,1,0,0:0:0:0:
328,240,13923,1,0,0:0:0:0:
440,308,13931,1,0,0:0:0:0:
440,240,13935,1,0,0:0:0:0:
60,164,13938,1,0,0:0:0:0:
196,168,13942,1,0,0:0:0:0:
332,176,13946,1,0,0:0:0:0:
448,176,13950,1,0,0:0:0:0:
128,120,13953,1,0,0:0:0:0:
384,132,13957,1,0,0:0:0:0:
124,312,13961,1,0,0:0:0:0:
124,308,13965,1,0,0:0:0:0:
268,312,13984,1,0,0:0:0:0:
268,308,13988,1,0,0:0:0:0:
0,308,13992,1,0,0:0:0:0:
0,240,13996,1,0,0:0:0:0:
268,244,13999,1,0,0:0:0:0:
128,240,14000,1,0,0:0:0:0:
268,240,14003,1,0,0:0:0:0:
380,312,14007,1,0,0:0:0:0:
380,308,14011,1,0,0:0:0:0:
0,168,14014,1,0,0:0:0:0:
380,240,14015,1,0,0:0:0:0:
0,164,14018,1,0,0:0:0:0:
156,204,14021,1,0,0:0:0:0:
136,168,14022,1,0,0:0:0:0:
272,176,14026,1,0,0:0:0:0:
68,124,14029,1,0,0:0:0:0:
388,176,14030,1,0,0:0:0:0:
68,120,14033,1,0,0:0:0:0:
324,132,14037,1,0,0:0:0:0:
300,204,14044,1,0,0:0:0:0:
32,204,14048,1,0,0:0:0:0:
32,136,14052,1,0,0:0:0:0:
160,136,14056,1,0,0:0:0:0:
300,136,14059,1,0,0:0:0:0:
412,204,14067,1,0,0:0:0:0:
412,136,14071,1,0,0:0:0:0:
32,60,14074,1,0,0:0:0:0:
168,64,14078,1,0,0:0:0:0:
304,72,14082,1,0,0:0:0:0:
420,72,14086,1,0,0:0:0:0:
100,16,14089,1,0,0:0:0:0:
356,28,14093,1,0,0:0:0:0:
196,304,14492,1,0,0:0:0:0:
340,304,14515,1,0,0:0:0:0:
72,304,14519,1,0,0:0:0:0:
72,236,14523,1,0,0:0:0:0:
200,236,14527,1,0,0:0:0:0:
340,236,14530,1,0,0:0:0:0:
452,304,14538,1,0,0:0:0:0:
452,236,14542,1,0,0:0:0:0:
72,160,14545,1,0,0:0:0:0:
208,164,14549,1,0,0:0:0:0:
344,172,14553,1,0,0:0:0:0:
460,172,14557,1,0,0:0:0:0:
140,116,14560,1,0,0:0:0:0:
396,128,14564,1,0,0:0:0:0:
136,308,14568,1,0,0:0:0:0:
136,304,14572,1,0,0:0:0:0:
280,308,14591,1,0,0:0:0:0:
280,304,14595,1,0,0:0:0:0:
12,304,14599,1,0,0:0:0:0:
12,236,14603,1,0,0:0:0:0:
280,240,14606,1,0,0:0:0:0:
140,236,14607,1,0,0:0:0:0:
280,236,14610,1,0,0:0:0:0:
392,308,14614,1,0,0:0:0:0:
392,304,14618,1,0,0:0:0:0:
12,164,14621,1,0,0:0:0:0:
392,236,14622,1,0,0:0:0:0:
12,160,14625,1,0,0:0:0:0:
168,200,14628,1,0,0:0:0:0:
148,164,14629,1,0,0:0:0:0:
284,172,14633,1,0,0:0:0:0:
80,120,14636,1,0,0:0:0:0:
400,172,14637,1,0,0:0:0:0:
80,116,14640,1,0,0:0:0:0:
336,128,14644,1,0,0:0:0:0:
312,200,14651,1,0,0:0:0:0:
44,200,14655,1,0,0:0:0:0:
44,132,14659,1,0,0:0:0:0:
172,132,14663,1,0,0:0:0:0:
312,132,14666,1,0,0:0:0:0:
424,200,14674,1,0,0:0:0:0:
424,132,14678,1,0,0:0:0:0:
44,56,14681,1,0,0:0:0:0:
180,60,14685,1,0,0:0:0:0:
316,68,14689,1,0,0:0:0:0:
432,68,14693,1,0,0:0:0:0:
112,12,14696,1,0,0:0:0:0:
368,24,14700,1,0,0:0:0:0:
248,304,15245,1,0,0:0:0:0:
180,304,15247,1,0,0:0:0:0:
312,304,15255,1,0,0:0:0:0:
248,240,15262,1,0,0:0:0:0:
180,240,15264,1,0,0:0:0:0:
248,180,15270,1,0,0:0:0:0:
180,180,15272,1,0,0:0:0:0:
312,180,15280,1,0,0:0:0:0:
240,48,15292,1,0,0:0:0:0:
180,52,15294,1,0,0:0:0:0:
176,116,15300,1,0,0:0:0:0:
312,52,15302,1,0,0:0:0:0:
72,296,15877,1,0,0:0:0:0:
4,296,15879,1,0,0:0:0:0:
136,296,15887,1,0,0:0:0:0:
72,232,15894,1,0,0:0:0:0:
4,232,15896,1,0,0:0:0:0:
392,304,15900,1,0,0:0:0:0:
324,304,15902,1,0,0:0:0:0:
4,172,15904,1,0,0:0:0:0:
456,304,15910,1,0,0:0:0:0:
136,172,15912,1,0,0:0:0:0:
392,240,15917,1,0,0:0:0:0:
324,240,15919,1,0,0:0:0:0:
64,40,15924,1,0,0:0:0:0:
392,180,15925,1,0,0:0:0:0:
4,44,15926,1,0,0:0:0:0:
324,180,15927,1,0,0:0:0:0:
0,108,15932,1,0,0:0:0:0:
136,44,15934,1,0,0:0:0:0:
456,180,15935,1,0,0:0:0:0:
384,48,15947,1,0,0:0:0:0:
324,52,15949,1,0,0:0:0:0:
320,116,15955,1,0,0:0:0:0:
456,52,15957,1,0,0:0:0:0:
128,152,16609,1,0,0:0:0:0:
168,104,16627,1,0,0:0:0:0:
220,56,16635,1,0,0:0:0:0:
248,100,16642,1,0,0:0:0:0:
256,160,16650,1,0,0:0:0:0:
280,104,16657,1,0,0:0:0:0:
296,56,16665,1,0,0:0:0:0:
360,100,16672,1,0,0:0:0:0:
372,156,16680,1,0,0:0:0:0:
360,228,16687,1,0,0:0:0:0:
148,224,16695,1,0,0:0:0:0:
192,280,16702,1,0,0:0:0:0:
240,320,16710,1,0,0:0:0:0:
328,284,16717,1,0,0:0:0:0:
288,320,16725,1,0,0:0:0:0:
20,216,17347,1,0,0:0:0:0:
60,168,17365,1,0,0:0:0:0:
112,120,17373,1,0,0:0:0:0:
140,164,17380,1,0,0:0:0:0:
148,224,17388,1,0,0:0:0:0:
172,168,17395,1,0,0:0:0:0:
188,120,17403,1,0,0:0:0:0:
252,164,17410,1,0,0:0:0:0:
264,220,17418,1,0,0:0:0:0:
252,292,17425,1,0,0:0:0:0:
40,288,17433,1,0,0:0:0:0:
84,344,17440,1,0,0:0:0:0:
132,384,17448,1,0,0:0:0:0:
268,120,17449,1,0,0:0:0:0:
220,348,17455,1,0,0:0:0:0:
180,384,17463,1,0,0:0:0:0:
308,72,17467,1,0,0:0:0:0:
360,24,17475,1,0,0:0:0:0:
388,68,17482,1,0,0:0:0:0:
396,128,17490,1,0,0:0:0:0:
420,72,17497,1,0,0:0:0:0:
436,24,17505,1,0,0:0:0:0:
500,68,17512,1,0,0:0:0:0:
512,124,17520,1,0,0:0:0:0:
500,196,17527,1,0,0:0:0:0:
288,192,17535,1,0,0:0:0:0:
332,248,17542,1,0,0:0:0:0:
380,288,17550,1,0,0:0:0:0:
468,252,17557,1,0,0:0:0:0:
428,288,17565,1,0,0:0:0:0:
256,64,18031,1,0,0:0:0:0:
192,72,18041,1,0,0:0:0:0:
116,72,18045,1,0,0:0:0:0:
392,60,18048,1,0,0:0:0:0:
512,52,18052,1,0,0:0:0:0:
52,80,18055,1,0,0:0:0:0:
68,376,18056,1,0,0:0:0:0:
328,68,18058,1,0,0:0:0:0:
184,376,18060,1,0,0:0:0:0:
448,60,18062,1,0,0:0:0:0:
304,376,18063,1,0,0:0:0:0:
4,384,18066,1,0,0:0:0:0:
428,376,18067,1,0,0:0:0:0:
120,384,18070,1,0,0:0:0:0:
512,364,18071,1,0,0:0:0:0:
240,384,18073,1,0,0:0:0:0:
364,384,18077,1,0,0:0:0:0:
84,216,18078,1,0,0:0:0:0:
448,372,18081,1,0,0:0:0:0:
512,204,18082,1,0,0:0:0:0:
228,156,18086,1,0,0:0:0:0:
20,224,18088,1,0,0:0:0:0:
228,288,18090,1,0,0:0:0:0:
448,212,18092,1,0,0:0:0:0:
372,148,18093,1,0,0:0:0:0:
164,164,18096,1,0,0:0:0:0:
372,288,18097,1,0,0:0:0:0:
164,296,18100,1,0,0:0:0:0:
308,156,18103,1,0,0:0:0:0:
308,296,18107,1,0,0:0:0:0:
256,256,18830,1,0,0:0:0:0:
196,256,18832,1,0,0:0:0:0:
304,260,18836,1,0,0:0:0:0:
196,308,18840,1,0,0:0:0:0:
252,308,18843,1,0,0:0:0:0:
312,308,18847,1,0,0:0:0:0:
264,144,18858,1,0,0:0:0:0:
204,144,18860,1,0,0:0:0:0:
312,148,18864,1,0,0:0:0:0:
204,196,18868,1,0,0:0:0:0:
260,196,18871,1,0,0:0:0:0:
320,196,18875,1,0,0:0:0:0:
256,40,18881,1,0,0:0:0:0:
196,40,18883,1,0,0:0:0:0:
304,44,18887,1,0,0:0:0:0:
196,92,18891,1,0,0:0:0:0:
252,92,18894,1,0,0:0:0:0:
312,92,18898,1,0,0:0:0:0:
104,152,18900,1,0,0:0:0:0:
44,152,18902,1,0,0:0:0:0:
152,156,18906,1,0,0:0:0:0:
44,204,18910,1,0,0:0:0:0:
100,204,18913,1,0,0:0:0:0:
412,152,18915,1,0,0:0:0:0:
352,152,18917,1,0,0:0:0:0:
460,156,18921,1,0,0:0:0:0:
352,204,18925,1,0,0:0:0:0:
408,204,18928,1,0,0:0:0:0:
468,204,18932,1,0,0:0:0:0:
72,264,19550,1,0,0:0:0:0:
88,204,19556,1,0,0:0:0:0:
128,264,19560,1,0,0:0:0:0:
128,220,19563,1,0,0:0:0:0:
48,352,19586,1,0,0:0:0:0:
128,352,19590,1,0,0:0:0:0:
92,308,19597,1,0,0:0:0:0:
51,298,19680,1,0,0:0:0:0:
412,264,20221,1,0,0:0:0:0:
428,204,20227,1,0,0:0:0:0:
468,264,20231,1,0,0:0:0:0:
468,220,20234,1,0,0:0:0:0:
388,352,20257,1,0,0:0:0:0:
468,352,20261,1,0,0:0:0:0:
432,308,20268,1,0,0:0:0:0:
391,298,20351,1,0,0:0:0:0:
380,64,20949,1,0,0:0:0:0:
396,4,20955,1,0,0:0:0:0:
436,64,20959,1,0,0:0:0:0:
436,20,20962,1,0,0:0:0:0:
356,152,20985,1,0,0:0:0:0:
436,152,20989,1,0,0:0:0:0:
400,108,20996,1,0,0:0:0:0:
359,98,21079,1,0,0:0:0:0:
80,60,21625,1,0,0:0:0:0:
96,0,21631,1,0,0:0:0:0:
136,60,21635,1,0,0:0:0:0:
136,16,21638,1,0,0:0:0:0:
56,148,21661,1,0,0:0:0:0:
136,148,21665,1,0,0:0:0:0:
100,104,21672,1,0,0:0:0:0:
59,94,21755,1,0,0:0:0:0:
224,168,22380,1,0,0:0:0:0:
240,108,22386,1,0,0:0:0:0:
280,168,22390,1,0,0:0:0:0:
280,124,22393,1,0,0:0:0:0:
200,256,22416,1,0,0:0:0:0:
280,256,22420,1,0,0:0:0:0:
244,212,22427,1,0,0:0:0:0:
203,202,22510,1,0,0:0:0:0:
56,248,23056,1,0,0:0:0:0:
72,188,23062,1,0,0:0:0:0:
112,248,23066,1,0,0:0:0:0:
112,204,23069,1,0,0:0:0:0:
32,336,23092,1,0,0:0:0:0:
112,336,23096,1,0,0:0:0:0:
76,292,23103,1,0,0:0:0:0:
35,282,23186,1,0,0:0:0:0:
360,228,23620,1,0,0:0:0:0:
376,168,23626,1,0,0:0:0:0:
416,228,23630,1,0,0:0:0:0:
416,184,23633,1,0,0:0:0:0:
336,316,23656,1,0,0:0:0:0:
416,316,23660,1,0,0:0:0:0:
380,272,23667,1,0,0:0:0:0:
339,262,23750,1,0,0:0:0:0:
232,108,24125,1,0,0:0:0:0:
248,48,24131,1,0,0:0:0:0:
288,108,24135,1,0,0:0:0:0:
288,64,24138,1,0,0:0:0:0:
208,196,24161,1,0,0:0:0:0:
288,196,24165,1,0,0:0:0:0:
252,152,24172,1,0,0:0:0:0:
211,142,24255,1,0,0:0:0:0:
136,156,24440,1,0,0:0:0:0:
152,96,24446,1,0,0:0:0:0:
192,156,24450,1,0,0:0:0:0:
192,112,24453,1,0,0:0:0:0:
112,244,24476,1,0,0:0:0:0:
192,244,24480,1,0,0:0:0:0:
156,200,24487,1,0,0:0:0:0:
115,190,24570,1,0,0:0:0:0:
144,240,25025,1,0,0:0:0:0:
160,180,25031,1,0,0:0:0:0:
200,240,25035,1,0,0:0:0:0:
200,196,25038,1,0,0:0:0:0:
120,328,25061,1,0,0:0:0:0:
200,328,25065,1,0,0:0:0:0:
164,284,25072,1,0,0:0:0:0:
123,274,25155,1,0,0:0:0:0:
248,288,25545,1,0,0:0:0:0:
264,228,25551,1,0,0:0:0:0:
304,288,25555,1,0,0:0:0:0:
304,244,25558,1,0,0:0:0:0:
224,376,25581,1,0,0:0:0:0:
304,376,25585,1,0,0:0:0:0:
268,332,25592,1,0,0:0:0:0:
227,322,25675,1,0,0:0:0:0:
336,228,25880,1,0,0:0:0:0:
352,168,25886,1,0,0:0:0:0:
392,228,25890,1,0,0:0:0:0:
392,184,25893,1,0,0:0:0:0:
312,316,25916,1,0,0:0:0:0:
392,316,25920,1,0,0:0:0:0:
356,272,25927,1,0,0:0:0:0:
315,262,26010,1,0,0:0:0:0:
304,136,26479,1,0,0:0:0:0:
320,76,26485,1,0,0:0:0:0:
360,136,26489,1,0,0:0:0:0:
360,92,26492,1,0,0:0:0:0:
280,224,26515,1,0,0:0:0:0:
360,224,26519,1,0,0:0:0:0:
324,180,26526,1,0,0:0:0:0:
283,170,26609,1,0,0:0:0:0:
216,68,26977,1,0,0:0:0:0:
232,8,26983,1,0,0:0:0:0:
272,68,26987,1,0,0:0:0:0:
272,24,26990,1,0,0:0:0:0:
192,156,27013,1,0,0:0:0:0:
272,156,27017,1,0,0:0:0:0:
236,112,27024,1,0,0:0:0:0:
195,102,27107,1,0,0:0:0:0:
128,72,27302,1,0,0:0:0:0:
144,12,27308,1,0,0:0:0:0:
184,72,27312,1,0,0:0:0:0:
184,28,27315,1,0,0:0:0:0:
104,160,27338,1,0,0:0:0:0:
184,160,27342,1,0,0:0:0:0:
148,116,27349,1,0,0:0:0:0:
107,106,27432,1,0,0:0:0:0:
120,168,27893,1,0,0:0:0:0:
136,108,27899,1,0,0:0:0:0:
176,168,27903,1,0,0:0:0:0:
176,124,27906,1,0,0:0:0:0:
96,256,27929,1,0,0:0:0:0:
176,256,27933,1,0,0:0:0:0:
140,212,27940,1,0,0:0:0:0:
99,202,28023,1,0,0:0:0:0:
156,256,28478,1,0,0:0:0:0:
172,196,28484,1,0,0:0:0:0:
212,256,28488,1,0,0:0:0:0:
212,212,28491,1,0,0:0:0:0:
132,344,28514,1,0,0:0:0:0:
212,344,28518,1,0,0:0:0:0:
176,300,28525,1,0,0:0:0:0:
135,290,28608,1,0,0:0:0:0:
212,296,28823,1,0,0:0:0:0:
228,236,28829,1,0,0:0:0:0:
268,296,28833,1,0,0:0:0:0:
268,252,28836,1,0,0:0:0:0:
188,384,28859,1,0,0:0:0:0:
268,384,28863,1,0,0:0:0:0:
232,340,28870,1,0,0:0:0:0:
191,330,28953,1,0,0:0:0:0:
260,264,29568,1,0,0:0:0:0:
276,204,29574,1,0,0:0:0:0:
316,264,29578,1,0,0:0:0:0:
316,220,29581,1,0,0:0:0:0:
236,352,29604,1,0,0:0:0:0:
316,352,29608,1,0,0:0:0:0:
280,308,29615,1,0,0:0:0:0:
239,298,29698,1,0,0:0:0:0:
304,204,30140,1,0,0:0:0:0:
320,144,30146,1,0,0:0:0:0:
360,204,30150,1,0,0:0:0:0:
360,160,30153,1,0,0:0:0:0:
280,292,30176,1,0,0:0:0:0:
360,292,30180,1,0,0:0:0:0:
324,248,30187,1,0,0:0:0:0:
283,238,30270,1,0,0:0:0:0:
308,120,30722,1,0,0:0:0:0:
324,60,30728,1,0,0:0:0:0:
364,120,30732,1,0,0:0:0:0:
364,76,30735,1,0,0:0:0:0:
284,208,30758,1,0,0:0:0:0:
364,208,30762,1,0,0:0:0:0:
328,164,30769,1,0,0:0:0:0:
287,154,30852,1,0,0:0:0:0:
352,72,31273,1,0,0:0:0:0:
368,12,31279,1,0,0:0:0:0:
408,72,31283,1,0,0:0:0:0:
408,28,31286,1,0,0:0:0:0:
328,160,31309,1,0,0:0:0:0:
408,160,31313,1,0,0:0:0:0:
372,116,31320,1,0,0:0:0:0:
331,106,31403,1,0,0:0:0:0:
392,80,31454,1,0,0:0:0:0:
408,20,31460,1,0,0:0:0:0:
448,80,31464,1,0,0:0:0:0:
448,36,31467,1,0,0:0:0:0:
368,168,31490,1,0,0:0:0:0:
448,168,31494,1,0,0:0:0:0:
412,124,31501,1,0,0:0:0:0:
371,114,31584,1,0,0:0:0:0:
436,112,31932,1,0,0:0:0:0:
452,52,31938,1,0,0:0:0:0:
492,112,31942,1,0,0:0:0:0:
492,68,31945,1,0,0:0:0:0:
412,200,31968,1,0,0:0:0:0:
492,200,31972,1,0,0:0:0:0:
456,156,31979,1,0,0:0:0:0:
415,146,32062,1,0,0:0:0:0:
456,152,32131,1,0,0:0:0:0:
472,92,32137,1,0,0:0:0:0:
512,152,32141,1,0,0:0:0:0:
512,108,32144,1,0,0:0:0:0:
432,240,32167,1,0,0:0:0:0:
512,240,32171,1,0,0:0:0:0:
476,196,32178,1,0,0:0:0:0:
435,186,32261,1,0,0:0:0:0:
424,200,32734,1,0,0:0:0:0:
440,140,32740,1,0,0:0:0:0:
480,200,32744,1,0,0:0:0:0:
480,156,32747,1,0,0:0:0:0:
400,288,32770,1,0,0:0:0:0:
480,288,32774,1,0,0:0:0:0:
444,244,32781,1,0,0:0:0:0:
403,234,32864,1,0,0:0:0:0:
408,272,33597,1,0,0:0:0:0:
424,212,33603,1,0,0:0:0:0:
464,272,33607,1,0,0:0:0:0:
464,228,33610,1,0,0:0:0:0:
384,360,33633,1,0,0:0:0:0:
464,360,33637,1,0,0:0:0:0:
428,316,33644,1,0,0:0:0:0:
387,306,33727,1,0,0:0:0:0:
296,284,34292,1,0,0:0:0:0:
168,280,34312,1,0,0:0:0:0:
168,216,34320,1,0,0:0:0:0:
300,216,34327,1,0,0:0:0:0:
296,148,34335,1,0,0:0:0:0:
168,148,34342,1,0,0:0:0:0:
168,72,34350,1,0,0:0:0:0:
288,72,34357,1,0,0:0:0:0:
420,288,34365,1,0,0:0:0:0:
424,216,34372,1,0,0:0:0:0:
424,164,34380,1,0,0:0:0:0:
424,76,34387,1,0,0:0:0:0:
264,284,34458,1,0,0:0:0:0:
136,280,34478,1,0,0:0:0:0:
136,216,34486,1,0,0:0:0:0:
268,216,34493,1,0,0:0:0:0:
264,148,34501,1,0,0:0:0:0:
136,148,34508,1,0,0:0:0:0:
136,72,34516,1,0,0:0:0:0:
256,72,34523,1,0,0:0:0:0:
388,288,34531,1,0,0:0:0:0:
392,216,34538,1,0,0:0:0:0:
392,164,34546,1,0,0:0:0:0:
392,76,34553,1,0,0:0:0:0:
220,280,34654,1,0,0:0:0:0:
92,276,34674,1,0,0:0:0:0:
92,212,34682,1,0,0:0:0:0:
224,212,34689,1,0,0:0:0:0:
220,144,34697,1,0,0:0:0:0:
92,144,34704,1,0,0:0:0:0:
92,68,34712,1,0,0:0:0:0:
212,68,34719,1,0,0:0:0:0:
344,284,34727,1,0,0:0:0:0:
348,212,34734,1,0,0:0:0:0:
348,160,34742,1,0,0:0:0:0:
348,72,34749,1,0,0:0:0:0:
192,280,34920,1,0,0:0:0:0:
64,276,34940,1,0,0:0:0:0:
64,212,34948,1,0,0:0:0:0:
196,212,34955,1,0,0:0:0:0:
192,144,34963,1,0,0:0:0:0:
64,144,34970,1,0,0:0:0:0:
64,68,34978,1,0,0:0:0:0:
184,68,34985,1,0,0:0:0:0:
316,284,34993,1,0,0:0:0:0:
320,212,35000,1,0,0:0:0:0:
320,160,35008,1,0,0:0:0:0:
320,72,35015,1,0,0:0:0:0:
128,280,35259,1,0,0:0:0:0:
0,276,35279,1,0,0:0:0:0:
0,212,35287,1,0,0:0:0:0:
132,212,35294,1,0,0:0:0:0:
128,144,35302,1,0,0:0:0:0:
0,144,35309,1,0,0:0:0:0:
0,68,35317,1,0,0:0:0:0:
120,68,35324,1,0,0:0:0:0:
252,284,35332,1,0,0:0:0:0:
256,212,35339,1,0,0:0:0:0:
256,160,35347,1,0,0:0:0:0:
256,72,35354,1,0,0:0:0:0:
120,76,35653,1,0,0:0:0:0:
120,144,35677,1,0,0:0:0:0:
120,208,35685,1,0,0:0:0:0:
120,280,35692,1,0,0:0:0:0:
120,344,35700,1,0,0:0:0:0:
132,76,35810,1,0,0:0:0:0:
132,144,35834,1,0,0:0:0:0:
132,208,35842,1,0,0:0:0:0:
132,280,35849,1,0,0:0:0:0:
132,344,35857,1,0,0:0:0:0:
176,80,35986,1,0,0:0:0:0:
176,148,36010,1,0,0:0:0:0:
176,212,36018,1,0,0:0:0:0:
176,284,36025,1,0,0:0:0:0:
176,348,36033,1,0,0:0:0:0:
216,80,36158,1,0,0:0:0:0:
216,148,36182,1,0,0:0:0:0:
216,212,36190,1,0,0:0:0:0:
216,284,36197,1,0,0:0:0:0:
216,348,36205,1,0,0:0:0:0:
244,80,36341,1,0,0:0:0:0:
244,148,36365,1,0,0:0:0:0:
244,212,36373,1,0,0:0:0:0:
244,284,36380,1,0,0:0:0:0:
244,348,36388,1,0,0:0:0:0:
272,76,36458,1,0,0:0:0:0:
272,144,36482,1,0,0:0:0:0:
272,208,36490,1,0,0:0:0:0:
272,280,36497,1,0,0:0:0:0:
272,344,36505,1,0,0:0:0:0:
296,72,36801,1,0,0:0:0:0:
412,72,37159,1,0,0:0:0:0:
340,68,37170,1,0,0:0:0:0:
288,72,37177,1,0,0:0:0:0:
228,72,37185,1,0,0:0:0:0:
172,64,37188,1,0,0:0:0:0:
112,72,37192,1,0,0:0:0:0:
48,68,37196,1,0,0:0:0:0:
8,72,37200,1,0,0:0:0:0:
472,72,37203,1,0,0:0:0:0:
416,116,37338,1,0,0:0:0:0:
344,112,37349,1,0,0:0:0:0:
292,116,37356,1,0,0:0:0:0:
232,116,37364,1,0,0:0:0:0:
176,108,37367,1,0,0:0:0:0:
116,116,37371,1,0,0:0:0:0:
52,112,37375,1,0,0:0:0:0:
12,116,37379,1,0,0:0:0:0:
476,116,37382,1,0,0:0:0:0:
416,152,37510,1,0,0:0:0:0:
344,148,37521,1,0,0:0:0:0:
292,152,37528,1,0,0:0:0:0:
232,152,37536,1,0,0:0:0:0:
176,144,37539,1,0,0:0:0:0:
116,152,37543,1,0,0:0:0:0:
52,148,37547,1,0,0:0:0:0:
12,152,37551,1,0,0:0:0:0:
476,152,37554,1,0,0:0:0:0:
416,184,37682,1,0,0:0:0:0:
344,180,37693,1,0,0:0:0:0:
292,184,37700,1,0,0:0:0:0:
232,184,37708,1,0,0:0:0:0:
176,176,37711,1,0,0:0:0:0:
116,184,37715,1,0,0:0:0:0:
52,180,37719,1,0,0:0:0:0:
12,184,37723,1,0,0:0:0:0:
476,184,37726,1,0,0:0:0:0:
420,248,37871,1,0,0:0:0:0:
348,244,37882,1,0,0:0:0:0:
296,248,37889,1,0,0:0:0:0:
236,248,37897,1,0,0:0:0:0:
180,240,37900,1,0,0:0:0:0:
120,248,37904,1,0,0:0:0:0:
56,244,37908,1,0,0:0:0:0:
16,248,37912,1,0,0:0:0:0:
480,248,37915,1,0,0:0:0:0:
408,288,38189,1,0,0:0:0:0:
336,284,38200,1,0,0:0:0:0:
284,288,38207,1,0,0:0:0:0:
224,288,38215,1,0,0:0:0:0:
168,280,38218,1,0,0:0:0:0:
108,288,38222,1,0,0:0:0:0:
44,284,38226,1,0,0:0:0:0:
4,288,38230,1,0,0:0:0:0:
468,288,38233,1,0,0:0:0:0:
16,312,38600,1,0,0:0:0:0:
92,312,38610,1,0,0:0:0:0:
144,312,38617,1,0,0:0:0:0:
204,312,38621,1,0,0:0:0:0:
256,312,38625,1,0,0:0:0:0:
312,312,38628,1,0,0:0:0:0:
368,312,38632,1,0,0:0:0:0:
420,312,38636,1,0,0:0:0:0:
456,312,38640,1,0,0:0:0:0:
504,312,38643,1,0,0:0:0:0:
24,280,38748,1,0,0:0:0:0:
100,280,38758,1,0,0:0:0:0:
152,280,38765,1,0,0:0:0:0:
212,280,38769,1,0,0:0:0:0:
264,280,38773,1,0,0:0:0:0:
320,280,38776,1,0,0:0:0:0:
376,280,38780,1,0,0:0:0:0:
428,280,38784,1,0,0:0:0:0:
464,280,38788,1,0,0:0:0:0:
512,280,38791,1,0,0:0:0:0:
24,248,38924,1,0,0:0:0:0:
100,248,38934,1,0,0:0:0:0:
152,248,38941,1,0,0:0:0:0:
212,248,38945,1,0,0:0:0:0:
264,248,38949,1,0,0:0:0:0:
320,248,38952,1,0,0:0:0:0:
376,248,38956,1,0,0:0:0:0:
428,248,38960,1,0,0:0:0:0:
464,248,38964,1,0,0:0:0:0:
512,248,38967,1,0,0:0:0:0:
24,232,39099,1,0,0:0:0:0:
100,232,39109,1,0,0:0:0:0:
152,232,39116,1,0,0:0:0:0:
212,232,39120,1,0,0:0:0:0:
264,232,39124,1,0,0:0:0:0:
320,232,39127,1,0,0:0:0:0:
376,232,39131,1,0,0:0:0:0:
428,232,39135,1,0,0:0:0:0:
464,232,39139,1,0,0:0:0:0:
512,232,39142,1,0,0:0:0:0:
24,200,39288,1,0,0:0:0:0:
100,200,39298,1,0,0:0:0:0:
152,200,39305,1,0,0:0:0:0:
212,200,39309,1,0,0:0:0:0:
264,200,39313,1,0,0:0:0:0:
320,200,39316,1,0,0:0:0:0:
376,200,39320,1,0,0:0:0:0:
428,200,39324,1,0,0:0:0:0:
464,200,39328,1,0,0:0:0:0:
512,200,39331,1,0,0:0:0:0:
24,140,39611,1,0,0:0:0:0:
100,140,39621,1,0,0:0:0:0:
152,140,39628,1,0,0:0:0:0:
212,140,39632,1,0,0:0:0:0:
264,140,39636,1,0,0:0:0:0:
320,140,39639,1,0,0:0:0:0:
376,140,39643,1,0,0:0:0:0:
428,140,39647,1,0,0:0:0:0:
464,140,39651,1,0,0:0:0:0:
512,140,39654,1,0,0:0:0:0:
52,64,40005,1,0,0:0:0:0:
48,88,40020,1,0,0:0:0:0:
48,104,40023,1,0,0:0:0:0:
48,124,40027,1,0,0:0:0:0:
48,144,40031,1,0,0:0:0:0:
48,164,40035,1,0,0:0:0:0:
48,184,40038,1,0,0:0:0:0:
48,200,40042,1,0,0:0:0:0:
44,224,40046,1,0,0:0:0:0:
40,248,40050,1,0,0:0:0:0:
40,268,40053,1,0,0:0:0:0:
40,288,40057,1,0,0:0:0:0:
40,304,40061,1,0,0:0:0:0:
40,320,40065,1,0,0:0:0:0:
40,336,40068,1,0,0:0:0:0:
100,68,40172,1,0,0:0:0:0:
96,92,40187,1,0,0:0:0:0:
96,108,40190,1,0,0:0:0:0:
96,128,40194,1,0,0:0:0:0:
96,148,40198,1,0,0:0:0:0:
96,168,40202,1,0,0:0:0:0:
96,188,40205,1,0,0:0:0:0:
96,204,40209,1,0,0:0:0:0:
92,228,40213,1,0,0:0:0:0:
88,252,40217,1,0,0:0:0:0:
88,272,40220,1,0,0:0:0:0:
88,292,40224,1,0,0:0:0:0:
88,308,40228,1,0,0:0:0:0:
88,324,40232,1,0,0:0:0:0:
88,340,40235,1,0,0:0:0:0:
164,72,40348,1,0,0:0:0:0:
160,96,40363,1,0,0:0:0:0:
160,112,40366,1,0,0:0:0:0:
160,132,40370,1,0,0:0:0:0:
160,152,40374,1,0,0:0:0:0:
160,172,40378,1,0,0:0:0:0:
160,192,40381,1,0,0:0:0:0:
160,208,40385,1,0,0:0:0:0:
156,232,40389,1,0,0:0:0:0:
152,256,40393,1,0,0:0:0:0:
152,276,40396,1,0,0:0:0:0:
152,296,40400,1,0,0:0:0:0:
152,312,40404,1,0,0:0:0:0:
152,328,40408,1,0,0:0:0:0:
152,344,40411,1,0,0:0:0:0:
220,76,40523,1,0,0:0:0:0:
216,100,40538,1,0,0:0:0:0:
216,116,40541,1,0,0:0:0:0:
216,136,40545,1,0,0:0:0:0:
216,156,40549,1,0,0:0:0:0:
216,176,40553,1,0,0:0:0:0:
216,196,40556,1,0,0:0:0:0:
216,212,40560,1,0,0:0:0:0:
212,236,40564,1,0,0:0:0:0:
208,260,40568,1,0,0:0:0:0:
208,280,40571,1,0,0:0:0:0:
208,300,40575,1,0,0:0:0:0:
208,316,40579,1,0,0:0:0:0:
208,332,40583,1,0,0:0:0:0:
208,348,40586,1,0,0:0:0:0:
304,84,40710,1,0,0:0:0:0:
300,108,40725,1,0,0:0:0:0:
300,124,40728,1,0,0:0:0:0:
300,144,40732,1,0,0:0:0:0:
300,164,40736,1,0,0:0:0:0:
300,184,40740,1,0,0:0:0:0:
300,204,40743,1,0,0:0:0:0:
300,220,40747,1,0,0:0:0:0:
296,244,40751,1,0,0:0:0:0:
292,268,40755,1,0,0:0:0:0:
292,288,40758,1,0,0:0:0:0:
292,308,40762,1,0,0:0:0:0:
292,324,40766,1,0,0:0:0:0:
292,340,40770,1,0,0:0:0:0:
292,356,40773,1,0,0:0:0:0:
340,84,41054,1,0,0:0:0:0:
336,108,41069,1,0,0:0:0:0:
336,124,41072,1,0,0:0:0:0:
336,144,41076,1,0,0:0:0:0:
336,164,41080,1,0,0:0:0:0:
336,184,41084,1,0,0:0:0:0:
336,204,41087,1,0,0:0:0:0:
336,220,41091,1,0,0:0:0:0:
332,244,41095,1,0,0:0:0:0:
328,268,41099,1,0,0:0:0:0:
328,288,41102,1,0,0:0:0:0:
328,308,41106,1,0,0:0:0:0:
328,324,41110,1,0,0:0:0:0:
328,340,41114,1,0,0:0:0:0:
328,356,41117,1,0,0:0:0:0:
460,88,41415,1,0,0:0:0:0:
448,88,41433,1,0,0:0:0:0:
432,88,41441,1,0,0:0:0:0:
412,88,41448,1,0,0:0:0:0:
380,88,41456,1,0,0:0:0:0:
420,88,41459,1,0,0:0:0:0:
360,88,41463,1,0,0:0:0:0:
400,88,41466,1,0,0:0:0:0:
328,88,41467,1,0,0:0:0:0:
296,88,41471,1,0,0:0:0:0:
368,88,41474,1,0,0:0:0:0:
272,88,41475,1,0,0:0:0:0:
348,88,41481,1,0,0:0:0:0:
248,88,41482,1,0,0:0:0:0:
316,88,41485,1,0,0:0:0:0:
284,88,41489,1,0,0:0:0:0:
220,88,41490,1,0,0:0:0:0:
260,88,41493,1,0,0:0:0:0:
192,88,41497,1,0,0:0:0:0:
236,88,41500,1,0,0:0:0:0:
160,88,41505,1,0,0:0:0:0:
208,88,41508,1,0,0:0:0:0:
128,88,41512,1,0,0:0:0:0:
180,88,41515,1,0,0:0:0:0:
100,88,41520,1,0,0:0:0:0:
148,88,41523,1,0,0:0:0:0:
76,88,41527,1,0,0:0:0:0:
116,88,41530,1,0,0:0:0:0:
52,88,41535,1,0,0:0:0:0:
88,88,41538,1,0,0:0:0:0:
24,88,41542,1,0,0:0:0:0:
64,88,41545,1,0,0:0:0:0:
40,88,41553,1,0,0:0:0:0:
12,88,41560,1,0,0:0:0:0:
464,140,41600,1,0,0:0:0:0:
452,140,41618,1,0,0:0:0:0:
436,140,41626,1,0,0:0:0:0:
416,140,41633,1,0,0:0:0:0:
384,140,41641,1,0,0:0:0:0:
424,140,41644,1,0,0:0:0:0:
364,140,41648,1,0,0:0:0:0:
404,140,41651,1,0,0:0:0:0:
332,140,41652,1,0,0:0:0:0:
300,140,41656,1,0,0:0:0:0:
372,140,41659,1,0,0:0:0:0:
276,140,41660,1,0,0:0:0:0:
352,140,41666,1,0,0:0:0:0:
252,140,41667,1,0,0:0:0:0:
320,140,41670,1,0,0:0:0:0:
288,140,41674,1,0,0:0:0:0:
224,140,41675,1,0,0:0:0:0:
264,140,41678,1,0,0:0:0:0:
196,140,41682,1,0,0:0:0:0:
240,140,41685,1,0,0:0:0:0:
164,140,41690,1,0,0:0:0:0:
212,140,41693,1,0,0:0:0:0:
132,140,41697,1,0,0:0:0:0:
184,140,41700,1,0,0:0:0:0:
104,140,41705,1,0,0:0:0:0:
152,140,41708,1,0,0:0:0:0:
80,140,41712,1,0,0:0:0:0:
120,140,41715,1,0,0:0:0:0:
56,140,41720,1,0,0:0:0:0:
92,140,41723,1,0,0:0:0:0:
28,140,41727,1,0,0:0:0:0:
68,140,41730,1,0,0:0:0:0:
44,140,41738,1,0,0:0:0:0:
16,140,41745,1,0,0:0:0:0:
464,184,41785,1,0,0:0:0:0:
452,184,41803,1,0,0:0:0:0:
436,184,41811,1,0,0:0:0:0:
416,184,41818,1,0,0:0:0:0:
384,184,41826,1,0,0:0:0:0:
424,184,41829,1,0,0:0:0:0:
364,184,41833,1,0,0:0:0:0:
404,184,41836,1,0,0:0:0:0:
332,184,41837,1,0,0:0:0:0:
300,184,41841,1,0,0:0:0:0:
372,184,41844,1,0,0:0:0:0:
276,184,41845,1,0,0:0:0:0:
352,184,41851,1,0,0:0:0:0:
252,184,41852,1,0,0:0:0:0:
320,184,41855,1,0,0:0:0:0:
288,184,41859,1,0,0:0:0:0:
224,184,41860,1,0,0:0:0:0:
264,184,41863,1,0,0:0:0:0:
196,184,41867,1,0,0:0:0:0:
240,184,41870,1,0,0:0:0:0:
164,184,41875,1,0,0:0:0:0:
212,184,41878,1,0,0:0:0:0:
132,184,41882,1,0,0:0:0:0:
184,184,41885,1,0,0:0:0:0:
104,184,41890,1,0,0:0:0:0:
152,184,41893,1,0,0:0:0:0:
80,184,41897,1,0,0:0:0:0:
120,184,41900,1,0,0:0:0:0:
56,184,41905,1,0,0:0:0:0:
92,184,41908,1,0,0:0:0:0:
28,184,41912,1,0,0:0:0:0:
68,184,41915,1,0,0:0:0:0:
44,184,41923,1,0,0:0:0:0:
16,184,41930,1,0,0:0:0:0:
464,228,41964,1,0,0:0:0:0:
452,228,41982,1,0,0:0:0:0:
436,228,41990,1,0,0:0:0:0:
416,228,41997,1,0,0:0:0:0:
384,228,42005,1,0,0:0:0:0:
424,228,42008,1,0,0:0:0:0:
364,228,42012,1,0,0:0:0:0:
404,228,42015,1,0,0:0:0:0:
332,228,42016,1,0,0:0:0:0:
300,228,42020,1,0,0:0:0:0:
372,228,42023,1,0,0:0:0:0:
276,228,42024,1,0,0:0:0:0:
352,228,42030,1,0,0:0:0:0:
252,228,42031,1,0,0:0:0:0:
320,228,42034,1,0,0:0:0:0:
288,228,42038,1,0,0:0:0:0:
224,228,42039,1,0,0:0:0:0:
264,228,42042,1,0,0:0:0:0:
196,228,42046,1,0,0:0:0:0:
240,228,42049,1,0,0:0:0:0:
164,228,42054,1,0,0:0:0:0:
212,228,42057,1,0,0:0:0:0:
132,228,42061,1,0,0:0:0:0:
184,228,42064,1,0,0:0:0:0:
104,228,42069,1,0,0:0:0:0:
152,228,42072,1,0,0:0:0:0:
80,228,42076,1,0,0:0:0:0:
120,228,42079,1,0,0:0:0:0:
56,228,42084,1,0,0:0:0:0:
92,228,42087,1,0,0:0:0:0:
28,228,42091,1,0,0:0:0:0:
68,228,42094,1,0,0:0:0:0:
44,228,42102,1,0,0:0:0:0:
16,228,42109,1,0,0:0:0:0:
464,264,42162,1,0,0:0:0:0:
452,264,42180,1,0,0:0:0:0:
436,264,42188,1,0,0:0:0:0:
416,264,42195,1,0,0:0:0:0:
384,264,42203,1,0,0:0:0:0:
424,264,42206,1,0,0:0:0:0:
364,264,42210,1,0,0:0:0:0:
404,264,42213,1,0,0:0:0:0:
332,264,42214,1,0,0:0:0:0:
300,264,42218,1,0,0:0:0:0:
372,264,42221,1,0,0:0:0:0:
276,264,42222,1,0,0:0:0:0:
352,264,42228,1,0,0:0:0:0:
252,264,42229,1,0,0:0:0:0:
320,264,42232,1,0,0:0:0:0:
288,264,42236,1,0,0:0:0:0:
224,264,42237,1,0,0:0:0:0:
264,264,42240,1,0,0:0:0:0:
196,264,42244,1,0,0:0:0:0:
240,264,42247,1,0,0:0:0:0:
164,264,42252,1,0,0:0:0:0:
212,264,42255,1,0,0:0:0:0:
132,264,42259,1,0,0:0:0:0:
184,264,42262,1,0,0:0:0:0:
104,264,42267,1,0,0:0:0:0:
152,264,42270,1,0,0:0:0:0:
80,264,42274,1,0,0:0:0:0:
120,264,42277,1,0,0:0:0:0:
56,264,42282,1,0,0:0:0:0:
92,264,42285,1,0,0:0:0:0:
28,264,42289,1,0,0:0:0:0:
68,264,42292,1,0,0:0:0:0:
44,264,42300,1,0,0:0:0:0:
16,264,42307,1,0,0:0:0:0:
456,296,42464,1,0,0:0:0:0:
444,296,42482,1,0,0:0:0:0:
428,296,42490,1,0,0:0:0:0:
408,296,42497,1,0,0:0:0:0:
376,296,42505,1,0,0:0:0:0:
416,296,42508,1,0,0:0:0:0:
356,296,42512,1,0,0:0:0:0:
396,296,42515,1,0,0:0:0:0:
324,296,42516,1,0,0:0:0:0:
292,296,42520,1,0,0:0:0:0:
364,296,42523,1,0,0:0:0:0:
268,296,42524,1,0,0:0:0:0:
344,296,42530,1,0,0:0:0:0:
244,296,42531,1,0,0:0:0:0:
312,296,42534,1,0,0:0:0:0:
280,296,42538,1,0,0:0:0:0:
216,296,42539,1,0,0:0:0:0:
256,296,42542,1,0,0:0:0:0:
188,296,42546,1,0,0:0:0:0:
232,296,42549,1,0,0:0:0:0:
156,296,42554,1,0,0:0:0:0:
204,296,42557,1,0,0:0:0:0:
124,296,42561,1,0,0:0:0:0:
176,296,42564,1,0,0:0:0:0:
96,296,42569,1,0,0:0:0:0:
144,296,42572,1,0,0:0:0:0:
72,296,42576,1,0,0:0:0:0:
112,296,42579,1,0,0:0:0:0:
48,296,42584,1,0,0:0:0:0:
84,296,42587,1,0,0:0:0:0:
20,296,42591,1,0,0:0:0:0:
60,296,42594,1,0,0:0:0:0:
36,296,42602,1,0,0:0:0:0:
8,296,42609,1,0,0:0:0:0:
432,312,42817,1,0,0:0:0:0:
432,312,42830,1,0,0:0:0:0:
432,312,42834,1,0,0:0:0:0:
432,312,42838,1,0,0:0:0:0:
432,312,42841,1,0,0:0:0:0:
432,312,42845,1,0,0:0:0:0:
432,312,42847,1,0,0:0:0:0:
432,312,42849,1,0,0:0:0:0:
432,312,42851,1,0,0:0:0:0:
432,312,42853,1,0,0:0:0:0:
432,312,42854,1,0,0:0:0:0:
432,312,42856,1,0,0:0:0:0:
432,312,42858,1,0,0:0:0:0:
432,312,42860,1,0,0:0:0:0:
432,312,42862,1,0,0:0:0:0:
432,312,42866,1,0,0:0:0:0:
432,312,42869,1,0,0:0:0:0:
432,312,42873,1,0,0:0:0:0:
364,316,43000,1,0,0:0:0:0:
364,316,43013,1,0,0:0:0:0:
364,316,43017,1,0,0:0:0:0:
364,316,43021,1,0,0:0:0:0:
364,316,43024,1,0,0:0:0:0:
364,316,43028,1,0,0:0:0:0:
364,316,43030,1,0,0:0:0:0:
364,316,43032,1,0,0:0:0:0:
364,316,43034,1,0,0:0:0:0:
364,316,43036,1,0,0:0:0:0:
364,316,43037,1,0,0:0:0:0:
364,316,43039,1,0,0:0:0:0:
364,316,43041,1,0,0:0:0:0:
364,316,43043,1,0,0:0:0:0:
364,316,43045,1,0,0:0:0:0:
364,316,43049,1,0,0:0:0:0:
432,312,43051,1,0,0:0:0:0:
364,316,43052,1,0,0:0:0:0:
432,312,43055,1,0,0:0:0:0:
364,316,43056,1,0,0:0:0:0:
432,312,43059,1,0,0:0:0:0:
432,312,43064,1,0,0:0:0:0:
432,312,43068,1,0,0:0:0:0:
432,312,43072,1,0,0:0:0:0:
432,312,43075,1,0,0:0:0:0:
432,312,43076,1,0,0:0:0:0:
432,312,43079,1,0,0:0:0:0:
432,312,43080,1,0,0:0:0:0:
432,312,43081,1,0,0:0:0:0:
432,312,43083,1,0,0:0:0:0:
432,312,43085,1,0,0:0:0:0:
432,312,43087,1,0,0:0:0:0:
432,312,43088,1,0,0:0:0:0:
432,312,43089,1,0,0:0:0:0:
432,312,43090,1,0,0:0:0:0:
432,312,43091,1,0,0:0:0:0:
432,312,43092,1,0,0:0:0:0:
432,312,43093,1,0,0:0:0:0:
432,312,43094,1,0,0:0:0:0:
432,312,43095,1,0,0:0:0:0:
432,312,43096,1,0,0:0:0:0:
432,312,43098,1,0,0:0:0:0:
432,312,43100,1,0,0:0:0:0:
432,312,43102,1,0,0:0:0:0:
432,312,43103,1,0,0:0:0:0:
432,312,43104,1,0,0:0:0:0:
432,312,43107,1,0,0:0:0:0:
432,312,43108,1,0,0:0:0:0:
432,312,43111,1,0,0:0:0:0:
432,312,43115,1,0,0:0:0:0:
304,308,43182,1,0,0:0:0:0:
304,308,43195,1,0,0:0:0:0:
304,308,43199,1,0,0:0:0:0:
304,308,43203,1,0,0:0:0:0:
304,308,43206,1,0,0:0:0:0:
304,308,43210,1,0,0:0:0:0:
304,308,43212,1,0,0:0:0:0:
304,308,43214,1,0,0:0:0:0:
304,308,43216,1,0,0:0:0:0:
304,308,43218,1,0,0:0:0:0:
304,308,43219,1,0,0:0:0:0:
304,308,43221,1,0,0:0:0:0:
304,308,43223,1,0,0:0:0:0:
304,308,43225,1,0,0:0:0:0:
304,308,43227,1,0,0:0:0:0:
304,308,43231,1,0,0:0:0:0:
364,316,43234,1,0,0:0:0:0:
364,316,43238,1,0,0:0:0:0:
364,316,43242,1,0,0:0:0:0:
364,316,43247,1,0,0:0:0:0:
364,316,43251,1,0,0:0:0:0:
364,316,43255,1,0,0:0:0:0:
364,316,43258,1,0,0:0:0:0:
364,316,43259,1,0,0:0:0:0:
364,316,43262,1,0,0:0:0:0:
364,316,43263,1,0,0:0:0:0:
364,316,43264,1,0,0:0:0:0:
364,316,43266,1,0,0:0:0:0:
364,316,43268,1,0,0:0:0:0:
364,316,43270,1,0,0:0:0:0:
364,316,43271,1,0,0:0:0:0:
364,316,43272,1,0,0:0:0:0:
364,316,43273,1,0,0:0:0:0:
364,316,43274,1,0,0:0:0:0:
364,316,43275,1,0,0:0:0:0:
364,316,43276,1,0,0:0:0:0:
364,316,43277,1,0,0:0:0:0:
364,316,43278,1,0,0:0:0:0:
364,316,43279,1,0,0:0:0:0:
364,316,43281,1,0,0:0:0:0:
364,316,43283,1,0,0:0:0:0:
364,316,43285,1,0,0:0:0:0:
364,316,43286,1,0,0:0:0:0:
364,316,43287,1,0,0:0:0:0:
364,316,43290,1,0,0:0:0:0:
364,316,43291,1,0,0:0:0:0:
364,316,43294,1,0,0:0:0:0:
364,316,43298,1,0,0:0:0:0:
260,308,43363,1,0,0:0:0:0:
260,308,43376,1,0,0:0:0:0:
260,308,43380,1,0,0:0:0:0:
260,308,43384,1,0,0:0:0:0:
260,308,43387,1,0,0:0:0:0:
260,308,43391,1,0,0:0:0:0:
260,308,43393,1,0,0:0:0:0:
260,308,43395,1,0,0:0:0:0:
260,308,43397,1,0,0:0:0:0:
260,308,43399,1,0,0:0:0:0:
260,308,43400,1,0,0:0:0:0:
260,308,43402,1,0,0:0:0:0:
260,308,43404,1,0,0:0:0:0:
260,308,43406,1,0,0:0:0:0:
260,308,43408,1,0,0:0:0:0:
260,308,43412,1,0,0:0:0:0:
260,308,43415,1,0,0:0:0:0:
304,308,43416,1,0,0:0:0:0:
260,308,43419,1,0,0:0:0:0:
304,308,43420,1,0,0:0:0:0:
304,308,43424,1,0,0:0:0:0:
304,308,43429,1,0,0:0:0:0:
304,308,43433,1,0,0:0:0:0:
304,308,43437,1,0,0:0:0:0:
304,308,43440,1,0,0:0:0:0:
304,308,43441,1,0,0:0:0:0:
304,308,43444,1,0,0:0:0:0:
304,308,43445,1,0,0:0:0:0:
304,308,43446,1,0,0:0:0:0:
304,308,43448,1,0,0:0:0:0:
304,308,43450,1,0,0:0:0:0:
304,308,43452,1,0,0:0:0:0:
304,308,43453,1,0,0:0:0:0:
304,308,43454,1,0,0:0:0:0:
304,308,43455,1,0,0:0:0:0:
304,308,43456,1,0,0:0:0:0:
304,308,43457,1,0,0:0:0:0:
304,308,43458,1,0,0:0:0:0:
304,308,43459,1,0,0:0:0:0:
304,308,43460,1,0,0:0:0:0:
304,308,43461,1,0,0:0:0:0:
304,308,43463,1,0,0:0:0:0:
304,308,43465,1,0,0:0:0:0:
304,308,43467,1,0,0:0:0:0:
304,308,43468,1,0,0:0:0:0:
304,308,43469,1,0,0:0:0:0:
304,308,43472,1,0,0:0:0:0:
304,308,43473,1,0,0:0:0:0:
304,308,43476,1,0,0:0:0:0:
304,308,43480,1,0,0:0:0:0:
172,304,43553,1,0,0:0:0:0:
172,304,43566,1,0,0:0:0:0:
172,304,43570,1,0,0:0:0:0:
172,304,43574,1,0,0:0:0:0:
172,304,43577,1,0,0:0:0:0:
172,304,43581,1,0,0:0:0:0:
172,304,43583,1,0,0:0:0:0:
172,304,43585,1,0,0:0:0:0:
172,304,43587,1,0,0:0:0:0:
172,304,43589,1,0,0:0:0:0:
172,304,43590,1,0,0:0:0:0:
172,304,43592,1,0,0:0:0:0:
172,304,43594,1,0,0:0:0:0:
172,304,43596,1,0,0:0:0:0:
260,308,43597,1,0,0:0:0:0:
172,304,43598,1,0,0:0:0:0:
260,308,43601,1,0,0:0:0:0:
172,304,43602,1,0,0:0:0:0:
260,308,43605,1,0,0:0:0:0:
172,304,43609,1,0,0:0:0:0:
260,308,43610,1,0,0:0:0:0:
260,308,43614,1,0,0:0:0:0:
260,308,43618,1,0,0:0:0:0:
260,308,43621,1,0,0:0:0:0:
260,308,43622,1,0,0:0:0:0:
260,308,43625,1,0,0:0:0:0:
260,308,43626,1,0,0:0:0:0:
260,308,43627,1,0,0:0:0:0:
260,308,43629,1,0,0:0:0:0:
260,308,43631,1,0,0:0:0:0:
260,308,43633,1,0,0:0:0:0:
260,308,43634,1,0,0:0:0:0:
260,308,43635,1,0,0:0:0:0:
260,308,43636,1,0,0:0:0:0:
260,308,43637,1,0,0:0:0:0:
260,308,43638,1,0,0:0:0:0:
260,308,43639,1,0,0:0:0:0:
260,308,43640,1,0,0:0:0:0:
260,308,43641,1,0,0:0:0:0:
260,308,43642,1,0,0:0:0:0:
260,308,43644,1,0,0:0:0:0:
260,308,43646,1,0,0:0:0:0:
260,308,43648,1,0,0:0:0:0:
260,308,43649,1,0,0:0:0:0:
260,308,43650,1,0,0:0:0:0:
260,308,43653,1,0,0:0:0:0:
260,308,43654,1,0,0:0:0:0:
260,308,43657,1,0,0:0:0:0:
260,308,43661,1,0,0:0:0:0:
172,304,43787,1,0,0:0:0:0:
172,304,43791,1,0,0:0:0:0:
172,304,43795,1,0,0:0:0:0:
172,304,43800,1,0,0:0:0:0:
172,304,43804,1,0,0:0:0:0:
172,304,43808,1,0,0:0:0:0:
172,304,43811,1,0,0:0:0:0:
172,304,43812,1,0,0:0:0:0:
172,304,43815,1,0,0:0:0:0:
172,304,43816,1,0,0:0:0:0:
172,304,43817,1,0,0:0:0:0:
172,304,43819,1,0,0:0:0:0:
172,304,43821,1,0,0:0:0:0:
172,304,43823,1,0,0:0:0:0:
172,304,43824,1,0,0:0:0:0:
172,304,43825,1,0,0:0:0:0:
172,304,43826,1,0,0:0:0:0:
172,304,43827,1,0,0:0:0:0:
172,304,43828,1,0,0:0:0:0:
172,304,43829,1,0,0:0:0:0:
172,304,43830,1,0,0:0:0:0:
172,304,43831,1,0,0:0:0:0:
172,304,43832,1,0,0:0:0:0:
172,304,43834,1,0,0:0:0:0:
172,304,43836,1,0,0:0:0:0:
172,304,43838,1,0,0:0:0:0:
172,304,43839,1,0,0:0:0:0:
172,304,43840,1,0,0:0:0:0:
172,304,43843,1,0,0:0:0:0:
172,304,43844,1,0,0:0:0:0:
172,304,43847,1,0,0:0:0:0:
172,304,43851,1,0,0:0:0:0:
128,304,43862,1,0,0:0:0:0:
128,304,43875,1,0,0:0:0:0:
128,304,43879,1,0,0:0:0:0:
128,304,43883,1,0,0:0:0:0:
128,304,43886,1,0,0:0:0:0:
128,304,43890,1,0,0:0:0:0:
128,304,43892,1,0,0:0:0:0:
128,304,43894,1,0,0:0:0:0:
128,304,43896,1,0,0:0:0:0:
128,304,43898,1,0,0:0:0:0:
128,304,43899,1,0,0:0:0:0:
128,304,43901,1,0,0:0:0:0:
128,304,43903,1,0,0:0:0:0:
128,304,43905,1,0,0:0:0:0:
128,304,43907,1,0,0:0:0:0:
128,304,43911,1,0,0:0:0:0:
128,304,43914,1,0,0:0:0:0:
128,304,43918,1,0,0:0:0:0:
128,304,44096,1,0,0:0:0:0:
128,304,44100,1,0,0:0:0:0:
128,304,44104,1,0,0:0:0:0:
128,304,44109,1,0,0:0:0:0:
128,304,44113,1,0,0:0:0:0:
128,304,44117,1,0,0:0:0:0:
128,304,44120,1,0,0:0:0:0:
128,304,44121,1,0,0:0:0:0:
128,304,44124,1,0,0:0:0:0:
128,304,44125,1,0,0:0:0:0:
128,304,44126,1,0,0:0:0:0:
128,304,44128,1,0,0:0:0:0:
128,304,44130,1,0,0:0:0:0:
128,304,44132,1,0,0:0:0:0:
128,304,44133,1,0,0:0:0:0:
128,304,44134,1,0,0:0:0:0:
128,304,44135,1,0,0:0:0:0:
128,304,44136,1,0,0:0:0:0:
128,304,44137,1,0,0:0:0:0:
128,304,44138,1,0,0:0:0:0:
128,304,44139,1,0,0:0:0:0:
128,304,44140,1,0,0:0:0:0:
128,304,44141,1,0,0:0:0:0:
128,304,44143,1,0,0:0:0:0:
128,304,44145,1,0,0:0:0:0:
128,304,44147,1,0,0:0:0:0:
128,304,44148,1,0,0:0:0:0:
128,304,44149,1,0,0:0:0:0:
128,304,44152,1,0,0:0:0:0:
128,304,44153,1,0,0:0:0:0:
128,304,44156,1,0,0:0:0:0:
128,304,44160,1,0,0:0:0:0:
144,208,44248,1,0,0:0:0:0:
116,208,44274,1,0,0:0:0:0:
144,208,44276,1,0,0:0:0:0:
144,208,44278,1,0,0:0:0:0:
144,208,44280,1,0,0:0:0:0:
144,208,44281,1,0,0:0:0:0:
144,208,44285,1,0,0:0:0:0:
144,208,44289,1,0,0:0:0:0:
144,208,44293,1,0,0:0:0:0:
144,208,44295,1,0,0:0:0:0:
144,208,44296,1,0,0:0:0:0:
144,208,44298,1,0,0:0:0:0:
144,208,44300,1,0,0:0:0:0:
144,208,44302,1,0,0:0:0:0:
144,208,44306,1,0,0:0:0:0:
144,208,44308,1,0,0:0:0:0:
144,208,44311,1,0,0:0:0:0:
144,208,44313,1,0,0:0:0:0:
144,208,44315,1,0,0:0:0:0:
144,208,44319,1,0,0:0:0:0:
144,208,44323,1,0,0:0:0:0:
144,208,44326,1,0,0:0:0:0:
144,208,44328,1,0,0:0:0:0:
144,208,44330,1,0,0:0:0:0:
144,208,44332,1,0,0:0:0:0:
144,208,44334,1,0,0:0:0:0:
144,208,44336,1,0,0:0:0:0:
144,208,44338,1,0,0:0:0:0:
144,208,44340,1,0,0:0:0:0:
144,208,44343,1,0,0:0:0:0:
144,208,44347,1,0,0:0:0:0:
144,208,44351,1,0,0:0:0:0:
144,208,44355,1,0,0:0:0:0:
216,188,44604,1,0,0:0:0:0:
188,188,44630,1,0,0:0:0:0:
216,188,44632,1,0,0:0:0:0:
216,188,44634,1,0,0:0:0:0:
216,188,44636,1,0,0:0:0:0:
216,188,44637,1,0,0:0:0:0:
216,188,44641,1,0,0:0:0:0:
216,188,44645,1,0,0:0:0:0:
216,188,44649,1,0,0:0:0:0:
216,188,44651,1,0,0:0:0:0:
216,188,44652,1,0,0:0:0:0:
216,188,44654,1,0,0:0:0:0:
216,188,44656,1,0,0:0:0:0:
216,188,44658,1,0,0:0:0:0:
216,188,44662,1,0,0:0:0:0:
216,188,44664,1,0,0:0:0:0:
216,188,44667,1,0,0:0:0:0:
216,188,44669,1,0,0:0:0:0:
216,188,44671,1,0,0:0:0:0:
216,188,44675,1,0,0:0:0:0:
216,188,44679,1,0,0:0:0:0:
216,188,44682,1,0,0:0:0:0:
216,188,44684,1,0,0:0:0:0:
216,188,44686,1,0,0:0:0:0:
216,188,44688,1,0,0:0:0:0:
216,188,44690,1,0,0:0:0:0:
216,188,44692,1,0,0:0:0:0:
216,188,44694,1,0,0:0:0:0:
216,188,44696,1,0,0:0:0:0:
216,188,44699,1,0,0:0:0:0:
216,188,44703,1,0,0:0:0:0:
216,188,44707,1,0,0:0:0:0:
216,188,44711,1,0,0:0:0:0:
304,180,44959,1,0,0:0:0:0:
276,180,44985,1,0,0:0:0:0:
304,180,44987,1,0,0:0:0:0:
304,180,44989,1,0,0:0:0:0:
304,180,44991,1,0,0:0:0:0:
304,180,44992,1,0,0:0:0:0:
304,180,44996,1,0,0:0:0:0:
304,180,45000,1,0,0:0:0:0:
304,180,45004,1,0,0:0:0:0:
304,180,45006,1,0,0:0:0:0:
304,180,45007,1,0,0:0:0:0:
304,180,45009,1,0,0:0:0:0:
304,180,45011,1,0,0:0:0:0:
304,180,45013,1,0,0:0:0:0:
304,180,45017,1,0,0:0:0:0:
304,180,45019,1,0,0:0:0:0:
304,180,45022,1,0,0:0:0:0:
304,180,45024,1,0,0:0:0:0:
304,180,45026,1,0,0:0:0:0:
304,180,45030,1,0,0:0:0:0:
304,180,45034,1,0,0:0:0:0:
304,180,45037,1,0,0:0:0:0:
304,180,45039,1,0,0:0:0:0:
304,180,45041,1,0,0:0:0:0:
304,180,45043,1,0,0:0:0:0:
304,180,45045,1,0,0:0:0:0:
304,180,45047,1,0,0:0:0:0:
304,180,45049,1,0,0:0:0:0:
304,180,45051,1,0,0:0:0:0:
304,180,45054,1,0,0:0:0:0:
304,180,45058,1,0,0:0:0:0:
304,180,45062,1,0,0:0:0:0:
304,180,45066,1,0,0:0:0:0:
384,212,45322,1,0,0:0:0:0:
356,212,45348,1,0,0:0:0:0:
384,212,45350,1,0,0:0:0:0:
384,212,45352,1,0,0:0:0:0:
384,212,45354,1,0,0:0:0:0:
384,212,45355,1,0,0:0:0:0:
384,212,45359,1,0,0:0:0:0:
384,212,45363,1,0,0:0:0:0:
384,212,45367,1,0,0:0:0:0:
384,212,45369,1,0,0:0:0:0:
384,212,45370,1,0,0:0:0:0:
384,212,45372,1,0,0:0:0:0:
384,212,45374,1,0,0:0:0:0:
384,212,45376,1,0,0:0:0:0:
384,212,45380,1,0,0:0:0:0:
384,212,45382,1,0,0:0:0:0:
384,212,45385,1,0,0:0:0:0:
384,212,45387,1,0,0:0:0:0:
384,212,45389,1,0,0:0:0:0:
384,212,45393,1,0,0:0:0:0:
384,212,45397,1,0,0:0:0:0:
384,212,45400,1,0,0:0:0:0:
384,212,45402,1,0,0:0:0:0:
384,212,45404,1,0,0:0:0:0:
384,212,45406,1,0,0:0:0:0:
384,212,45408,1,0,0:0:0:0:
384,212,45410,1,0,0:0:0:0:
384,212,45412,1,0,0:0:0:0:
384,212,45414,1,0,0:0:0:0:
384,212,45417,1,0,0:0:0:0:
384,212,45421,1,0,0:0:0:0:
384,212,45425,1,0,0:0:0:0:
384,212,45429,1,0,0:0:0:0:
252,192,45749,1,0,0:0:0:0:
224,192,45775,1,0,0:0:0:0:
252,192,45777,1,0,0:0:0:0:
252,192,45779,1,0,0:0:0:0:
252,192,45781,1,0,0:0:0:0:
252,192,45782,1,0,0:0:0:0:
252,192,45786,1,0,0:0:0:0:
252,192,45790,1,0,0:0:0:0:
252,192,45794,1,0,0:0:0:0:
252,192,45796,1,0,0:0:0:0:
252,192,45797,1,0,0:0:0:0:
252,192,45799,1,0,0:0:0:0:
252,192,45801,1,0,0:0:0:0:
252,192,45803,1,0,0:0:0:0:
252,192,45807,1,0,0:0:0:0:
252,192,45809,1,0,0:0:0:0:
252,192,45812,1,0,0:0:0:0:
252,192,45814,1,0,0:0:0:0:
252,192,45816,1,0,0:0:0:0:
252,192,45820,1,0,0:0:0:0:
252,192,45824,1,0,0:0:0:0:
252,192,45827,1,0,0:0:0:0:
252,192,45829,1,0,0:0:0:0:
252,192,45831,1,0,0:0:0:0:
252,192,45833,1,0,0:0:0:0:
252,192,45835,1,0,0:0:0:0:
252,192,45837,1,0,0:0:0:0:
252,192,45839,1,0,0:0:0:0:
252,192,45841,1,0,0:0:0:0:
252,192,45844,1,0,0:0:0:0:
252,192,45848,1,0,0:0:0:0:
252,192,45852,1,0,0:0:0:0:
252,192,45856,1,0,0:0:0:0:
184,196,45918,1,0,0:0:0:0:
156,196,45944,1,0,0:0:0:0:
184,196,45946,1,0,0:0:0:0:
184,196,45948,1,0,0:0:0:0:
184,196,45950,1,0,0:0:0:0:
184,196,45951,1,0,0:0:0:0:
184,196,45955,1,0,0:0:0:0:
184,196,45959,1,0,0:0:0:0:
184,196,45963,1,0,0:0:0:0:
184,196,45965,1,0,0:0:0:0:
184,196,45966,1,0,0:0:0:0:
184,196,45968,1,0,0:0:0:0:
184,196,45970,1,0,0:0:0:0:
184,196,45972,1,0,0:0:0:0:
184,196,45976,1,0,0:0:0:0:
184,196,45978,1,0,0:0:0:0:
184,196,45981,1,0,0:0:0:0:
184,196,45983,1,0,0:0:0:0:
184,196,45985,1,0,0:0:0:0:
184,196,45989,1,0,0:0:0:0:
184,196,45993,1,0,0:0:0:0:
184,196,45996,1,0,0:0:0:0:
184,196,45998,1,0,0:0:0:0:
184,196,46000,1,0,0:0:0:0:
184,196,46002,1,0,0:0:0:0:
184,196,46004,1,0,0:0:0:0:
184,196,46006,1,0,0:0:0:0:
184,196,46008,1,0,0:0:0:0:
184,196,46010,1,0,0:0:0:0:
184,196,46013,1,0,0:0:0:0:
184,196,46017,1,0,0:0:0:0:
184,196,46021,1,0,0:0:0:0:
184,196,46025,1,0,0:0:0:0:
84,204,46083,1,0,0:0:0:0:
56,204,46109,1,0,0:0:0:0:
84,204,46111,1,0,0:0:0:0:
84,204,46113,1,0,0:0:0:0:
84,204,46115,1,0,0:0:0:0:
84,204,46116,1,0,0:0:0:0:
84,204,46120,1,0,0:0:0:0:
84,204,46124,1,0,0:0:0:0:
84,204,46128,1,0,0:0:0:0:
84,204,46130,1,0,0:0:0:0:
84,204,46131,1,0,0:0:0:0:
84,204,46133,1,0,0:0:0:0:
84,204,46135,1,0,0:0:0:0:
84,204,46137,1,0,0:0:0:0:
84,204,46141,1,0,0:0:0:0:
84,204,46143,1,0,0:0:0:0:
84,204,46146,1,0,0:0:0:0:
84,204,46148,1,0,0:0:0:0:
84,204,46150,1,0,0:0:0:0:
84,204,46154,1,0,0:0:0:0:
84,204,46158,1,0,0:0:0:0:
84,204,46161,1,0,0:0:0:0:
84,204,46163,1,0,0:0:0:0:
84,204,46165,1,0,0:0:0:0:
84,204,46167,1,0,0:0:0:0:
84,204,46169,1,0,0:0:0:0:
84,204,46171,1,0,0:0:0:0:
84,204,46173,1,0,0:0:0:0:
84,204,46175,1,0,0:0:0:0:
84,204,46178,1,0,0:0:0:0:
84,204,46182,1,0,0:0:0:0:
84,204,46186,1,0,0:0:0:0:
84,204,46190,1,0,0:0:0:0:
104,204,46294,1,0,0:0:0:0:
76,204,46320,1,0,0:0:0:0:
104,204,46322,1,0,0:0:0:0:
104,204,46324,1,0,0:0:0:0:
104,204,46326,1,0,0:0:0:0:
104,204,46327,1,0,0:0:0:0:
104,204,46331,1,0,0:0:0:0:
104,204,46335,1,0,0:0:0:0:
104,204,46339,1,0,0:0:0:0:
104,204,46341,1,0,0:0:0:0:
104,204,46342,1,0,0:0:0:0:
104,204,46344,1,0,0:0:0:0:
104,204,46346,1,0,0:0:0:0:
104,204,46348,1,0,0:0:0:0:
104,204,46352,1,0,0:0:0:0:
104,204,46354,1,0,0:0:0:0:
104,204,46357,1,0,0:0:0:0:
104,204,46359,1,0,0:0:0:0:
104,204,46361,1,0,0:0:0:0:
104,204,46365,1,0,0:0:0:0:
104,204,46369,1,0,0:0:0:0:
104,204,46372,1,0,0:0:0:0:
104,204,46374,1,0,0:0:0:0:
104,204,46376,1,0,0:0:0:0:
104,204,46378,1,0,0:0:0:0:
104,204,46380,1,0,0:0:0:0:
104,204,46382,1,0,0:0:0:0:
104,204,46384,1,0,0:0:0:0:
104,204,46386,1,0,0:0:0:0:
104,204,46389,1,0,0:0:0:0:
104,204,46393,1,0,0:0:0:0:
104,204,46397,1,0,0:0:0:0:
104,204,46401,1,0,0:0:0:0:
236,200,46658,1,0,0:0:0:0:
208,200,46684,1,0,0:0:0:0:
236,200,46686,1,0,0:0:0:0:
236,200,46688,1,0,0:0:0:0:
236,200,46690,1,0,0:0:0:0:
236,200,46691,1,0,0:0:0:0:
236,200,46695,1,0,0:0:0:0:
236,200,46699,1,0,0:0:0:0:
236,200,46703,1,0,0:0:0:0:
236,200,46705,1,0,0:0:0:0:
236,200,46706,1,0,0:0:0:0:
236,200,46708,1,0,0:0:0:0:
236,200,46710,1,0,0:0:0:0:
236,200,46712,1,0,0:0:0:0:
236,200,46716,1,0,0:0:0:0:
236,200,46718,1,0,0:0:0:0:
236,200,46721,1,0,0:0:0:0:
236,200,46723,1,0,0:0:0:0:
236,200,46725,1,0,0:0:0:0:
236,200,46729,1,0,0:0:0:0:
236,200,46733,1,0,0:0:0:0:
236,200,46736,1,0,0:0:0:0:
236,200,46738,1,0,0:0:0:0:
236,200,46740,1,0,0:0:0:0:
236,200,46742,1,0,0:0:0:0:
236,200,46744,1,0,0:0:0:0:
236,200,46746,1,0,0:0:0:0:
236,200,46748,1,0,0:0:0:0:
236,200,46750,1,0,0:0:0:0:
236,200,46753,1,0,0:0:0:0:
236,200,46757,1,0,0:0:0:0:
236,200,46761,1,0,0:0:0:0:
236,200,46765,1,0,0:0:0:0:
224,60,47062,1,0,0:0:0:0:
184,64,47073,1,0,0:0:0:0:
140,60,47077,1,0,0:0:0:0:
88,60,47081,1,0,0:0:0:0:
32,64,47085,1,0,0:0:0:0:
268,64,47088,1,0,0:0:0:0:
316,60,47092,1,0,0:0:0:0:
360,60,47096,1,0,0:0:0:0:
408,60,47103,1,0,0:0:0:0:
444,60,47107,1,0,0:0:0:0:
496,56,47111,1,0,0:0:0:0:
220,84,47225,1,0,0:0:0:0:
180,88,47236,1,0,0:0:0:0:
136,84,47240,1,0,0:0:0:0:
84,84,47244,1,0,0:0:0:0:
28,88,47248,1,0,0:0:0:0:
264,88,47251,1,0,0:0:0:0:
312,84,47255,1,0,0:0:0:0:
356,84,47259,1,0,0:0:0:0:
404,84,47266,1,0,0:0:0:0:
440,84,47270,1,0,0:0:0:0:
492,80,47274,1,0,0:0:0:0:
220,148,47384,1,0,0:0:0:0:
180,152,47395,1,0,0:0:0:0:
136,148,47399,1,0,0:0:0:0:
84,148,47403,1,0,0:0:0:0:
28,152,47407,1,0,0:0:0:0:
264,152,47410,1,0,0:0:0:0:
312,148,47414,1,0,0:0:0:0:
356,148,47418,1,0,0:0:0:0:
404,148,47425,1,0,0:0:0:0:
440,148,47429,1,0,0:0:0:0:
492,144,47433,1,0,0:0:0:0:
224,216,47559,1,0,0:0:0:0:
184,220,47570,1,0,0:0:0:0:
140,216,47574,1,0,0:0:0:0:
88,216,47578,1,0,0:0:0:0:
32,220,47582,1,0,0:0:0:0:
268,220,47585,1,0,0:0:0:0:
316,216,47589,1,0,0:0:0:0:
360,216,47593,1,0,0:0:0:0:
408,216,47600,1,0,0:0:0:0:
444,216,47604,1,0,0:0:0:0:
496,212,47608,1,0,0:0:0:0:
228,292,47747,1,0,0:0:0:0:
188,296,47758,1,0,0:0:0:0:
144,292,47762,1,0,0:0:0:0:
92,292,47766,1,0,0:0:0:0:
36,296,47770,1,0,0:0:0:0:
272,296,47773,1,0,0:0:0:0:
320,292,47777,1,0,0:0:0:0:
364,292,47781,1,0,0:0:0:0:
412,292,47788,1,0,0:0:0:0:
448,292,47792,1,0,0:0:0:0:
500,288,47796,1,0,0:0:0:0:
232,344,48101,1,0,0:0:0:0:
192,348,48112,1,0,0:0:0:0:
148,344,48116,1,0,0:0:0:0:
96,344,48120,1,0,0:0:0:0:
40,348,48124,1,0,0:0:0:0:
276,348,48127,1,0,0:0:0:0:
324,344,48131,1,0,0:0:0:0:
368,344,48135,1,0,0:0:0:0:
416,344,48142,1,0,0:0:0:0:
452,344,48146,1,0,0:0:0:0:
504,340,48150,1,0,0:0:0:0:
396,328,48477,1,0,0:0:0:0:
452,328,48495,1,0,0:0:0:0:
504,328,48498,1,0,0:0:0:0:
336,328,48502,1,0,0:0:0:0:
288,328,48506,1,0,0:0:0:0:
124,324,48521,1,0,0:0:0:0:
180,324,48539,1,0,0:0:0:0:
232,324,48542,1,0,0:0:0:0:
64,324,48546,1,0,0:0:0:0:
16,324,48550,1,0,0:0:0:0:
380,288,48633,1,0,0:0:0:0:
436,288,48651,1,0,0:0:0:0:
488,288,48654,1,0,0:0:0:0:
320,288,48658,1,0,0:0:0:0:
272,288,48662,1,0,0:0:0:0:
108,284,48677,1,0,0:0:0:0:
164,284,48695,1,0,0:0:0:0:
216,284,48698,1,0,0:0:0:0:
48,284,48702,1,0,0:0:0:0:
0,284,48706,1,0,0:0:0:0:
380,232,48808,1,0,0:0:0:0:
436,232,48826,1,0,0:0:0:0:
488,232,48829,1,0,0:0:0:0:
320,232,48833,1,0,0:0:0:0:
272,232,48837,1,0,0:0:0:0:
108,228,48852,1,0,0:0:0:0:
164,228,48870,1,0,0:0:0:0:
216,228,48873,1,0,0:0:0:0:
48,228,48877,1,0,0:0:0:0:
0,228,48881,1,0,0:0:0:0:
384,200,48992,1,0,0:0:0:0:
440,200,49010,1,0,0:0:0:0:
492,200,49013,1,0,0:0:0:0:
324,200,49017,1,0,0:0:0:0:
276,200,49021,1,0,0:0:0:0:
112,196,49036,1,0,0:0:0:0:
168,196,49054,1,0,0:0:0:0:
220,196,49057,1,0,0:0:0:0:
52,196,49061,1,0,0:0:0:0:
4,196,49065,1,0,0:0:0:0:
380,132,49172,1,0,0:0:0:0:
436,132,49190,1,0,0:0:0:0:
488,132,49193,1,0,0:0:0:0:
320,132,49197,1,0,0:0:0:0:
272,132,49201,1,0,0:0:0:0:
108,128,49216,1,0,0:0:0:0:
164,128,49234,1,0,0:0:0:0:
216,128,49237,1,0,0:0:0:0:
48,128,49241,1,0,0:0:0:0:
0,128,49245,1,0,0:0:0:0:
348,32,49475,1,0,0:0:0:0:
144,48,49881,1,0,0:0:0:0:
56,48,49908,1,0,0:0:0:0:
100,48,49912,1,0,0:0:0:0:
200,48,49916,1,0,0:0:0:0:
244,48,49923,1,0,0:0:0:0:
304,48,49927,1,0,0:0:0:0:
352,48,49931,1,0,0:0:0:0:
400,48,49935,1,0,0:0:0:0:
448,52,49938,1,0,0:0:0:0:
480,52,49942,1,0,0:0:0:0:
512,48,49946,1,0,0:0:0:0:
88,88,50072,1,0,0:0:0:0:
0,88,50099,1,0,0:0:0:0:
44,88,50103,1,0,0:0:0:0:
144,88,50107,1,0,0:0:0:0:
188,88,50114,1,0,0:0:0:0:
248,88,50118,1,0,0:0:0:0:
296,88,50122,1,0,0:0:0:0:
344,88,50126,1,0,0:0:0:0:
392,92,50129,1,0,0:0:0:0:
424,92,50133,1,0,0:0:0:0:
456,88,50137,1,0,0:0:0:0:
88,168,50239,1,0,0:0:0:0:
0,168,50266,1,0,0:0:0:0:
44,168,50270,1,0,0:0:0:0:
144,168,50274,1,0,0:0:0:0:
188,168,50281,1,0,0:0:0:0:
248,168,50285,1,0,0:0:0:0:
296,168,50289,1,0,0:0:0:0:
344,168,50293,1,0,0:0:0:0:
392,172,50296,1,0,0:0:0:0:
424,172,50300,1,0,0:0:0:0:
456,168,50304,1,0,0:0:0:0:
96,224,50410,1,0,0:0:0:0:
8,224,50437,1,0,0:0:0:0:
52,224,50441,1,0,0:0:0:0:
152,224,50445,1,0,0:0:0:0:
196,224,50452,1,0,0:0:0:0:
256,224,50456,1,0,0:0:0:0:
304,224,50460,1,0,0:0:0:0:
352,224,50464,1,0,0:0:0:0:
400,228,50467,1,0,0:0:0:0:
432,228,50471,1,0,0:0:0:0:
464,224,50475,1,0,0:0:0:0:
100,284,50600,1,0,0:0:0:0:
12,284,50627,1,0,0:0:0:0:
56,284,50631,1,0,0:0:0:0:
156,284,50635,1,0,0:0:0:0:
200,284,50642,1,0,0:0:0:0:
260,284,50646,1,0,0:0:0:0:
308,284,50650,1,0,0:0:0:0:
356,284,50654,1,0,0:0:0:0:
404,288,50657,1,0,0:0:0:0:
436,288,50661,1,0,0:0:0:0:
468,284,50665,1,0,0:0:0:0:
108,332,50940,1,0,0:0:0:0:
252,256,51321,1,0,0:0:0:0:
152,312,51345,1,0,0:0:0:0:
352,188,51348,1,0,0:0:0:0:
304,224,51352,1,0,0:0:0:0:
208,288,51356,1,0,0:0:0:0:
352,288,51371,1,0,0:0:0:0:
288,272,51378,1,0,0:0:0:0:
252,344,51395,1,0,0:0:0:0:
452,220,51398,1,0,0:0:0:0:
188,328,51402,1,0,0:0:0:0:
388,204,51405,1,0,0:0:0:0:
308,320,51406,1,0,0:0:0:0:
340,240,51409,1,0,0:0:0:0:
244,304,51413,1,0,0:0:0:0:
168,216,51497,1,0,0:0:0:0:
68,272,51521,1,0,0:0:0:0:
268,148,51524,1,0,0:0:0:0:
220,184,51528,1,0,0:0:0:0:
124,248,51532,1,0,0:0:0:0:
268,248,51547,1,0,0:0:0:0:
204,232,51554,1,0,0:0:0:0:
168,304,51571,1,0,0:0:0:0:
368,180,51574,1,0,0:0:0:0:
104,288,51578,1,0,0:0:0:0:
304,164,51581,1,0,0:0:0:0:
224,280,51582,1,0,0:0:0:0:
256,200,51585,1,0,0:0:0:0:
160,264,51589,1,0,0:0:0:0:
184,208,51668,1,0,0:0:0:0:
84,264,51692,1,0,0:0:0:0:
284,140,51695,1,0,0:0:0:0:
236,176,51699,1,0,0:0:0:0:
140,240,51703,1,0,0:0:0:0:
284,240,51718,1,0,0:0:0:0:
220,224,51725,1,0,0:0:0:0:
184,296,51742,1,0,0:0:0:0:
384,172,51745,1,0,0:0:0:0:
120,280,51749,1,0,0:0:0:0:
320,156,51752,1,0,0:0:0:0:
240,272,51753,1,0,0:0:0:0:
272,192,51756,1,0,0:0:0:0:
176,256,51760,1,0,0:0:0:0:
304,176,51833,1,0,0:0:0:0:
204,232,51857,1,0,0:0:0:0:
404,108,51860,1,0,0:0:0:0:
356,144,51864,1,0,0:0:0:0:
260,208,51868,1,0,0:0:0:0:
404,208,51883,1,0,0:0:0:0:
340,192,51890,1,0,0:0:0:0:
304,264,51907,1,0,0:0:0:0:
504,140,51910,1,0,0:0:0:0:
240,248,51914,1,0,0:0:0:0:
440,124,51917,1,0,0:0:0:0:
360,240,51918,1,0,0:0:0:0:
392,160,51921,1,0,0:0:0:0:
296,224,51925,1,0,0:0:0:0:
208,156,52025,1,0,0:0:0:0:
108,212,52049,1,0,0:0:0:0:
308,88,52052,1,0,0:0:0:0:
260,124,52056,1,0,0:0:0:0:
164,188,52060,1,0,0:0:0:0:
308,188,52075,1,0,0:0:0:0:
244,172,52082,1,0,0:0:0:0:
208,244,52099,1,0,0:0:0:0:
408,120,52102,1,0,0:0:0:0:
144,228,52106,1,0,0:0:0:0:
344,104,52109,1,0,0:0:0:0:
264,220,52110,1,0,0:0:0:0:
296,140,52113,1,0,0:0:0:0:
200,204,52117,1,0,0:0:0:0:
232,104,52200,1,0,0:0:0:0:
132,160,52224,1,0,0:0:0:0:
332,36,52227,1,0,0:0:0:0:
284,72,52231,1,0,0:0:0:0:
188,136,52235,1,0,0:0:0:0:
332,136,52250,1,0,0:0:0:0:
268,120,52257,1,0,0:0:0:0:
232,192,52274,1,0,0:0:0:0:
432,68,52277,1,0,0:0:0:0:
168,176,52281,1,0,0:0:0:0:
368,52,52284,1,0,0:0:0:0:
288,168,52285,1,0,0:0:0:0:
320,88,52288,1,0,0:0:0:0:
224,152,52292,1,0,0:0:0:0:
252,92,52388,1,0,0:0:0:0:
152,148,52412,1,0,0:0:0:0:
352,24,52415,1,0,0:0:0:0:
304,60,52419,1,0,0:0:0:0:
208,124,52423,1,0,0:0:0:0:
352,124,52438,1,0,0:0:0:0:
288,108,52445,1,0,0:0:0:0:
252,180,52462,1,0,0:0:0:0:
452,56,52465,1,0,0:0:0:0:
188,164,52469,1,0,0:0:0:0:
388,40,52472,1,0,0:0:0:0:
308,156,52473,1,0,0:0:0:0:
340,76,52476,1,0,0:0:0:0:
244,140,52480,1,0,0:0:0:0:
180,88,52767,1,0,0:0:0:0:
104,88,52781,1,0,0:0:0:0:
36,84,52785,1,0,0:0:0:0:
260,76,52788,1,0,0:0:0:0:
340,76,52792,1,0,0:0:0:0:
412,76,52796,1,0,0:0:0:0:
372,168,52800,1,0,0:0:0:0:
108,176,52803,1,0,0:0:0:0:
224,116,52947,1,0,0:0:0:0:
148,116,52961,1,0,0:0:0:0:
80,112,52965,1,0,0:0:0:0:
304,104,52968,1,0,0:0:0:0:
384,104,52972,1,0,0:0:0:0:
456,104,52976,1,0,0:0:0:0:
416,196,52980,1,0,0:0:0:0:
152,204,52983,1,0,0:0:0:0:
236,124,53135,1,0,0:0:0:0:
160,124,53149,1,0,0:0:0:0:
92,120,53153,1,0,0:0:0:0:
316,112,53156,1,0,0:0:0:0:
396,112,53160,1,0,0:0:0:0:
468,112,53164,1,0,0:0:0:0:
428,204,53168,1,0,0:0:0:0:
164,212,53171,1,0,0:0:0:0:
220,152,53322,1,0,0:0:0:0:
144,152,53336,1,0,0:0:0:0:
76,148,53340,1,0,0:0:0:0:
300,140,53343,1,0,0:0:0:0:
380,140,53347,1,0,0:0:0:0:
452,140,53351,1,0,0:0:0:0:
412,232,53355,1,0,0:0:0:0:
148,240,53358,1,0,0:0:0:0:
260,180,53485,1,0,0:0:0:0:
184,180,53499,1,0,0:0:0:0:
116,176,53503,1,0,0:0:0:0:
340,168,53506,1,0,0:0:0:0:
420,168,53510,1,0,0:0:0:0:
492,168,53514,1,0,0:0:0:0:
452,260,53518,1,0,0:0:0:0:
188,268,53521,1,0,0:0:0:0:
232,200,53689,1,0,0:0:0:0:
156,200,53703,1,0,0:0:0:0:
88,196,53707,1,0,0:0:0:0:
312,188,53710,1,0,0:0:0:0:
392,188,53714,1,0,0:0:0:0:
464,188,53718,1,0,0:0:0:0:
424,280,53722,1,0,0:0:0:0:
160,288,53725,1,0,0:0:0:0:
252,228,53871,1,0,0:0:0:0:
176,228,53885,1,0,0:0:0:0:
108,224,53889,1,0,0:0:0:0:
332,216,53892,1,0,0:0:0:0:
412,216,53896,1,0,0:0:0:0:
484,216,53900,1,0,0:0:0:0:
444,308,53904,1,0,0:0:0:0:
180,316,53907,1,0,0:0:0:0:
28,128,54204,1,0,0:0:0:0:
24,192,54221,1,0,0:0:0:0:
28,244,54225,1,0,0:0:0:0:
24,292,54228,1,0,0:0:0:0:
24,72,54232,1,0,0:0:0:0:
16,136,54393,1,0,0:0:0:0:
12,200,54410,1,0,0:0:0:0:
16,252,54414,1,0,0:0:0:0:
12,300,54417,1,0,0:0:0:0:
12,80,54421,1,0,0:0:0:0:
128,140,54585,1,0,0:0:0:0:
124,204,54602,1,0,0:0:0:0:
128,256,54606,1,0,0:0:0:0:
124,304,54609,1,0,0:0:0:0:
124,84,54613,1,0,0:0:0:0:
152,140,54766,1,0,0:0:0:0:
148,204,54783,1,0,0:0:0:0:
152,256,54787,1,0,0:0:0:0:
148,304,54790,1,0,0:0:0:0:
148,84,54794,1,0,0:0:0:0:
220,144,54940,1,0,0:0:0:0:
216,208,54957,1,0,0:0:0:0:
220,260,54961,1,0,0:0:0:0:
216,308,54964,1,0,0:0:0:0:
216,88,54968,1,0,0:0:0:0:
292,144,55134,1,0,0:0:0:0:
288,208,55151,1,0,0:0:0:0:
292,260,55155,1,0,0:0:0:0:
288,308,55158,1,0,0:0:0:0:
288,88,55162,1,0,0:0:0:0:
392,148,55333,1,0,0:0:0:0:
388,212,55350,1,0,0:0:0:0:
392,264,55354,1,0,0:0:0:0:
388,312,55357,1,0,0:0:0:0:
388,92,55361,1,0,0:0:0:0:
412,156,55468,1,0,0:0:0:0:
408,220,55485,1,0,0:0:0:0:
412,272,55489,1,0,0:0:0:0:
408,320,55492,1,0,0:0:0:0:
408,100,55496,1,0,0:0:0:0:
388,196,55584,1,0,0:0:0:0:
384,260,55601,1,0,0:0:0:0:
388,312,55605,1,0,0:0:0:0:
384,360,55608,1,0,0:0:0:0:
384,140,55612,1,0,0:0:0:0:
312,220,55778,1,0,0:0:0:0:
308,284,55795,1,0,0:0:0:0:
312,336,55799,1,0,0:0:0:0:
308,384,55802,1,0,0:0:0:0:
308,164,55806,1,0,0:0:0:0:
220,192,55974,1,0,0:0:0:0:
216,256,55991,1,0,0:0:0:0:
220,308,55995,1,0,0:0:0:0:
216,356,55998,1,0,0:0:0:0:
216,136,56002,1,0,0:0:0:0:
236,152,56163,1,0,0:0:0:0:
232,216,56180,1,0,0:0:0:0:
236,268,56184,1,0,0:0:0:0:
232,316,56187,1,0,0:0:0:0:
232,96,56191,1,0,0:0:0:0:
268,176,56337,1,0,0:0:0:0:
264,240,56354,1,0,0:0:0:0:
268,292,56358,1,0,0:0:0:0:
264,340,56361,1,0,0:0:0:0:
264,120,56365,1,0,0:0:0:0:
252,196,56530,1,0,0:0:0:0:
248,260,56547,1,0,0:0:0:0:
252,312,56551,1,0,0:0:0:0:
248,360,56554,1,0,0:0:0:0:
248,140,56558,1,0,0:0:0:0:
284,128,56912,1,0,0:0:0:0:
172,112,57296,1,0,0:0:0:0:
392,120,57315,1,0,0:0:0:0:
236,200,57318,1,0,0:0:0:0:
344,200,57322,1,0,0:0:0:0:
68,128,57612,1,0,0:0:0:0:
280,104,57699,1,0,0:0:0:0:
124,184,57702,1,0,0:0:0:0:
232,184,57706,1,0,0:0:0:0:
76,232,57968,1,0,0:0:0:0:
176,120,58015,1,0,0:0:0:0:
20,200,58018,1,0,0:0:0:0:
128,200,58022,1,0,0:0:0:0:
184,312,58343,1,0,0:0:0:0:
184,224,58371,1,0,0:0:0:0:
28,304,58374,1,0,0:0:0:0:
136,304,58378,1,0,0:0:0:0:
360,312,58684,1,0,0:0:0:0:
292,304,58746,1,0,0:0:0:0:
136,384,58749,1,0,0:0:0:0:
244,384,58753,1,0,0:0:0:0:
404,224,59047,1,0,0:0:0:0:
468,304,59087,1,0,0:0:0:0:
312,384,59090,1,0,0:0:0:0:
420,384,59094,1,0,0:0:0:0:
324,96,59397,1,0,0:0:0:0:
512,216,59450,1,0,0:0:0:0:
356,296,59453,1,0,0:0:0:0:
464,296,59457,1,0,0:0:0:0:
228,64,59753,1,0,0:0:0:0:
432,88,59800,1,0,0:0:0:0:
276,168,59803,1,0,0:0:0:0:
384,168,59807,1,0,0:0:0:0:
276,176,60136,1,0,0:0:0:0:
336,56,60156,1,0,0:0:0:0:
180,136,60159,1,0,0:0:0:0:
288,136,60163,1,0,0:0:0:0:
320,260,60469,1,0,0:0:0:0:
384,168,60539,1,0,0:0:0:0:
228,248,60542,1,0,0:0:0:0:
336,248,60546,1,0,0:0:0:0:
156,260,60817,1,0,0:0:0:0:
428,252,60872,1,0,0:0:0:0:
272,332,60875,1,0,0:0:0:0:
380,332,60879,1,0,0:0:0:0:
252,80,61142,1,0,0:0:0:0:
264,252,61220,1,0,0:0:0:0:
108,332,61223,1,0,0:0:0:0:
216,332,61227,1,0,0:0:0:0:
360,72,61545,1,0,0:0:0:0:
204,152,61548,1,0,0:0:0:0:
312,152,61552,1,0,0:0:0:0:
168,72,61553,1,0,0:0:0:0:
172,72,61883,1,0,0:0:0:0:
276,64,61956,1,0,0:0:0:0:
120,144,61959,1,0,0:0:0:0:
228,144,61963,1,0,0:0:0:0:
152,112,62255,1,0,0:0:0:0:
280,64,62286,1,0,0:0:0:0:
124,144,62289,1,0,0:0:0:0:
232,144,62293,1,0,0:0:0:0:
128,168,62573,1,0,0:0:0:0:
260,104,62658,1,0,0:0:0:0:
104,184,62661,1,0,0:0:0:0:
212,184,62665,1,0,0:0:0:0:
128,168,62912,1,0,0:0:0:0:
236,160,62976,1,0,0:0:0:0:
80,240,62979,1,0,0:0:0:0:
188,240,62983,1,0,0:0:0:0:
144,264,63291,1,0,0:0:0:0:
236,160,63315,1,0,0:0:0:0:
80,240,63318,1,0,0:0:0:0:
188,240,63322,1,0,0:0:0:0:
248,276,63638,1,0,0:0:0:0:
252,256,63694,1,0,0:0:0:0:
96,336,63697,1,0,0:0:0:0:
204,336,63701,1,0,0:0:0:0:
356,280,63992,1,0,0:0:0:0:
356,268,64041,1,0,0:0:0:0:
200,348,64044,1,0,0:0:0:0:
308,348,64048,1,0,0:0:0:0:
368,88,64382,1,0,0:0:0:0:
464,272,64395,1,0,0:0:0:0:
308,352,64398,1,0,0:0:0:0:
416,352,64402,1,0,0:0:0:0:
168,248,64745,1,0,0:0:0:0:
476,80,64785,1,0,0:0:0:0:
320,160,64788,1,0,0:0:0:0:
428,160,64792,1,0,0:0:0:0:
256,248,65129,1,0,0:0:0:0:
276,240,65148,1,0,0:0:0:0:
120,320,65151,1,0,0:0:0:0:
228,320,65155,1,0,0:0:0:0:
272,168,65443,1,0,0:0:0:0:
364,240,65532,1,0,0:0:0:0:
208,320,65535,1,0,0:0:0:0:
316,320,65539,1,0,0:0:0:0:
144,104,65772,1,0,0:0:0:0:
380,160,65846,1,0,0:0:0:0:
224,240,65849,1,0,0:0:0:0:
332,240,65853,1,0,0:0:0:0:
216,156,66105,1,0,0:0:0:0:
252,96,66175,1,0,0:0:0:0:
96,176,66178,1,0,0:0:0:0:
204,176,66182,1,0,0:0:0:0:
256,144,66419,1,0,0:0:0:0:
324,148,66508,1,0,0:0:0:0:
168,228,66511,1,0,0:0:0:0:
276,228,66515,1,0,0:0:0:0:
364,136,66822,1,0,0:0:0:0:
208,216,66825,1,0,0:0:0:0:
316,216,66829,1,0,0:0:0:0:
328,148,66836,1,0,0:0:0:0:
388,176,67169,1,0,0:0:0:0:
436,140,67239,1,0,0:0:0:0:
280,220,67242,1,0,0:0:0:0:
388,220,67246,1,0,0:0:0:0:
384,192,67534,1,0,0:0:0:0:
496,168,67572,1,0,0:0:0:0:
340,248,67575,1,0,0:0:0:0:
448,248,67579,1,0,0:0:0:0:
492,184,67937,1,0,0:0:0:0:
336,264,67940,1,0,0:0:0:0:
444,264,67944,1,0,0:0:0:0:
48,144,68292,1,0,0:0:0:0:
112,144,68302,1,0,0:0:0:0:
176,144,68306,1,0,0:0:0:0:
328,144,68310,1,0,0:0:0:0:
380,148,68313,1,0,0:0:0:0:
436,152,68317,1,0,0:0:0:0:
48,164,68594,1,0,0:0:0:0:
112,164,68604,1,0,0:0:0:0:
176,164,68608,1,0,0:0:0:0:
328,164,68612,1,0,0:0:0:0:
380,168,68615,1,0,0:0:0:0:
436,172,68619,1,0,0:0:0:0:
44,212,68913,1,0,0:0:0:0:
108,212,68923,1,0,0:0:0:0:
172,212,68927,1,0,0:0:0:0:
324,212,68931,1,0,0:0:0:0:
376,216,68934,1,0,0:0:0:0:
432,220,68938,1,0,0:0:0:0:
48,264,69248,1,0,0:0:0:0:
112,264,69258,1,0,0:0:0:0:
176,264,69262,1,0,0:0:0:0:
328,264,69266,1,0,0:0:0:0:
380,268,69269,1,0,0:0:0:0:
436,272,69273,1,0,0:0:0:0:
312,168,70008,1,0,0:0:0:0:
260,168,70016,1,0,0:0:0:0:
196,168,70020,1,0,0:0:0:0:
144,168,70023,1,0,0:0:0:0:
364,168,70027,1,0,0:0:0:0:
412,168,70031,1,0,0:0:0:0:
312,216,70339,1,0,0:0:0:0:
260,216,70347,1,0,0:0:0:0:
196,216,70351,1,0,0:0:0:0:
144,216,70354,1,0,0:0:0:0:
364,216,70358,1,0,0:0:0:0:
412,216,70362,1,0,0:0:0:0:
304,252,70693,1,0,0:0:0:0:
252,252,70701,1,0,0:0:0:0:
188,252,70705,1,0,0:0:0:0:
136,252,70708,1,0,0:0:0:0:
356,252,70712,1,0,0:0:0:0:
404,252,70716,1,0,0:0:0:0:
172,32,71073,1,0,0:0:0:0:
120,32,71081,1,0,0:0:0:0:
56,32,71085,1,0,0:0:0:0:
4,32,71088,1,0,0:0:0:0:
224,32,71092,1,0,0:0:0:0:
272,32,71096,1,0,0:0:0:0:
208,32,71397,1,0,0:0:0:0:
156,32,71405,1,0,0:0:0:0:
92,32,71409,1,0,0:0:0:0:
40,32,71412,1,0,0:0:0:0:
260,32,71416,1,0,0:0:0:0:
308,32,71420,1,0,0:0:0:0:
240,32,71730,1,0,0:0:0:0:
188,32,71738,1,0,0:0:0:0:
124,32,71742,1,0,0:0:0:0:
72,32,71745,1,0,0:0:0:0:
292,32,71749,1,0,0:0:0:0:
340,32,71753,1,0,0:0:0:0:
288,40,72132,1,0,0:0:0:0:
236,40,72140,1,0,0:0:0:0:
172,40,72144,1,0,0:0:0:0:
120,40,72147,1,0,0:0:0:0:
340,40,72151,1,0,0:0:0:0:
388,40,72155,1,0,0:0:0:0:
172,336,72536,1,0,0:0:0:0:
120,336,72544,1,0,0:0:0:0:
56,336,72548,1,0,0:0:0:0:
4,336,72551,1,0,0:0:0:0:
224,336,72555,1,0,0:0:0:0:
272,336,72559,1,0,0:0:0:0:
224,336,72892,1,0,0:0:0:0:
172,336,72900,1,0,0:0:0:0:
108,336,72904,1,0,0:0:0:0:
56,336,72907,1,0,0:0:0:0:
276,336,72911,1,0,0:0:0:0:
324,336,72915,1,0,0:0:0:0:
268,336,73230,1,0,0:0:0:0:
216,336,73238,1,0,0:0:0:0:
152,336,73242,1,0,0:0:0:0:
100,336,73245,1,0,0:0:0:0:
320,336,73249,1,0,0:0:0:0:
368,336,73253,1,0,0:0:0:0:
296,336,73579,1,0,0:0:0:0:
244,336,73587,1,0,0:0:0:0:
180,336,73591,1,0,0:0:0:0:
128,336,73594,1,0,0:0:0:0:
348,336,73598,1,0,0:0:0:0:
396,336,73602,1,0,0:0:0:0:
412,176,73962,1,0,0:0:0:0:
360,176,73970,1,0,0:0:0:0:
296,176,73974,1,0,0:0:0:0:
244,176,73977,1,0,0:0:0:0:
464,176,73981,1,0,0:0:0:0:
512,176,73985,1,0,0:0:0:0:
416,200,74283,1,0,0:0:0:0:
376,200,74298,1,0,0:0:0:0:
328,200,74302,1,0,0:0:0:0:
280,204,74306,1,0,0:0:0:0:
256,204,74310,1,0,0:0:0:0:
256,144,74313,1,0,0:0:0:0:
316,144,74317,1,0,0:0:0:0:
368,148,74321,1,0,0:0:0:0:
424,152,74325,1,0,0:0:0:0:
424,252,74328,1,0,0:0:0:0:
268,256,74332,1,0,0:0:0:0:
344,252,74336,1,0,0:0:0:0:
420,228,74571,1,0,0:0:0:0:
380,228,74586,1,0,0:0:0:0:
332,228,74590,1,0,0:0:0:0:
284,232,74594,1,0,0:0:0:0:
260,232,74598,1,0,0:0:0:0:
260,172,74601,1,0,0:0:0:0:
320,172,74605,1,0,0:0:0:0:
372,176,74609,1,0,0:0:0:0:
428,180,74613,1,0,0:0:0:0:
428,280,74616,1,0,0:0:0:0:
272,284,74620,1,0,0:0:0:0:
348,280,74624,1,0,0:0:0:0:
416,260,74919,1,0,0:0:0:0:
376,260,74934,1,0,0:0:0:0:
328,260,74938,1,0,0:0:0:0:
280,264,74942,1,0,0:0:0:0:
256,264,74946,1,0,0:0:0:0:
256,204,74949,1,0,0:0:0:0:
316,204,74953,1,0,0:0:0:0:
368,208,74957,1,0,0:0:0:0:
424,212,74961,1,0,0:0:0:0:
424,312,74964,1,0,0:0:0:0:
268,316,74968,1,0,0:0:0:0:
344,312,74972,1,0,0:0:0:0:
352,84,75315,1,0,0:0:0:0:
312,84,75330,1,0,0:0:0:0:
264,84,75334,1,0,0:0:0:0:
216,88,75338,1,0,0:0:0:0:
192,88,75342,1,0,0:0:0:0:
192,28,75345,1,0,0:0:0:0:
252,28,75349,1,0,0:0:0:0:
304,32,75353,1,0,0:0:0:0:
360,36,75357,1,0,0:0:0:0:
360,136,75360,1,0,0:0:0:0:
204,140,75364,1,0,0:0:0:0:
280,136,75368,1,0,0:0:0:0:
272,84,75632,1,0,0:0:0:0:
232,84,75647,1,0,0:0:0:0:
184,84,75651,1,0,0:0:0:0:
136,88,75655,1,0,0:0:0:0:
112,88,75659,1,0,0:0:0:0:
112,28,75662,1,0,0:0:0:0:
172,28,75666,1,0,0:0:0:0:
224,32,75670,1,0,0:0:0:0:
280,36,75674,1,0,0:0:0:0:
280,136,75677,1,0,0:0:0:0:
124,140,75681,1,0,0:0:0:0:
200,136,75685,1,0,0:0:0:0:
248,84,75961,1,0,0:0:0:0:
208,84,75976,1,0,0:0:0:0:
160,84,75980,1,0,0:0:0:0:
112,88,75984,1,0,0:0:0:0:
88,88,75988,1,0,0:0:0:0:
88,28,75991,1,0,0:0:0:0:
148,28,75995,1,0,0:0:0:0:
200,32,75999,1,0,0:0:0:0:
256,36,76003,1,0,0:0:0:0:
256,136,76006,1,0,0:0:0:0:
100,140,76010,1,0,0:0:0:0:
176,136,76014,1,0,0:0:0:0:
240,88,76326,1,0,0:0:0:0:
200,88,76341,1,0,0:0:0:0:
152,88,76345,1,0,0:0:0:0:
104,92,76349,1,0,0:0:0:0:
80,92,76353,1,0,0:0:0:0:
80,32,76356,1,0,0:0:0:0:
140,32,76360,1,0,0:0:0:0:
192,36,76364,1,0,0:0:0:0:
248,40,76368,1,0,0:0:0:0:
248,140,76371,1,0,0:0:0:0:
92,144,76375,1,0,0:0:0:0:
168,140,76379,1,0,0:0:0:0:
160,120,76682,1,0,0:0:0:0:
120,120,76697,1,0,0:0:0:0:
72,120,76701,1,0,0:0:0:0:
24,124,76705,1,0,0:0:0:0:
0,124,76709,1,0,0:0:0:0:
0,64,76712,1,0,0:0:0:0:
60,64,76716,1,0,0:0:0:0:
112,68,76720,1,0,0:0:0:0:
168,72,76724,1,0,0:0:0:0:
168,172,76727,1,0,0:0:0:0:
12,176,76731,1,0,0:0:0:0:
88,172,76735,1,0,0:0:0:0:
164,196,77016,1,0,0:0:0:0:
124,196,77031,1,0,0:0:0:0:
76,196,77035,1,0,0:0:0:0:
28,200,77039,1,0,0:0:0:0:
4,200,77043,1,0,0:0:0:0:
4,140,77046,1,0,0:0:0:0:
64,140,77050,1,0,0:0:0:0:
116,144,77054,1,0,0:0:0:0:
172,148,77058,1,0,0:0:0:0:
172,248,77061,1,0,0:0:0:0:
16,252,77065,1,0,0:0:0:0:
92,248,77069,1,0,0:0:0:0:
176,272,77384,1,0,0:0:0:0:
136,272,77399,1,0,0:0:0:0:
88,272,77403,1,0,0:0:0:0:
40,276,77407,1,0,0:0:0:0:
16,276,77411,1,0,0:0:0:0:
16,216,77414,1,0,0:0:0:0:
76,216,77418,1,0,0:0:0:0:
128,220,77422,1,0,0:0:0:0:
184,224,77426,1,0,0:0:0:0:
184,324,77429,1,0,0:0:0:0:
28,328,77433,1,0,0:0:0:0:
104,324,77437,1,0,0:0:0:0:
252,296,77726,1,0,0:0:0:0:
212,296,77741,1,0,0:0:0:0:
164,296,77745,1,0,0:0:0:0:
116,300,77749,1,0,0:0:0:0:
92,300,77753,1,0,0:0:0:0:
92,240,77756,1,0,0:0:0:0:
152,240,77760,1,0,0:0:0:0:
204,244,77764,1,0,0:0:0:0:
260,248,77768,1,0,0:0:0:0:
260,348,77771,1,0,0:0:0:0:
104,352,77775,1,0,0:0:0:0:
180,348,77779,1,0,0:0:0:0:
316,284,78089,1,0,0:0:0:0:
276,284,78104,1,0,0:0:0:0:
228,284,78108,1,0,0:0:0:0:
180,288,78112,1,0,0:0:0:0:
156,288,78116,1,0,0:0:0:0:
156,228,78119,1,0,0:0:0:0:
216,228,78123,1,0,0:0:0:0:
268,232,78127,1,0,0:0:0:0:
324,236,78131,1,0,0:0:0:0:
324,336,78134,1,0,0:0:0:0:
168,340,78138,1,0,0:0:0:0:
244,336,78142,1,0,0:0:0:0:
344,228,78420,1,0,0:0:0:0:
304,228,78435,1,0,0:0:0:0:
256,228,78439,1,0,0:0:0:0:
208,232,78443,1,0,0:0:0:0:
184,232,78447,1,0,0:0:0:0:
184,172,78450,1,0,0:0:0:0:
244,172,78454,1,0,0:0:0:0:
296,176,78458,1,0,0:0:0:0:
352,180,78462,1,0,0:0:0:0:
352,280,78465,1,0,0:0:0:0:
196,284,78469,1,0,0:0:0:0:
272,280,78473,1,0,0:0:0:0:
348,164,78754,1,0,0:0:0:0:
308,164,78769,1,0,0:0:0:0:
260,164,78773,1,0,0:0:0:0:
212,168,78777,1,0,0:0:0:0:
188,168,78781,1,0,0:0:0:0:
188,108,78784,1,0,0:0:0:0:
248,108,78788,1,0,0:0:0:0:
300,112,78792,1,0,0:0:0:0:
356,116,78796,1,0,0:0:0:0:
356,216,78799,1,0,0:0:0:0:
200,220,78803,1,0,0:0:0:0:
276,216,78807,1,0,0:0:0:0:
336,84,79449,1,0,0:0:0:0:
280,92,79852,1,0,0:0:0:0:
228,92,80213,1,0,0:0:0:0:
160,104,80603,1,0,0:0:0:0:
160,104,80776,1,0,0:0:0:0:
132,108,80948,1,0,0:0:0:0:
88,128,81323,1,0,0:0:0:0:
56,176,81644,1,0,0:0:0:0:
40,264,81991,1,0,0:0:0:0:
48,272,82170,1,0,0:0:0:0:
72,296,82348,1,0,0:0:0:0:
264,320,82726,1,0,0:0:0:0:
316,316,83077,1,0,0:0:0:0:
360,288,83436,1,0,0:0:0:0:
368,216,83776,1,0,0:0:0:0:
372,176,84124,1,0,0:0:0:0:
372,160,84307,1,0,0:0:0:0:
368,132,84491,1,0,0:0:0:0:
364,76,84814,1,0,0:0:0:0:
240,36,85154,1,0,0:0:0:0:
196,44,85509,1,0,0:0:0:0:
144,48,85865,1,0,0:0:0:0:
96,72,86235,1,0,0:0:0:0:
80,84,86409,1,0,0:0:0:0:
60,104,86581,1,0,0:0:0:0:
28,164,86905,1,0,0:0:0:0:
40,236,87239,1,0,0:0:0:0:
112,312,87578,1,0,0:0:0:0:
124,320,87738,1,0,0:0:0:0:
160,336,87927,1,0,0:0:0:0:
248,316,88316,1,0,0:0:0:0:
320,316,88677,1,0,0:0:0:0:
376,292,89015,1,0,0:0:0:0:
392,216,89411,1,0,0:0:0:0:
396,152,89949,1,0,0:0:0:0:
384,128,90091,1,0,0:0:0:0:
348,88,90263,1,0,0:0:0:0:
256,32,90753,1,0,0:0:0:0:
192,44,91142,1,0,0:0:0:0:
136,64,91512,1,0,0:0:0:0:
92,136,91861,1,0,0:0:0:0:
80,152,92036,1,0,0:0:0:0:
68,176,92224,1,0,0:0:0:0:
48,244,92577,1,0,0:0:0:0:
100,304,92937,1,0,0:0:0:0:
224,324,93276,1,0,0:0:0:0:
232,324,93419,1,0,0:0:0:0:
288,324,93582,1,0,0:0:0:0:
348,296,93989,1,0,0:0:0:0:
376,240,94294,1,0,0:0:0:0:
368,180,94652,1,0,0:0:0:0:
344,136,95006,1,0,0:0:0:0:
328,112,95361,1,0,0:0:0:0:
296,96,95733,1,0,0:0:0:0:
244,96,96074,1,0,0:0:0:0:
208,96,96477,1,0,0:0:0:0:
176,92,96831,1,0,0:0:0:0:
140,96,97173,1,0,0:0:0:0:
120,100,97493,1,0,0:0:0:0:
112,104,97651,1,0,0:0:0:0:
80,120,97866,1,0,0:0:0:0:
56,148,98196,1,0,0:0:0:0:
48,196,98587,1,0,0:0:0:0:
48,232,98909,1,0,0:0:0:0:
48,240,99107,1,0,0:0:0:0:
56,276,99303,1,0,0:0:0:0:
104,304,99641,1,0,0:0:0:0:
152,320,99999,1,0,0:0:0:0:
240,312,100766,1,0,0:0:0:0:
292,296,101501,1,0,0:0:0:0:
308,204,102283,1,0,0:0:0:0:
300,188,102708,1,0,0:0:0:0:
300,180,103096,1,0,0:0:0:0:
292,160,103247,1,0,0:0:0:0:
296,144,103420,1,0,0:0:0:0:
296,108,103585,1,0,0:0:0:0:
304,84,103948,1,0,0:0:0:0:
304,84,104105,1,0,0:0:0:0:
344,88,104415,1,0,0:0:0:0:
356,96,104572,1,0,0:0:0:0:
380,128,104923,1,0,0:0:0:0:
376,144,105110,1,0,0:0:0:0:
376,168,105276,1,0,0:0:0:0:
376,192,105470,1,0,0:0:0:0:
376,224,105852,1,0,0:0:0:0:
376,224,106025,1,0,0:0:0:0:
196,208,106494,1,0,0:0:0:0:
192,176,106852,1,0,0:0:0:0:
184,156,107022,1,0,0:0:0:0:
176,128,107207,1,0,0:0:0:0:
156,88,107415,1,0,0:0:0:0:
136,80,107758,1,0,0:0:0:0:
116,80,108130,1,0,0:0:0:0:
104,88,108305,1,0,0:0:0:0:
96,108,108485,1,0,0:0:0:0:
92,136,108658,1,0,0:0:0:0:
88,180,108856,1,0,0:0:0:0:
96,216,109236,1,0,0:0:0:0:
112,256,109552,1,0,0:0:0:0:
120,264,109736,1,0,0:0:0:0:
152,288,109913,1,0,0:0:0:0:
152,288,110121,1,0,0:0:0:0:
180,296,110287,1,0,0:0:0:0:
296,296,110635,1,0,0:0:0:0:
280,136,111108,1,0,0:0:0:0:
252,292,111672,1,0,0:0:0:0:
252,104,112025,1,0,0:0:0:0:
256,264,112595,1,0,0:0:0:0:
252,160,113069,1,0,0:0:0:0:
148,112,113449,1,0,0:0:0:0:
112,128,114199,1,0,0:0:0:0:
92,184,114856,1,0,0:0:0:0:
108,232,115552,1,0,0:0:0:0:
140,256,116232,1,0,0:0:0:0:
336,256,116884,1,0,0:0:0:0:
372,224,117359,1,0,0:0:0:0:
372,224,117509,1,0,0:0:0:0:
384,168,118202,1,0,0:0:0:0:
376,84,118899,1,0,0:0:0:0:
328,76,119573,1,0,0:0:0:0:
292,136,120012,1,0,0:0:0:0:
228,160,120352,1,0,0:0:0:0:
176,108,121024,1,0,0:0:0:0:
144,72,121594,1,0,0:0:0:0:
100,72,121893,1,0,0:0:0:0:
96,176,122505,1,0,0:0:0:0:
136,244,122946,1,0,0:0:0:0:
180,280,123269,1,0,0:0:0:0:
92,312,123947,1,0,0:0:0:0:
128,292,124469,1,0,0:0:0:0:
144,268,124755,1,0,0:0:0:0:
160,232,125329,1,0,0:0:0:0:
176,196,125807,1,0,0:0:0:0:
184,176,126108,1,0,0:0:0:0:
208,140,126674,1,0,0:0:0:0:
220,104,127155,1,0,0:0:0:0:
244,80,127482,1,0,0:0:0:0:
264,56,128081,1,0,0:0:0:0:
284,72,128558,1,0,0:0:0:0:
296,112,128895,1,0,0:0:0:0:
304,156,129502,1,0,0:0:0:0:
316,188,130002,1,0,0:0:0:0:
328,208,130348,1,0,0:0:0:0:
336,232,130995,1,0,0:0:0:0:
348,252,131502,1,0,0:0:0:0:
360,260,131833,1,0,0:0:0:0:
368,272,132466,1,0,0:0:0:0:
384,288,132932,1,0,0:0:0:0:
388,292,133254,1,0,0:0:0:0:
396,292,133867,1,0,0:0:0:0:
200,216,134375,1,0,0:0:0:0:
232,196,135141,1,0,0:0:0:0:
220,84,135885,1,0,0:0:0:0:
224,84,136337,1,0,0:0:0:0:
224,84,136641,1,0,0:0:0:0:
224,84,137085,1,0,0:0:0:0:
236,84,137428,1,0,0:0:0:0:
272,96,137589,1,0,0:0:0:0:
284,104,137767,1,0,0:0:0:0:
316,124,138059,1,0,0:0:0:0:
308,128,138436,1,0,0:0:0:0:
128,204,138809,1,0,0:0:0:0:
136,224,138989,1,0,0:0:0:0:
176,280,139148,1,0,0:0:0:0:
212,292,139520,1,0,0:0:0:0:
264,296,139860,1,0,0:0:0:0:
160,128,140269,1,0,0:0:0:0:
184,116,140428,1,0,0:0:0:0:
224,116,140587,1,0,0:0:0:0:
240,120,140760,1,0,0:0:0:0:
296,136,140959,1,0,0:0:0:0:
320,140,141276,1,0,0:0:0:0:
480,64,141621,1,0,0:0:0:0:
472,108,141787,1,0,0:0:0:0:
476,176,141963,1,0,0:0:0:0:
476,200,142140,1,0,0:0:0:0:
476,256,142333,1,0,0:0:0:0:
468,292,142651,1,0,0:0:0:0:
16,24,143036,1,0,0:0:0:0:
24,72,143209,1,0,0:0:0:0:
24,96,143357,1,0,0:0:0:0:
24,140,143536,1,0,0:0:0:0:
24,188,143724,1,0,0:0:0:0:
24,240,144077,1,0,0:0:0:0:
144,168,144459,1,0,0:0:0:0:
156,156,144639,1,0,0:0:0:0:
200,148,144830,1,0,0:0:0:0:
240,152,145020,1,0,0:0:0:0:
304,156,145207,1,0,0:0:0:0:
344,168,145511,1,0,0:0:0:0:
372,256,145887,1,0,0:0:0:0:
344,268,146102,1,0,0:0:0:0:
256,284,146290,1,0,0:0:0:0:
176,288,146501,1,0,0:0:0:0:
144,284,146696,1,0,0:0:0:0:
96,184,147341,1,0,0:0:0:0:
96,184,147521,1,0,0:0:0:0:
120,160,147670,1,0,0:0:0:0:
144,144,147845,1,0,0:0:0:0:
196,124,148036,1,0,0:0:0:0:
216,108,148313,1,0,0:0:0:0:
312,68,148687,1,0,0:0:0:0:
352,88,148850,1,0,0:0:0:0:
388,124,149018,1,0,0:0:0:0:
400,144,149199,1,0,0:0:0:0:
408,192,149381,1,0,0:0:0:0:
404,224,149726,1,0,0:0:0:0:
364,280,150067,1,0,0:0:0:0:
340,296,150223,1,0,0:0:0:0:
280,308,150405,1,0,0:0:0:0:
212,292,150621,1,0,0:0:0:0:
136,252,150809,1,0,0:0:0:0:
104,216,151086,1,0,0:0:0:0:
92,156,151451,1,0,0:0:0:0:
100,108,151950,1,0,0:0:0:0:
112,100,152101,1,0,0:0:0:0:
136,88,152271,1,0,0:0:0:0:
168,76,152462,1,0,0:0:0:0:
192,68,152650,1,0,0:0:0:0:
248,40,152919,1,0,0:0:0:0:
252,52,153078,1,0,0:0:0:0:
272,60,153204,1,0,0:0:0:0:
288,88,153381,1,0,0:0:0:0:
320,116,153543,1,0,0:0:0:0:
320,124,153741,1,0,0:0:0:0:
304,176,153985,1,0,0:0:0:0:
296,216,154151,1,0,0:0:0:0:
260,228,154352,1,0,0:0:0:0:
236,212,154516,1,0,0:0:0:0:
228,180,154722,1,0,0:0:0:0:
252,172,154889,1,0,0:0:0:0:
248,208,155062,1,0,0:0:0:0:
248,208,155241,1,0,0:0:0:0:
100,188,155826,1,0,0:0:0:0:
104,172,156072,1,0,0:0:0:0:
76,84,156310,1,0,0:0:0:0:
76,84,156507,1,0,0:0:0:0:
112,248,156696,1,0,0:0:0:0:
80,292,156902,1,0,0:0:0:0:
76,264,157109,1,0,0:0:0:0:
92,136,157285,1,0,0:0:0:0:
96,116,157469,1,0,0:0:0:0:
96,224,157656,1,0,0:0:0:0:
444,64,157975,1,0,0:0:0:0:
436,136,158292,1,0,0:0:0:0:
432,208,158585,1,0,0:0:0:0:
440,296,158909,1,0,0:0:0:0:
416,240,159248,1,0,0:0:0:0:
420,132,159559,1,0,0:0:0:0:
44,60,159945,1,0,0:0:0:0:
32,80,160282,1,0,0:0:0:0:
16,260,160631,1,0,0:0:0:0:
24,292,161003,1,0,0:0:0:0:
176,308,161417,1,0,0:0:0:0:
296,320,161736,1,0,0:0:0:0:
152,296,162117,1,0,0:0:0:0:
276,312,162448,1,0,0:0:0:0:
160,88,162787,1,0,0:0:0:0:
280,88,163111,1,0,0:0:0:0:
152,68,163509,1,0,0:0:0:0:
252,72,163840,1,0,0:0:0:0:
408,64,164210,1,0,0:0:0:0:
436,244,164575,1,0,0:0:0:0:
424,296,164858,1,0,0:0:0:0:
432,184,165245,1,0,0:0:0:0:
416,96,165588,1,0,0:0:0:0:
364,88,165966,1,0,0:0:0:0:
212,88,166331,1,0,0:0:0:0:
160,92,166699,1,0,0:0:0:0:
264,92,167047,1,0,0:0:0:0:
176,92,167404,1,0,0:0:0:0:
80,88,167775,1,0,0:0:0:0:
64,160,168098,1,0,0:0:0:0:
60,244,168469,1,0,0:0:0:0:
72,344,168817,1,0,0:0:0:0:
156,336,169175,1,0,0:0:0:0:
192,332,169495,1,0,0:0:0:0:
256,332,169856,1,0,0:0:0:0:
320,332,170200,1,0,0:0:0:0:
372,320,170586,1,0,0:0:0:0:
412,308,170916,1,0,0:0:0:0:
428,296,171117,1,0,0:0:0:0:
428,280,171290,1,0,0:0:0:0:
432,244,171615,1,0,0:0:0:0:
436,212,171953,1,0,0:0:0:0:
436,168,172292,1,0,0:0:0:0:
440,152,172483,1,0,0:0:0:0:
436,108,172672,1,0,0:0:0:0:
396,48,172996,1,0,0:0:0:0:
380,44,173383,1,0,0:0:0:0:
336,48,173718,1,0,0:0:0:0:
280,48,174064,1,0,0:0:0:0:
256,52,174446,1,0,0:0:0:0:
264,172,174783,1,0,0:0:0:0:
260,264,175161,1,0,0:0:0:0:
244,336,175526,1,0,0:0:0:0:
240,296,175841,1,0,0:0:0:0:
240,224,176207,1,0,0:0:0:0:
240,160,176536,1,0,0:0:0:0:
244,144,176736,1,0,0:0:0:0:
248,120,176923,1,0,0:0:0:0:
248,56,177255,1,0,0:0:0:0:
180,56,177610,1,0,0:0:0:0:
160,76,177942,1,0,0:0:0:0:
160,124,178159,1,0,0:0:0:0:
160,172,178352,1,0,0:0:0:0:
184,264,178692,1,0,0:0:0:0:
176,316,179066,1,0,0:0:0:0:
360,352,179421,1,0,0:0:0:0:
368,336,179713,1,0,0:0:0:0:
364,296,180037,1,0,0:0:0:0:
364,256,180330,1,0,0:0:0:0:
364,220,180676,1,0,0:0:0:0:
364,164,181049,1,0,0:0:0:0:
364,164,181343,1,0,0:0:0:0:
364,164,181743,1,0,0:0:0:0:
360,144,182098,1,0,0:0:0:0:
356,120,182540,1,0,0:0:0:0:
296,108,182876,1,0,0:0:0:0:
288,108,183108,1,0,0:0:0:0:
288,108,183240,1,0,0:0:0:0:
264,116,183520,1,0,0:0:0:0:
264,116,183706,1,0,0:0:0:0:
264,116,183885,1,0,0:0:0:0:
248,116,184183,1,0,0:0:0:0:
232,120,184500,1,0,0:0:0:0:
224,124,184770,1,0,0:0:0:0:
220,128,185095,1,0,0:0:0:0:
212,136,185396,1,0,0:0:0:0:
208,152,185719,1,0,0:0:0:0:
204,180,186035,1,0,0:0:0:0:
208,204,186391,1,0,0:0:0:0:
220,220,186680,1,0,0:0:0:0:
248,232,187021,1,0,0:0:0:0:
264,236,187383,1,0,0:0:0:0:
276,228,187755,1,0,0:0:0:0:
296,216,188194,1,0,0:0:0:0:
304,200,188513,1,0,0:0:0:0:
304,180,188895,1,0,0:0:0:0:
304,172,189256,1,0,0:0:0:0:
292,160,189653,1,0,0:0:0:0:
284,144,190017,1,0,0:0:0:0:
284,144,190339,1,0,0:0:0:0:
268,140,190703,1,0,0:0:0:0:
148,116,191059,1,0,0:0:0:0:
128,204,191438,1,0,0:0:0:0:
152,296,191792,1,0,0:0:0:0:
180,312,192121,1,0,0:0:0:0:
388,348,192496,1,0,0:0:0:0:
408,216,192860,1,0,0:0:0:0:
80,300,193207,1,0,0:0:0:0:
348,308,193572,1,0,0:0:0:0:
148,80,193936,1,0,0:0:0:0:
200,328,194362,1,0,0:0:0:0:
328,128,194733,1,0,0:0:0:0:
92,176,195119,1,0,0:0:0:0:
404,280,195476,1,0,0:0:0:0:
312,132,195840,1,0,0:0:0:0:
252,284,196233,1,0,0:0:0:0:
176,140,196612,1,0,0:0:0:0:
380,312,196963,1,0,0:0:0:0:
208,308,197332,1,0,0:0:0:0:
316,172,197721,1,0,0:0:0:0:
124,264,198075,1,0,0:0:0:0:
372,336,198426,1,0,0:0:0:0:
288,172,198810,1,0,0:0:0:0:
220,268,199151,1,0,0:0:0:0:
104,248,199365,1,0,0:0:0:0:
104,200,199880,1,0,0:0:0:0:
216,136,200232,1,0,0:0:0:0:
296,264,200579,1,0,0:0:0:0:
408,296,200841,1,0,0:0:0:0:
404,208,201228,1,0,0:0:0:0:
404,208,201419,1,0,0:0:0:0:
324,84,202135,1,0,0:0:0:0:
