osu file format v14

[General]
AudioFilename: audio.mp3
AudioLeadIn: 0
PreviewTime: 200089
Countdown: 0
SampleSet: Normal
StackLeniency: 0.7
Mode: 0
LetterboxInBreaks: 0
EpilepsyWarning: 1
WidescreenStoryboard: 1

[Editor]
Bookmarks: 25804,48661,71518,94375,117232,128661,142947,148661,160089,165804,171518,182947,200089,234375,245804,257232,262947,274375,279732,285804,297232,305804,308651,311508,314365,317222,320079,322937,325794
DistanceSpacing: 1
BeatDivisor: 3
GridSize: 4
TimelineZoom: 2.050002

[Metadata]
Title:The Place (Au5 Remix)
TitleUnicode:The Place (Au5 Remix)
Artist:Xilent ft. Sue Gerger
ArtistUnicode:Xilent ft. Sue Gerger
Creator:Vannyha
Version:Silent place
Source:
Tags:Drumstep electro vocal instrumental Респект тем кто читает тэги
BeatmapID:1041848
BeatmapSetID:488704

[Difficulty]
HPDrainRate:7
CircleSize:4
OverallDifficulty:7
ApproachRate:9.2
SliderMultiplier:1
SliderTickRate:1

[Events]
//Background and Video events
0,0,"backgroung.png",0,0
//Break Periods
2,71708,76652
2,77422,82367
2,117422,125224
2,234565,242367
//Storyboard Layer 0 (Background)
//Storyboard Layer 1 (Fail)
//Storyboard Layer 2 (Pass)
//Storyboard Layer 3 (Foreground)
//Storyboard Sound Samples

[TimingPoints]
80,357.142857142857,4,1,0,20,1,0
2401,-133.333333333333,4,2,0,10,0,0
2490,-133.333333333333,4,2,0,15,0,0
2579,-133.333333333333,4,2,0,20,0,0
2669,-133.333333333333,4,2,0,25,0,0
2758,-133.333333333333,4,2,0,30,0,0
2847,-133.333333333333,4,2,0,35,0,0
2937,-133.333333333333,4,3,0,40,0,0
3294,-133.333333333333,4,3,0,5,0,0
14544,-100,4,2,0,20,0,0
71151,-50,4,2,0,20,0,0
82937,-100,4,2,0,20,0,0
137222,-50,4,2,0,20,0,0
138294,-200,4,2,0,20,0,0
142222,-50,4,2,0,20,0,0
142937,-133.333333333333,4,3,0,70,0,1
143651,-66.6666666666667,4,3,0,70,0,1
145794,-50,4,3,0,70,0,1
146508,-200,4,3,0,70,0,1
147222,-50,4,3,0,70,0,1
147937,-200,4,3,0,70,0,1
148651,-50,4,3,0,70,0,1
149187,-66.6666666666667,4,3,0,70,0,1
151508,-100,4,1,0,20,0,0
153651,-50,4,1,0,20,0,0
154365,-133.333333333333,4,1,0,20,0,1
154901,-66.6666666666667,4,1,0,20,0,1
160079,-50,4,1,0,20,0,1
160794,-133.333333333333,4,1,0,20,0,1
161508,-66.6666666666667,4,1,0,20,0,1
164187,-50,4,1,0,20,0,1
165258,-50,4,1,0,20,0,1
165794,-133.333333333333,4,1,0,20,0,1
166508,-50,4,1,0,20,0,1
168651,-66.6666666666667,4,1,0,20,0,1
171508,-50,4,1,0,20,0,1
172222,-133.333333333333,4,1,0,20,0,1
172758,-66.6666666666667,4,1,0,20,0,1
174365,-100,4,1,0,20,0,0
176329,-50,4,1,0,20,0,0
177222,-133.333333333333,4,1,0,20,0,1
177758,-66.6666666666667,4,1,0,20,0,1
182937,-50,4,1,0,20,0,1
183651,-133.333333333333,4,1,0,20,0,1
184187,-66.6666666666667,4,1,0,20,0,1
187044,-50,4,1,0,20,0,1
188651,-100,4,1,0,20,0,0
209544,-50,4,1,0,20,0,0
211508,-100,4,1,0,20,0,0
229544,-50,4,1,0,20,0,0
230079,-100,4,1,0,20,0,0
232401,-50,4,1,0,20,0,0
242937,-100,4,1,0,20,0,0
257222,-50,4,1,0,20,0,1
257937,-133.333333333333,4,1,0,20,0,1
262937,-50,4,1,0,20,0,1
265794,-100,4,1,0,20,0,0
267937,-50,4,1,0,20,0,0
268651,-133.333333333333,4,1,0,20,0,1
269365,-50,4,1,0,20,0,1
275079,-133.333333333333,4,1,0,20,0,1
275794,-50,4,1,0,20,0,1
278532,-50,4,1,0,20,0,1
280794,-133.333333333333,4,1,0,20,0,1
282937,-50,4,1,0,20,0,1
285794,-50,4,1,0,20,0,1
286508,-133.333333333333,4,1,0,20,0,1
287222,-50,4,1,0,20,0,1
288651,-100,4,1,0,20,0,0
290794,-50,4,1,0,20,0,0
291508,-133.333333333333,4,1,0,20,0,1
292222,-50,4,1,0,20,0,1
297937,-133.333333333333,4,1,0,20,0,1
298651,-50,4,1,0,20,0,1
300079,-50,4,1,0,20,0,0
305794,-166.666666666667,4,1,0,20,0,0

[HitObjects]
140,60,2401,5,0,0:0:0:0:
129,78,2460,1,0,0:0:0:0:
120,97,2520,1,0,0:0:0:0:
114,117,2579,1,0,0:0:0:0:
109,138,2639,1,0,0:0:0:0:
106,159,2699,1,0,0:0:0:0:
106,180,2758,1,0,0:0:0:0:
108,201,2818,1,0,0:0:0:0:
112,222,2877,1,0,0:0:0:0:
116,244,2937,6,0,B|196:388|320:388|412:276|304:208|336:112|360:84|392:84|460:152|392:156,1,525.000020027161
267,51,5794,2,0,P|151:188|232:28,1,525.000020027161
433,241,8651,6,0,B|269:236|141:316|141:316|169:220|133:96,1,525.000020027161
84,64,11508,6,0,B|136:40|220:104|220:104|280:36|480:16|452:216|416:240|320:252|276:208|308:144,1,600.000022888184
248,228,14544,2,0,P|276:264|292:272,1,50
212,340,14901,1,0,0:0:0:0:
92,288,15258,5,0,0:0:0:0:
92,288,15437,2,0,L|116:336,1,50
112,276,15972,2,0,L|136:324,1,50
136,268,16508,2,0,L|160:316,1,50
304,248,17222,5,0,0:0:0:0:
264,156,17401,2,0,P|236:120|220:112,1,50
300,44,17758,1,0,0:0:0:0:
420,96,18115,5,0,0:0:0:0:
420,96,18294,2,0,L|396:48,1,50
400,108,18829,2,0,L|376:60,1,50
376,116,19365,2,0,L|352:68,1,50
256,40,19722,1,0,0:0:0:0:
84,144,19901,1,0,0:0:0:0:
160,204,20079,5,0,0:0:0:0:
204,268,20258,1,0,0:0:0:0:
276,268,20437,1,0,0:0:0:0:
316,208,20615,2,0,B|328:184|328:184|352:176|352:176|376:128,1,100
376,60,21151,2,0,L|325:43,1,50
312,72,21687,2,0,L|261:55,1,50
248,84,22222,2,0,L|197:67,1,50
264,284,22937,5,0,0:0:0:0:
196,264,23115,1,0,0:0:0:0:
128,240,23294,1,0,0:0:0:0:
144,172,23472,2,0,P|196:176|256:164,1,100
368,116,24008,5,0,0:0:0:0:
368,116,24187,1,0,0:0:0:0:
424,280,24544,1,0,0:0:0:0:
424,280,24722,1,0,0:0:0:0:
300,156,25079,1,0,0:0:0:0:
448,48,25437,1,0,0:0:0:0:
447,75,25496,1,0,0:0:0:0:
443,102,25556,1,0,0:0:0:0:
433,128,25615,1,0,0:0:0:0:
419,152,25675,1,0,0:0:0:0:
402,174,25734,1,0,0:0:0:0:
372,200,25794,6,0,B|292:272|220:188|220:188|100:244,1,300
104,92,27222,2,0,B|144:108|188:48|188:48|212:136|212:136|256:72|312:92,1,300
444,48,28651,2,0,B|420:132|396:132|396:132|456:188|392:252|384:196|384:196|316:180,1,300
244,168,29901,1,0,0:0:0:0:
128,72,30258,5,0,0:0:0:0:
180,124,30437,1,0,0:0:0:0:
244,168,30615,2,0,P|192:204|188:256,1,100
468,288,31508,6,0,B|468:204|504:152|504:152|424:152|424:152|312:124|304:48,1,375
292,192,33115,1,0,0:0:0:0:
256,124,33294,1,0,0:0:0:0:
212,64,33472,2,0,L|104:64,1,100
300,108,34187,6,0,P|404:68|308:160,1,350
268,228,35615,2,0,P|348:252|420:248,1,150
413,322,36329,2,0,P|338:323|272:304,1,125
256,292,36865,1,0,0:0:0:0:
184,188,37044,1,0,0:0:0:0:
284,112,37222,6,0,B|208:52|92:48|92:48|160:124,1,300
316,228,38651,2,0,B|350:143|350:143|252:212|232:312,1,300
428,304,40079,2,0,B|335:323|335:323|444:260|487:188,1,300
440,100,41329,2,0,P|412:100|384:88,1,50
296,64,41687,1,0,0:0:0:0:
196,72,41865,1,0,0:0:0:0:
100,100,42044,2,0,P|72:128|60:176,1,75
56,184,42401,1,0,0:0:0:0:
116,248,42579,1,0,0:0:0:0:
212,240,42758,5,0,0:0:0:0:
212,240,42937,2,0,L|312:240,1,100
396,196,43472,1,0,0:0:0:0:
312,164,43651,2,0,L|212:164,1,100
136,212,44187,1,0,0:0:0:0:
120,102,44365,2,0,L|80:132,1,50
212,60,44722,1,0,0:0:0:0:
312,64,44901,6,0,L|412:120,1,100
404,212,45437,1,0,0:0:0:0:
460,128,45615,1,0,0:0:0:0:
364,104,45794,6,0,P|332:124|316:144,1,50
284,40,46151,2,0,P|248:88|244:96,1,50
284,176,46508,2,0,P|240:208|236:220,1,50
156,156,46865,2,0,P|128:188|120:212,1,50
180,276,47222,1,0,0:0:0:0:
260,212,47401,1,0,0:0:0:0:
264,312,47579,2,0,P|316:280|320:276,1,50
372,208,47937,2,0,P|408:152|408:132,1,75
412,120,48294,1,0,0:0:0:0:
500,164,48472,1,0,0:0:0:0:
284,180,48651,6,0,P|296:116|276:80,1,100
160,60,49187,1,0,0:0:0:0:
96,168,49365,1,0,0:0:0:0:
220,160,49544,1,0,0:0:0:0:
148,260,49722,1,0,0:0:0:0:
268,220,49901,2,0,P|232:264|208:320,1,100
340,292,50437,1,0,0:0:0:0:
460,256,50615,2,0,P|424:300|400:356,1,100
492,344,51151,1,0,0:0:0:0:
376,188,51329,6,0,P|428:152|452:100,1,100
220,108,51865,1,0,0:0:0:0:
216,232,52044,1,0,0:0:0:0:
340,32,52222,1,0,0:0:0:0:
156,68,52490,5,0,0:0:0:0:
156,68,52579,2,0,P|88:132|64:144,1,100
172,192,53204,5,0,0:0:0:0:
172,192,53294,2,0,P|148:264|152:308,1,100
300,136,53919,5,0,0:0:0:0:
300,136,54008,2,0,L|316:180,1,25
328,176,54187,2,0,L|328:236,1,50
452,176,54544,1,0,0:0:0:0:
388,68,54722,1,0,0:0:0:0:
264,52,54901,2,0,L|200:56,1,50
312,132,55258,2,0,L|252:136,1,50
324,244,55615,1,0,0:0:0:0:
212,192,55794,6,0,L|148:192,2,50
88,196,56329,1,0,0:0:0:0:
168,292,56508,2,0,L|188:352,2,50
292,304,57044,1,0,0:0:0:0:
416,192,57222,2,0,P|424:160|416:128,1,50
332,56,57579,2,0,P|316:96|320:120,1,50
200,148,57937,2,0,P|160:136|144:136,1,50
80,240,58294,6,0,P|124:248|144:244,1,50
252,216,58651,2,0,L|248:272,1,50
304,300,58919,1,0,0:0:0:0:
304,300,59008,2,0,L|340:268,1,25
336,264,59187,2,0,L|364:212,1,50
444,168,59544,1,0,0:0:0:0:
464,152,59633,1,0,0:0:0:0:
476,132,59722,1,0,0:0:0:0:
428,116,59812,6,0,L|344:100,1,75
232,128,60258,1,0,0:0:0:0:
140,212,60437,1,0,0:0:0:0:
232,296,60615,1,0,0:0:0:0:
316,204,60794,1,0,0:0:0:0:
180,256,60972,1,0,0:0:0:0:
284,160,61151,1,0,0:0:0:0:
124,56,61329,6,0,P|88:112|76:164,1,100
80,268,61865,1,0,0:0:0:0:
80,268,62044,2,0,L|136:184,1,100
244,124,62579,1,0,0:0:0:0:
244,124,62758,2,0,L|204:232,1,100
148,328,63294,5,0,0:0:0:0:
272,316,63472,1,0,0:0:0:0:
360,228,63651,1,0,0:0:0:0:
432,328,63829,1,0,0:0:0:0:
360,224,64008,1,0,0:0:0:0:
360,228,64187,2,0,P|356:160|336:128,1,100
220,104,64722,1,0,0:0:0:0:
220,104,64901,2,0,P|180:48|180:12,1,100
252,184,65437,1,0,0:0:0:0:
252,184,65615,6,0,L|240:292,1,100
356,336,66151,1,0,0:0:0:0:
164,328,66329,1,0,0:0:0:0:
356,336,66508,1,0,0:0:0:0:
188,216,66687,1,0,0:0:0:0:
340,152,66865,1,0,0:0:0:0:
340,152,67044,6,0,P|416:180|452:172,1,100
368,72,67579,1,0,0:0:0:0:
368,72,67758,2,0,P|428:32|460:32,1,100
448,112,68294,1,0,0:0:0:0:
276,124,68472,6,0,L|160:124,1,100
56,164,69008,1,0,0:0:0:0:
160,232,69187,1,0,0:0:0:0:
176,44,69365,1,0,0:0:0:0:
268,192,69544,1,0,0:0:0:0:
80,80,69722,1,0,0:0:0:0:
80,80,69901,6,0,L|52:184,1,100
112,288,70437,1,0,0:0:0:0:
112,288,70526,1,0,0:0:0:0:
296,304,70704,1,0,0:0:0:0:
384,156,70883,1,0,0:0:0:0:
384,156,70972,1,0,0:0:0:0:
216,48,71151,2,0,P|180:32|212:88,1,150
256,192,71508,5,0,0:0:0:0:
104,296,77222,5,0,0:0:0:0:
108,56,82937,6,0,P|148:40|176:40,1,50
280,40,83294,1,0,0:0:0:0:
380,112,83472,2,0,P|396:172|356:204,1,100
204,172,84187,1,0,0:0:0:0:
92,116,84365,2,0,P|64:192|64:224,1,100
84,332,84901,1,0,0:0:0:0:
152,228,85079,2,0,P|172:300|192:328,1,100
280,240,85615,1,0,0:0:0:0:
220,128,85794,6,0,P|296:60|408:72,2,200
72,208,87401,1,0,0:0:0:0:
88,308,87579,1,0,0:0:0:0:
208,204,87758,1,0,0:0:0:0:
392,44,88115,1,0,0:0:0:0:
420,216,88294,1,0,0:0:0:0:
172,44,88472,1,0,0:0:0:0:
324,288,88651,1,0,0:0:0:0:
324,288,88829,6,0,P|236:284|168:252,1,150
116,60,89722,1,0,0:0:0:0:
116,60,89901,2,0,P|184:40|232:40,1,100
220,140,90437,1,0,0:0:0:0:
376,288,90615,1,0,0:0:0:0:
376,288,90972,6,0,P|308:268|292:268,1,75
232,232,91419,2,0,B|208:296|144:276|144:276|152:236|140:232,2,150
136,112,92579,6,0,L|168:148,1,25
320,316,92758,1,0,0:0:0:0:
84,324,93026,2,0,L|108:296,1,25
140,120,93294,1,0,0:0:0:0:
328,328,93472,1,0,0:0:0:0:
416,84,93740,2,0,L|396:120,1,25
328,328,94008,1,0,0:0:0:0:
140,120,94187,1,0,0:0:0:0:
256,48,94365,6,0,P|316:104|352:160,1,150
228,80,95437,2,0,P|288:136|324:192,1,150
128,284,96329,2,0,P|96:232|56:200,1,100
116,32,97044,2,0,B|180:108|104:72|264:40|264:40|400:40|472:104|472:104|320:88|228:168,1,650
300,288,99544,1,0,0:0:0:0:
300,288,99901,6,0,P|300:216|324:180,1,100
396,156,100526,2,0,P|308:108|252:116,1,150
172,124,101151,2,0,P|196:176|200:232,1,100
196,308,101687,1,0,0:0:0:0:
56,236,102044,1,0,0:0:0:0:
144,80,102401,1,0,0:0:0:0:
200,268,102758,2,0,P|420:200|344:296,1,650
136,44,105794,6,0,P|112:116|132:208,1,150
196,40,106776,2,0,P|160:92|132:208,1,175
264,320,107758,1,0,0:0:0:0:
412,220,108115,1,0,0:0:0:0:
208,80,108472,2,0,B|156:40|96:92|76:148|144:228|204:184|204:184|352:316|352:316|276:332|276:332|180:248,1,650
288,268,110972,1,0,0:0:0:0:
288,268,111329,6,0,P|352:216|384:136,1,150
392,64,112044,2,0,P|320:88|280:88,1,100
248,292,112490,2,0,P|192:216|176:160,1,150
172,128,113115,1,0,0:0:0:0:
344,100,113472,1,0,0:0:0:0:
380,276,113829,1,0,0:0:0:0:
256,192,114187,12,0,117133,0:0:0:0:
256,192,117222,5,0,0:0:0:0:
256,192,125794,12,0,126865,0:0:0:0:
272,284,127044,5,0,0:0:0:0:
272,284,127103,1,0,0:0:0:0:
272,284,127163,1,0,0:0:0:0:
272,284,127222,2,0,L|252:224,1,50
188,68,127758,1,0,0:0:0:0:
280,40,128234,1,0,0:0:0:0:
280,40,128294,1,0,0:0:0:0:
436,288,128472,1,0,0:0:0:0:
244,196,128651,5,0,0:0:0:0:
192,336,129365,1,0,0:0:0:0:
51,285,130079,1,0,0:0:0:0:
103,144,130794,1,0,0:0:0:0:
192,336,130972,1,0,0:0:0:0:
340,36,131508,5,0,0:0:0:0:
481,83,132222,1,0,0:0:0:0:
435,225,132937,1,0,0:0:0:0:
292,178,133651,1,0,0:0:0:0:
481,83,133829,1,0,0:0:0:0:
16,72,134187,5,0,0:0:0:0:
32,80,134246,1,0,0:0:0:0:
48,96,134306,1,0,0:0:0:0:
56,116,134365,1,0,0:0:0:0:
52,136,134544,2,0,P|56:224|60:252,1,100
64,312,135258,1,0,0:0:0:0:
64,312,135437,1,0,0:0:0:0:
432,268,135675,5,0,0:0:0:0:
432,268,135794,1,0,0:0:0:0:
460,256,135972,2,0,P|456:169|451:141,1,100
447,72,136687,1,0,0:0:0:0:
447,72,136865,1,0,0:0:0:0:
152,276,137222,6,0,P|216:284|256:276,1,100
360,108,137579,2,0,P|310:99|261:106,1,100
339,296,137937,2,0,P|348:246|341:197,1,100
172,87,138294,2,0,L|172:116,1,25
339,275,138651,5,0,0:0:0:0:
138,191,138829,1,0,0:0:0:0:
256,74,139008,1,0,0:0:0:0:
256,309,139187,1,0,0:0:0:0:
172,108,139365,1,0,0:0:0:0:
172,275,139544,1,0,0:0:0:0:
339,108,139722,2,0,L|356:136,1,25
288,328,140079,5,0,0:0:0:0:
335,312,140258,1,0,0:0:0:0:
383,297,140437,1,0,0:0:0:0:
430,281,140615,1,0,0:0:0:0:
260,220,140794,5,0,0:0:0:0:
204,201,140972,1,0,0:0:0:0:
146,183,141151,1,0,0:0:0:0:
90,164,141329,1,0,0:0:0:0:
260,104,141508,5,0,0:0:0:0:
325,81,141687,1,0,0:0:0:0:
392,60,141865,1,0,0:0:0:0:
458,38,142044,1,0,0:0:0:0:
144,88,142222,6,0,P|72:-4|92:144,1,375
72,68,142937,6,0,B|80:96|80:96|72:124|72:124|80:144|80:144|96:156|84:184,1,112.500004291535
80,272,143651,2,0,P|144:292|304:212,1,225.000008583069
268,128,144365,1,0,0:0:0:0:
208,156,144484,1,0,0:0:0:0:
148,180,144603,1,0,0:0:0:0:
68,240,144722,1,0,0:0:0:0:
127,265,144841,1,0,0:0:0:0:
186,290,144960,1,0,0:0:0:0:
268,332,145079,2,0,B|296:332|360:304|360:304|341:281|341:281|364:256|364:256|360:200|408:176,1,225.000008583069
236,72,145794,6,0,P|176:48|136:40,1,100
20,28,146151,1,0,0:0:0:0:
71,204,146329,1,0,0:0:0:0:
248,104,146508,2,0,L|220:100,1,25
102,312,146865,1,0,0:0:0:0:
304,220,147044,1,0,0:0:0:0:
352,56,147222,6,0,P|381:88|404:144,1,100
436,304,147579,1,0,0:0:0:0:
200,332,147758,1,0,0:0:0:0:
136,162,147937,2,0,L|168:176,1,25
416,228,148294,1,0,0:0:0:0:
416,48,148472,1,0,0:0:0:0:
328,180,148651,6,0,B|344:196|332:204|328:216|328:216|336:236|336:236|336:248|336:248|340:248,1,50
300,196,148829,2,0,B|291:200|303:208|307:220|307:220|299:240|299:240|304:276|268:296,1,100
176,304,149187,1,0,0:0:0:0:
96,200,149365,1,0,0:0:0:0:
148,72,149544,1,0,0:0:0:0:
296,76,149722,1,0,0:0:0:0:
196,196,149901,1,0,0:0:0:0:
380,164,150079,6,0,P|380:216|344:244,1,75.0000028610231
208,328,150437,1,0,0:0:0:0:
192,108,150615,1,0,0:0:0:0:
372,48,150794,2,0,P|396:76|415:108,1,75.0000028610231
400,284,151151,1,0,0:0:0:0:
100,128,151329,1,0,0:0:0:0:
240,264,151508,6,0,L|191:274,1,50
96,304,151865,1,0,0:0:0:0:
336,112,152044,1,0,0:0:0:0:
448,209,152222,2,0,L|394:229,1,50
128,296,152579,1,0,0:0:0:0:
252,340,152758,2,0,P|280:292|284:232,1,100
284,148,153294,1,0,0:0:0:0:
192,248,153651,6,0,P|120:340|140:192,1,375
120,268,154365,6,0,B|140:247|140:247|146:218|146:218|156:200|156:200|184:188|184:188|192:184,1,112.500004291535
244,232,155079,2,0,P|272:224|316:192,1,75.0000028610231
364,148,155437,1,0,0:0:0:0:
408,12,155615,1,0,0:0:0:0:
270,261,155794,6,0,P|294:246|328:200,1,75.0000028610231
364,148,156151,1,0,0:0:0:0:
371,6,156329,1,0,0:0:0:0:
303,282,156508,6,0,P|323:261|344:216,1,75.0000028610231
364,148,156865,1,0,0:0:0:0:
334,10,157044,1,0,0:0:0:0:
216,148,157222,1,0,0:0:0:0:
60,200,157401,6,0,P|74:224|116:260,1,75.0000028610231
173,294,157758,1,0,0:0:0:0:
314,301,157937,1,0,0:0:0:0:
40,233,158115,6,0,P|60:253|108:276,1,75.0000028610231
173,294,158472,1,0,0:0:0:0:
311,264,158651,1,0,0:0:0:0:
29,270,158829,6,0,P|54:284|108:292,1,75.0000028610231
173,294,159187,1,0,0:0:0:0:
300,232,159365,1,0,0:0:0:0:
382,84,159544,1,0,0:0:0:0:
212,85,159722,1,0,0:0:0:0:
212,232,159901,1,0,0:0:0:0:
368,295,160079,6,0,P|490:370|439:236,1,375
439,315,160794,6,0,B|432:288|432:288|432:268|432:268|404:264|404:264|408:248|376:236,1,112.500004291535
256,104,161508,2,0,L|232:196,1,75.0000028610231
200,324,161865,1,0,0:0:0:0:
384,296,162044,1,0,0:0:0:0:
116,200,162222,2,0,L|200:240,1,75.0000028610231
320,296,162579,1,0,0:0:0:0:
296,108,162758,1,0,0:0:0:0:
188,368,162937,6,0,L|232:280,1,75.0000028610231
316,184,163294,1,0,0:0:0:0:
468,296,163472,1,0,0:0:0:0:
312,32,163651,1,0,0:0:0:0:
164,32,163829,1,0,0:0:0:0:
164,184,164008,1,0,0:0:0:0:
316,184,164187,2,0,B|368:200|368:200|392:184|400:144|400:144|468:96,1,200
256,52,164722,2,0,B|204:64|204:64|188:112|212:176|212:176|187:196,1,200
308,220,165258,6,0,P|236:304|342:306,1,250
288,276,165794,6,0,B|264:290|264:290|235:290|235:290|218:304|218:304|210:322|191:319,1,112.500004291535
148,212,166508,2,0,B|88:236|52:232|20:168|20:168|36:56|144:64,1,300
120,304,167222,1,0,0:0:0:0:
180,276,167341,1,0,0:0:0:0:
240,252,167460,1,0,0:0:0:0:
420,180,167579,5,0,0:0:0:0:
360,204,167699,1,0,0:0:0:0:
300,228,167818,1,0,0:0:0:0:
284,164,167937,2,0,B|284:170|307:189|416:208|408:124|344:108|344:108|448:100|320:68|412:44,1,300
240,144,168651,6,0,L|148:132,1,75.0000028610231
87,183,169008,1,0,0:0:0:0:
332,342,169187,1,0,0:0:0:0:
347,50,169365,1,0,0:0:0:0:
209,272,169544,1,0,0:0:0:0:
209,111,169722,1,0,0:0:0:0:
348,192,169901,1,0,0:0:0:0:
432,244,170079,6,0,L|432:324,1,75.0000028610231
193,300,170437,1,0,0:0:0:0:
193,83,170615,1,0,0:0:0:0:
381,192,170794,1,0,0:0:0:0:
318,300,170972,1,0,0:0:0:0:
318,83,171151,1,0,0:0:0:0:
131,191,171329,1,0,0:0:0:0:
274,247,171508,6,0,P|414:222|288:156,1,375
342,207,172222,6,0,B|332:204|332:204|308:208|308:208|292:204,1,37.5000014305115
248,192,172579,1,0,0:0:0:0:
136,168,172758,1,0,0:0:0:0:
92,260,172937,2,0,L|176:284,1,75.0000028610231
236,300,173294,1,0,0:0:0:0:
380,332,173472,1,0,0:0:0:0:
379,179,173651,2,0,L|300:200,1,75.0000028610231
233,215,174008,2,0,L|168:232,1,37.5000014305115
120,304,174187,2,0,L|72:328,1,37.5000014305115
228,324,174365,6,0,P|272:344|328:312,1,100
428,272,174901,2,0,L|432:244,1,25
432,196,175079,2,0,P|404:152|388:144,1,50
216,60,175437,1,0,0:0:0:0:
252,28,175615,1,0,0:0:0:0:
408,292,175972,1,0,0:0:0:0:
408,292,176151,1,0,0:0:0:0:
172,264,176329,6,0,P|124:292|120:208,1,150
192,248,176687,6,0,P|136:308|140:192,1,250
136,248,177222,6,0,B|156:227|156:227|162:198|162:198|172:180|172:180|200:168|200:168|208:164,1,112.500004291535
285,283,177937,1,0,0:0:0:0:
178,248,178115,1,0,0:0:0:0:
178,135,178294,1,0,0:0:0:0:
285,100,178472,1,0,0:0:0:0:
170,129,178651,5,0,0:0:0:0:
287,90,178829,1,0,0:0:0:0:
360,192,179008,1,0,0:0:0:0:
287,292,179187,1,0,0:0:0:0:
370,192,179365,5,0,0:0:0:0:
290,301,179544,1,0,0:0:0:0:
162,259,179722,1,0,0:0:0:0:
162,123,179901,1,0,0:0:0:0:
154,264,180079,5,0,0:0:0:0:
154,117,180258,1,0,0:0:0:0:
293,72,180437,1,0,0:0:0:0:
379,192,180615,1,0,0:0:0:0:
299,53,180794,5,0,0:0:0:0:
398,192,180972,1,0,0:0:0:0:
299,328,181151,1,0,0:0:0:0:
138,276,181329,1,0,0:0:0:0:
302,337,181508,5,0,0:0:0:0:
131,281,181687,1,0,0:0:0:0:
131,100,181865,1,0,0:0:0:0:
302,44,182044,1,0,0:0:0:0:
372,188,182222,5,0,0:0:0:0:
204,260,182401,1,0,0:0:0:0:
131,100,182579,1,0,0:0:0:0:
302,44,182758,1,0,0:0:0:0:
312,180,182937,6,0,P|262:74|248:222,1,375
246,144,183651,6,0,B|247:173|247:173|233:198|233:198|236:219|236:219|249:235|231:259,1,112.500004291535
232,364,184365,1,0,0:0:0:0:
404,272,184544,2,0,L|404:196,1,75.0000028610231
172,124,184901,1,0,0:0:0:0:
276,360,185079,1,0,0:0:0:0:
108,272,185258,2,0,L|108:196,1,75.0000028610231
340,124,185615,1,0,0:0:0:0:
136,60,185794,1,0,0:0:0:0:
345,284,185972,6,0,L|371:213,1,75.0000028610231
403,122,186329,1,0,0:0:0:0:
256,348,186508,1,0,0:0:0:0:
84,276,186687,2,0,L|111:347,1,75.0000028610231
108,122,187044,2,0,P|184:88|296:24,1,200
340,160,187579,1,0,0:0:0:0:
404,120,187937,2,0,P|309:89|404:200,1,375
340,160,188651,5,0,0:0:0:0:
72,52,190972,5,0,0:0:0:0:
72,52,191687,2,0,B|76:176|156:200|156:200|132:288|240:324|300:252|284:176|212:164,1,450
140,304,193829,5,0,0:0:0:0:
140,304,194544,2,0,B|278:394|268:272|158:263|241:208|241:208|279:76|358:321|206:159,1,433.333333333333
256,192,196687,12,0,199722,0:0:0:0:
232,52,199990,5,0,0:0:0:0:
232,52,200079,2,0,L|348:72,1,100
332,204,200704,1,0,0:0:0:0:
332,204,200794,1,0,0:0:0:0:
140,220,200972,1,0,0:0:0:0:
348,264,202312,1,0,0:0:0:0:
348,264,202401,1,0,0:0:0:0:
176,320,202758,5,0,0:0:0:0:
176,320,202847,1,0,0:0:0:0:
176,320,202937,2,0,P|96:280|80:264,1,100
68,144,203562,1,0,0:0:0:0:
80,120,203651,1,0,0:0:0:0:
136,64,203740,1,0,0:0:0:0:
160,52,203829,1,0,0:0:0:0:
328,88,205258,1,0,0:0:0:0:
48,136,205437,1,0,0:0:0:0:
96,336,205615,1,0,0:0:0:0:
96,336,205704,5,0,0:0:0:0:
96,336,205794,2,0,L|192:288,1,100
204,156,206419,1,0,0:0:0:0:
216,132,206508,1,0,0:0:0:0:
64,204,206687,2,0,P|68:112|112:80,1,150
224,212,207847,2,0,L|244:176,1,25
250,169,208026,1,0,0:0:0:0:
250,169,208115,1,0,0:0:0:0:
420,276,208472,6,0,L|380:288,1,25
348,296,208651,2,0,P|300:304|264:300,1,75
248,296,209008,1,0,0:0:0:0:
52,320,209365,1,0,0:0:0:0:
316,144,209544,1,0,0:0:0:0:
132,52,209901,5,0,0:0:0:0:
144,68,209990,1,0,0:0:0:0:
96,208,210169,1,0,0:0:0:0:
100,232,210258,1,0,0:0:0:0:
248,188,210437,2,0,P|224:140|200:152,1,50
400,312,210704,6,0,P|348:320|324:356,1,50
316,336,210883,1,0,0:0:0:0:
140,260,210972,1,0,0:0:0:0:
140,260,211151,2,0,P|80:308|80:264,1,150
36,104,211508,6,0,P|68:76|128:72,1,100
272,88,212133,1,0,0:0:0:0:
296,88,212222,1,0,0:0:0:0:
356,248,212401,6,0,P|292:276|212:264,1,150
412,296,213294,1,0,0:0:0:0:
384,148,213562,1,0,0:0:0:0:
376,124,213651,1,0,0:0:0:0:
284,88,213740,1,0,0:0:0:0:
260,96,213829,2,0,L|156:92,1,100
256,212,214365,6,0,L|144:176,1,100
48,328,214990,2,0,L|60:312,2,12.5
120,324,215169,1,0,0:0:0:0:
168,328,215258,2,0,L|272:332,1,100
316,320,215704,1,0,0:0:0:0:
296,224,215794,2,0,L|360:252,1,50
340,144,216151,2,0,L|388:180,1,50
432,88,216508,2,0,L|448:152,1,50
460,328,216865,5,0,0:0:0:0:
200,120,217044,1,0,0:0:0:0:
200,120,217133,1,0,0:0:0:0:
200,120,217222,2,0,P|116:96|92:80,1,100
96,292,217937,1,0,0:0:0:0:
96,292,218115,1,0,0:0:0:0:
196,296,218472,1,0,0:0:0:0:
196,296,218651,2,0,P|284:284|292:272,1,100
312,124,219187,2,0,L|340:152,3,25
368,204,219544,1,0,0:0:0:0:
88,48,219901,5,0,0:0:0:0:
88,48,219990,1,0,0:0:0:0:
88,48,220079,2,0,L|64:148,1,100
24,352,220794,1,0,0:0:0:0:
144,164,220972,1,0,0:0:0:0:
320,64,221329,5,0,0:0:0:0:
332,84,221419,1,0,0:0:0:0:
448,204,221597,1,0,0:0:0:0:
456,228,221687,1,0,0:0:0:0:
360,236,221865,5,0,0:0:0:0:
360,236,221954,2,0,P|320:260|300:272,1,50
400,316,222312,2,0,L|400:296,2,12.5
304,288,222579,2,0,L|312:324,2,33.3333333333333
200,312,222937,6,0,P|120:304|96:280,1,100
204,312,223651,1,0,0:0:0:0:
32,208,223829,2,0,L|120:140,1,100
292,36,224365,1,0,0:0:0:0:
92,280,224722,1,0,0:0:0:0:
52,136,224990,1,0,0:0:0:0:
36,88,225079,1,0,0:0:0:0:
124,40,225258,2,0,P|176:24|228:32,1,100
408,88,225794,6,0,P|440:148|432:172,1,75
432,176,226151,1,0,0:0:0:0:
320,260,226329,1,0,0:0:0:0:
260,216,226419,2,0,L|256:204,2,12.5
272,340,226597,1,0,0:0:0:0:
280,364,226687,1,0,0:0:0:0:
112,160,226865,6,0,P|88:176|60:200,1,50
52,288,227133,1,0,0:0:0:0:
52,288,227222,2,0,P|56:300|115:327,1,75
52,288,227579,5,0,0:0:0:0:
276,316,227758,2,0,L|264:260,1,50
128,48,228115,2,0,L|100:68,1,25
124,120,228294,2,0,L|100:144,1,25
128,200,228472,1,0,0:0:0:0:
228,200,228651,6,0,B|264:200|264:200|316:144,1,100
80,296,229365,1,0,0:0:0:0:
352,216,229544,2,0,P|296:220|256:248,2,100
136,132,230079,2,0,P|112:76|140:32,1,100
224,28,230615,1,0,0:0:0:0:
248,36,230704,1,0,0:0:0:0:
388,40,230883,1,0,0:0:0:0:
408,52,230972,1,0,0:0:0:0:
448,124,231151,5,0,0:0:0:0:
244,196,231329,1,0,0:0:0:0:
244,196,231419,1,0,0:0:0:0:
244,196,231508,2,0,P|296:168|328:160,1,75
336,160,231865,1,0,0:0:0:0:
464,168,232222,1,0,0:0:0:0:
172,304,232401,2,0,P|120:316|112:276,1,100
116,124,232758,5,0,0:0:0:0:
136,140,232847,1,0,0:0:0:0:
112,152,232937,1,0,0:0:0:0:
116,124,233026,1,0,0:0:0:0:
220,108,233115,1,0,0:0:0:0:
380,64,233294,5,0,0:0:0:0:
392,96,233383,1,0,0:0:0:0:
436,240,233562,2,0,P|432:300|412:304,1,75
408,312,233740,1,0,0:0:0:0:
244,324,233829,1,0,0:0:0:0:
472,360,234008,1,0,0:0:0:0:
224,152,234365,5,0,0:0:0:0:
256,192,242937,12,0,244008,0:0:0:0:
144,72,244187,5,0,0:0:0:0:
144,72,244276,1,0,0:0:0:0:
144,72,244365,1,0,0:0:0:0:
144,72,244544,2,0,P|120:120|136:180,1,100
380,328,245347,1,0,0:0:0:0:
380,328,245437,1,0,0:0:0:0:
460,28,245615,1,0,0:0:0:0:
288,68,245794,6,0,L|264:104,2,33.3333333333333
104,204,246151,2,0,L|85:176,2,33.3333333333333
410,260,246508,2,0,L|392:288,2,33.3333333333333
68,348,246865,2,0,L|49:320,2,33.3333333333333
432,80,247222,6,0,L|405:60,2,33.3333333333333
336,300,247579,2,0,L|309:319,2,33.3333333333333
236,60,247937,2,0,L|209:40,2,33.3333333333333
100,304,248294,2,0,P|160:316|208:296,1,100
252,272,248770,5,0,0:0:0:0:
328,216,248889,1,0,0:0:0:0:
336,80,249008,1,0,0:0:0:0:
268,84,249127,1,0,0:0:0:0:
212,124,249246,1,0,0:0:0:0:
356,312,249365,1,0,0:0:0:0:
400,264,249484,1,0,0:0:0:0:
420,200,249603,1,0,0:0:0:0:
456,40,249722,2,0,L|424:76,2,33.3333333333333
140,48,250079,5,0,0:0:0:0:
140,116,250199,1,0,0:0:0:0:
140,184,250318,1,0,0:0:0:0:
288,104,250437,1,0,0:0:0:0:
288,172,250556,1,0,0:0:0:0:
288,240,250675,1,0,0:0:0:0:
184,348,250794,1,0,0:0:0:0:
176,280,250913,1,0,0:0:0:0:
56,248,251032,5,0,0:0:0:0:
352,100,251151,1,0,0:0:0:0:
160,48,251508,6,0,P|136:108|128:152,1,100
316,76,252222,2,0,B|335:44|335:44|410:45,1,100
136,320,252818,1,0,0:0:0:0:
136,320,252937,2,0,B|99:310|99:310|81:251,1,100
405,290,253651,2,0,P|416:241|436:196,1,100
60,224,254246,1,0,0:0:0:0:
48,344,254365,5,0,0:0:0:0:
78,331,254484,1,0,0:0:0:0:
109,319,254603,1,0,0:0:0:0:
476,276,254722,1,0,0:0:0:0:
441,261,254841,1,0,0:0:0:0:
407,248,254960,1,0,0:0:0:0:
76,252,255079,5,0,0:0:0:0:
112,236,255199,1,0,0:0:0:0:
149,221,255318,1,0,0:0:0:0:
420,168,255437,1,0,0:0:0:0:
381,151,255556,1,0,0:0:0:0:
340,135,255675,1,0,0:0:0:0:
120,80,255794,5,0,0:0:0:0:
139,117,255913,1,0,0:0:0:0:
158,155,256032,1,0,0:0:0:0:
177,193,256151,1,0,0:0:0:0:
196,231,256270,1,0,0:0:0:0:
216,269,256389,1,0,0:0:0:0:
236,332,256508,1,0,0:0:0:0:
263,282,256627,1,0,0:0:0:0:
290,232,256746,1,0,0:0:0:0:
317,183,256865,1,0,0:0:0:0:
345,133,256984,1,0,0:0:0:0:
372,83,257103,1,0,0:0:0:0:
144,88,257222,6,0,P|72:-4|92:144,1,375
72,68,257937,6,0,B|80:96|80:96|72:124|72:124|80:144|80:144|96:156|92:192,1,125.000004768372
132,288,258651,1,0,0:0:0:0:
188,256,258770,1,0,0:0:0:0:
244,224,258889,1,0,0:0:0:0:
188,256,259008,1,0,0:0:0:0:
248,236,259127,1,0,0:0:0:0:
308,216,259246,1,0,0:0:0:0:
452,292,259365,2,0,B|444:248|448:232|448:232|432:224|432:224|436:200|436:200|420:172,1,125.000004768372
204,64,260079,5,0,0:0:0:0:
264,84,260169,1,0,0:0:0:0:
320,108,260318,1,0,0:0:0:0:
284,196,260437,1,0,2:0:0:0:
244,245,260556,1,0,2:0:0:0:
201,289,260675,1,0,2:0:0:0:
92,244,260794,1,0,0:0:0:0:
80,184,260913,1,0,0:0:0:0:
60,124,261032,1,0,0:0:0:0:
228,307,261151,1,0,0:0:0:0:
244,245,261270,1,0,0:0:0:0:
261,183,261419,1,0,0:0:0:0:
348,96,261508,6,0,L|316:144,1,50.0000019073487
248,252,261865,1,0,0:0:0:0:
216,304,261984,1,0,0:0:0:0:
184,356,262103,1,0,0:0:0:0:
104,108,262222,1,0,0:0:0:0:
92,168,262341,1,0,0:0:0:0:
76,228,262460,1,0,0:0:0:0:
280,72,262579,1,0,0:0:0:0:
332,36,262699,1,0,0:0:0:0:
384,4,262818,1,0,0:0:0:0:
240,324,262937,5,0,0:0:0:0:
456,288,263056,1,0,0:0:0:0:
304,128,263175,1,0,0:0:0:0:
256,136,263294,2,0,P|332:169|326:86,1,200
108,80,263770,1,0,0:0:0:0:
108,80,263889,1,0,0:0:0:0:
108,80,264008,1,0,0:0:0:0:
108,80,264127,1,0,0:0:0:0:
108,80,264246,1,0,0:0:0:0:
208,36,264365,6,0,L|328:84,1,66.6666666666667
332,88,264603,1,0,0:0:0:0:
388,124,264722,1,0,0:0:0:0:
436,172,264841,1,0,0:0:0:0:
480,220,264960,1,0,0:0:0:0:
512,320,265079,6,0,L|450:295,1,66.6666666666667
387,267,265318,1,0,0:0:0:0:
324,248,265437,1,0,0:0:0:0:
256,244,265556,1,0,0:0:0:0:
192,252,265675,1,0,0:0:0:0:
184,120,265794,6,0,L|136:128,1,33.3333333333333
96,304,266151,1,0,0:0:0:0:
64,244,266270,1,0,0:0:0:0:
28,304,266389,1,0,0:0:0:0:
0,336,266508,2,0,L|64:368,1,66.6666666666667
384,348,266865,1,0,0:0:0:0:
252,340,267103,2,0,P|280:292|284:232,1,100
284,148,267579,1,0,0:0:0:0:
144,88,267937,6,0,P|72:-4|92:144,1,375
72,68,268651,6,0,B|80:96|80:96|72:124|72:124|80:144|80:144|96:156|76:200,1,125.000004768372
180,144,269365,2,0,L|212:208,1,66.6666666666667
244,260,269603,1,0,0:0:0:0:
64,56,269722,1,0,0:0:0:0:
68,124,269841,1,0,0:0:0:0:
68,192,269960,1,0,0:0:0:0:
124,232,270079,5,0,0:0:0:0:
120,297,270199,1,0,0:0:0:0:
64,260,270318,1,0,0:0:0:0:
132,56,270437,1,0,0:0:0:0:
153,120,270556,1,0,0:0:0:0:
171,186,270675,1,0,0:0:0:0:
168,256,270794,5,0,0:3:0:0:
238,288,270913,1,0,0:3:0:0:
235,216,271032,1,0,0:3:0:0:
208,72,271151,1,0,0:0:0:0:
239,131,271240,1,0,0:0:0:0:
268,193,271389,1,0,0:0:0:0:
44,332,271508,6,0,L|112:264,1,66.6666666666667
136,236,271746,1,0,0:0:0:0:
192,200,271865,1,0,0:0:0:0:
256,184,271984,1,0,0:0:0:0:
324,184,272103,1,0,0:0:0:0:
260,64,272222,5,0,0:0:0:0:
300,116,272341,1,0,0:0:0:0:
340,172,272460,1,0,0:0:0:0:
404,144,272579,1,0,0:0:0:0:
456,184,272699,1,0,0:0:0:0:
396,216,272818,1,0,0:0:0:0:
246,168,272937,5,0,0:0:0:0:
280,195,273056,1,0,0:0:0:0:
240,211,273175,1,0,0:0:0:0:
251,154,273294,5,0,0:0:0:0:
290,206,273413,1,0,0:0:0:0:
226,214,273532,1,0,0:0:0:0:
262,142,273651,5,0,0:0:0:0:
295,222,273770,1,0,0:0:0:0:
209,210,273889,1,0,0:0:0:0:
280,134,274008,5,0,0:0:0:0:
293,241,274127,1,0,0:0:0:0:
193,199,274246,1,0,0:0:0:0:
252,232,274365,6,0,P|374:307|323:173,1,375
439,315,275079,6,0,B|432:288|432:288|432:268|432:268|404:264|404:264|408:248|360:224,1,125.000004768372
304,96,275794,2,0,L|308:168,1,66.6666666666667
312,228,276032,1,0,0:0:0:0:
312,296,276151,1,0,0:0:0:0:
312,364,276270,1,0,0:0:0:0:
312,296,276389,1,0,0:0:0:0:
203,303,276508,6,0,L|258:265,1,66.6666666666667
312,228,276746,1,0,0:0:0:0:
370,193,276865,1,0,0:0:0:0:
428,158,276984,1,0,0:0:0:0:
488,124,277103,1,0,0:0:0:0:
274,222,277222,5,0,0:0:0:0:
274,162,277341,1,0,0:0:0:0:
222,192,277460,1,0,0:0:0:0:
290,231,277579,5,0,0:0:0:0:
274,142,277699,1,0,0:0:0:0:
205,200,277818,1,0,0:0:0:0:
310,236,277937,5,0,0:0:0:0:
269,123,278056,1,0,0:0:0:0:
192,215,278175,1,0,0:0:0:0:
364,148,278294,1,0,0:0:0:0:
376,92,278562,6,0,P|416:172|316:180,1,200
376,96,279008,2,0,P|388:148|288:124,1,200
108,40,279633,6,0,B|104:216|204:292|320:268|232:72|172:164|172:164|100:248|100:248|148:288|185:307|232:292,1,600
263,284,280794,2,0,P|304:237|312:176,1,125.000004768372
380,132,281508,5,0,0:0:0:0:
408,196,281627,1,0,0:0:0:0:
440,260,281746,1,0,0:0:0:0:
468,324,281865,1,0,0:0:0:0:
504,384,281984,1,0,0:0:0:0:
408,360,282103,2,0,L|396:340,1,12.5000004768372
372,328,282222,2,0,B|320:304|304:312|304:312|300:296|300:296|294:308|294:308|252:304,1,125.000004768372
76,240,282937,6,0,L|88:320,1,66.6666666666667
204,120,283175,1,0,0:0:0:0:
204,120,283294,1,0,0:0:0:0:
204,120,283413,1,0,0:0:0:0:
204,120,283562,1,0,0:0:0:0:
256,52,283651,6,0,L|332:52,1,66.6666666666667
368,236,283889,1,0,0:0:0:0:
400,176,284008,1,0,0:0:0:0:
368,236,284127,1,0,0:0:0:0:
400,176,284246,1,0,0:0:0:0:
148,300,284365,6,0,L|216:328,1,66.6666666666667
104,152,284603,1,0,0:0:0:0:
104,152,284722,1,0,0:0:0:0:
104,152,284841,1,0,0:0:0:0:
48,76,284960,6,0,L|0:136,1,66.6666666666667
196,40,285199,1,0,0:0:0:0:
260,24,285318,1,0,0:0:0:0:
196,40,285437,1,0,0:0:0:0:
260,24,285556,1,0,0:0:0:0:
274,247,285794,6,0,P|414:222|288:156,1,375
342,207,286508,6,0,B|332:204|332:204|308:208|308:208|272:204,1,50.0000019073487
224,208,286865,1,0,0:0:0:0:
152,200,286984,1,0,0:0:0:0:
180,264,287103,1,0,0:0:0:0:
208,80,287222,6,0,L|196:152,1,66.6666666666667
252,24,287460,1,0,0:0:0:0:
316,44,287579,1,0,0:0:0:0:
380,68,287699,1,0,0:0:0:0:
444,92,287818,1,0,0:0:0:0:
392,152,287937,5,0,0:0:0:0:
384,176,288056,1,0,0:0:0:0:
388,164,288175,1,0,0:0:0:0:
380,188,288294,1,0,0:0:0:0:
384,180,288413,1,0,0:0:0:0:
376,200,288532,1,0,0:0:0:0:
228,324,288651,6,0,P|272:344|328:312,1,100
176,272,289187,2,0,P|136:232|144:192,1,100
216,60,289722,1,0,0:0:0:0:
172,72,289960,1,0,0:0:0:0:
276,340,290318,1,0,0:0:0:0:
276,340,290437,1,0,0:0:0:0:
320,136,290794,6,0,P|392:44|372:192,1,375
392,116,291508,6,0,B|372:137|372:137|366:166|366:166|356:184|356:184|328:196|328:196|304:208,1,125.000004768372
165,257,292222,2,0,P|159:287|188:300,1,66.6666666666667
256,300,292460,1,0,0:0:0:0:
320,308,292579,1,0,0:0:0:0:
388,296,292699,1,0,0:0:0:0:
448,268,292818,1,0,0:0:0:0:
336,164,292937,6,0,L|340:232,1,66.6666666666667
288,112,293175,1,0,0:0:0:0:
224,92,293294,1,0,0:0:0:0:
160,104,293413,1,0,0:0:0:0:
112,152,293532,1,0,0:0:0:0:
260,228,293651,6,0,L|184:208,1,66.6666666666667
324,252,293889,1,0,0:0:0:0:
384,280,294008,1,0,0:0:0:0:
432,328,294127,1,0,0:0:0:0:
468,384,294246,1,0,0:0:0:0:
228,328,294365,6,0,L|312:340,1,66.6666666666667
160,316,294603,1,0,0:0:0:0:
96,292,294722,1,0,0:0:0:0:
48,244,294841,1,0,0:0:0:0:
8,192,294960,1,0,0:0:0:0:
160,160,295079,6,0,L|140:240,1,66.6666666666667
180,96,295318,1,0,0:0:0:0:
172,28,295437,1,0,0:0:0:0:
116,64,295556,1,0,0:0:0:0:
264,72,295704,1,0,0:0:0:0:
224,248,295794,6,0,P|260:224|288:216,1,66.6666666666667
172,288,296032,1,0,0:0:0:0:
108,304,296151,1,0,0:0:0:0:
152,352,296270,1,0,0:0:0:0:
124,212,296389,6,0,P|160:188|188:180,1,66.6666666666667
80,260,296627,1,0,0:0:0:0:
44,316,296746,1,0,0:0:0:0:
76,116,296865,6,0,B|104:84|104:84|128:96|128:96|128:76|128:76|144:64|172:72,1,133.333333333333
280,72,297222,6,0,P|422:80|303:158,1,375
352,100,297937,6,0,B|324:112|324:112|300:152|300:152|284:124|248:116,1,125.000004768372
180,88,298651,1,0,0:0:0:0:
148,192,298740,2,0,P|168:212|200:224,1,33.3333333333333
196,192,298889,2,0,P|219:208|252:214,1,33.3333333333333
252,192,299008,2,0,P|277:203|311:204,1,33.3333333333333
296,192,299127,2,0,P|323:199|357:193,1,33.3333333333333
392,196,299246,6,0,P|411:223|369:232,1,66.6666666666667
296,264,299484,2,0,P|279:265|263:271,1,33.3333333333333
250,258,299603,2,0,P|234:262|219:270,1,33.3333333333333
191,253,299722,2,0,P|176:260|163:271,1,33.3333333333333
139,248,299841,2,0,P|125:257|114:270,1,33.3333333333333
56,336,299990,1,0,0:0:0:0:
216,128,300079,6,0,P|128:168|272:188,1,366.666666666667
288,136,300794,2,0,P|296:104|312:152,1,133.333333333333
152,280,301151,1,0,0:0:0:0:
368,184,301389,6,0,P|388:112|336:176,1,200
352,328,301865,1,0,0:0:0:0:
164,256,302222,6,0,P|148:224|216:248,1,133.333333333333
92,276,302818,2,0,P|92:172|200:120,1,200
188,228,303294,1,0,0:0:0:0:
372,118,303651,6,0,P|354:58|292:60,1,133.333333333333
120,320,304246,1,0,0:0:0:0:
408,312,304603,5,0,0:0:0:0:
408,288,304722,1,0,0:0:0:0:
404,220,304841,1,0,0:0:0:0:
404,220,304960,1,0,0:0:0:0:
408,60,305079,1,0,0:0:0:0:
204,252,305318,1,0,0:0:0:0:
512,368,305556,1,0,0:0:0:0:
256,192,305794,6,0,B|252:112|252:112|264:72|264:72|256:40|256:40|280:96|280:96|352:124|368:100|320:12|320:12|368:16,1,419.999987182618
164,16,308651,6,0,B|184:32|184:32|192:68|192:72|192:72|184:104|184:104|188:200|188:200|152:176|152:176|88:176|88:176|76:208|76:208|152:260,1,419.999987182618
259,209,311508,6,0,B|248:260|192:288|144:252|144:252|80:300|80:300|72:328|72:328|112:360|112:360|152:332|152:332|196:340|224:332,1,419.999987182618
192,200,314365,6,0,B|200:160|232:132|288:144|288:144|346:196|346:196|380:140|380:140|386:234|496:216,1,419.999987182618
256,192,317222,12,0,325794,0:0:0:0:
