osu file format v14

[General]
AudioFilename: audio.mp3
AudioLeadIn: 0
PreviewTime: 56160
Countdown: 0
SampleSet: Soft
StackLeniency: 0.3
Mode: 0
LetterboxInBreaks: 0
EpilepsyWarning: 1
WidescreenStoryboard: 1

[Editor]
Bookmarks: 15660,29588,29749,29856,30017,30124,30338,30499,30606,30767,30874,31035,31195,31302,31463,31570,31838,31999,32160,32427,32588,32749,32856,33017,33177,33338,33445,33606,33767,33874,34035,34195,34356,34517,34677,34838,34945,35106,35267,35427,35588,35695,35856,36017,36177,36338,36499,36660,36820,36927,37088,37249,37410,37570,37892,38052,38213,38374,38481,38642,38802,38963,39124,39231,39392,39552,39713,39874,40035,40195,40356,40517,40677,40838,40999,41160,41320,41481,41642,41802,42017,42177,42338,42499,42660,42820,42981,43088,111874,111927,112088,112195,112302,112463,112570,112731,112892,112999,113160,113267,113427,113535,113695,113910,114070,114231,114285,114392,114499,114606,114713,114820,114874,114981,115088,115249,115356,115570,115945,116052,116267,116374,116535,116695,116802,116963,117124,117285,117392,117552,117767,118035,118195,118302,118463,118624,118785,118945,119106,119267,119427,119588,119695,119856,120017,120177,120338,120499,120660,120767,120981,121088,121249,121410,121570,121731,121945,122052,122267,122427,122588,122695,122856,123017,123177,123338,123499,123660,123820,123981,124142,124302,124463,124624,124785,124945,125106,125320,125374
DistanceSpacing: 0.8
BeatDivisor: 16
GridSize: 16
TimelineZoom: 1.8

[Metadata]
Title:Boss Wave
TitleUnicode:Boss Wave
Artist:Xilent
ArtistUnicode:Xilent
Creator:Bl4ckk
Version:Last Level
Source:
Tags:
BeatmapID:1888588
BeatmapSetID:904803

[Difficulty]
HPDrainRate:5
CircleSize:4.5
OverallDifficulty:4.5
ApproachRate:9.3
SliderMultiplier:1.9
SliderTickRate:1

[Events]
//Background and Video events
0,0,"bosswave.jpg",0,0
//Break Periods
2,29788,42338
2,112074,124820
2,128949,137034
2,142717,161034
2,169931,219215
//Storyboard Layer 0 (Background)
//Storyboard Layer 1 (Fail)
//Storyboard Layer 2 (Pass)
//Storyboard Layer 3 (Foreground)
//Storyboard Sound Samples

[TimingPoints]
2160,428.571428571429,4,2,0,100,1,0
15874,-200,4,2,0,60,0,0
47588,-125,4,2,0,60,0,0
48445,-200,4,2,0,60,0,0
57017,-45.4545454545455,4,2,0,60,0,0
57445,-66.6666666666667,4,2,0,60,0,0
57874,-83.3333333333333,4,2,0,60,0,0
58302,-133.333333333333,4,2,0,60,0,0
59160,-45.4545454545455,4,2,0,60,0,0
59588,-40,4,2,0,60,0,0
60017,-133.333333333333,4,2,0,60,0,0
60445,-40,4,2,0,60,0,0
61302,-66.6666666666667,4,2,0,60,0,0
62160,-29.4117647058824,4,2,0,60,0,0
63874,-45.4545454545455,4,2,0,60,0,0
64302,-66.6666666666667,4,2,0,60,0,0
64731,-83.3333333333333,4,2,0,60,0,0
65160,-133.333333333333,4,2,0,60,0,0
66017,-45.4545454545455,4,2,0,60,0,0
66445,-40,4,2,0,60,0,0
69017,-29.4117647058824,4,2,0,60,0,0
70731,-41.6666666666667,4,2,0,60,0,0
71160,-66.6666666666667,4,2,0,60,0,0
71588,-83.3333333333333,4,2,0,60,0,0
72017,-133.333333333333,4,2,0,60,0,0
72874,-45.4545454545455,4,2,0,60,0,0
73302,-40,4,2,0,60,0,0
73731,-133.333333333333,4,2,0,60,0,0
74160,-40,4,2,0,60,0,0
75017,-83.3333333333333,4,2,0,60,0,0
75874,-29.4117647058824,4,2,0,60,0,0
77588,-41.6666666666667,4,2,0,60,0,0
78017,-66.6666666666667,4,2,0,60,0,0
78445,-83.3333333333333,4,2,0,60,0,0
78874,-133.333333333333,4,2,0,60,0,0
79731,-45.4545454545455,4,2,0,60,0,0
80160,-40,4,2,0,60,0,0
82731,-32.258064516129,4,2,0,60,0,0
84445,-38.4615384615385,4,2,0,60,0,0
84874,-66.6666666666667,4,2,0,60,0,0
85302,-83.3333333333333,4,2,0,60,0,0
85731,-133.333333333333,4,2,0,60,0,0
86588,-45.4545454545455,4,2,0,60,0,0
87017,-40,4,2,0,60,0,0
88731,-66.6666666666667,4,2,0,60,0,0
89588,-29.4117647058824,4,2,0,60,0,0
91302,-38.4615384615385,4,2,0,60,0,0
91731,-66.6666666666667,4,2,0,60,0,0
92160,-83.3333333333333,4,2,0,60,0,0
92588,-133.333333333333,4,2,0,60,0,0
93445,-45.4545454545455,4,2,0,60,0,0
93874,-40,4,2,0,60,0,0
96445,-29.4117647058824,4,2,0,60,0,0
98160,-41.6666666666667,4,2,0,60,0,0
99017,-37.037037037037,4,2,0,60,0,0
99445,-45.4545454545455,4,2,0,60,0,0
100731,-40,4,2,0,60,0,0
101160,-133.333333333333,4,2,0,60,0,0
101588,-40,4,2,0,60,0,0
102445,-66.6666666666667,4,2,0,60,0,0
103302,-29.4117647058824,4,2,0,60,0,0
105017,-38.4615384615385,4,2,0,60,0,0
105445,-41.6666666666667,4,2,0,60,0,0
105874,-37.037037037037,4,2,0,60,0,0
106302,-45.4545454545455,4,2,0,60,0,0
107588,-40,4,2,0,60,0,0
108874,-34.4827586206897,4,2,0,60,0,0
109302,-30.3030303030303,4,2,0,60,0,0
109731,-27.7777777777778,4,2,0,60,0,0
110160,-27.027027027027,4,2,0,60,0,0
110588,-26.3157894736842,4,2,0,60,0,0
111017,-25,4,2,0,60,0,0
126445,-133.333333333333,4,2,0,60,0,0
138445,-66.6666666666667,4,2,0,60,0,0
138660,-41.6666666666667,4,2,0,60,0,0
138874,-30.3030303030303,4,2,0,60,0,0
139731,-83.3333333333333,4,2,0,60,0,0
166731,-29.4117647058824,4,2,0,60,0,1
194106,-29.4117647058824,4,2,0,60,0,0
194160,-29.4117647058824,4,2,0,60,0,1
194213,-29.4117647058824,4,2,0,60,0,0
207874,-29.4117647058824,4,2,0,60,0,1
220731,-29.4117647058824,4,2,0,60,0,0

[Colours]
Combo1 : 255,255,128
Combo2 : 128,64,64
Combo3 : 128,128,255
Combo4 : 255,128,128

[HitObjects]
141,88,15660,5,0,0:0:0:0:
158,88,15767,1,0,0:0:0:0:
187,87,15874,6,0,B|218:141|196:172|176:195|201:264,1,178.125
211,278,16731,2,0,L|220:295,2,11.875
304,210,16945,1,0,0:0:0:0:
395,136,17160,1,0,0:0:0:0:
306,66,17374,1,0,0:0:0:0:
287,65,17481,1,0,0:0:0:0:
251,63,17588,6,0,P|228:101|241:237,1,178.125
244,241,18445,2,0,L|256:260,2,11.875
449,264,18713,2,0,L|440:277,1,11.875
335,344,18874,2,0,L|350:357,1,11.875
363,164,19088,2,0,L|374:146,1,11.875
200,345,19302,6,0,L|118:211,1,154.375
66,118,20160,1,0,0:0:0:0:
210,117,20374,1,0,0:0:0:0:
410,214,20588,1,0,0:0:0:0:
273,214,20802,1,0,0:0:0:0:
57,303,21017,5,0,0:0:0:0:
200,301,21231,1,0,0:0:0:0:
410,214,21445,5,0,0:0:0:0:
273,214,21660,1,0,0:0:0:0:
66,180,21874,1,0,0:0:0:0:
193,178,22088,2,0,L|198:197,2,11.875
308,174,22302,2,0,P|336:177|349:167,1,35.625
364,163,22517,1,0,0:0:0:0:
385,149,22624,1,0,0:0:0:0:
408,110,22731,6,0,L|224:103,1,178.125
203,98,23588,1,0,0:0:0:0:
91,85,23802,1,0,0:0:0:0:
151,188,24017,1,0,0:0:0:0:
306,206,24231,1,0,0:0:0:0:
326,229,24338,1,0,0:0:0:0:
353,261,24445,6,0,L|174:261,1,178.125
148,260,25302,1,0,0:0:0:0:
189,101,25731,2,0,L|179:114,1,11.875
336,103,25945,2,0,L|345:120,1,11.875
256,192,26160,12,0,27874,0:0:0:0:
160,109,28088,5,0,0:0:0:0:
337,61,28302,1,0,0:0:0:0:
292,227,28517,1,0,0:0:0:0:
175,100,28731,5,0,0:0:0:0:
351,57,28945,1,0,0:0:0:0:
307,220,29160,1,0,0:0:0:0:
191,90,29374,1,0,0:0:0:0:
211,109,29481,1,0,0:0:0:0:
325,210,29588,5,0,0:0:0:0:
78,64,43088,5,0,0:0:0:0:
117,55,43195,1,0,0:0:0:0:
225,37,43302,6,0,P|242:149|160:241,1,237.5
225,37,44802,1,0,2:0:0:0:
264,41,44909,1,0,2:0:0:0:
372,61,45016,6,0,P|391:173|311:266,1,237.5,0|0,2:0|2:0,2:0:0:0:
229,50,46517,1,0,0:0:0:0:
192,50,46624,1,0,0:0:0:0:
71,52,46731,6,0,P|53:77|54:143,1,95
350,48,47374,1,0,0:0:0:0:
313,48,47481,1,0,0:0:0:0:
192,50,47588,6,0,P|173:108|202:195,1,152
471,46,48231,1,0,0:0:0:0:
434,46,48338,1,0,0:0:0:0:
313,48,48445,6,0,P|287:105|316:205,1,166.25
376,126,49302,2,0,L|393:152,1,23.75
211,124,49517,2,0,L|197:146,1,23.75
289,322,49731,1,0,0:0:0:0:
111,323,49945,1,0,0:0:0:0:
91,289,50052,1,0,0:0:0:0:
41,187,50160,6,0,B|73:119|111:125|151:133|176:32,1,213.75
386,325,51660,1,0,0:0:0:0:
406,291,51767,1,0,0:0:0:0:
456,189,51875,6,0,B|424:121|386:127|346:135|321:34,1,213.75
41,106,53374,1,0,0:0:0:0:
44,143,53481,1,0,0:0:0:0:
48,288,53588,5,0,0:0:0:0:
96,48,53802,1,0,0:0:0:0:
128,288,54017,5,0,0:0:0:0:
256,48,54231,1,0,0:0:0:0:
208,288,54445,5,0,0:0:0:0:
416,48,54660,1,0,0:0:0:0:
304,288,54874,5,0,0:0:0:0:
256,48,55088,1,0,0:0:0:0:
384,288,55302,5,0,0:0:0:0:
176,48,55517,1,0,0:0:0:0:
464,288,55731,5,0,0:0:0:0:
176,48,55945,1,0,0:0:0:0:
464,288,56160,5,0,0:0:0:0:
130,251,57017,6,0,B|162:219|194:251|210:315|136:350|46:331|55:230|102:197|102:197|120:180|133:157|122:134|102:113,1,365.750011161805
70,96,57445,2,0,L|38:32,1,71.2500027179719
118,31,57660,2,0,L|150:95,1,71.2500027179719
352,160,57874,2,0,L|384:208,1,56.9999982604981
432,144,58088,2,0,L|464:192,1,56.9999982604981
432,304,58302,2,0,B|384:320|384:320|320:304,1,106.875004076958
160,256,58731,5,0,0:0:0:0:
160,256,59160,2,0,P|131:249|105:221,1,52.2500015945435
160,256,59374,2,0,P|137:225|138:192,1,52.2500015945435
416,96,59588,2,0,P|426:145|400:208,1,118.75
416,96,59802,2,0,P|400:144|336:176,1,118.75
336,96,60017,2,0,B|281:82|281:82|233:98,1,106.875004076958
82,174,60445,6,0,L|62:212,1,39.5833333333333
105,175,60517,2,0,L|121:221,1,39.5833333333333
126,170,60588,2,0,L|166:194,1,39.5833333333333
136,154,60660,2,0,L|180:150,1,39.5833333333333
121,142,60731,2,0,L|108:102,1,39.5833333333333
89,155,60802,2,0,L|73:109,1,39.5833333333333
144,276,61088,5,0,0:0:0:0:
15,75,61302,2,0,P|60:44|155:46,1,142.500005435944
71,304,61731,2,0,L|53:263,1,35.625001358986
205,225,61945,2,0,L|223:266,1,35.625001358986
56,271,62160,6,0,L|140:183,8,80.750001540184
316,80,62802,1,0,0:0:0:0:
415,119,62910,6,0,L|389:206,1,80.750001540184
338,276,63017,2,0,L|305:202,7,80.750001540184
263,336,63445,2,0,L|186:279,1,80.750001540184
442,252,63660,2,0,L|444:162,1,80.750001540184
90,109,63874,6,0,B|58:141|22:108|10:45|84:10|174:29|165:130|118:162|118:162|99:179|87:203|98:226|118:247,1,365.750011161805
68,262,64302,2,0,P|58:296|36:326,1,71.2500027179719
125,328,64517,2,0,P|140:296|148:262,1,71.2500027179719
340,197,64731,2,0,P|351:170|372:148,1,56.9999982604981
419,213,64945,2,0,P|432:184|451:165,1,56.9999982604981
428,75,65160,2,0,B|374:62|374:62|326:78,1,106.875004076958
176,132,65588,5,0,0:0:0:0:
176,132,66017,2,0,L|145:201,1,52.2500015945435
176,132,66231,2,0,L|214:193,1,52.2500015945435
366,357,66445,2,0,B|320:319|320:319|296:256,1,118.75
366,357,66660,2,0,B|412:319|412:319|436:256,1,118.75
456,112,66874,2,0,B|457:176,1,59.375
456,112,67088,2,0,L|455:52,1,59.375
236,69,67302,6,0,L|219:33,1,39.5833333333333
213,85,67374,2,0,L|177:57,1,39.5833333333333
206,111,67445,2,0,L|160:104,1,39.5833333333333
207,138,67517,2,0,L|158:150,1,39.5833333333333
224,156,67588,2,0,L|198:195,1,39.5833333333333
248,162,67660,2,0,L|266:201,1,39.5833333333333
253,121,67945,5,0,0:0:0:0:
116,21,68160,2,0,P|81:130|150:256,1,237.5
253,121,68588,2,0,B|289:117|289:117|335:130,1,59.375
248,297,68802,2,0,B|270:303|270:303|306:299,1,59.375
327,37,69017,2,0,L|247:36,8,80.750001540184
75,135,69660,1,0,0:0:0:0:
92,168,69767,1,0,0:0:0:0:
151,286,69874,5,0,0:0:0:0:
151,286,70088,1,0,0:0:0:0:
151,286,70302,2,0,P|171:268|232:251,1,80.750001540184
151,286,70731,6,0,B|112:277|83:220|112:173|153:159|153:159|110:144|83:81|115:31|173:13,1,341.999989562989
178,90,71160,2,0,L|261:91,1,71.2500027179719
287,41,71374,2,0,L|215:41,1,71.2500027179719
176,223,71588,2,0,L|251:223,1,56.9999982604981
215,273,71802,2,0,L|290:273,1,56.9999982604981
439,146,72017,2,0,B|385:160|385:160|312:142,1,106.875004076958
158,96,72445,5,0,0:0:0:0:
158,96,72874,2,0,L|65:98,1,52.2500015945435
158,96,73088,2,0,L|224:95,1,52.2500015945435
328,252,73302,2,0,L|175:252,1,118.75
328,252,73517,2,0,L|464:251,1,118.75
385,162,73731,2,0,B|331:176|331:176|258:158,1,106.875004076958
137,120,74160,6,0,L|171:73,1,39.5833333333333
117,132,74231,2,0,L|104:92,1,39.5833333333333
114,155,74302,2,0,L|75:136,1,39.5833333333333
114,177,74374,2,0,L|72:204,1,39.5833333333333
129,189,74445,2,0,L|169:183,1,39.5833333333333
133,209,74517,2,0,L|168:238,1,39.5833333333333
239,168,74802,5,0,0:0:0:0:
405,84,75017,2,0,P|426:124|431:204,1,113.999996520996
220,89,75445,2,0,L|166:97,1,28.4999991302491
226,253,75660,2,0,L|277:242,1,28.4999991302491
383,346,75874,6,0,L|455:309,8,80.750001540184
95,344,76517,1,0,0:0:0:0:
232,307,76624,2,0,L|302:347,1,80.750001540184
239,189,76731,6,0,L|333:189,7,80.750001540184
229,82,77160,2,0,L|317:137,1,80.750001540184
231,306,77374,2,0,L|302:249,1,80.750001540184
321,62,77588,6,0,B|360:71|389:128|360:175|319:189|319:189|362:204|389:267|357:317|299:335,1,341.999989562989
294,256,78017,2,0,P|256:262|211:247,1,71.2500027179719
186,308,78231,2,0,P|222:324|262:327,1,71.2500027179719
296,123,78445,2,0,P|263:119|221:123,1,56.9999982604981
258,52,78659,2,0,P|237:51|184:70,1,56.9999982604981
149,129,78874,2,0,B|128:184|128:184|152:247,1,124.687504756451
210,358,79302,5,0,0:0:0:0:
382,141,79731,2,0,B|367:112|367:112|336:91,1,69.6666687927247
382,141,79945,2,0,B|386:103|386:103|370:66,1,69.6666687927247
115,211,80160,2,0,B|134:271|195:301,1,118.75
115,211,80374,2,0,B|109:279|151:324,1,118.75
429,311,80588,2,0,B|449:282|449:282|460:239,1,59.375
471,116,80802,2,0,B|476:83|476:83|468:45,1,59.375
333,72,81017,6,0,L|263:52,6,59.375
256,232,81445,2,0,L|192:265,6,59.375
446,209,81874,2,0,L|487:149,6,59.375
458,284,82302,5,0,0:0:0:0:
421,315,82355,1,0,0:0:0:0:
370,321,82409,1,0,0:0:0:0:
331,298,82462,1,0,0:0:0:0:
317,256,82516,1,0,0:0:0:0:
333,211,82569,1,0,0:0:0:0:
376,187,82623,1,0,0:0:0:0:
388,254,82731,6,0,L|447:209,10,73.6250005617142
303,173,83374,2,0,L|227:181,2,73.6250005617142
283,279,83588,2,0,L|297:354,6,73.6250005617142
230,52,84017,6,8,L|149:60,1,73.6250005617142,8|8,3:0|3:0,3:0:0:0:
91,131,84124,2,8,L|170:123,1,73.6250005617142,8|8,3:0|3:0,3:0:0:0:
230,181,84231,2,8,L|141:191,1,73.6250005617142,8|8,3:0|3:0,3:0:0:0:
111,258,84338,2,8,L|194:250,1,73.6250005617142,8|8,3:0|3:0,3:0:0:0:
302,47,84445,6,0,B|304:92|267:118|267:118|307:149|300:201|300:201|345:172|386:193|386:193|373:146|412:112|412:112|372:88|366:35,1,432.249980213166
444,48,84874,2,0,P|474:85|482:130,1,71.2500027179719
439,236,85088,2,0,P|454:205|452:170,1,71.2500027179719,0|0,3:0|3:0,3:0:0:0:
351,253,85302,2,0,P|328:267|280:272,1,56.9999982604981
232,176,85517,2,0,P|206:149|199:111,1,56.9999982604981
220,46,85731,2,0,B|159:59|159:59|110:111,1,124.687504756451
30,196,86160,5,0,0:0:0:0:
30,196,86588,2,0,L|126:198,1,52.2500015945435
359,195,86802,2,0,L|266:195,1,52.2500015945435
26,26,87017,2,0,L|119:106,1,118.75
26,358,87231,2,0,L|119:278,1,118.75
248,195,87445,2,0,L|321:195,1,59.375
248,195,87660,2,0,L|308:195,1,59.375
393,140,87874,6,0,L|413:104,1,39.5833333333333
406,156,87945,2,0,L|453:143,1,39.5833333333333
409,178,88017,2,0,L|453:177,1,39.5833333333333
410,202,88088,2,0,L|455:201,1,39.5833333333333
403,230,88160,2,0,L|450:243,1,39.5833333333333
392,245,88231,2,0,L|412:281,1,39.5833333333333
307,195,88517,5,0,0:0:0:0:
147,128,88731,2,0,P|122:187|155:270,1,142.500005435944
379,129,89160,2,0,L|318:130,1,35.625001358986
349,257,89374,2,0,L|384:257,1,35.625001358986
379,129,89588,6,0,L|425:63,8,80.750001540184
200,294,90230,1,0,0:0:0:0:
300,261,90338,6,0,L|310:170,1,80.750001540184
144,105,90445,2,0,L|189:172,7,80.750001540184
207,32,90873,2,0,L|282:86,1,80.750001540184
46,146,91088,2,0,L|79:234,1,80.750001540184
330,118,91302,6,0,B|303:153|258:149|258:149|269:198|230:234|230:234|283:240|301:283|301:283|321:238|373:237|373:237|358:193|378:166,1,432.249980213166
439,206,91731,2,0,L|483:285,1,71.2500027179719
432,349,91945,2,0,L|369:309,1,71.2500027179719
272,79,92160,2,0,L|218:28,1,56.9999982604981
189,172,92374,2,0,L|174:94,1,56.9999982604981
110,50,92588,2,0,B|169:29|169:29|232:40,1,124.687504756451
393,70,93017,5,0,0:0:0:0:
393,70,93445,2,0,L|417:118,1,52.2500015945435
439,163,93660,2,0,L|415:115,1,52.2500015945435
232,342,93874,2,0,L|172:223,1,118.75
125,129,94088,2,0,L|178:235,1,118.75
428,52,94302,2,0,L|453:105,1,59.375
480,159,94517,2,0,L|452:103,1,59.375
258,60,94731,6,0,L|209:60,1,39.5833333333333
258,84,94802,2,0,L|298:84,1,39.5833333333333
259,109,94874,2,0,L|210:109,1,39.5833333333333
258,129,94945,2,0,L|297:129,1,39.5833333333333
258,151,95017,2,0,L|209:151,1,39.5833333333333
258,174,95088,2,0,L|297:174,1,39.5833333333333
258,292,95374,5,0,0:0:0:0:
364,171,95589,2,0,P|256:130|127:192,1,237.5
334,244,96017,2,0,B|367:250|367:250|409:243,1,59.375
164,271,96231,2,0,B|136:275|136:275|106:269,1,59.375
327,37,96446,2,0,L|247:36,8,80.750001540184
450,108,97088,1,0,0:0:0:0:
431,130,97195,1,0,0:0:0:0:
340,218,97303,5,0,0:0:0:0:
340,218,97731,2,0,P|301:228|269:252,1,80.750001540184
340,218,98160,6,0,B|352:299|303:337|240:339|198:283|198:283|218:234|200:186|150:153|100:180,1,398.999987823487
132,246,98588,2,0,P|111:264|75:274,3,56.9999982604981
98,329,98802,2,0,P|116:307|128:281,2,56.9999982604981
269,252,99017,2,0,P|278:217|274:178,3,64.1250002446175
301,222,99231,2,0,P|321:196|336:157,2,64.1250002446175
52,209,99445,2,0,B|34:175|52:149|52:149|81:163|112:159|112:159|97:105|97:105|128:126|161:119|161:119|148:90|152:63|152:63|183:52|212:79|212:79,1,365.750011161805
334,167,99874,5,0,0:0:0:0:
334,167,100302,2,0,L|284:202,1,52.2500015945435
291,196,100517,2,0,L|235:235,1,52.2500015945435
47,351,100731,2,0,L|165:278,1,118.75
148,289,100945,2,0,L|266:216,1,118.75
366,214,101160,2,0,B|336:158|336:158|280:119,1,124.687504756451
236,29,101588,6,0,L|284:17,1,39.5833333333333
230,51,101660,2,0,L|272:30,1,39.5833333333333
218,71,101731,2,0,L|254:45,1,39.5833333333333
197,74,101802,2,0,L|243:47,1,39.5833333333333
179,68,101874,2,0,L|228:61,1,39.5833333333333
163,60,101945,2,0,L|215:40,1,39.5833333333333
287,123,102231,5,0,0:0:0:0:
251,307,102445,2,0,P|313:320|394:274,1,142.500005435944
209,127,102874,2,0,L|159:132,1,35.625001358986
370,115,103088,2,0,L|405:111,1,35.625001358986
287,123,103302,6,0,L|285:42,8,80.750001540184
287,349,103945,1,0,0:0:0:0:
442,315,104052,2,0,L|372:275,1,80.750001540184
217,200,104159,6,0,L|136:200,7,80.750001540184
220,80,104588,2,0,L|308:135,1,80.750001540184
221,315,104802,2,0,L|296:263,1,80.750001540184
333,61,105017,6,0,B|374:95|382:155|339:203|272:197|272:197|203:220|194:303|238:358|349:343,1,432.249980213166
287,268,105445,2,0,P|313:276|339:303,3,56.9999982604981
375,255,105659,2,0,P|346:250|318:253,2,56.9999982604981
288,122,105874,2,0,P|252:118|214:129,3,64.1250002446175
252,95,106088,2,0,P|222:79|181:71,2,64.1250002446175
375,255,106302,2,0,B|369:255|409:254|423:224|423:224|407:202|377:191|377:191|395:162|432:155|432:155|383:128|383:128|402:103|433:92|433:92|427:61|390:50,1,365.750011161805
248,54,106731,5,0,0:0:0:0:
248,54,107160,2,0,B|241:81|241:81|248:105,1,52.2500015945435
247,104,107374,2,0,B|240:131|240:131|247:155,1,52.2500015945435
75,341,107588,2,0,B|84:281|84:281|77:216,1,118.75
79,105,107802,2,0,B|86:163|86:163|77:223,1,118.75
246,340,108017,2,0,B|252:308|252:308|246:277,1,59.375
246,281,108231,2,0,B|252:249|252:249|246:218,1,59.375
241,94,108445,6,0,L|170:121,6,59.375
317,246,108874,2,0,L|357:343,6,68.8750021018983
446,104,109302,2,0,L|486:23,6,78.3750007474423
277,247,109731,2,0,L|221:322,6,85.4999973907472
114,52,110160,6,0,L|-3:30,6,87.8749996647835
134,287,110588,2,0,L|209:355,6,90.2499975900651
341,138,111017,2,0,L|423:77,6,95
60,341,111445,5,0,0:0:0:0:
134,287,111552,1,0,0:0:0:0:
210,233,111660,1,0,0:0:0:0:
281,179,111767,1,0,0:0:0:0:
470,41,111874,5,0,0:0:0:0:
89,141,125374,5,0,0:0:0:0:
154,123,125481,1,0,0:0:0:0:
356,79,125588,5,0,0:0:0:0:
293,336,125802,1,0,0:0:0:0:
293,336,125910,1,0,0:0:0:0:
293,336,126017,1,0,0:0:0:0:
162,130,126231,1,0,0:0:0:0:
162,130,126338,1,0,0:0:0:0:
162,130,126445,2,0,P|216:102|355:98,1,195.937507474423
264,164,127088,1,0,0:0:0:0:
279,223,127195,1,0,0:0:0:0:
308,357,127302,5,0,0:0:0:0:
104,330,127517,1,0,0:0:0:0:
104,330,127624,1,0,0:0:0:0:
104,330,127731,1,0,0:0:0:0:
271,170,127945,1,0,0:0:0:0:
271,170,128052,1,0,0:0:0:0:
271,170,128160,2,0,P|202:118|94:105,1,195.937507474423
256,192,137588,12,0,138338,0:0:0:0:
260,281,138445,6,0,L|233:241,3,35.625001358986
282,251,138660,2,0,L|277:195,3,56.9999982604981
316,240,138874,2,0,L|347:155,3,78.3750007474423
359,228,139088,1,0,0:0:0:0:
386,200,139142,1,0,0:0:0:0:
397,167,139195,1,0,0:0:0:0:
382,128,139249,1,0,0:0:0:0:
332,119,139302,6,0,B|282:63|402:-7|480:41|489:126|505:239|430:289|333:314,1,470.250004484654
382,128,139731,2,0,L|443:100,1,56.9999982604981
397,167,139945,2,0,L|340:173,1,56.9999982604981
144,128,140160,2,0,L|82:94,1,56.9999982604981
136,159,140374,2,0,L|80:170,1,56.9999982604981
80,317,140588,2,0,B|181:336|181:336|276:320,1,199.499993911743
449,292,141017,5,0,0:0:0:0:
449,292,141445,2,0,P|437:279|409:269,1,28.4999991302491
449,292,141660,2,0,P|431:291|404:304,1,28.4999991302491
256,192,141874,12,0,142517,0:0:0:0:
256,192,161588,12,0,164910,0:0:0:0:
159,94,165017,5,0,0:0:0:0:
366,249,165231,1,0,0:0:0:0:
159,94,165445,1,0,0:0:0:0:
148,136,165552,1,0,0:0:0:0:
172,170,165660,1,0,0:0:0:0:
218,174,165767,1,0,0:0:0:0:
389,110,165874,5,0,0:0:0:0:
79,106,166731,6,0,B|160:67|232:102|232:102|306:66|391:111,1,323.000006160736
162,184,167160,1,0,0:0:0:0:
302,188,167374,1,0,0:0:0:0:
233,283,167588,2,0,L|233:364,2,80.750001540184
302,188,167802,1,0,0:0:0:0:
231,186,167910,1,0,0:0:0:0:
162,184,168017,2,0,B|142:145|142:145|165:104,7,80.750001540184
206,46,168445,5,0,0:0:0:0:
359,31,168660,1,0,0:0:0:0:
400,326,168874,1,0,0:0:0:0:
302,188,169088,1,0,0:0:0:0:
400,326,169517,1,0,0:0:0:0:
302,188,169731,1,0,0:0:0:0:
256,192,219874,5,0,0:0:0:0:
256,192,219927,12,0,220731,0:0:0:0:
