osu file format v14

[General]
AudioFilename: Xilent ft. Diamond Eyes - Animation.mp3
AudioLeadIn: 0
PreviewTime: 63135
Countdown: 0
SampleSet: Soft
StackLeniency: 0.7
Mode: 0
LetterboxInBreaks: 1
WidescreenStoryboard: 0

[Editor]
Bookmarks: 34570
DistanceSpacing: 1
BeatDivisor: 4
GridSize: 4
TimelineZoom: 1

[Metadata]
Title:Animation (ft. Diamond Eyes)
TitleUnicode:Animation (ft. Diamond Eyes)
Artist:Xilent
ArtistUnicode:Xilent
Creator:Umi
Version:Normal
Source:
Tags:Drum&Bass drum and bass dnb electronic vocal edm we are virtual xChippy
BeatmapID:927384
BeatmapSetID:425111

[Difficulty]
HPDrainRate:4
CircleSize:3.5
OverallDifficulty:4
ApproachRate:5
SliderMultiplier:1.2
SliderTickRate:1

[Events]
//Background and Video events
0,0,"3.jpg",0,0
//Break Periods
2,22386,32021
2,132731,142366
//Storyboard Layer 0 (Background)
//Storyboard Layer 1 (Fail)
//Storyboard Layer 2 (Pass)
//Storyboard Layer 3 (Foreground)
//Storyboard Sound Samples

[TimingPoints]
118,344.827586206897,4,2,2,60,1,0
290,-100,4,2,2,40,0,0
11152,-100,4,2,2,70,0,0
11324,-100,4,2,2,50,0,0
19428,-100,4,2,2,80,0,0
19514,-100,4,2,3,60,0,0
33221,-100,4,2,3,50,0,0
44255,-100,4,2,2,80,0,0
44600,-100,4,2,3,70,0,0
47014,-100,4,2,2,80,0,0
47186,-100,4,2,3,70,0,0
49773,-100,4,2,2,80,0,0
50118,-100,4,2,3,70,0,0
52531,-100,4,2,2,80,0,0
52876,-100,4,2,3,70,0,0
55290,-100,4,2,1,70,0,0
64945,-100,4,3,0,80,0,0
66324,-100,4,2,5,80,0,1
66411,-100,4,2,1,80,0,1
77359,-100,4,2,2,100,0,1
77531,-100,4,2,1,80,0,1
88393,-100,4,2,5,80,0,1
88480,-100,4,2,1,80,0,1
99428,-100,4,2,2,80,0,1
99600,-100,4,2,1,80,0,1
107704,-100,4,2,1,60,0,0
108221,-100,4,2,3,60,0,0
109945,-100,4,2,1,60,0,0
110462,-100,4,2,5,80,0,1
110635,-100,4,2,1,80,0,1
121497,-100,4,2,2,100,0,1
121669,-100,4,2,1,80,0,1
132531,-100,4,2,2,100,0,0
143566,-100,4,2,2,40,0,0
143738,-100,4,2,3,30,0,0
146324,-100,4,2,3,30,0,0
154600,-100,4,2,2,100,0,0
154686,-100,4,2,1,70,0,0
176324,-100,4,2,1,20,0,0
176669,-100,4,2,5,80,0,1
176842,-100,4,2,1,80,0,1
187704,-100,4,2,2,100,0,1
187876,-100,4,2,1,100,0,1
190118,-100,4,2,1,80,0,1
198738,-100,4,2,5,80,0,1
198911,-100,4,2,1,80,0,1
209773,-100,4,2,2,100,0,1
209945,-100,4,2,1,80,0,1
218049,-100,4,2,1,60,0,0
218566,-100,4,2,3,60,0,0
220290,-100,4,2,1,60,0,0
220807,-100,4,2,5,80,0,1
220980,-100,4,2,1,80,0,1
231842,-100,4,2,2,100,0,1
232014,-100,4,2,1,80,0,1
241497,-100,4,2,1,60,0,0
241842,-100,4,2,3,60,0,0
242876,-100,4,2,2,80,0,0
245635,-100,4,2,3,20,0,0

[Colours]
Combo1 : 140,46,226
Combo2 : 98,176,223
Combo3 : 218,180,50
Combo4 : 0,179,0

[HitObjects]
235,245,118,6,0,P|193:202|165:149,2,120,6|8|0,0:0|0:0|0:0,0:0:0:0:
354,258,1152,1,8,0:0:0:0:
418,156,1497,2,0,L|398:28,1,120,0|8,0:0|0:0,0:0:0:0:
307,114,2186,2,0,L|245:111,2,60,0|0|8,0:0|0:0|0:0,0:0:0:0:
369,216,2876,6,0,P|333:266|311:323,1,120,2|8,0:0|0:0,0:0:0:0:
193,341,3566,1,0,0:0:0:0:
110,251,3911,2,0,P|159:165|207:252,1,240,8|8,0:0|0:0,0:0:0:0:
308,316,4945,2,0,P|343:281|367:263,1,60,0|2,0:0|0:0,0:0:0:0:
398,236,5290,1,8,0:0:0:0:
332,135,5635,6,0,L|210:131,1,120,2|8,0:0|0:0,0:0:0:0:
160,100,6152,2,0,P|182:169|198:235,1,120
184,274,6669,1,8,0:0:0:0:
418,325,7359,2,0,P|461:266|479:220,1,120,8|0,0:0|0:0,0:0:0:0:
472,162,7876,1,2,0:0:0:0:
418,131,8049,2,0,L|336:136,1,60,8|0,0:0|0:0,0:0:0:0:
305,106,8393,6,0,L|287:237,1,120,2|8,0:0|0:0,0:0:0:0:
317,278,8911,1,0,0:0:0:0:
144,327,9428,2,0,L|121:252,1,60,8|0,0:0|0:0,0:0:0:0:
118,209,9773,2,0,P|128:152|166:97,1,120,0|8,0:0|0:0,0:0:0:0:
281,95,10462,2,0,P|302:128|312:175,1,60,0|2,0:0|0:0,0:0:0:0:
318,207,10807,1,8,0:0:0:0:
260,312,11152,6,0,L|120:304,1,120,4|8,0:0|0:0,0:0:0:0:
80,308,11669,1,0,0:0:0:0:
80,308,11842,2,0,P|52:260|48:184,1,120,0|8,0:0|0:0,0:0:0:0:
148,132,12531,2,0,P|177:183|182:243,1,120,0|8,0:0|0:0,0:0:0:0:
284,308,13221,2,0,P|324:288|348:272,1,60,0|2,0:0|0:0,0:0:0:0:
384,240,13566,1,8,0:0:0:0:
372,120,13911,6,0,P|276:168|256:180,1,120,2|8,0:0|0:0,0:0:0:0:
188,264,14600,1,0,0:0:0:0:
280,340,14945,2,0,B|328:308|436:336|436:336|392:260,1,240,8|8,0:0|0:0,0:0:0:0:
320,172,15980,2,0,L|332:100,2,60,0|2|8,0:0|0:0|0:0,0:0:0:0:
236,256,16669,6,0,P|176:256|116:228,1,120,2|8,0:0|0:0,0:0:0:0:
80,188,17186,2,0,P|80:128|108:68,1,120,0|0,0:0|0:0,0:0:0:0:
156,48,17704,2,0,P|216:48|276:76,2,120,8|0|8,0:0|0:0|0:0,0:0:0:0:
80,140,18738,2,0,L|104:212,1,60,0|2,0:0|0:0,0:0:0:0:
112,256,19083,2,0,L|88:324,1,60,8|0,0:0|0:0,0:0:0:0:
40,344,19428,5,4,0:0:0:0:
256,192,19600,12,4,22186,0:0:0:0:
316,276,33221,6,0,B|341:253|402:233|488:258|488:258|411:212|379:165|380:125,1,360,4|0,0:0|0:0,0:0:0:0:
274,67,34600,2,0,B|227:52|188:91|98:92|98:92|157:156|159:213|200:239,1,360,0|0,0:0|0:0,0:0:0:0:
316,276,35980,6,0,B|385:265|385:265|426:234|426:234|486:225,1,180,2|0,0:0|0:0,0:0:0:0:
318,155,37014,2,0,B|218:130|218:130|248:70|248:70|438:31,1,360,2|0,0:0|0:0,0:0:0:0:
328,246,38738,6,0,L|153:200,1,180,2|2,0:0|0:0,0:0:0:0:
323,139,39773,2,0,B|389:128|419:51|419:51|457:77|454:108|454:108|434:268,1,360,2|0,0:0|0:0,0:0:0:0:
341,334,41152,1,2,0:0:0:0:
238,271,41497,6,0,P|217:164|191:91,1,180,2|2,0:0|0:0,0:0:0:0:
343,195,42531,2,0,P|390:188|346:91,2,180,2|2|2,0:0|0:0|0:0,0:0:0:0:
126,92,44255,6,0,P|102:162|93:210,1,120,6|2,0:0|0:0,0:0:0:0:
192,275,44945,2,0,L|202:343,2,60,0|2|0,0:0|0:0|0:0,0:0:0:0:
206,216,45462,2,0,P|255:200|341:201,1,120,2|0,0:0|0:0,0:0:0:0:
374,229,45980,1,2,0:0:0:0:
467,154,46324,1,2,0:0:0:0:
404,51,46669,1,2,0:0:0:0:
294,100,47014,6,0,L|305:221,2,120,4|2|0,0:0|0:0|0:0,0:0:0:0:
253,55,47876,2,0,L|179:37,1,60,2|0,0:0|0:0,0:0:0:0:
135,31,48221,2,0,P|110:93|105:153,1,120,2|0,0:0|0:0,0:0:0:0:
148,186,48738,2,0,P|173:248|178:308,2,120,2|2|2,0:0|0:0|0:0,0:0:0:0:
262,223,49773,6,0,L|388:212,1,120,4|2,0:0|0:0,0:0:0:0:
427,101,50462,2,0,L|500:105,2,60,0|2|0,0:0|0:0|0:0,0:0:0:0:
377,65,50980,2,0,P|349:85|266:102,1,120,2|0,0:0|0:0,0:0:0:0:
208,87,51497,2,0,L|196:151,1,60,2|0,0:0|0:0,0:0:0:0:
153,187,51842,2,0,L|175:262,1,60,2|0,0:0|0:0,0:0:0:0:
216,281,52186,1,2,0:0:0:0:
298,193,52531,5,4,0:0:0:0:
409,236,52876,2,0,P|430:286|444:357,2,120,2|0|0,0:0|0:0|0:0,0:0:0:0:
367,192,53738,2,0,L|243:205,1,120,2|0,0:0|0:0,0:0:0:0:
191,182,54255,1,2,0:0:0:0:
259,83,54600,1,2,0:0:0:0:
155,22,54945,1,2,0:0:0:0:
81,116,55290,6,0,P|90:179|103:233,1,120,8|8,0:0|0:0,0:0:0:0:
198,307,55980,2,0,L|281:299,1,60,8|0,0:0|0:0,0:0:0:0:
288,250,56324,2,0,L|371:242,1,60,8|0,0:0|0:0,0:0:0:0:
405,261,56669,2,0,L|425:131,2,120,8|8|8,0:0|0:0|0:0,0:0:0:0:
314,340,57704,1,8,0:0:0:0:
228,255,58049,6,0,P|192:249|108:259,1,120,8|8,0:0|0:0,0:0:0:0:
182,163,58738,2,0,P|193:125|194:98,1,60,8|0,0:0|0:0,0:0:0:0:
166,51,59083,2,0,L|251:45,1,60,8|0,0:0|0:0,0:0:0:0:
286,42,59428,1,8,0:0:0:0:
390,100,59773,2,0,P|417:172|426:224,1,120,8|8,0:0|0:0,0:0:0:0:
404,270,60290,1,0,0:0:0:0:
352,300,60462,2,0,L|285:293,1,60,8|0,0:0|0:0,0:0:0:0:
234,312,60807,6,0,P|230:253|221:185,1,120,8|8,0:0|0:0,0:0:0:0:
338,225,61497,2,0,P|323:168|301:102,1,120,8|8,0:0|0:0,0:0:0:0:
421,132,62186,2,0,P|395:78|361:19,2,120,8|8|8,0:0|0:0|0:0,0:0:0:0:
404,251,63221,1,8,0:0:0:0:
303,185,63566,6,0,B|251:169|186:198|186:198|271:304,1,240,8|8,0:0|0:0,0:0:0:0:
377,264,64600,1,8,0:0:0:0:
450,169,64945,2,0,B|471:100|434:52|434:52|348:116|348:116|286:90|220:103,1,360,0|0,0:0|0:0,0:0:0:0:
112,148,66324,6,0,L|136:272,1,120,4|8,0:0|0:0,0:0:0:0:
256,276,67014,2,0,L|264:192,2,60,0|2|8,0:0|0:0|0:0,0:0:0:0:
272,324,67531,2,0,P|336:332|400:320,1,120,0|2,0:0|0:0,0:0:0:0:
448,300,68049,1,8,0:0:0:0:
360,216,68393,1,2,0:0:0:0:
448,136,68738,6,0,L|460:12,2,120,8|2|8,0:0|0:0|0:0,0:0:0:0:
344,196,69773,2,0,P|288:184|280:180,1,60,0|2,0:0|0:0,0:0:0:0:
236,152,70118,1,8,0:0:0:0:
180,176,70290,2,0,L|196:324,1,120,0|2,0:0|0:0,0:0:0:0:
240,332,70807,2,0,P|292:308|376:304,2,120,8|0|8,0:0|0:0|0:0,0:0:0:0:
120,348,71842,6,0,P|104:296|96:224,1,120,2|8,0:0|0:0,0:0:0:0:
136,120,72531,2,0,L|60:104,2,60,0|2|8,0:0|0:0|0:0,0:0:0:0:
196,136,73049,2,0,L|336:116,1,120,0|2,0:0|0:0,0:0:0:0:
372,96,73566,2,0,P|396:144|400:164,1,60,8|0,0:0|0:0,0:0:0:0:
384,208,73911,2,0,P|368:233|358:261,1,60,0|2,0:0|0:0,0:0:0:0:
372,320,74255,1,8,0:0:0:0:
260,276,74600,6,0,L|140:292,2,120,2|8|0,0:0|0:0|0:0,0:0:0:0:
316,300,75462,1,2,0:0:0:0:
364,264,75635,2,0,P|368:224|368:192,1,60,8|0,0:0|0:0,0:0:0:0:
348,148,75980,2,0,P|412:136|476:140,1,120,8|8,0:0|0:0,0:0:0:0:
432,24,76669,1,8,0:0:0:0:
312,24,77014,1,8,0:0:0:0:
228,108,77359,6,0,L|236:232,1,120,4|8,0:0|0:0,0:0:0:0:
216,348,78049,2,0,L|284:360,1,60,0|2,0:0|0:0,0:0:0:0:
336,352,78393,1,8,0:0:0:0:
336,352,78566,2,0,L|343:232,1,120,0|2,0:0|0:0,0:0:0:0:
320,176,79083,2,0,P|392:176|468:184,2,120,8|0|8,0:0|0:0|0:0,0:0:0:0:
220,244,80118,6,0,P|196:184|216:112,1,120,2|8,0:0|0:0,0:0:0:0:
293,49,80807,2,0,L|365:48,1,60,0|2,0:0|0:0,0:0:0:0:
407,22,81152,1,8,0:0:0:0:
458,52,81324,2,0,P|481:118|490:183,1,120,0|2,0:0|0:0,0:0:0:0:
483,227,81842,1,8,0:0:0:0:
391,304,82186,1,0,0:0:0:0:
310,214,82531,6,0,P|265:233|197:274,2,120,8|2|8,0:0|0:0|0:0,0:0:0:0:
430,206,83566,2,0,P|445:237|455:274,2,60,0|2|8,0:0|0:0|0:0,0:0:0:0:
387,163,84083,2,0,L|392:33,1,120,0|2,0:0|0:0,0:0:0:0:
341,10,84600,1,8,0:0:0:0:
246,83,84945,1,0,0:0:0:0:
267,201,85290,6,0,P|309:234|377:263,2,120,8|2|8,0:0|0:0|0:0,0:0:0:0:
265,80,86324,2,0,P|236:83|191:90,1,60,0|2,0:0|0:0,0:0:0:0:
178,141,86669,2,0,P|148:145|118:148,1,60,8|0,0:0|0:0,0:0:0:0:
60,133,87014,1,8,0:0:0:0:
36,245,87359,2,0,L|167:278,2,120,8|8|4,0:3|0:3|0:3,0:0:0:0:
136,179,88393,6,0,P|199:172|259:166,1,120,4|8,0:0|0:0,0:0:0:0:
365,215,89083,2,0,L|381:277,2,60,0|2|8,0:0|0:0|0:0,0:0:0:0:
429,113,89773,1,2,0:0:0:0:
337,35,90118,2,0,P|285:56|232:94,1,120,8|0,0:0|0:0,0:0:0:0:
195,140,90635,1,2,0:0:0:0:
195,140,90807,1,8,0:0:0:0:
263,238,91152,5,2,0:0:0:0:
363,172,91497,2,0,P|388:218|412:289,1,120,8|0,0:0|0:0,0:0:0:0:
398,340,92014,1,2,0:0:0:0:
341,361,92186,2,0,L|222:344,1,120,8|2,0:0|0:0,0:0:0:0:
153,245,92876,2,0,L|271:228,1,120,8|0,0:0|0:0,0:0:0:0:
319,191,93393,2,0,L|352:253,1,60,2|8,0:0|0:0,0:0:0:0:
403,137,93911,6,0,P|345:98|280:102,1,120,2|8,0:0|0:0,0:0:0:0:
247,131,94428,2,0,P|199:166|140:171,1,120,0|2,0:0|0:0,0:0:0:0:
85,147,94945,1,8,0:0:0:0:
131,36,95290,2,0,L|272:29,1,120,2|8,0:0|0:0,0:0:0:0:
369,52,95980,2,0,P|390:91|409:130,1,60,0|2,0:0|0:0,0:0:0:0:
399,164,96324,1,8,0:0:0:0:
334,282,96669,6,0,P|292:264|203:261,1,120,2|8,0:0|0:0,0:0:0:0:
169,293,97186,2,0,P|172:239|131:162,1,120,0|2,0:0|0:0,0:0:0:0:
96,145,97704,2,0,L|237:135,2,120,8|2|8,0:0|0:0|0:0,0:0:0:0:
164,46,98738,2,0,P|216:50|238:54,1,60,0|2,0:0|0:0,0:0:0:0:
280,70,99083,1,8,0:0:0:0:
386,124,99428,5,4,0:0:0:0:
331,230,99773,2,0,L|200:226,1,120,8|0,0:0|0:0,0:0:0:0:
160,192,100290,1,2,0:0:0:0:
160,192,100462,2,0,L|182:319,2,120,8|2|8,0:0|0:0|0:0,0:0:0:0:
217,86,101497,2,0,P|266:83|304:92,2,60,0|2|8,0:0|0:0|0:0,0:0:0:0:
299,173,102186,6,0,P|341:232|370:283,1,120,2|8,0:0|0:0,0:0:0:0:
401,320,102704,2,0,P|412:274|444:183,1,120,0|2,0:0|0:0,0:0:0:0:
462,151,103221,1,8,0:0:0:0:
382,60,103566,2,0,P|309:89|241:81,2,120,2|8|0,0:0|0:0|0:0,0:0:0:0:
430,23,104428,1,2,0:0:0:0:
430,23,104600,1,8,0:0:0:0:
486,129,104945,6,0,P|496:212|496:261,1,120,2|8,0:0|0:0,0:0:0:0:
456,293,105462,2,0,L|336:247,1,120,0|2,0:0|0:0,0:0:0:0:
287,229,105980,2,0,P|278:288|276:348,2,120,8|2|8,0:0|0:0|0:0,0:0:0:0:
327,116,107014,2,0,L|258:111,1,60,0|2,0:0|0:0,0:0:0:0:
222,71,107359,1,8,0:0:0:0:
118,136,107704,6,0,B|107:181|106:225|106:225|122:266|151:303,1,180,2|2,0:0|0:0,0:0:0:0:
327,268,108738,2,0,B|338:223|339:179|339:179|323:138|294:101,2,180,2|2|2,0:0|0:0|0:0,0:0:0:0:
306,324,109945,1,8,0:0:0:0:
352,362,110118,2,0,L|420:349,1,60,8|8,0:0|0:0,0:0:0:0:
454,309,110462,6,0,P|446:272|468:186,1,120,4|8,0:0|0:0,0:0:0:0:
398,92,111152,2,0,P|356:83|317:77,1,60,0|2,0:0|0:0,0:0:0:0:
280,67,111497,1,8,0:0:0:0:
280,67,111669,2,0,P|260:132|227:201,1,120,0|2,0:0|0:0,0:0:0:0:
206,230,112186,2,0,P|144:216|81:219,2,120,8|0|8,0:0|0:0|0:0,0:0:0:0:
305,297,113221,6,0,P|364:298|423:284,1,120,2|8,0:0|0:0,0:0:0:0:
435,165,113911,2,0,L|466:106,2,60,0|2|8,0:0|0:0|0:0,0:0:0:0:
390,206,114428,2,0,L|338:84,1,120,0|2,0:0|0:0,0:0:0:0:
315,42,114945,1,8,0:0:0:0:
234,130,115290,1,0,0:0:0:0:
150,44,115635,1,8,0:0:0:0:
67,131,115980,6,0,P|89:215|115:278,2,120,2|8|0,0:0|0:0|0:0,0:0:0:0:
95,78,116842,2,0,L|154:78,1,60,2|8,0:0|0:0,0:0:0:0:
201,115,117186,2,0,P|253:133|335:99,1,120,0|2,0:0|0:0,0:0:0:0:
360,80,117704,1,8,0:0:0:0:
448,164,118049,1,0,0:0:0:0:
348,232,118393,6,0,P|328:304|320:360,2,120,8|2|8,0:0|0:0|0:0,0:0:0:0:
232,264,119428,2,0,L|172:256,1,60,0|2,0:0|0:0,0:0:0:0:
112,264,119773,2,0,L|136:188,1,60,8|0,0:0|0:0,0:0:0:0:
148,148,120118,1,8,0:0:0:0:
244,76,120462,1,8,0:0:0:0:
364,76,120807,1,0,0:0:0:0:
464,144,121152,1,8,0:0:0:0:
412,252,121497,6,0,L|256:232,1,120,4|8,0:0|0:0,0:0:0:0:
180,200,122186,2,0,P|156:268|156:280,1,60,0|2,0:0|0:0,0:0:0:0:
160,316,122531,1,8,0:0:0:0:
212,348,122704,2,0,L|331:332,1,120,0|2,0:0|0:0,0:0:0:0:
384,304,123221,2,0,P|400:280|496:232,2,120,8|0|8,0:0|0:0|0:0,0:0:0:0:
312,208,124255,5,2,0:0:0:0:
200,244,124600,2,0,P|128:236|56:224,1,120,8|0,0:0|0:0,0:0:0:0:
36,188,125118,2,0,L|24:108,1,60,2|8,0:0|0:0,0:0:0:0:
0,76,125462,2,0,L|132:92,1,120,0|2,0:0|0:0,0:0:0:0:
172,52,125980,1,8,0:0:0:0:
224,160,126324,1,0,0:0:0:0:
308,76,126669,6,0,P|340:133|335:202,2,120,8|2|8,0:0|0:0|0:0,0:0:0:0:
187,79,127704,2,0,P|179:38|175:5,2,60,0|2|8,0:0|0:0|0:0,0:0:0:0:
218,130,128221,2,0,P|211:199|203:263,1,120,0|2,0:0|0:0,0:0:0:0:
197,309,128738,1,8,0:0:0:0:
309,266,129083,2,0,L|458:269,1,120,0|8,0:0|0:0,0:0:0:0:
388,155,129773,6,0,L|268:152,1,120,2|8,0:0|0:0,0:0:0:0:
161,97,130462,2,0,L|121:155,1,60,0|2,0:0|0:0,0:0:0:0:
100,200,130807,2,0,L|146:251,1,60,8|0,0:0|0:0,0:0:0:0:
183,286,131152,1,12,0:0:0:0:
288,228,131497,2,0,P|321:219|363:209,1,60,8|0,0:3|0:0,0:0:0:0:
406,215,131842,2,0,L|391:124,2,60,8|0|4,0:3|0:0|0:3,0:0:0:0:
490,299,132531,5,4,0:0:0:0:
87,192,143566,6,0,B|135:216|135:216|262:194,1,180,4|2,0:0|0:0,0:0:0:0:
300,19,144600,1,2,0:0:0:0:
410,161,145118,2,0,P|442:244|472:329,2,180,2|2|0,0:0|0:0|0:0,0:0:0:0:
380,109,146324,5,2,0:0:0:0:
264,247,146842,1,2,0:0:0:0:
128,129,147359,2,0,B|190:146|190:146|212:83|269:69,1,180,2|2,0:0|0:0,0:0:0:0:
426,156,148393,2,0,P|401:244|321:291,1,180,2|0,0:0|0:0,0:0:0:0:
270,298,149083,5,2,0:0:0:0:
299,120,149600,1,2,0:0:0:0:
124,165,150118,2,0,B|88:197|88:197|73:268|71:342,2,180,2|2|2,0:0|0:0|0:0,0:0:0:0:
237,125,151497,2,0,P|269:161|282:189,1,60,0|0,0:0|0:0,0:0:0:0:
296,227,151842,6,0,P|365:215|418:202,1,120,2|0,0:0|0:0,0:0:0:0:
450,155,152359,2,0,B|470:360,2,180,2|2|2,0:0|0:0|0:0,0:0:0:0:
293,65,153911,2,0,B|246:65|211:96|211:96|160:97|126:130,1,180,2|0,0:0|0:0,0:0:0:0:
108,184,154600,5,4,0:0:0:0:
208,333,155118,1,8,0:0:0:0:
386,308,155635,1,8,0:0:0:0:
402,128,156152,1,8,0:0:0:0:
237,56,156669,2,0,P|228:134|226:195,1,120,8|8,0:0|0:0,0:0:0:0:
253,228,157186,1,0,0:0:0:0:
227,282,157359,6,0,L|30:274,1,180,8|8,0:0|0:0,0:0:0:0:
189,164,158393,2,0,L|386:156,2,180,8|8|8,0:0|0:0|0:0,0:0:0:0:
106,75,159773,1,8,0:0:0:0:
37,173,160118,6,0,B|45:242|73:293|73:293|126:293,1,180,8|8,0:0|0:0,0:0:0:0:
256,168,161152,1,8,0:0:0:0:
396,55,161669,2,0,B|449:55|449:55|477:106|485:175,1,180,8|8,0:0|0:0,0:0:0:0:
455,291,162531,2,0,L|390:298,1,60,8|0,0:0|0:0,0:0:0:0:
346,262,162876,6,0,P|302:243|184:291,2,180,8|8|8,0:0|0:0|0:0,0:0:0:0:
481,143,164428,1,8,0:0:0:0:
330,44,164945,1,8,0:0:0:0:
223,99,165290,1,8,0:0:0:0:
293,195,165635,6,0,B|304:324|304:324|252:282,2,180,12|8|8,0:0|0:0|0:0,0:0:0:0:
198,42,167186,1,8,0:0:0:0:
73,172,167704,2,0,P|152:189|212:192,1,120,8|8,0:0|0:0,0:0:0:0:
241,159,168221,1,0,0:0:0:0:
241,159,168393,6,0,B|264:228|264:228|243:265|243:265|243:331,2,180,8|8|8,0:0|0:0|0:0,0:0:0:0:
371,34,169945,1,8,0:0:0:0:
473,181,170462,2,0,P|425:186|360:217,1,120,8|8,0:0|0:0,0:0:0:0:
273,299,171152,6,0,P|246:266|110:228,1,180,8|8,0:0|0:0,0:0:0:0:
285,158,172186,2,0,P|274:108|179:21,2,180,8|8|8,0:0|0:0|0:0,0:0:0:0:
205,248,173566,1,8,0:0:0:0:
312,300,173911,6,0,L|392:288,1,60,8|8,0:0|0:0,0:0:0:0:
439,192,174428,2,0,L|359:180,1,60,8|8,0:0|0:0,0:0:0:0:
286,107,174945,2,0,L|262:167,1,60,8|8,0:0|0:0,0:0:0:0:
274,222,175290,5,2,0:0:0:0:
274,222,176669,6,0,L|152:216,1,120,4|8,0:0|0:0,0:0:0:0:
100,108,177359,2,0,L|24:112,2,60,0|2|8,0:0|0:0|0:0,0:0:0:0:
156,128,177876,2,0,P|164:96|228:32,1,120,0|2,0:0|0:0,0:0:0:0:
284,24,178393,1,8,0:0:0:0:
392,72,178738,1,0,0:0:0:0:
392,192,179083,6,0,P|344:184|252:172,2,120,8|2|8,0:0|0:0|0:0,0:0:0:0:
468,284,180118,2,0,P|420:312|396:332,1,60,0|2,0:0|0:0,0:0:0:0:
368,348,180462,1,8,0:0:0:0:
308,336,180635,2,0,P|288:288|272:200,1,120,0|2,0:0|0:0,0:0:0:0:
272,160,181152,2,0,L|132:168,2,120,8|0|8,0:0|0:0|0:0,0:0:0:0:
354,72,182186,5,2,0:0:0:0:
446,148,182531,2,0,P|461:225|469:270,1,120,8|0,0:0|0:0,0:0:0:0:
434,316,183049,2,0,L|367:308,1,60,2|8,0:0|0:0,0:0:0:0:
318,329,183393,2,0,P|309:277|284:210,1,120,0|2,0:0|0:0,0:0:0:0:
252,163,183911,1,8,0:0:0:0:
145,108,184255,1,0,0:0:0:0:
153,227,184600,1,8,0:0:0:0:
252,163,184945,6,0,P|321:191|375:220,1,120,2|8,0:0|0:0,0:0:0:0:
461,278,185635,2,0,P|479:243|481:200,1,60,0|2,0:0|0:0,0:0:0:0:
449,172,185980,2,0,P|431:137|429:94,1,60,8|0,0:0|0:0,0:0:0:0:
438,58,186324,1,8,0:0:0:0:
322,92,186669,2,0,P|267:66|194:16,2,120,8|8|8,0:0|0:0|0:0,0:0:0:0:
435,52,187704,6,0,P|464:132|478:187,1,120,4|8,0:0|0:0,0:0:0:0:
428,277,188393,2,0,L|350:271,1,60,0|2,0:0|0:0,0:0:0:0:
318,306,188738,1,8,0:0:0:0:
318,306,188911,2,0,L|199:298,1,120,0|2,0:0|0:0,0:0:0:0:
146,267,189428,1,8,0:0:0:0:
236,188,189773,1,0,0:0:0:0:
140,115,190118,1,8,0:0:0:0:
224,29,190462,6,0,P|272:53|298:111,2,120,2|8|0,0:0|0:0|0:0,0:0:0:0:
163,31,191324,2,0,L|117:87,1,60,2|8,0:0|0:0,0:0:0:0:
89,125,191669,2,0,P|131:162|165:234,1,120,0|2,0:0|0:0,0:0:0:0:
185,273,192186,2,0,P|212:220|256:180,2,120,8|0|8,0:0|0:0|0:0,0:0:0:0:
288,333,193221,6,0,P|332:293|359:240,1,120,2|8,0:0|0:0,0:0:0:0:
351,119,193911,2,0,P|321:114|291:118,1,60,0|2,0:0|0:0,0:0:0:0:
233,131,194255,1,8,0:0:0:0:
233,131,194428,2,0,L|242:295,1,120,0|2,0:0|0:0,0:0:0:0:
265,305,194945,1,8,0:0:0:0:
145,315,195290,1,0,0:0:0:0:
147,194,195635,6,0,P|85:192|21:228,2,120,8|2|8,0:0|0:0|0:0,0:0:0:0:
251,252,196669,2,0,P|286:239|312:220,1,60,0|2,0:0|0:0,0:0:0:0:
364,227,197014,2,0,P|380:192|381:157,1,60,8|0,0:0|0:0,0:0:0:0:
376,111,197359,1,8,0:0:0:0:
269,54,197704,2,0,L|197:57,1,60,8|0,0:3|0:0,0:0:0:0:
157,87,198049,2,0,L|132:29,2,60,8|0|4,0:3|0:0|0:3,0:0:0:0:
259,149,198738,6,0,P|244:207|208:257,2,120,4|8|0,0:0|0:0|0:0,0:0:0:0:
229,96,199600,1,2,0:0:0:0:
277,60,199773,2,0,B|317:62|317:62|347:72|347:72|395:76,1,120,8|2,0:0|0:0,0:0:0:0:
457,179,200462,2,0,B|416:176|416:176|386:166|386:166|338:162,1,120,8|0,0:0|0:0,0:0:0:0:
286,192,200980,1,2,0:0:0:0:
286,192,201152,1,8,0:0:0:0:
182,131,201497,6,0,P|164:201|181:253,1,120,2|8,0:0|0:0,0:0:0:0:
265,325,202186,2,0,L|343:329,1,60,0|2,0:0|0:0,0:0:0:0:
378,300,202531,1,8,0:0:0:0:
339,186,202876,2,0,P|342:130|350:61,2,120,2|8|0,0:0|0:0|0:0,0:0:0:0:
358,242,203738,1,2,0:0:0:0:
358,242,203911,1,8,0:0:0:0:
276,329,204255,6,0,P|247:296|162:254,1,120,2|8,0:0|0:0,0:0:0:0:
127,231,204773,2,0,P|133:166|173:98,1,120,0|2,0:0|0:0,0:0:0:0:
199,75,205290,1,8,0:0:0:0:
250,183,205635,1,2,0:0:0:0:
325,89,205980,2,0,P|374:78|446:91,1,120,8|0,0:0|0:0,0:0:0:0:
472,141,206497,2,0,L|463:208,1,60,2|8,0:0|0:0,0:0:0:0:
436,317,207014,6,0,L|330:235,1,120,2|8,0:0|0:0,0:0:0:0:
299,286,207531,2,0,L|228:164,1,120,0|2,0:0|0:0,0:0:0:0:
240,121,208049,1,8,0:0:0:0:
121,100,208393,2,0,P|91:168|76:231,2,120,2|8|0,0:0|0:0|0:0,0:0:0:0:
166,60,209255,1,2,0:0:0:0:
166,60,209428,1,8,0:0:0:0:
247,148,209773,6,0,B|323:137|323:137|384:159,1,120,4|8,0:0|0:0,0:0:0:0:
461,222,210462,2,0,L|492:162,2,60,0|2|8,0:0|0:0|0:0,0:0:0:0:
482,340,211152,1,2,0:0:0:0:
374,286,211497,2,0,P|318:267|247:250,1,120,8|0,0:0|0:0,0:0:0:0:
206,281,212014,1,2,0:0:0:0:
155,248,212186,2,0,L|166:190,1,60,8|0,0:0|0:0,0:0:0:0:
133,138,212531,6,0,P|189:119|260:102,1,120,2|8,0:0|0:0,0:0:0:0:
308,105,213049,2,0,L|336:233,1,120,0|2,0:0|0:0,0:0:0:0:
304,274,213566,1,8,0:0:0:0:
390,356,213911,1,2,0:0:0:0:
467,265,214255,2,0,L|492:147,1,120,8|0,0:0|0:0,0:0:0:0:
459,97,214773,1,2,0:0:0:0:
459,97,214945,1,8,0:0:0:0:
353,40,215290,6,0,P|325:93|266:139,1,120,2|8,0:0|0:0,0:0:0:0:
263,189,215807,2,0,P|201:202|99:195,1,120,0|2,0:0|0:0,0:0:0:0:
97,239,216324,2,0,P|26:216|-34:153,2,120,8|2|8,0:0|0:0|0:0,0:0:0:0:
215,218,217359,2,0,L|234:293,2,60,0|2|8,0:0|0:0|0:0,0:0:0:0:
266,109,218049,6,0,B|315:101|315:101|380:138|455:107,2,180,0|2|2,0:0|0:0|0:0,0:0:0:0:
93,56,219600,2,0,B|61:70|56:102|65:132|65:132|101:255,1,180,2|2,0:0|0:0,0:0:0:0:
113,274,220290,2,0,L|61:307,2,60,8|8|8,0:0|0:0|0:0,0:0:0:0:
167,247,220807,6,0,P|242:250|314:287,1,120,4|8,0:0|0:0,0:0:0:0:
392,316,221497,2,0,P|396:354|402:378,2,60,0|2|8,0:0|0:0|0:0,0:0:0:0:
428,267,222014,1,0,0:0:0:0:
428,267,222186,2,0,P|443:169|443:129,1,120,2|8,0:0|0:0,0:0:0:0:
370,52,222876,2,0,P|339:93|322:120,1,60,0|2,0:0|0:0,0:0:0:0:
322,159,223221,1,8,0:0:0:0:
212,208,223566,6,0,L|188:73,2,120,2|8|0,0:0|0:0|0:0,0:0:0:0:
181,259,224428,1,2,0:0:0:0:
217,306,224600,2,0,P|269:306|297:300,1,60,8|0,0:0|0:0,0:0:0:0:
332,281,224945,1,2,0:0:0:0:
433,217,225290,2,0,L|438:143,1,60,8|0,0:0|0:0,0:0:0:0:
381,133,225635,2,0,L|386:59,1,60,0|2,0:0|0:0,0:0:0:0:
418,23,225980,1,8,0:0:0:0:
300,45,226324,6,0,P|231:88|190:115,1,120,2|8,0:0|0:0,0:0:0:0:
105,185,227014,2,0,L|59:121,2,60,0|2|8,0:0|0:0|0:0,0:0:0:0:
116,244,227531,1,0,0:0:0:0:
174,256,227704,2,0,P|209:203|285:150,2,120,2|8|0,0:0|0:0|0:0,0:0:0:0:
181,315,228566,2,0,L|238:352,1,60
332,283,229083,6,0,B|368:270|368:270|459:281,1,120,2|8,0:0|0:0,0:0:0:0:
402,168,229773,2,0,L|332:162,1,60,0|2,0:0|0:0,0:0:0:0:
294,126,230118,2,0,P|263:190|260:203,1,60,8|0,0:0|0:0,0:0:0:0:
269,238,230462,1,2,0:0:0:0:
150,257,230807,2,0,P|123:247|20:242,2,120,8|0|8,0:0|0:0|0:0,0:0:0:0:
183,307,231669,1,8,0:0:0:0:
240,289,231842,6,0,P|261:232|277:176,1,120,4|8,0:0|0:0,0:0:0:0:
369,98,232531,2,0,P|385:137|403:169,2,60,0|2|8,0:0|0:0|0:0,0:0:0:0:
369,37,233049,1,0,0:0:0:0:
369,37,233221,2,0,L|230:28,1,120,2|8,0:0|0:0,0:0:0:0:
178,126,233911,2,0,L|257:124,2,60,0|2|8,0:0|0:0|0:0,0:0:0:0:
71,69,234600,6,0,P|52:151|69:192,1,120,2|8,0:0|0:0,0:0:0:0:
145,270,235290,2,0,P|174:239|179:202,1,60,0|2,0:0|0:0,0:0:0:0:
144,173,235635,2,0,P|155:145|177:125,1,60,8|0,0:0|0:0,0:0:0:0:
222,85,235980,2,0,L|368:96,2,120,2|8|0,0:0|0:0|0:0,0:0:0:0:
176,125,236842,1,0,0:0:0:0:
176,125,237014,1,0,0:0:0:0:
249,205,237359,6,0,P|284:266|294:328,1,120,2|8,0:0|0:0,0:0:0:0:
382,231,238049,2,0,L|451:219,1,60,0|2,0:0|0:0,0:0:0:0:
499,209,238393,2,0,L|488:149,1,60,8|0,0:0|0:0,0:0:0:0:
476,90,238738,2,0,L|327:116,1,120,2|8,0:0|0:0,0:0:0:0:
244,68,239428,2,0,P|255:23|272:0,2,60,0|2|8,0:0|0:0|0:0,0:0:0:0:
292,178,240118,6,0,P|237:156|160:164,2,120,2|8|0,0:0|0:0|0:0,0:0:0:0:
337,217,240980,1,2,0:0:0:0:
395,205,241152,2,0,L|405:132,1,60,8|0,0:0|0:0,0:0:0:0:
373,93,241497,2,0,L|533:140,2,120,2|2|2,0:0|0:0|0:0,0:0:0:0:
335,46,242359,1,0,0:0:0:0:
237,116,242704,2,0,L|248:191,1,60,2|6,0:0|0:0,0:0:0:0:
256,192,243049,12,2,245635,0:0:0:0:
