osu file format v14

[General]
AudioFilename: audio.mp3
AudioLeadIn: 0
PreviewTime: -1
Countdown: 0
SampleSet: None
StackLeniency: 0.6
Mode: 0
LetterboxInBreaks: 0
WidescreenStoryboard: 0

[Editor]
DistanceSpacing: 1
BeatDivisor: 4
GridSize: 32
TimelineZoom: 1

[Metadata]
Title:Ether
TitleUnicode:Ether
Artist:Xidic
ArtistUnicode:Xidic
Creator:sebbobo
Version:
Source:
Tags:
BeatmapID:2042438
BeatmapSetID:975885

[Difficulty]
HPDrainRate:5
CircleSize:4
OverallDifficulty:8
ApproachRate:9.2
SliderMultiplier:1.8
SliderTickRate:1

[Events]
//Background and Video events
0,0,"1.jpg",0,0
//Break Periods
2,138997,152141
//Storyboard Layer 0 (Background)
//Storyboard Layer 1 (Fail)
//Storyboard Layer 2 (Pass)
//Storyboard Layer 3 (Foreground)
//Storyboard Sound Samples

[TimingPoints]
140,428.571428571429,4,1,1,100,1,0
42890,-100,4,3,1,100,0,0
55747,-76.9230769230769,4,3,1,100,0,0
57461,-133.333333333333,4,3,1,100,0,0
57782,-133.333333333333,4,3,1,5,0,0
57890,-133.333333333333,4,3,1,100,0,0
59390,-133.333333333333,4,3,1,5,0,0
59604,-133.333333333333,4,3,1,100,0,0
61104,-133.333333333333,4,3,1,5,0,0
61318,-133.333333333333,4,3,1,100,0,0
64532,-133.333333333333,4,3,1,5,0,0
64747,-133.333333333333,4,3,1,100,0,0
66247,-133.333333333333,4,3,1,5,0,0
66461,-133.333333333333,4,3,1,100,0,0
67961,-133.333333333333,4,3,1,5,0,0
68175,-133.333333333333,4,3,1,100,0,0
69247,-133.333333333333,4,3,1,5,0,0
69461,-133.333333333333,4,3,1,100,0,0
70104,-100,4,3,1,100,0,0
75461,-133.333333333333,4,3,1,100,0,0
75890,-133.333333333333,4,3,1,5,0,0
76104,-133.333333333333,4,3,1,100,0,0
81515,-50,4,3,1,100,0,0
82425,-333.333333333333,4,3,1,100,0,0
84113,-333.333333333333,4,3,1,100,0,0
84943,-50,4,3,1,100,0,1
93461,-133.333333333333,4,3,1,100,0,1
94318,-50,4,3,1,100,0,1
95175,-133.333333333333,4,3,1,100,0,1
95604,-50,4,3,1,100,0,1
102032,-133.333333333333,4,3,1,100,0,1
102461,-50,4,3,1,100,0,1
107229,-133.333333333333,4,3,1,100,0,1
108032,-50,4,3,1,100,0,1
108890,-133.333333333333,4,3,1,100,0,1
109318,-50,4,3,1,100,0,1
110443,-50,4,3,1,100,0,0
111541,-50,4,3,1,100,0,1
112318,-133.333333333333,4,3,1,100,0,1
112747,-50,4,3,1,100,0,1
114032,-133.333333333333,4,3,1,100,0,1
114890,-50,4,3,1,100,0,1
120943,-133.333333333333,4,3,1,100,0,1
121318,-50,4,3,1,100,0,1
122604,-133.333333333333,4,3,1,100,0,1
123032,-50,4,3,1,100,0,1
123890,-133.333333333333,4,3,1,100,0,1
125175,-50,4,3,1,100,0,1
126086,-133.333333333333,4,3,1,100,0,1
126461,-50,4,3,1,100,0,1
127800,-133.333333333333,4,3,1,100,0,1
128604,-50,4,3,1,100,0,1
132890,-133.333333333333,4,3,1,100,0,1
133318,-50,4,3,1,100,0,1
133961,-50,4,3,1,5,0,1
134175,-50,4,3,1,100,0,1
135675,-50,4,3,1,100,0,0
152390,-133.333333333333,4,3,1,100,0,0
204943,-50,4,3,1,100,0,0
207568,-50,4,3,1,100,0,1
210032,-133.333333333333,4,3,1,100,0,1
210461,-50,4,3,1,100,0,1
215175,-133.333333333333,4,3,1,100,0,1
215604,-50,4,3,1,100,0,1
216890,-133.333333333333,4,3,1,100,0,1
217747,-50,4,3,1,100,0,1
220318,-133.333333333333,4,3,1,100,0,1
221175,-50,4,3,1,100,0,1
222032,-133.333333333333,4,3,1,100,0,1
222461,-50,4,3,1,100,0,1
223800,-133.333333333333,4,3,1,100,0,1
224604,-50,4,3,1,100,0,1
232318,-133.333333333333,4,3,1,100,0,1
232747,-50,4,3,1,100,0,1
238318,-133.333333333333,4,3,1,100,0,1
239390,-50,4,3,1,100,0,1
242604,-133.333333333333,4,3,1,100,0,1
243032,-50,4,3,1,100,0,1
248604,-133.333333333333,4,3,1,100,0,1
249890,-50,4,3,1,100,0,1
258890,-100,4,3,1,100,0,1

[Colours]
Combo1 : 186,5,91
Combo2 : 157,20,239
Combo3 : 57,159,242
Combo4 : 251,227,66

[HitObjects]
113,146,29282,6,2,P|162:108|217:82,1,90
317,43,29711,1,0,0:0:0:0:
385,144,29925,2,8,P|439:99|450:57,1,90
467,20,30568,1,0,0:0:0:0:
351,108,30782,2,8,L|380:138,4,22.5
448,211,31211,1,0,0:0:0:0:
391,278,31425,1,0,0:0:0:0:
306,325,31640,1,0,0:0:0:0:
376,151,31854,5,0,0:0:0:0:
297,200,32068,1,0,0:0:0:0:
213,226,32282,1,0,0:0:0:0:
288,97,32497,5,0,0:0:0:0:
165,50,32711,6,2,L|60:15,1,90
17,139,33140,1,0,0:0:0:0:
198,145,33354,6,2,L|92:100,1,90
47,230,33782,1,0,0:0:0:0:
158,131,33997,1,0,0:0:0:0:
99,328,34211,1,0,0:0:0:0:
190,311,34425,1,0,0:0:0:0:
271,280,34640,1,0,0:0:0:0:
345,236,34854,1,0,0:0:0:0:
403,182,35068,1,0,0:0:0:0:
461,110,35282,2,0,P|396:78|343:70,1,90
242,41,35711,5,0,0:0:0:0:
219,232,35925,1,0,0:0:0:0:
399,146,36140,6,2,P|350:108|295:82,1,90
195,43,36569,1,0,0:0:0:0:
127,144,36783,2,8,P|73:99|62:57,1,90
45,20,37426,5,0,0:0:0:0:
161,108,37640,2,8,L|132:138,4,22.5
64,211,38069,1,0,0:0:0:0:
121,278,38283,1,0,0:0:0:0:
206,325,38498,1,0,0:0:0:0:
297,343,38711,1,0,0:0:0:0:
390,338,38925,1,0,0:0:0:0:
468,295,39140,1,2,0:0:0:0:
259,85,39782,5,0,0:0:0:0:
120,232,39997,1,0,0:0:0:0:
329,170,40211,1,0,0:0:0:0:
133,59,40425,5,0,0:0:0:0:
190,288,40640,1,0,0:0:0:0:
246,71,40854,5,0,0:0:0:0:
91,282,41068,1,0,0:0:0:0:
231,59,42997,5,0,0:0:0:0:
231,59,43104,1,0,0:0:0:0:
231,59,43211,1,0,0:0:0:0:
370,51,43425,1,0,0:0:0:0:
442,177,43640,2,0,P|454:226|467:303,1,90
331,157,44068,1,0,0:0:0:0:
369,300,44282,1,2,0:0:0:0:
258,178,44497,1,0,0:0:0:0:
244,45,44711,5,0,0:0:0:0:
244,45,44818,1,0,0:0:0:0:
244,45,44925,1,0,0:0:0:0:
92,79,45140,1,0,0:0:0:0:
54,205,45354,2,0,P|53:255|57:333,1,90
183,332,45782,1,0,0:0:0:0:
304,317,45997,1,0,0:0:0:0:
391,248,46211,1,0,0:0:0:0:
369,93,46425,6,0,L|451:42,1,90
434,200,46854,1,0,0:0:0:0:
230,130,47068,1,0,0:0:0:0:
216,56,47282,6,0,L|309:-4|309:-4,1,90
291,146,47711,1,0,0:0:0:0:
92,81,47925,1,0,0:0:0:0:
66,219,48140,5,0,0:0:0:0:
71,230,48247,1,0,0:0:0:0:
151,270,48461,1,0,0:0:0:0:
377,61,48782,1,0,0:0:0:0:
124,25,49104,1,0,0:0:0:0:
333,298,49425,1,0,0:0:0:0:
250,344,49640,5,0,0:0:0:0:
296,137,49854,2,0,P|332:120|369:117,1,45
371,203,50068,2,0,P|420:181|431:171,2,45
109,193,50497,1,0,0:0:0:0:
117,200,50604,1,0,0:0:0:0:
367,139,50925,1,0,0:0:0:0:
218,67,51140,2,0,P|297:51|322:64,1,90
302,53,51461,1,0,0:0:0:0:
400,78,51568,6,0,L|443:147,1,45
441,156,51782,2,0,L|401:190,1,45
369,213,51997,2,0,L|334:165,1,45
316,144,52211,2,0,L|318:91,1,45
348,68,52425,2,0,L|409:115,1,45
508,93,52640,1,0,0:0:0:0:
492,60,52747,1,0,0:0:0:0:
469,40,52854,1,0,0:0:0:0:
429,63,52961,5,0,0:0:0:0:
402,88,53068,1,0,0:0:0:0:
370,107,53175,1,0,0:0:0:0:
290,152,53282,6,0,L|245:181,1,45
152,226,53497,1,0,0:0:0:0:
130,266,53604,1,0,0:0:0:0:
156,297,53711,1,0,0:0:0:0:
196,273,53818,1,0,0:0:0:0:
186,228,53925,1,0,0:0:0:0:
150,215,54032,1,0,0:0:0:0:
36,205,54140,6,0,L|75:166,1,45
189,50,54354,1,0,0:0:0:0:
212,87,54461,1,0,0:0:0:0:
191,121,54568,1,0,0:0:0:0:
154,104,54675,1,0,0:0:0:0:
163,68,54782,1,0,0:0:0:0:
196,50,54890,1,0,0:0:0:0:
295,39,54997,5,0,0:0:0:0:
303,44,55104,1,0,0:0:0:0:
289,135,55318,1,0,0:0:0:0:
404,111,55532,1,0,0:0:0:0:
402,122,55639,1,0,0:0:0:0:
446,204,55854,6,0,B|375:274|320:242|320:242|257:225|228:334,1,233.999989288331
31,272,56497,1,0,0:0:0:0:
31,272,56711,2,0,B|106:190|191:228|191:228|235:146|339:169,1,350.999983932496
426,76,57568,6,4,B|428:164,1,67.5000025749208
251,168,57997,1,0,0:0:0:0:
158,274,58211,1,0,0:0:0:0:
147,57,58425,2,0,L|3:26,1,135.000005149842
177,165,59068,1,0,0:0:0:0:
316,226,59282,2,4,L|318:312,1,67.5000025749208
312,139,59711,1,0,0:0:0:0:
116,130,59925,1,0,0:0:0:0:
312,178,60140,2,0,P|386:159|311:129,1,202.500007724762
298,260,60997,6,4,L|300:339,1,67.5000025749208
363,88,61425,1,0,0:0:0:0:
298,254,61640,1,0,0:0:0:0:
442,159,61854,2,0,L|441:85,1,67.5000025749208
251,117,62282,6,0,P|200:103|155:34,1,135.000005149842
125,134,62925,1,0,0:0:0:0:
125,134,63140,2,0,P|151:216|206:241,1,135.000005149842
280,230,63782,1,0,0:0:0:0:
373,368,63997,1,0,0:0:0:0:
365,167,64211,1,0,0:0:0:0:
468,272,64425,2,4,L|471:347,1,67.5000025749208
219,202,64854,5,0,0:0:0:0:
413,82,65282,1,0,0:0:0:0:
462,197,65497,1,0,0:0:0:0:
384,293,65711,1,0,0:0:0:0:
251,326,65925,1,0,0:0:0:0:
312,190,66140,2,4,L|314:282,1,67.5000025749208
371,83,66568,5,0,0:0:0:0:
106,185,66997,1,0,0:0:0:0:
219,292,67211,1,0,0:0:0:0:
226,296,67318,1,0,0:0:0:0:
322,108,67640,1,0,0:0:0:0:
101,154,67854,2,4,L|103:242,1,67.5000025749208
44,323,68282,5,0,0:0:0:0:
465,41,69140,1,0,0:0:0:0:
250,173,69354,2,4,L|252:255,1,67.5000025749208
398,117,70425,6,0,P|413:170|398:204,1,90
323,344,70854,1,0,0:0:0:0:
326,168,71068,1,0,0:0:0:0:
442,314,71282,1,0,0:0:0:0:
261,211,71497,1,0,0:0:0:0:
462,181,71711,1,0,0:0:0:0:
317,334,71925,1,0,0:0:0:0:
365,198,72140,6,0,L|387:101,1,90
402,19,72568,1,0,0:0:0:0:
229,118,72782,1,0,0:0:0:0:
449,98,72997,1,0,0:0:0:0:
307,2,73211,1,0,0:0:0:0:
369,187,73425,1,0,0:0:0:0:
233,39,73640,1,0,0:0:0:0:
301,194,73854,6,0,P|290:246|241:256,1,90
48,298,74282,1,0,0:0:0:0:
212,190,74497,1,0,0:0:0:0:
194,345,74711,1,0,0:0:0:0:
114,158,74925,1,0,0:0:0:0:
272,274,75140,1,0,0:0:0:0:
60,221,75354,1,0,0:0:0:0:
306,145,75568,6,0,B|384:159|384:159|391:206|442:247|442:247|411:312|382:338,1,270.000010299683
291,258,76640,1,0,0:0:0:0:
448,135,76854,1,0,0:0:0:0:
376,304,77068,1,0,0:0:0:0:
368,88,77282,5,0,0:0:0:0:
376,240,77497,1,0,0:0:0:0:
262,80,77711,1,0,0:0:0:0:
439,193,77925,1,0,0:0:0:0:
353,57,78140,5,0,0:0:0:0:
311,239,78354,1,0,0:0:0:0:
436,83,78568,1,0,0:0:0:0:
385,247,78782,1,0,0:0:0:0:
311,82,78997,5,0,0:0:0:0:
297,282,79211,1,0,0:0:0:0:
238,98,79425,1,0,0:0:0:0:
367,207,79640,1,0,0:0:0:0:
229,12,79854,5,0,0:0:0:0:
374,137,80068,1,0,0:0:0:0:
213,106,80282,1,0,0:0:0:0:
211,142,80390,1,0,0:0:0:0:
226,175,80497,1,0,0:0:0:0:
251,202,80604,1,0,0:0:0:0:
281,221,80711,1,0,0:0:0:0:
317,233,80818,1,0,0:0:0:0:
354,236,80925,1,0,0:0:0:0:
370,191,81032,5,0,0:0:0:0:
337,177,81140,1,0,0:0:0:0:
308,167,81247,1,0,0:0:0:0:
277,167,81354,1,0,0:0:0:0:
251,178,81461,1,0,0:0:0:0:
220,196,81568,6,0,L|190:212,19,33.7500012874604
55,120,84140,6,0,L|151:121,1,94.4999971160889
241,43,84997,6,0,B|288:159|288:159|404:214|404:214|498:363,1,360
470,139,85640,1,0,0:0:0:0:
384,47,85854,6,0,B|240:45|240:45|196:91|196:91|32:139,1,360
207,212,86497,1,0,0:0:0:0:
220,209,86604,1,0,0:0:0:0:
231,208,86711,2,0,B|328:173|328:173|385:226|385:226|413:122|413:122|382:48|382:48|291:60|249:95|249:95|168:125,1,540
189,93,87568,6,0,P|137:288|272:87,1,720
157,96,88640,1,0,0:0:0:0:
271,86,88854,6,0,P|248:338|189:93,1,720
327,97,89925,1,0,0:0:0:0:
355,287,90140,2,0,P|382:151|410:121,1,180
477,264,90568,1,0,0:0:0:0:
268,74,90997,6,0,B|147:30|147:30|177:180|177:180|35:166|61:44|61:44|-26:141,1,540
32,192,91854,1,0,0:0:0:0:
160,54,92068,1,0,0:0:0:0:
194,201,92282,6,0,P|346:346|220:136,1,720
288,288,93354,1,0,0:0:0:0:
410,158,93568,2,0,L|491:140,1,67.5000025749208
306,93,93997,2,0,L|397:71,1,67.5000025749208
71,88,94425,6,0,B|40:164|40:164|131:107|183:155|183:155|118:246|213:255,1,360
302,272,95068,1,0,0:0:0:0:
375,170,95282,2,0,P|429:186|463:207,1,67.5000025749208
283,39,95711,2,0,B|178:122|80:45|80:45|210:320|33:361|-117:133|-21:12|185:229|236:182|259:162,1,720
282,198,96782,1,0,0:0:0:0:
354,265,96997,2,0,B|325:370|119:381|193:359|345:291|161:243,1,270
47,144,97639,1,0,0:0:0:0:
40,140,97747,1,0,0:0:0:0:
137,232,97854,6,0,B|197:176|236:108|236:108|486:313|225:407|17:298|431:125|294:27,1,720
174,40,98925,1,0,0:0:0:0:
98,157,99140,6,0,B|140:272|110:333|110:333|267:249|333:188|254:118|191:100|152:158|115:333|373:227,1,720
467,208,100211,1,0,0:0:0:0:
467,208,100318,1,0,0:0:0:0:
467,208,100425,2,0,B|409:207|409:207|430:125|430:125|356:122,1,180
263,120,100854,2,0,B|226:122|226:122|247:204|247:204|189:205,1,180
88,199,101282,6,0,P|56:95|233:207,1,540
212,278,102140,2,0,L|281:260,1,67.5000025749208
449,215,102568,6,0,B|390:247|380:305|380:305|369:197|318:137|318:137|396:165|464:47|286:-19|264:96|264:96|198:42|106:59,1,720
17,180,103640,1,0,0:0:0:0:
17,180,103747,2,0,P|144:140|264:217,1,270
311,338,104282,2,0,B|194:324|130:235|118:177,1,180
88,173,104711,6,0,B|136:85|117:42|117:42|235:111|341:65|341:65|294:173|187:161|187:161|158:207,1,540
97,153,105568,1,0,0:0:0:0:
3,89,105782,1,0,0:0:0:0:
97,153,105997,2,0,P|234:76|88:237,1,720
60,160,107068,1,0,0:0:0:0:
72,159,107175,1,0,0:0:0:0:
86,157,107282,2,0,L|131:101,1,67.5000025749208
216,173,107711,2,0,L|266:107,1,67.5000025749208
346,48,108140,6,0,B|469:36|433:121|433:121|344:113|329:207,1,270
332,355,108782,1,0,0:0:0:0:
306,170,108997,2,0,L|232:172,1,67.5000025749208
142,167,109425,2,0,B|-202:-13|374:-57|46:173|1:252|1:252|96:284|219:220,1,720
259,191,110711,1,0,0:0:0:0:
307,282,111568,6,0,B|410:219|396:197|396:197|282:199|231:152|231:152|373:129,1,360
421,122,112211,1,0,0:0:0:0:
318,41,112425,2,0,L|246:52,1,67.5000025749208
130,47,112854,6,0,B|148:155|65:243|65:243|260:99|378:115,1,540
491,121,113711,1,0,0:0:0:0:
384,281,113925,1,0,0:0:0:0:
412,63,114140,2,0,L|355:117,1,67.5000025749208
214,220,114568,2,0,L|140:278,1,67.5000025749208
120,85,114997,6,0,B|301:64|387:202|387:202|290:292|237:283|237:283|293:150|188:152|136:178|143:247,1,720
415,172,116282,1,0,0:0:0:0:
421,148,116390,1,0,0:0:0:0:
424,122,116497,1,0,0:0:0:0:
420,100,116604,1,0,0:0:0:0:
404,90,116711,2,0,B|322:136|293:125|293:125|302:31|105:68|-53:164|201:341|408:230|238:103|106:65|52:97|52:97|78:160|56:229|56:229|147:247|145:321,1,900
298,197,117997,2,0,B|282:268|201:276|201:276|291:325|315:360|373:316|373:316|362:238|435:147|435:147|446:282,1,630
509,313,119068,1,0,0:0:0:0:
471,218,119282,6,0,B|440:92|358:15|358:15|346:127|267:120,1,360
146,165,119925,1,0,0:0:0:0:
276,125,120140,2,0,B|363:105|357:48|357:48|461:121|408:205|408:205|349:196|313:262,1,360
216,253,120782,1,0,0:0:0:0:
228,257,120890,1,0,0:0:0:0:
110,271,120997,2,0,L|33:280,1,67.5000025749208
209,160,121425,5,0,0:0:0:0:
239,156,121532,5,0,0:0:0:0:
268,165,121640,5,0,0:0:0:0:
297,183,121747,1,0,0:0:0:0:
319,192,121854,6,0,B|420:153|450:57|353:33|353:33|348:102|214:28|214:28|207:85|100:47,1,450
183,61,122497,1,0,0:0:0:0:
61,95,122711,2,0,L|61:6,1,67.5000025749208
62,204,123140,6,0,B|132:274|133:330|133:330|193:263|263:289|323:205|268:63|95:108|185:211,1,540
295,281,123997,2,0,L|293:358,1,67.5000025749208
432,273,124425,2,0,L|432:347,1,67.5000025749208
353,253,124854,2,0,L|354:339,1,67.5000025749208
350,167,125282,6,0,P|447:119|306:126,1,360
210,179,125925,1,0,0:0:0:0:
218,187,126032,1,0,0:0:0:0:
203,68,126140,2,0,L|281:68,1,67.5000025749208
403,70,126568,6,0,P|502:74|380:141,2,360
253,168,127640,1,0,0:0:0:0:
264,177,127747,1,0,0:0:0:0:
409,229,127854,2,0,L|408:323,1,67.5000025749208
235,266,128282,2,0,L|231:341,1,67.5000025749208
73,232,128711,6,0,B|139:12|139:12|269:113|310:176|256:261|158:264|119:170|199:112|270:34|270:34|333:124|343:197|276:282|276:282|398:215|401:282,1,1080
511,255,130211,1,0,0:0:0:0:
465,147,130425,2,0,B|406:62|373:130|212:62|206:147|291:182|334:196|334:196|368:282|277:333|194:313|197:223|197:184|197:184|157:111|87:198,1,720
206,84,131497,1,0,0:0:0:0:
308,47,131711,1,0,0:0:0:0:
432,47,131925,1,0,0:0:0:0:
337,113,132140,6,0,B|233:181|233:181|153:158|153:158|75:213|96:285|192:316,1,360
282,324,132782,1,0,0:0:0:0:
360,181,132997,2,0,L|303:222,1,67.5000025749208
132,184,133425,1,0,0:0:0:0:
164,40,133640,1,0,0:0:0:0:
302,75,133854,2,0,L|485:132,1,180
192,150,134282,1,0,0:0:0:0:
306,199,134497,2,0,L|530:285,1,180
271,326,134925,2,0,B|181:305|130:315|130:315|166:232|53:138|53:138|-1:253|65:333,1,540
137,118,152711,6,4,L|140:202,1,67.5000025749208
452,112,153568,1,0,0:0:0:0:
348,212,153997,1,0,0:0:0:0:
250,128,154640,5,0,0:0:0:0:
146,14,154854,1,0,0:0:0:0:
180,190,155068,1,0,0:0:0:0:
188,204,155175,1,0,0:0:0:0:
197,221,155282,2,4,L|246:290,1,67.5000025749208
351,328,155711,5,0,0:0:0:0:
351,328,155925,1,0,0:0:0:0:
451,190,156140,6,4,L|364:188,1,67.5000025749208
96,180,156997,1,0,0:0:0:0:
314,29,157425,1,0,0:0:0:0:
245,111,157640,1,0,0:0:0:0:
348,323,158282,1,0,0:0:0:0:
393,175,158497,5,0,0:0:0:0:
382,169,158604,1,0,0:0:0:0:
368,163,158711,2,4,L|300:124,1,67.5000025749208
203,74,159140,1,0,0:0:0:0:
135,176,159354,1,0,0:0:0:0:
37,73,159568,6,4,P|41:144|51:166,1,67.5000025749208
176,346,160425,1,0,0:0:0:0:
420,125,160854,1,0,0:0:0:0:
321,172,161068,1,0,0:0:0:0:
92,287,161711,1,0,0:0:0:0:
261,288,161925,1,0,0:0:0:0:
273,284,162032,1,0,0:0:0:0:
284,280,162140,2,4,P|321:249|339:217,1,67.5000025749208
411,80,162997,6,4,L|316:96,1,67.5000025749208
27,166,163854,1,0,0:0:0:0:
340,86,164282,1,0,0:0:0:0:
47,288,165140,1,0,0:0:0:0:
251,238,165354,1,0,0:0:0:0:
261,231,165461,1,0,0:0:0:0:
269,221,165568,2,4,P|292:183|299:150,1,67.5000025749208
377,182,166425,5,0,0:0:0:0:
412,94,166640,1,0,0:0:0:0:
406,88,166747,2,0,P|308:69|236:84,1,168.750006437302
121,152,167497,5,0,0:0:0:0:
331,127,167711,1,0,0:0:0:0:
145,61,167925,1,0,0:0:0:0:
283,217,168140,2,0,P|310:240|317:261,1,33.7500012874604
251,332,168354,2,0,P|217:312|216:300,1,33.7500012874604
184,212,168568,2,0,P|177:130|209:95,1,135.000005149842
404,42,169211,1,0,0:0:0:0:
250,197,169425,1,0,0:0:0:0:
288,11,169640,1,0,0:0:0:0:
431,145,169854,6,0,B|407:215|423:277|423:277|350:223|266:258,1,270.000010299683
179,282,170925,1,0,0:0:0:0:
23,322,171140,1,0,0:0:0:0:
179,282,171354,1,0,0:0:0:0:
301,208,171568,2,0,B|351:163|388:150|388:150|366:99,1,135.000005149842
311,37,172211,2,0,P|261:43|242:60,1,67.5000025749208
155,130,172640,1,0,0:0:0:0:
51,255,172854,1,0,0:0:0:0:
155,130,173068,1,0,0:0:0:0:
261,57,173282,6,0,P|315:70|321:76,1,33.7500012874604
294,163,173497,2,0,P|344:166|354:162,1,33.7500012874604
386,62,173711,1,0,0:0:0:0:
397,62,173818,1,0,0:0:0:0:
405,62,173925,2,0,P|445:123|438:140,1,67.5000025749208
420,256,174354,1,0,0:0:0:0:
312,99,174568,1,0,0:0:0:0:
303,288,174782,1,0,0:0:0:0:
239,124,174997,6,0,P|184:114|176:118,1,33.7500012874604
167,208,175212,2,0,P|119:191|112:183,1,33.7500012874604
121,79,175426,1,0,0:0:0:0:
111,75,175533,1,0,0:0:0:0:
104,72,175640,2,0,P|43:112|43:130,1,67.5000025749208
24,252,176068,1,0,0:0:0:0:
169,140,176282,1,0,0:0:0:0:
181,321,176497,1,0,0:0:0:0:
253,175,176711,6,0,P|308:167|315:171,1,33.7500012874604
321,262,176926,2,0,P|368:246|376:239,1,33.7500012874604
371,134,177140,1,0,0:0:0:0:
381,130,177247,1,0,0:0:0:0:
389,128,177354,2,0,P|448:170|447:188,1,67.5000025749208
480,318,177782,1,0,0:0:0:0:
314,185,177997,1,0,0:0:0:0:
360,359,178211,1,0,0:0:0:0:
230,228,178425,6,0,P|174:223|167:227,1,33.7500012874604
165,318,178640,2,0,P|116:305|108:298,1,33.7500012874604
109,194,178854,1,0,0:0:0:0:
99,190,178961,1,0,0:0:0:0:
91,188,179068,2,0,P|34:233|35:251,1,67.5000025749208
21,328,179497,1,0,0:0:0:0:
249,338,179711,1,0,0:0:0:0:
255,168,179925,1,0,0:0:0:0:
183,40,180140,6,0,P|96:29|128:176,1,270.000010299683
253,186,181211,1,0,0:0:0:0:
359,13,181425,1,0,0:0:0:0:
253,186,181640,1,0,0:0:0:0:
246,52,181854,6,0,P|321:6|351:153,1,270.000010299683
270,239,182925,1,0,0:0:0:0:
147,321,183140,1,0,0:0:0:0:
338,132,183354,1,0,0:0:0:0:
355,124,183461,1,0,0:0:0:0:
371,118,183568,6,0,P|450:164|355:263,1,270.000010299683
216,206,184640,1,0,0:0:0:0:
68,80,184854,1,0,0:0:0:0:
216,206,185068,1,0,0:0:0:0:
344,299,185282,6,0,P|431:310|399:163,1,270.000010299683
291,93,186354,1,0,0:0:0:0:
131,24,186568,1,0,0:0:0:0:
137,31,186675,1,0,0:0:0:0:
227,191,186890,5,0,0:0:0:0:
234,196,186997,2,0,P|344:239|369:123,1,270.000010299683
220,24,188068,1,0,0:0:0:0:
212,29,188175,1,0,0:0:0:0:
204,33,188282,1,0,0:0:0:0:
45,124,188497,1,0,0:0:0:0:
177,251,188711,6,0,P|257:285|267:135,1,270.000010299683
198,37,189782,1,0,0:0:0:0:
0,46,189997,1,0,0:0:0:0:
9,57,190104,1,0,0:0:0:0:
176,198,190318,5,0,0:0:0:0:
186,205,190425,2,0,B|250:299|321:150|428:278,1,270.000010299683
409,320,191497,1,0,0:0:0:0:
435,102,191711,1,0,0:0:0:0:
316,282,191925,1,0,0:0:0:0:
303,144,192140,6,0,B|198:19|127:168|63:74,1,270.000010299683
27,6,193211,1,0,0:0:0:0:
72,248,193425,1,0,0:0:0:0:
86,254,193532,1,0,0:0:0:0:
251,71,193747,1,0,0:0:0:0:
260,80,193854,2,0,B|298:30|358:133|401:53,1,135.000005149842
169,190,194711,6,0,B|142:248|82:145|44:195,1,135.000005149842
342,147,195568,6,0,B|380:97|440:200|483:120,1,135.000005149842
171,266,196425,6,0,B|144:324|84:221|46:271,1,135.000005149842
348,234,197282,6,0,B|380:190|440:293|467:234,1,135.000005149842
188,169,198140,6,0,B|108:147|180:85|142:31|57:71|57:71|79:156|58:155,1,270.000010299683
80,273,199425,1,0,0:0:0:0:
307,279,199854,1,0,0:0:0:0:
306,91,200282,1,0,0:0:0:0:
243,196,200711,1,0,0:0:0:0:
190,96,200925,1,0,0:0:0:0:
153,222,201140,1,0,0:0:0:0:
283,100,201354,1,0,0:0:0:0:
236,267,201568,5,0,0:0:0:0:
196,81,201782,1,0,0:0:0:0:
155,283,201997,1,0,0:0:0:0:
270,117,202211,1,0,0:0:0:0:
289,284,202425,5,0,0:0:0:0:
174,118,202640,1,0,0:0:0:0:
214,295,202854,1,0,0:0:0:0:
257,120,203068,1,0,0:0:0:0:
81,183,203282,1,0,0:0:0:0:
252,199,203497,1,0,0:0:0:0:
92,265,203711,1,0,0:0:0:0:
105,298,203819,1,0,0:0:0:0:
133,321,203926,1,0,0:0:0:0:
168,334,204033,1,0,0:0:0:0:
203,338,204140,1,0,0:0:0:0:
241,333,204247,1,0,0:0:0:0:
275,320,204354,1,0,0:0:0:0:
270,272,204461,5,0,0:0:0:0:
234,274,204569,1,0,0:0:0:0:
204,278,204676,1,0,0:0:0:0:
176,291,204783,1,0,0:0:0:0:
157,313,204890,1,0,0:0:0:0:
137,342,204997,6,0,L|117:369,19,33.7500012874604
129,104,206711,5,0,0:0:0:0:
420,140,207032,5,0,0:0:0:0:
192,193,207354,5,0,0:0:0:0:
304,63,207568,5,0,0:0:0:0:
336,45,207675,1,0,0:0:0:0:
366,36,207782,1,0,0:0:0:0:
397,33,207890,1,0,0:0:0:0:
432,30,207997,2,0,B|459:142|459:142|518:122|518:122|547:283,2,270
329,61,208854,1,0,0:0:0:0:
306,87,208961,1,0,0:0:0:0:
293,112,209068,1,0,0:0:0:0:
283,145,209175,1,0,0:0:0:0:
276,170,209282,6,0,L|237:276,1,90
155,242,209497,2,0,L|191:152,1,90
117,120,209711,2,0,L|80:206,1,90
29,77,209925,1,0,0:0:0:0:
199,30,210140,2,0,L|283:31,1,67.5000025749208
446,48,210568,1,0,0:0:0:0:
422,177,210782,6,0,B|313:132|304:45|304:45|243:126,1,270
165,231,211425,1,0,0:0:0:0:
110,309,211640,1,0,0:0:0:0:
119,324,211747,1,0,0:0:0:0:
127,334,211854,1,0,0:0:0:0:
273,264,212068,6,0,P|357:211|371:135,1,180
307,43,212497,2,0,P|151:48|136:249,1,360
238,297,213140,2,0,P|325:284|357:248,1,90
384,227,213354,2,0,P|387:130|351:81,1,90
320,72,213568,2,0,L|309:189,1,90
236,70,213782,2,0,L|230:160,1,90
153,62,213997,2,0,L|146:162,1,90
146,257,214211,6,0,B|245:320|327:296|327:296|251:234|264:173|264:173|371:248|474:235|477:86|393:36|283:59|269:110,1,720
136,148,215282,2,0,L|73:174,1,67.5000025749208
61,279,215711,2,0,B|185:330|185:330|351:324|351:324|391:225|314:163|314:163|251:235|251:235|312:268,1,630
438,335,216782,1,0,0:0:0:0:
454,204,216997,2,0,L|474:115,1,67.5000025749208
353,142,217425,2,0,L|368:75,1,67.5000025749208
378,2,217854,6,0,B|183:23|183:23|261:100|204:162|111:135|98:47|98:47|45:196|126:264|126:264|197:225|222:197,1,720
281,178,218925,1,0,0:0:0:0:
345,79,219140,2,0,B|443:67|443:67|371:130|333:227|362:290|463:273|470:179|470:179|491:343|379:368|272:336,1,720
168,312,220211,1,0,0:0:0:0:
170,168,220425,2,0,L|71:170,1,67.5000025749208
191,63,220854,2,0,L|95:66,1,67.5000025749208
263,22,221282,6,0,L|384:357,1,270
397,116,221925,1,0,0:0:0:0:
265,165,222140,2,0,L|183:198,1,67.5000025749208
84,236,222568,2,0,B|94:146|57:77|57:77|127:91|185:153|158:198|216:273|303:263|322:185|271:135|225:124|225:124|153:37|259:41|259:41|331:91,1,720
407,163,223640,1,0,0:0:0:0:
416,177,223747,1,0,0:0:0:0:
424,194,223854,2,0,L|464:262,1,67.5000025749208
303,160,224282,2,0,L|344:238,1,67.5000025749208
388,318,224711,6,0,B|405:351|458:364|458:364|254:376|164:282|164:282|230:254|270:165|270:165|108:216,1,720
14,251,225782,1,0,0:0:0:0:
68,159,225997,2,0,B|150:222|280:263|456:209|489:3,1,540
396,142,226854,1,0,0:0:0:0:
260,260,227068,1,0,0:0:0:0:
61,334,227282,2,0,P|413:311|461:-39,1,720
369,56,228354,5,0,0:0:0:0:
251,121,228568,1,0,0:0:0:0:
395,159,228782,1,0,0:0:0:0:
248,233,228997,1,0,0:0:0:0:
415,269,229211,2,0,B|437:168|437:168|477:243|477:243|528:73|528:73|371:40|347:197,1,540
312,207,230068,1,0,0:0:0:0:
130,278,230497,1,0,0:0:0:0:
141,284,230604,1,0,0:0:0:0:
151,290,230711,2,0,P|227:210|260:121,1,180
417,257,231140,6,0,P|336:151|324:55,1,180
260,228,231568,2,0,B|221:130|211:33|211:33|130:89|64:137|43:216|110:275|181:240|170:151,1,540
81,29,232425,2,0,L|177:31,1,67.5000025749208
312,40,232854,2,0,B|412:55|412:55|271:134|271:134|369:127|403:184,1,360
469,245,233497,1,0,0:0:0:0:
472,252,233604,1,0,0:0:0:0:
477,261,233711,1,0,0:0:0:0:
230,300,233925,1,0,0:0:0:0:
367,199,234140,6,0,L|367:14,1,180
261,18,234568,2,0,L|260:206,1,180
71,281,234997,6,0,L|315:289,1,180
164,62,235640,2,0,L|394:65,1,180
239,299,236282,2,0,L|464:300,1,180
433,237,237140,2,0,B|387:110|393:25|393:25|322:174|313:128,1,360
122,146,237782,1,0,0:0:0:0:
298,138,237997,1,0,0:0:0:0:
116,138,238211,1,0,0:0:0:0:
341,129,238425,6,0,B|369:66|357:22|357:22|430:47|466:134,1,270.000010299683
499,253,239497,1,0,0:0:0:0:
302,255,239711,1,0,0:0:0:0:
268,254,239818,1,0,0:0:0:0:
231,253,239925,1,0,0:0:0:0:
191,249,240032,1,0,0:0:0:0:
162,246,240140,2,0,B|87:174|104:103|104:103|183:127|208:180|208:180|253:113|292:122,1,360
346,70,240782,2,0,B|415:69|454:34|454:35|409:194|456:202|456:202|356:240,1,270
348,230,241211,2,0,B|359:138|359:138|260:142|246:61,1,180
146,56,241640,1,0,0:0:0:0:
78,183,241854,6,0,B|117:274|93:323|93:323|453:115,1,540
320,54,242711,2,0,L|236:96,1,67.5000025749208
137,149,243140,2,0,P|57:257|71:308,1,180
175,341,243568,2,0,P|328:281|419:96,1,360
316,35,244211,1,0,0:0:0:0:
307,45,244318,1,0,0:0:0:0:
297,59,244425,2,0,P|232:153|246:227,1,180
375,241,244854,2,0,P|435:158|422:73,1,180
359,17,245282,6,0,L|190:196,1,180
143,235,245711,1,0,0:0:0:0:
240,147,245925,1,0,0:0:0:0:
151,249,246140,2,0,P|257:297|338:211,1,180
366,149,246568,1,0,0:0:0:0:
306,266,246782,1,0,0:0:0:0:
366,149,246997,2,0,P|320:46|213:40,1,180
119,54,247425,1,0,0:0:0:0:
263,32,247640,1,0,0:0:0:0:
119,54,247854,2,0,P|68:157|95:262,1,180
170,304,248282,2,0,P|291:318|354:258,1,180
412,140,248711,6,0,P|395:76|250:42,1,202.500007724762
135,103,249568,2,0,L|41:105,1,67.5000025749208
281,196,249997,5,0,0:0:0:0:
131,322,250211,1,0,0:0:0:0:
154,14,250640,1,0,0:0:0:0:
261,309,250854,1,0,0:0:0:0:
382,175,251068,1,0,0:0:0:0:
391,183,251175,1,0,0:0:0:0:
398,193,251282,1,0,0:0:0:0:
333,24,251497,1,0,0:0:0:0:
271,202,251711,1,0,0:0:0:0:
188,26,251925,1,0,0:0:0:0:
121,242,252140,6,0,P|206:320|383:253,1,270
416,80,252782,1,0,0:0:0:0:
400,62,252890,1,0,0:0:0:0:
378,46,252997,1,0,0:0:0:0:
270,24,253211,2,0,P|154:36|99:108,1,180
105,231,253640,2,0,P|192:300|319:284,1,180
374,274,254068,2,0,L|380:76,1,180
476,84,254497,2,0,L|469:283,1,180
346,337,254925,2,0,B|271:240|328:166|328:166|255:117|141:198,1,360
71,271,255568,6,0,B|30:307|21:350|21:350|-18:200|50:106|50:106|65:212|157:76|292:88,1,540
396,51,256425,1,0,0:0:0:0:
170,124,256640,1,0,0:0:0:0:
400,147,256854,1,0,0:0:0:0:
270,0,257068,5,0,0:0:0:0:
339,215,257282,1,0,0:0:0:0:
177,31,257497,1,0,0:0:0:0:
219,264,257711,1,0,0:0:0:0:
47,132,257925,1,0,0:0:0:0:
56,148,258032,1,0,0:0:0:0:
62,161,258140,1,0,0:0:0:0:
300,77,258354,1,0,0:0:0:0:
157,238,258568,2,0,P|250:293|334:278,1,180
256,192,258997,12,0,262425,0:0:0:0:
