osu file format v14

[General]
AudioFilename: 1.mp3
AudioLeadIn: 0
PreviewTime: 66823
Countdown: 0
SampleSet: Soft
StackLeniency: 0.7
Mode: 0
LetterboxInBreaks: 1
EpilepsyWarning: 1
WidescreenStoryboard: 1

[Editor]
DistanceSpacing: 1
BeatDivisor: 4
GridSize: 4
TimelineZoom: 1.5

[Metadata]
Title:Dan Xiang Di Tie Feat. Karin
TitleUnicode:单向地铁 Feat. Karin
Artist:Xiao Ye Dao ono
ArtistUnicode:小野道ono
Creator:moonlightleaf
Version:Normal
Source:
Tags:Girls'Pop _Star
BeatmapID:1806042
BeatmapSetID:862835

[Difficulty]
HPDrainRate:4
CircleSize:3
OverallDifficulty:3.5
ApproachRate:5
SliderMultiplier:1.2
SliderTickRate:1

[Events]
//Background and Video events
0,0,"bg.jpg",0,0
//Break Periods
//Storyboard Layer 0 (Background)
//Storyboard Layer 1 (Fail)
//Storyboard Layer 2 (Pass)
//Storyboard Layer 3 (Foreground)
Sprite,Foreground,Centre,"bg.jpg",320,240 M,0,0,67527,320,240 S,0,0,67527,0.625
Sprite,Foreground,Centre,"bg.jpg",320,240 M,0,97527,115000,320,240 S,0,97527,115000,0.625
Sprite,Foreground,Centre,"bg.jpg",320,240 L,0,32 S,0,67528,67995,0.625,0.675 S,0,67995,68464,0.675,0.625 M,0,67527,67995,320,240 F,0,67527,97058,1 F,0,97059,97527,1
Sprite,Foreground,Centre,"bg.jpg",320,240 F,0,67527,68464,1,0 S,0,67527,68464,0.625,0.82
Sprite,Foreground,Centre,"bg.jpg",320,240 F,0,97527,98933,1,0 S,0,97527,98933,0.625,0.82
Sprite,Foreground,Centre,"bg.jpg",320,240 S,0,112527,113933,0.625,0.8 F,0,112527,114402,1,0
//Storyboard Sound Samples

[TimingPoints]
27,468.75,4,2,1,70,1,0
15027,-100,4,2,2,70,0,0
18777,-100,4,2,1,70,0,0
61902,-100,4,2,2,70,0,0
66823,-100,4,2,1,70,0,0
67527,-100,4,2,1,70,0,1
96589,-100,4,2,3,70,0,1
97058,-100,4,2,2,70,0,1
97527,-100,4,2,1,70,0,0
112527,-100,4,2,2,70,0,0

[Colours]
Combo1 : 249,158,6
Combo2 : 226,90,250
Combo3 : 3,179,216

[HitObjects]
416,120,2839,6,0,P|358:136|299:130,1,120
236,28,3777,5,4,0:0:0:0:
180,132,4245,1,8,0:0:0:0:
77,74,4714,1,4,0:0:0:0:
77,74,4948,2,0,P|59:130|74:187,1,120,4|4,0:0|0:0,0:0:0:0:
138,289,5886,2,0,B|179:312|239:246|312:266,1,180,0|0,0:0|0:0,0:0:0:0:
364,296,6823,2,0,L|364:356,2,60,4|8|0,0:0|0:0|0:0,0:0:0:0:
384,240,7527,6,0,P|432:192|492:184,1,120,4|8,0:0|0:0,0:0:0:0:
424,76,8464,1,4,0:0:0:0:
424,76,8698,2,0,L|280:56,1,120,4|0,0:0|0:0,0:0:0:0:
183,76,9636,2,0,P|134:108|106:160,1,120,0|0,0:0|0:0,0:0:0:0:
108,220,10339,1,0,0:0:0:0:
168,324,10808,1,12,0:0:0:0:
248,236,11277,6,0,P|306:247|361:227,1,120,4|8,0:0|0:0,0:0:0:0:
444,140,12214,1,4,0:0:0:0:
444,140,12448,2,0,L|457:259,1,120,0|4,0:0|0:0,0:0:0:0:
468,320,13152,1,0,0:0:0:0:
351,283,13620,2,0,P|295:268|239:286,1,120,8|8,0:0|0:0,0:0:0:0:
136,352,14558,1,8,0:0:0:0:
60,260,15027,6,0,L|40:141,1,120,4|4,0:0|0:0,0:0:0:0:
136,68,15964,1,4,0:0:0:0:
136,68,16198,2,0,P|192:76|256:52,1,120,4|4,0:0|0:0,0:0:0:0:
296,16,16902,2,0,L|300:100,1,60,8|0,0:0|3:0,0:0:0:0:
412,112,17605,2,0,L|397:231,2,120,0|8|0,0:3|0:0|0:3,0:0:0:0:
420,52,18777,5,4,0:0:0:0:
323,124,19245,2,0,P|265:132|209:111,1,120,8|0,0:0|0:0,0:0:0:0:
120,32,20183,1,8,0:0:0:0:
84,148,20652,2,0,L|96:280,1,120,0|8,0:0|0:0,0:0:0:0:
176,356,21589,2,0,P|232:336|304:352,1,120,0|8,0:0|0:0,0:0:0:0:
412,344,22527,6,0,L|408:224,1,120,4|8,0:0|0:0,0:0:0:0:
501,148,23464,2,0,P|454:113|395:105,1,120,0|8,0:0|0:0,0:0:0:0:
311,191,24402,1,0,0:0:0:0:
226,106,24870,2,0,P|192:154|188:213,1,120,8|0,0:0|0:0,0:0:0:0:
252,316,25808,1,8,0:0:0:0:
132,336,26277,6,0,L|12:324,1,120,4|8,0:0|0:0,0:0:0:0:
76,223,27214,2,0,P|83:165|60:110,1,120,0|8,0:0|0:0,0:0:0:0:
168,52,28152,2,0,P|216:64|288:48,1,120,0|8,0:0|0:0,0:0:0:0:
368,136,29089,2,0,L|385:254,1,120,0|8,0:0|0:0,0:0:0:0:
480,328,30027,6,0,L|490:208,1,120,0|8,0:0|0:0,0:0:0:0:
500,88,30964,1,0,0:0:0:0:
392,32,31433,1,8,0:0:0:0:
328,132,31902,2,0,L|208:118,1,120,0|8,0:0|0:0,0:0:0:0:
100,64,32839,1,4,3:0:0:0:
68,180,33308,2,0,L|76:260,1,60,8|8,0:0|0:0,0:0:0:0:
80,300,33777,6,0,P|128:284|200:296,1,120,4|8,0:0|0:0,0:0:0:0:
308,336,34714,2,0,P|367:343|425:329,1,120,0|0,0:0|0:0,0:0:0:0:
488,228,35652,1,0,0:0:0:0:
376,188,36120,2,0,L|256:178,1,120,8|0,0:0|0:0,0:0:0:0:
232,60,37058,1,8,0:0:0:0:
348,32,37527,6,0,P|405:46|453:82,1,120,4|8,0:0|0:0,0:0:0:0:
476,200,38464,1,0,0:0:0:0:
444,316,38933,1,8,0:0:0:0:
356,236,39402,2,0,P|299:219|243:240,1,120,0|8,0:0|0:0,0:0:0:0:
145,311,40339,2,0,P|124:255|131:196,1,120,0|8,0:0|0:0,0:0:0:0:
192,93,41277,5,4,0:0:0:0:
311,98,41745,2,0,P|361:107|430:94,1,120,8|0,0:0|0:0,0:0:0:0:
497,193,42683,1,8,0:0:0:0:
449,303,43152,2,0,L|332:275,1,120,0|8,0:0|0:0,0:0:0:0:
240,196,44089,2,0,P|212:248|216:307,1,120,0|8,0:0|0:0,0:0:0:0:
101,343,45027,6,0,P|79:287|31:252,1,120,0|8,0:0|0:0,0:0:0:0:
29,132,45964,2,0,L|147:111,1,120,0|8,0:0|0:0,0:0:0:0:
191,70,46667,2,0,L|203:189,1,120,4|0,0:0|0:0,0:0:0:0:
312,238,47605,2,0,L|329:119,2,120,0|8|8,0:0|0:0|0:0,0:0:0:0:
300,297,48777,5,4,0:0:0:0:
400,361,49245,1,8,0:0:0:0:
466,261,49714,2,0,P|479:191|470:136,1,120,0|8,0:0|0:0,0:0:0:0:
366,86,50652,2,0,P|303:94|241:75,1,120,0|8,0:0|0:0,0:0:0:0:
130,55,51589,2,0,P|116:112|124:172,1,120,0|8,0:0|0:0,0:0:0:0:
198,266,52527,6,0,P|145:291|86:285,1,120,0|8,0:0|0:0,0:0:0:0:
9,193,53464,2,0,P|16:133|2:75,1,120,0|8,0:0|0:0,0:0:0:0:
120,54,54402,2,0,P|168:65|236:47,1,120,0|8,0:0|0:0,0:0:0:0:
351,78,55339,1,0,0:0:0:0:
353,198,55808,1,8,0:0:0:0:
235,224,56277,6,0,L|115:218,1,120,4|8,0:0|0:0,0:0:0:0:
66,328,57214,2,0,L|185:322,1,120,0|8,0:0|0:0,0:0:0:0:
304,342,58152,1,0,0:0:0:0:
423,335,58620,1,8,0:0:0:0:
418,215,59089,2,0,P|437:162|481:112,1,120,0|8,0:0|0:0,0:0:0:0:
383,39,60027,5,4,0:0:0:0:
383,39,60261,1,4,0:0:0:0:
274,91,60730,2,0,L|154:76,1,120,4|0,0:0|0:0,0:0:0:0:
27,204,61902,1,4,0:0:0:0:
27,204,62136,2,0,L|39:334,1,120,4|4,0:0|0:0,0:0:0:0:
153,355,63073,1,4,0:0:0:0:
238,270,63542,1,4,0:0:0:0:
256,192,63777,12,8,65652,0:0:0:0:
387,167,66823,6,0,L|396:107,2,60,4|4|4,0:0|0:0|0:0,0:0:0:0:
369,224,67527,6,0,P|311:213|254:227,1,120,0|8,0:0|0:0,0:0:0:0:
180,323,68464,1,0,0:0:0:0:
107,227,68933,1,8,0:0:0:0:
195,144,69402,2,0,P|197:86|162:39,1,120,0|8,0:0|0:0,0:0:0:0:
42,42,70339,1,0,0:0:0:0:
10,157,70808,1,8,0:0:0:0:
107,227,71277,6,0,L|100:353,1,120,0|8,0:0|0:0,0:0:0:0:
214,308,72214,1,0,0:0:0:0:
214,308,72448,2,0,P|271:292|329:306,2,120,0|0|0,0:0|0:0|0:0,0:0:0:0:
186,361,73620,2,0,L|175:241,1,120,8|0,0:0|0:0,0:0:0:0:
165,121,74558,1,8,0:0:0:0:
280,86,75027,6,0,P|339:92|396:76,1,120,0|8,0:0|0:0,0:0:0:0:
486,156,75964,1,0,0:0:0:0:
486,156,76198,2,0,L|492:286,1,120,0|0,0:0|0:0,0:0:0:0:
438,304,76902,2,0,L|317:294,1,120,0|0,0:0|0:0,0:0:0:0:
258,286,77605,1,0,0:0:0:0:
139,300,78073,2,0,L|140:359,2,60,0|8|0,0:0|0:0|0:0,0:0:0:0:
139,239,78777,5,0,0:0:0:0:
139,239,79011,2,0,L|19:225,1,120,0|0,0:0|0:0,0:0:0:0:
24,105,79948,2,0,L|83:98,1,60,0|8,0:0|0:0,0:0:0:0:
142,85,80417,2,0,P|202:63|261:76,2,120,4|0|2,0:0|0:0|0:0,0:0:0:0:
136,144,81589,2,0,L|141:267,1,120,2|0,0:0|0:0,0:0:0:0:
243,325,82527,6,0,P|298:303|356:313,1,120,4|8,0:0|0:0,0:0:0:0:
470,351,83464,1,0,0:0:0:0:
470,351,83698,2,0,L|463:231,1,120,0|0,0:0|0:0,0:0:0:0:
395,131,84636,2,0,L|402:72,2,60,0|8|0,0:0|0:0|0:0,0:0:0:0:
292,194,85573,2,0,L|279:263,2,60,0|10|0,0:0|0:0|0:0,0:0:0:0:
303,133,86277,6,0,P|300:74|270:22,1,120,0|8,0:0|0:0,0:0:0:0:
155,55,87214,1,0,0:0:0:0:
155,55,87448,2,0,P|98:69|40:56,2,120,0|0|0,0:0|0:0|0:0,0:0:0:0:
210,31,88620,2,0,L|204:163,1,120,8|0,0:0|0:0,0:0:0:0:
101,213,89558,1,8,0:0:0:0:
163,316,90027,6,0,L|300:305,1,120,0|0,0:0|0:0,0:0:0:0:
400,330,90964,1,0,0:0:0:0:
400,330,91198,2,0,L|409:197,1,120,0|0,0:0|0:0,0:0:0:0:
448,165,91902,2,0,P|390:174|335:152,1,120,2|8,0:0|0:0,0:0:0:0:
285,119,92605,1,0,0:0:0:0:
211,214,93073,6,0,L|213:283,2,60,0|8|0,0:0|0:0|0:0,0:0:0:0:
94,182,94011,2,0,L|51:241,2,60,8|8|4,0:0|0:0|0:0,0:0:0:0:
61,66,94948,2,0,L|1:72,2,60,4|0|0,0:0|0:0|0:0,0:0:0:0:
119,51,95652,1,8,0:0:0:0:
227,100,96120,2,0,P|203:155|211:214,2,120,4|8|2,0:0|0:0|0:0,0:0:0:0:
277,67,97292,1,2,0:0:0:0:
336,78,97527,6,0,L|454:95,1,120,4|8,0:0|0:0,0:0:0:0:
445,214,98464,1,4,0:0:0:0:
445,214,98698,2,0,P|388:215|354:262,1,120,4|0,0:0|0:0,0:0:0:0:
240,301,99636,2,0,B|205:275|135:311|62:292,1,180,0|0,0:0|0:0,0:0:0:0:
14,256,100573,2,0,L|8:315,2,60,4|8|0,0:0|0:0|0:0,0:0:0:0:
34,199,101277,6,0,L|20:79,1,120,4|8,0:0|0:0,0:0:0:0:
138,58,102214,1,4,0:0:0:0:
138,58,102448,2,0,L|277:46,1,120,4|0,0:0|0:0,0:0:0:0:
377,46,103386,2,0,L|385:165,1,120,0|0,0:0|0:0,0:0:0:0:
392,225,104089,1,0,0:0:0:0:
315,317,104558,1,8,0:0:0:0:
248,217,105027,6,0,L|105:205,1,120,4|8,0:0|0:0,0:0:0:0:
37,128,105964,1,4,0:0:0:0:
37,128,106198,2,0,L|46:259,1,120,4|0,0:0|0:0,0:0:0:0:
52,307,106902,1,0,0:0:0:0:
163,350,107370,2,0,L|290:324,1,120,8|4,0:0|0:0,0:0:0:0:
398,348,108308,1,8,0:0:0:0:
484,265,108777,6,0,L|473:145,1,120,4|4,0:0|0:0,0:0:0:0:
373,77,109714,1,4,0:0:0:0:
373,77,109948,2,0,L|253:68,1,120,4|4,0:0|0:0,0:0:0:0:
197,44,110652,2,0,L|205:109,1,60,8|8,0:0|0:0,0:0:0:0:
98,159,111355,2,0,L|99:218,1,60,8|8,0:0|0:0,0:0:0:0:
96,277,111823,2,0,P|154:266|211:281,1,120,0|8,0:0|0:0,0:0:0:0:
261,315,112527,5,4,0:0:0:0:
