osu file format v14

[General]
AudioFilename: 1.mp3
AudioLeadIn: 0
PreviewTime: 66823
Countdown: 0
SampleSet: Soft
StackLeniency: 0.7
Mode: 0
LetterboxInBreaks: 1
EpilepsyWarning: 1
WidescreenStoryboard: 1

[Editor]
DistanceSpacing: 1.6
BeatDivisor: 4
GridSize: 4
TimelineZoom: 3.599999

[Metadata]
Title:Dan Xiang Di Tie Feat. Karin
TitleUnicode:单向地铁 Feat. Karin
Artist:Xiao Ye Dao ono
ArtistUnicode:小野道ono
Creator:moonlightleaf
Version:Insane
Source:
Tags:Girls'Pop _Star
BeatmapID:1804825
BeatmapSetID:862835

[Difficulty]
HPDrainRate:5
CircleSize:4
OverallDifficulty:8
ApproachRate:9
SliderMultiplier:2
SliderTickRate:1

[Events]
//Background and Video events
0,0,"bg.jpg",0,0
//Break Periods
//Storyboard Layer 0 (Background)
//Storyboard Layer 1 (Fail)
//Storyboard Layer 2 (Pass)
//Storyboard Layer 3 (Foreground)
Sprite,Foreground,Centre,"bg.jpg",320,240 M,0,0,67527,320,240 S,0,0,67527,0.625
Sprite,Foreground,Centre,"bg.jpg",320,240 M,0,97527,115000,320,240 S,0,97527,115000,0.625
Sprite,Foreground,Centre,"bg.jpg",320,240 L,0,32 S,0,67528,67995,0.625,0.675 S,0,67995,68464,0.675,0.625 M,0,67527,67995,320,240 F,0,67527,97058,1 F,0,97059,97527,1
Sprite,Foreground,Centre,"bg.jpg",320,240 F,0,67527,68464,1,0 S,0,67527,68464,0.625,0.82
Sprite,Foreground,Centre,"bg.jpg",320,240 F,0,97527,98933,1,0 S,0,97527,98933,0.625,0.82
Sprite,Foreground,Centre,"bg.jpg",320,240 S,0,112527,113933,0.625,0.8 F,0,112527,114402,1,0
//Storyboard Sound Samples

[TimingPoints]
27,468.75,4,2,1,70,1,0
15027,-100,4,2,2,70,0,0
18777,-100,4,2,1,60,0,0
61902,-100,4,2,2,70,0,0
66823,-200,4,2,1,70,0,0
67527,-100,4,2,1,70,0,1
96589,-100,4,2,3,70,0,1
97058,-100,4,2,2,70,0,1
97527,-100,4,2,1,70,0,0
112527,-100,4,2,2,70,0,0

[Colours]
Combo1 : 249,158,6
Combo2 : 226,90,250
Combo3 : 3,179,216

[HitObjects]
352,92,2839,5,0,0:0:0:0:
217,135,3073,2,0,L|267:127,1,50
302,228,3308,2,0,L|352:228,1,50
257,330,3542,2,0,L|307:338,1,50
121,246,3777,6,0,L|221:253,1,100,4|0,0:0|0:0,0:0:0:0:
124,107,4245,2,0,L|223:93,1,100,8|0,0:0|0:0,0:0:0:0:
302,228,4714,1,4,0:0:0:0:
120,246,4948,2,0,P|141:292|173:330,1,100,4|8,0:0|0:0,0:0:0:0:
57,153,5417,2,0,P|36:107|4:69,1,100,4|0,0:0|0:0,0:0:0:0:
190,49,5886,5,0,0:0:0:0:
204,97,6003,1,0,0:0:0:0:
189,144,6120,1,8,0:0:0:0:
151,176,6237,1,0,0:0:0:0:
116,200,6355,2,0,L|215:192,1,100
455,182,6823,1,4,0:0:0:0:
332,283,7058,1,8,0:0:0:0:
302,124,7292,1,0,0:0:0:0:
246,292,7527,6,0,P|200:274|151:269,1,100,4|0,0:0|0:0,0:0:0:0:
454,181,7995,2,0,P|440:229|441:288,1,100,8|0,0:0|0:0,0:0:0:0:
355,60,8464,1,4,0:0:0:0:
151,197,8698,2,0,L|249:180,1,100,4|8,0:0|0:0,0:0:0:0:
106,117,9167,6,0,P|68:148|52:194,1,100
220,131,9636,1,0,0:0:0:0:
116,292,9870,1,8,0:0:0:0:
151,197,10105,1,0,0:0:0:0:
190,350,10339,1,0,0:0:0:0:
259,212,10573,1,0,0:0:0:0:
280,302,10808,1,12,0:0:0:0:
151,197,11042,1,0,0:0:0:0:
324,129,11277,6,0,P|372:144|407:179,1,100,4|0,0:0|0:0,0:0:0:0:
224,93,11745,2,0,P|249:50|292:26,1,100,8|0,0:0|0:0,0:0:0:0:
442,92,12214,1,4,0:0:0:0:
352,225,12448,2,0,P|303:232|258:212,1,100,0|8,0:0|0:0,0:0:0:0:
33,121,12917,1,4,0:0:0:0:
114,274,13152,5,0,0:0:0:0:
255,139,13386,1,0,0:0:0:0:
255,139,13503,1,0,0:0:0:0:
255,139,13620,2,0,L|257:193,1,50,8|0,0:0|0:0,0:0:0:0:
217,329,13855,2,0,L|198:282,1,50
89,58,14089,1,8,0:0:0:0:
197,230,14323,1,0,0:0:0:0:
62,194,14558,1,8,0:0:0:0:
218,62,14792,1,0,0:0:0:0:
384,225,15027,6,0,L|284:214,1,100,4|0,0:0|0:0,0:0:0:0:
118,344,15495,2,0,L|217:329,1,100,4|0,0:0|0:0,0:0:0:0:
351,112,15964,1,4,0:0:0:0:
408,327,16198,1,4,0:0:0:0:
478,261,16433,1,8,0:0:0:0:
395,108,16667,1,4,0:0:0:0:
490,91,16902,5,8,0:0:0:0:
457,177,17136,1,0,3:0:0:0:
205,88,17605,2,0,L|206:243,1,150,0|0,0:3|0:0,0:0:0:0:
207,272,18073,1,8,0:0:0:0:
322,119,18308,1,0,0:3:0:0:
322,119,18425,1,0,0:3:0:0:
343,163,18542,1,0,0:3:0:0:
346,212,18659,1,0,0:3:0:0:
331,260,18777,5,4,0:0:0:0:
223,353,19011,1,0,0:0:0:0:
193,216,19245,1,8,0:0:0:0:
74,290,19480,1,0,0:0:0:0:
74,290,19597,1,0,0:0:0:0:
74,290,19714,2,0,L|63:338,1,50
15,208,19948,2,0,L|29:160,1,50
57,83,20183,1,8,0:0:0:0:
241,126,20417,6,0,P|192:136|145:121,1,100
313,166,20886,2,0,P|346:202|356:251,1,100,0|8,0:0|0:0,0:0:0:0:
317,91,21355,2,0,P|332:43|368:10,1,100
488,54,21823,1,0,0:0:0:0:
398,202,22058,1,8,0:0:0:0:
443,129,22292,1,0,0:0:0:0:
470,253,22527,6,0,L|473:352,1,100,4|0,0:0|0:0,0:0:0:0:
293,315,22995,2,0,P|336:292|385:295,1,100,8|0,0:0|0:0,0:0:0:0:
208,271,23464,2,0,L|208:216,1,50
203,174,23698,1,0,0:0:0:0:
203,174,23816,1,0,0:0:0:0:
203,174,23933,1,8,0:0:0:0:
74,97,24167,6,0,P|114:70|163:73,1,100
114,235,24636,2,0,P|64:237|24:210,1,100,0|8,0:0|0:0,0:0:0:0:
244,145,25105,2,0,P|292:137|338:155,1,100
344,351,25573,2,0,L|358:252,1,100,0|8,0:0|0:0,0:0:0:0:
457,138,26042,2,0,L|474:194,1,50
500,267,26277,5,4,0:0:0:0:
408,225,26511,1,0,0:0:0:0:
501,70,26745,1,8,0:0:0:0:
384,69,26980,1,0,0:0:0:0:
314,276,27214,1,0,0:0:0:0:
313,157,27448,1,0,0:0:0:0:
313,157,27566,1,0,0:0:0:0:
313,157,27683,2,0,L|228:131,1,50,8|0,0:0|0:0,0:0:0:0:
155,190,27917,2,0,L|206:210,1,50
110,105,28152,6,0,P|69:132|53:178,1,100
275,244,28620,1,8,0:0:0:0:
118,327,28855,2,0,P|161:302|184:259,1,100
334,124,29323,1,0,0:0:0:0:
353,170,29441,1,0,0:0:0:0:
374,214,29558,1,8,0:0:0:0:
322,332,29792,1,0,0:0:0:0:
298,288,29909,1,0,0:0:0:0:
275,244,30027,5,0,0:0:0:0:
427,111,30261,2,0,P|454:152|459:201,1,100,0|8,0:0|0:0,0:0:0:0:
317,80,30730,2,0,L|218:81,1,100
54,211,31198,1,0,0:0:0:0:
84,256,31316,1,0,0:0:0:0:
107,208,31433,1,8,0:0:0:0:
217,81,31667,1,0,0:0:0:0:
244,127,31784,1,0,0:0:0:0:
188,128,31902,6,0,L|64:114,1,100
208,297,32370,2,0,P|232:246|237:193,1,100,8|0,0:0|0:0,0:0:0:0:
317,80,32839,1,4,3:0:0:0:
457,234,33073,1,8,0:0:0:0:
478,62,33308,1,8,0:0:0:0:
378,159,33542,1,8,0:0:0:0:
348,198,33659,1,8,0:0:0:0:
342,248,33777,5,4,0:0:0:0:
436,358,34011,1,0,0:0:0:0:
436,358,34128,1,0,0:0:0:0:
436,358,34245,2,0,L|334:329,1,100,8|0,0:0|0:0,0:0:0:0:
260,283,34597,1,0,0:0:0:0:
260,283,34714,2,0,L|134:302,1,100
72,142,35183,1,0,0:0:0:0:
64,280,35417,1,0,0:0:0:0:
183,213,35652,5,0,0:0:0:0:
5,93,35886,1,0,0:0:0:0:
187,66,36120,2,0,P|237:66|286:55,1,100,8|0,0:0|0:0,0:0:0:0:
417,132,36589,2,0,P|401:184|408:233,1,100
275,202,37058,1,8,0:0:0:0:
315,296,37292,1,0,0:0:0:0:
194,244,37527,6,0,P|185:195|201:149,1,100,4|0,0:0|0:0,0:0:0:0:
396,256,37995,2,0,P|406:304|391:351,1,100,8|0,0:0|0:0,0:0:0:0:
321,95,38464,1,0,0:0:0:0:
361,187,38698,1,0,0:0:0:0:
490,78,38933,1,8,0:0:0:0:
474,179,39167,1,0,0:0:0:0:
372,38,39402,6,0,P|327:18|279:30,1,100
214,174,39870,1,8,0:0:0:0:
60,126,40105,2,0,P|87:84|131:63,1,100
220,252,40573,2,0,L|218:351,1,100,0|8,0:0|0:0,0:0:0:0:
125,210,41042,1,0,0:0:0:0:
312,214,41277,5,4,0:0:0:0:
137,319,41511,1,0,0:0:0:0:
217,152,41745,1,8,0:0:0:0:
295,321,41980,2,0,P|345:320|389:297,1,100
436,87,42448,1,0,0:0:0:0:
466,247,42683,1,8,0:0:0:0:
213,232,42917,6,0,L|311:213,1,100
201,73,43386,2,0,L|101:66,1,100,0|8,0:0|0:0,0:0:0:0:
193,328,43855,2,0,P|210:281|212:232,1,100
32,102,44323,2,0,P|18:149|24:199,1,100,0|8,0:0|0:0,0:0:0:0:
118,331,44792,6,0,L|19:340,1,100
147,189,45261,2,0,L|246:180,1,100,0|8,0:0|0:0,0:0:0:0:
90,120,45730,2,0,P|63:161|62:211,1,100
333,205,46198,2,0,P|331:155|305:113,1,100,0|8,0:0|0:0,0:0:0:0:
268,338,46667,1,4,0:0:0:0:
220,277,47136,5,0,0:0:0:0:
212,200,47370,1,8,0:0:0:0:
319,99,47605,1,0,0:0:0:0:
115,255,48073,1,8,0:0:0:0:
52,169,48308,1,8,0:0:0:0:
174,344,48542,1,8,0:0:0:0:
291,238,48777,5,4,0:0:0:0:
404,206,49011,1,0,0:0:0:0:
382,329,49245,1,8,0:0:0:0:
333,173,49480,1,0,0:0:0:0:
287,151,49597,1,0,0:0:0:0:
237,146,49714,1,0,0:0:0:0:
188,157,49831,1,0,0:0:0:0:
157,196,49948,2,0,L|142:252,1,50
77,332,50183,2,0,L|61:263,1,50,8|0,0:0|0:0,0:0:0:0:
39,176,50417,5,0,0:0:0:0:
46,141,50534,1,0,0:0:0:0:
54,106,50652,1,0,0:0:0:0:
63,72,50769,1,0,0:0:0:0:
73,38,50886,1,0,0:0:0:0:
221,82,51120,1,8,0:0:0:0:
157,196,51355,5,0,0:0:0:0:
171,227,51472,1,0,0:0:0:0:
184,259,51589,1,0,0:0:0:0:
199,290,51706,1,0,0:0:0:0:
213,321,51823,1,0,0:0:0:0:
345,206,52058,1,8,0:0:0:0:
435,322,52292,1,0,0:0:0:0:
435,322,52409,1,0,0:0:0:0:
435,322,52527,6,0,L|433:237,1,50
434,195,52761,1,0,0:0:0:0:
375,54,52995,1,8,0:0:0:0:
266,124,53230,1,0,0:0:0:0:
232,112,53347,1,0,0:0:0:0:
198,103,53464,2,0,L|150:87,1,50
37,133,53698,2,0,L|47:182,1,50
105,288,53933,2,0,L|143:255,1,50,8|8,0:0|0:0,0:0:0:0:
265,236,54167,1,0,0:0:0:0:
265,236,54284,1,0,0:0:0:0:
265,236,54402,5,0,0:0:0:0:
407,350,54636,1,0,0:0:0:0:
407,350,54753,1,0,0:0:0:0:
407,350,54870,1,8,0:0:0:0:
429,200,55105,1,0,0:0:0:0:
434,175,55222,1,0,0:0:0:0:
440,151,55339,1,0,0:0:0:0:
336,299,55573,1,0,0:0:0:0:
327,136,55808,1,8,0:0:0:0:
468,291,56042,1,0,0:0:0:0:
250,297,56277,6,0,P|194:258|137:244,1,100,4|0,0:0|0:0,0:0:0:0:
78,324,56745,1,8,0:0:0:0:
19,200,56980,1,0,0:0:0:0:
198,147,57214,1,0,0:0:0:0:
132,240,57448,1,0,0:0:0:0:
81,93,57683,1,8,0:0:0:0:
45,219,57917,1,0,0:0:0:0:
45,219,58034,1,0,0:0:0:0:
45,219,58152,5,0,0:0:0:0:
193,109,58386,2,0,P|253:102|322:131,1,100,0|8,0:0|0:0,0:0:0:0:
272,300,58855,2,0,P|266:235|281:189,1,100
423,42,59323,2,0,P|427:105|406:156,1,100,0|8,0:0|0:0,0:0:0:0:
272,300,59792,1,0,0:0:0:0:
149,201,60027,5,4,0:0:0:0:
320,108,60261,1,4,0:0:0:0:
256,192,60495,1,8,0:0:0:0:
186,40,60730,1,4,0:0:0:0:
9,113,61198,1,0,0:0:0:0:
70,205,61433,1,8,0:0:0:0:
429,166,61902,5,4,0:0:0:0:
274,350,62136,1,4,0:0:0:0:
219,261,62370,1,8,0:0:0:0:
295,41,62605,1,4,0:0:0:0:
174,354,63073,1,4,0:0:0:0:
305,273,63308,1,8,0:0:0:0:
162,119,63542,1,4,0:0:0:0:
256,192,63659,12,0,65183,3:0:0:0:
407,106,65652,5,8,0:0:0:0:
326,343,65886,1,0,3:0:0:0:
321,135,66355,1,8,0:0:0:0:
277,239,66589,1,8,0:0:0:0:
205,151,66823,6,0,L|196:127,1,25,4|0,0:0|0:0,0:0:0:0:
277,239,67058,2,0,L|270:277,1,25,4|0,0:0|0:0,0:0:0:0:
321,135,67292,2,0,L|336:115,1,25,4|0,0:0|0:0,0:0:0:0:
189,231,67527,6,0,P|144:213|122:169,1,100
214,319,67878,1,0,0:0:0:0:
214,318,67995,2,0,P|164:320|119:299,1,100,8|0,0:0|0:0,0:0:0:0:
317,285,68347,1,0,0:0:0:0:
316,284,68464,2,0,P|328:333|325:383,1,100
275,209,68816,1,0,0:0:0:0:
275,209,68933,1,8,0:0:0:0:
210,120,69167,1,0,0:0:0:0:
210,120,69284,1,0,0:0:0:0:
210,120,69402,5,0,0:0:0:0:
442,102,69636,1,0,0:0:0:0:
442,102,69753,1,0,0:0:0:0:
442,102,69870,2,0,L|424:157,1,50,8|0,0:0|0:0,0:0:0:0:
424,299,70105,2,0,L|392:228,1,50
299,89,70339,5,0,0:0:0:0:
263,54,70456,1,0,0:0:0:0:
217,33,70573,1,0,0:0:0:0:
167,42,70691,1,0,0:0:0:0:
129,74,70808,1,8,0:0:0:0:
101,266,71042,1,0,0:0:0:0:
136,274,71159,1,0,0:0:0:0:
172,274,71277,6,0,P|215:251|264:252,1,100
337,333,71628,1,0,0:0:0:0:
336,332,71745,2,0,P|318:286|324:237,1,100,8|0,0:0|0:0,0:0:0:0:
419,166,72097,1,0,0:0:0:0:
418,166,72214,2,0,P|373:184|324:176,1,100
220,120,72566,1,0,0:0:0:0:
220,120,72683,1,8,0:0:0:0:
117,242,72917,1,0,0:0:0:0:
103,289,73034,1,0,0:0:0:0:
87,336,73152,5,0,0:0:0:0:
305,196,73386,1,0,0:0:0:0:
288,243,73503,1,0,0:0:0:0:
273,291,73620,1,8,0:0:0:0:
170,65,73855,1,0,0:0:0:0:
209,34,73972,1,0,0:0:0:0:
257,24,74089,1,0,0:0:0:0:
304,38,74206,1,0,0:0:0:0:
347,62,74323,2,0,L|357:114,1,50
442,308,74558,2,0,L|450:258,1,50,8|0,0:0|0:0,0:0:0:0:
503,112,74792,1,0,0:0:0:0:
512,187,74909,1,0,0:0:0:0:
440,157,75027,6,0,P|392:141|342:141,1,100
213,282,75378,1,0,0:0:0:0:
212,281,75495,2,0,P|169:259|150:214,1,100,8|0,0:0|0:0,0:0:0:0:
210,93,75847,1,0,0:0:0:0:
210,92,75964,2,0,P|161:103|113:92,1,100
278,33,76316,1,0,0:0:0:0:
315,66,76433,2,0,L|333:120,1,50,8|0,0:0|0:0,0:0:0:0:
324,248,76667,2,0,L|351:194,1,50
418,295,76902,5,0,0:0:0:0:
384,332,77019,1,0,0:0:0:0:
336,347,77136,1,0,0:0:0:0:
286,344,77253,1,0,0:0:0:0:
242,320,77370,1,0,0:0:0:0:
272,146,77605,5,0,0:0:0:0:
319,130,77722,1,0,0:0:0:0:
368,137,77839,1,8,0:0:0:0:
409,164,77956,1,0,0:0:0:0:
431,208,78073,2,0,L|428:281,1,50
489,146,78308,2,0,L|494:96,1,50,8|0,0:0|0:0,0:0:0:0:
333,223,78542,2,0,L|253:235,1,50
363,57,78777,6,0,L|411:46,1,50
153,92,79011,2,0,L|146:43,1,50
114,297,79245,2,0,L|153:267,1,50,8|0,0:0|0:0,0:0:0:0:
301,178,79480,2,0,L|255:159,1,50
299,326,79714,5,0,0:0:0:0:
347,315,79831,1,0,0:0:0:0:
387,286,79948,1,0,0:0:0:0:
408,240,80066,1,0,0:0:0:0:
419,191,80183,2,0,L|446:238,1,50,8|0,0:0|0:0,0:0:0:0:
495,33,80417,2,0,L|470:76,1,50,4|0,0:0|0:0,0:0:0:0:
363,57,80652,5,0,0:0:0:0:
313,58,80769,1,0,0:0:0:0:
266,75,80886,2,0,L|219:93,1,50
141,232,81120,2,0,L|146:182,1,50,8|0,0:0|0:0,0:0:0:0:
271,169,81355,1,2,0:0:0:0:
286,216,81472,1,2,0:0:0:0:
283,265,81589,2,0,L|298:312,1,50,2|0,0:0|0:0,0:0:0:0:
412,341,81823,2,0,L|425:292,1,50,8|0,0:0|0:0,0:0:0:0:
366,138,82058,1,0,0:0:0:0:
487,245,82292,1,0,0:0:0:0:
457,174,82409,1,0,0:0:0:0:
397,221,82527,6,0,P|356:250|307:262,1,100,4|0,0:0|0:0,0:0:0:0:
192,169,82878,1,0,0:0:0:0:
192,169,82995,2,0,P|142:168|96:186,1,100,8|0,0:0|0:0,0:0:0:0:
155,342,83347,1,0,0:0:0:0:
154,342,83464,2,0,P|181:300|182:250,1,100
47,147,83816,1,0,0:0:0:0:
47,147,83933,1,8,0:0:0:0:
183,67,84167,1,0,0:0:0:0:
183,67,84284,1,0,0:0:0:0:
183,67,84402,6,0,L|171:124,1,50
194,277,84636,2,0,L|204:228,1,50
317,84,84870,2,0,L|275:112,1,50,8|0,0:0|0:0,0:0:0:0:
82,249,85105,2,0,L|123:220,1,50
280,187,85339,5,0,0:0:0:0:
328,200,85456,1,0,0:0:0:0:
361,236,85573,1,0,0:0:0:0:
390,276,85691,1,0,0:0:0:0:
395,325,85808,2,0,L|382:387,1,50,10|0,0:0|0:0,0:0:0:0:
401,172,86042,2,0,L|414:99,1,50
163,148,86277,6,0,P|212:157|261:146,1,100
84,46,86628,1,0,0:0:0:0:
83,45,86745,2,0,P|50:83|38:131,1,100,8|0,0:0|0:0,0:0:0:0:
85,274,87097,1,0,0:0:0:0:
84,274,87214,2,0,P|132:261|179:275,1,100
286,348,87566,1,0,0:0:0:0:
286,348,87683,1,8,0:0:0:0:
425,192,87917,1,0,0:0:0:0:
444,237,88034,1,0,0:0:0:0:
464,283,88152,6,0,L|477:331,1,50
495,153,88386,2,0,L|502:103,1,50
337,206,88620,2,0,L|326:254,1,50,8|0,0:0|0:0,0:0:0:0:
362,78,88855,2,0,L|345:20,1,50
210,110,89089,5,0,0:0:0:0:
160,114,89206,1,0,0:0:0:0:
113,99,89323,1,0,0:0:0:0:
75,66,89440,1,0,0:0:0:0:
40,31,89558,2,0,L|30:80,1,50,8|0,0:0|0:0,0:0:0:0:
102,259,89792,2,0,L|111:209,1,50
296,321,90027,6,0,P|247:323|204:347,1,100
442,311,90378,1,0,0:0:0:0:
441,310,90495,2,0,P|419:266|381:234,1,100
196,213,90847,1,0,0:0:0:0:
196,213,90964,2,0,P|243:227|293:223,1,100
401,87,91316,1,2,0:0:0:0:
401,87,91433,1,8,0:0:0:0:
245,61,91667,1,0,0:0:0:0:
245,61,91784,1,0,0:0:0:0:
245,61,91902,6,0,L|233:128,1,50,2|0,0:0|0:0,0:0:0:0:
278,281,92136,2,0,L|270:209,1,50
97,148,92370,2,0,L|159:147,1,50,8|0,0:0|0:0,0:0:0:0:
412,171,92605,2,0,L|332:169,1,50
165,266,92839,5,0,0:0:0:0:
124,295,92956,1,0,0:0:0:0:
74,294,93073,1,0,0:0:0:0:
29,271,93191,1,0,0:0:0:0:
4,227,93308,2,0,L|4:172,1,50,8|0,0:0|0:0,0:0:0:0:
122,37,93542,2,0,L|163:84,1,50
205,175,93777,5,4,0:0:0:0:
254,166,93894,1,4,0:0:0:0:
291,133,94011,2,0,L|300:181,1,50,8|0,0:0|0:0,0:0:0:0:
391,360,94245,2,0,L|403:311,1,50,8|0,0:0|0:0,0:0:0:0:
478,91,94480,5,4,0:0:0:0:
433,114,94597,1,0,0:0:0:0:
383,108,94714,1,0,0:0:0:0:
342,78,94831,1,0,0:0:0:0:
315,35,94948,2,0,L|265:25,1,50,4|0,0:0|0:0,0:0:0:0:
101,157,95183,2,0,L|170:145,1,50
257,280,95417,1,0,0:0:0:0:
254,86,95652,5,8,0:0:0:0:
98,261,95886,1,8,0:0:0:0:
443,199,96120,1,4,0:0:0:0:
170,111,96355,1,8,0:0:0:0:
330,240,96589,1,8,0:0:0:0:
313,140,96823,1,8,0:0:0:0:
221,242,97058,1,2,0:0:0:0:
228,202,97175,1,2,0:0:0:0:
236,162,97292,1,2,0:0:0:0:
97,260,97527,6,0,L|92:161,1,100,4|0,0:0|0:0,0:0:0:0:
162,325,97995,2,0,L|261:311,1,100,8|0,0:0|0:0,0:0:0:0:
352,236,98464,1,4,0:0:0:0:
273,71,98698,2,0,P|246:113|236:162,1,100,4|0,0:0|0:0,0:0:0:0:
302,245,99167,2,0,L|352:236,1,50
430,224,99402,5,0,0:0:0:0:
221,298,99636,1,0,0:0:0:0:
175,277,99753,1,0,0:0:0:0:
146,236,99870,1,8,0:0:0:0:
146,186,99987,1,0,0:0:0:0:
171,142,100105,2,0,L|270:134,1,100
401,147,100573,1,4,0:0:0:0:
315,249,100808,1,8,0:0:0:0:
270,134,101042,2,0,L|312:160,1,50
420,247,101277,6,0,L|440:344,1,100,4|0,0:0|0:0,0:0:0:0:
249,207,101745,2,0,L|269:304,1,100,8|0,0:0|0:0,0:0:0:0:
245,40,102214,1,4,0:0:0:0:
103,219,102448,2,0,P|69:184|58:136,1,100,4|8,0:0|0:0,0:0:0:0:
273,111,102917,2,0,L|224:122,1,50
146,139,103152,5,0,0:0:0:0:
146,354,103386,1,0,0:0:0:0:
254,252,103620,1,8,0:0:0:0:
104,220,103855,1,0,0:0:0:0:
242,335,104089,1,0,0:0:0:0:
170,273,104323,1,4,0:0:0:0:
336,218,104558,1,8,0:0:0:0:
242,335,104792,2,0,L|248:285,1,50
261,167,105027,6,0,P|297:133|346:128,1,100,4|0,0:0|0:0,0:0:0:0:
383,306,105495,2,0,L|336:218,1,100,8|0,0:0|0:0,0:0:0:0:
256,61,105964,1,4,0:0:0:0:
174,181,106198,2,0,P|124:182|79:162,1,100,4|8,0:0|0:0,0:0:0:0:
148,70,106667,2,0,L|187:100,1,50
262,167,106902,6,0,L|361:154,1,100
437,30,107370,2,0,L|427:79,1,50,8|0,0:0|0:0,0:0:0:0:
492,203,107605,2,0,L|455:168,1,50
340,79,107839,1,4,0:0:0:0:
332,239,108073,1,0,0:0:0:0:
188,155,108308,1,8,0:0:0:0:
383,163,108542,2,0,L|333:159,1,50
250,251,108777,6,0,L|260:351,1,100,4|0,0:0|0:0,0:0:0:0:
266,137,109245,2,0,L|257:38,1,100,4|0,0:0|0:0,0:0:0:0:
250,251,109714,1,4,0:0:0:0:
75,331,109948,1,4,0:0:0:0:
146,263,110183,1,0,0:0:0:0:
28,83,110417,1,4,0:0:0:0:
208,340,110652,5,8,0:0:0:0:
189,190,110886,1,8,0:0:0:0:
415,80,111355,1,8,0:0:0:0:
436,236,111589,1,8,0:0:0:0:
295,164,111823,1,0,0:0:0:0:
280,217,111941,1,8,0:0:0:0:
226,230,112058,1,8,0:0:0:0:
189,190,112175,1,8,0:0:0:0:
135,177,112292,2,0,L|117:235,1,50,8|0,0:0|0:0,0:0:0:0:
69,352,112527,5,4,0:0:0:0:
