osu file format v14

[General]
AudioFilename: Next stop with you.mp3
AudioLeadIn: 800
PreviewTime: 71740
Countdown: 0
SampleSet: Soft
StackLeniency: 0.6
Mode: 0
LetterboxInBreaks: 0
WidescreenStoryboard: 0

[Editor]
DistanceSpacing: 1
BeatDivisor: 2
GridSize: 4
TimelineZoom: 1

[Metadata]
Title:Xia Yi Zhan. Yu Ni
TitleUnicode:下一站.與你
Artist:Xiao Qiong (CV: KSP)
ArtistUnicode:小穹(CV:KSP)
Creator:DreaM117er
Version:Normal
Source:
Tags:前進吧!高捷少女 LET's GO! K.R.T. GIRLS 進め!高捷(たかめ)少女! 3R2 茶米(dav) Hoskey Ayre Shi Duang Lee 初夏 緋華 小啾 Riv 迷子燒 兔姬 shinia 高雄捷運 Kaohsiung Rapid Transit Corporation CORP. KRTC AliomLoung spboxer3 Flask m1223961117
BeatmapID:762595
BeatmapSetID:344228

[Difficulty]
HPDrainRate:3
CircleSize:3
OverallDifficulty:3
ApproachRate:5
SliderMultiplier:1.1
SliderTickRate:1

[Events]
//Background and Video events
0,0,"BG.jpg",0,0
Video,0,"VDO.flv"
//Break Periods
2,16372,28284
2,101078,112990
2,142086,142893
//Storyboard Layer 0 (Background)
//Storyboard Layer 1 (Fail)
//Storyboard Layer 2 (Pass)
//Storyboard Layer 3 (Foreground)
//Storyboard Sound Samples

[TimingPoints]
49,441.176470588235,4,2,1,40,1,0
8872,-100,4,2,1,50,0,0
15931,-100,4,2,1,60,0,1
16041,-100,4,2,1,50,0,0
42401,-100,4,2,1,40,0,0
44166,-100,4,2,1,60,0,0
56740,-100,4,2,1,50,0,0
68872,-100,4,2,1,60,0,0
72401,-100,4,2,1,70,0,1
85637,-100,4,2,1,70,0,0
86519,-100,4,2,1,70,0,1
98872,-100,4,2,1,40,0,0
100637,-100,4,2,1,50,0,1
100747,-100,4,2,1,60,0,0
127769,-100,4,2,1,50,0,0
139460,-100,4,2,1,60,0,0
144754,-100,4,2,1,70,0,1
157990,-100,4,2,1,70,0,0
158872,-100,4,2,1,70,0,1
171225,-100,4,2,1,40,0,0
172990,-100,4,2,1,50,0,0
187107,-100,4,2,1,40,0,0
200563,-100,4,2,1,5,0,0

[Colours]
Combo1 : 123,213,242
Combo2 : 250,58,58
Combo3 : 18,124,255
Combo4 : 241,228,135
SliderBorder : 255,255,255

[HitObjects]
68,80,1151,6,0,L|64:24,2,55,0|0|0,0:0|0:0|0:0,0:0:0:0:
44,128,1813,2,0,P|54:184|56:256,1,110,4|2,0:3|0:1,0:0:0:0:
52,292,2475,1,2,0:1:0:0:
160,312,2916,2,0,L|164:244,2,55,0|0|0,0:0|0:0|0:0,0:0:0:0:
180,364,3578,6,0,P|239:357|303:355,1,110,2|2,0:1|0:1,0:0:0:0:
344,356,4240,1,2,0:1:0:0:
408,268,4681,2,0,L|340:264,2,55,0|0|0,0:0|0:0|0:0,0:0:0:0:
464,268,5343,6,0,P|457:215|460:135,1,110,2|0,0:1|0:0,0:0:0:0:
420,56,6225,1,2,0:1:0:0:
316,92,6666,1,0,0:0:0:0:
208,76,7107,1,2,0:1:0:0:
208,76,7328,2,0,L|200:12,2,55,2|2|2,0:1|0:1|0:1,0:0:0:0:
128,152,8210,2,0,L|56:144,2,55,0|0|0,0:0|0:0|0:0,0:0:0:0:
164,196,8872,6,0,P|221:194|298:185,1,110,2|2,0:0|0:0,0:0:0:0:
324,172,9534,1,0,0:0:0:0:
416,112,9975,2,0,L|428:40,2,55,0|2|0,0:0|0:0|0:0,0:0:0:0:
444,160,10637,2,0,P|450:214|452:269,1,110,2|2,0:0|0:0,0:0:0:0:
432,320,11298,1,2,0:0:0:0:
432,320,11519,2,0,P|384:292|316:292,1,110,2|2,0:0|0:0,0:0:0:0:
236,344,12401,5,2,0:0:0:0:
125,327,12843,1,2,0:0:0:0:
106,219,13284,1,2,0:0:0:0:
203,167,13725,1,2,0:0:0:0:
256,192,14166,12,4,15931,0:0:0:0:
176,316,30048,6,0,P|237:310|296:308,1,110,4|2,0:0|0:0,0:0:0:0:
388,352,30931,1,2,0:0:0:0:
476,284,31372,2,0,L|480:212,1,55,2|0,0:0|0:0,0:0:0:0:
468,176,31813,2,0,P|407:182|348:184,1,110,2|2,0:0|0:0,0:0:0:0:
304,184,32475,1,0,0:0:0:0:
236,96,32916,2,0,L|232:24,2,55,0|2|0,0:0|0:0|0:0,0:0:0:0:
216,148,33578,6,0,P|155:142|96:140,1,110,2|2,0:0|0:0,0:0:0:0:
8,188,34460,1,2,0:0:0:0:
24,296,34901,1,2,0:0:0:0:
124,344,35343,2,0,P|178:341|233:336,1,110,2|2,0:0|0:0,0:0:0:0:
284,316,36004,1,0,0:0:0:0:
284,316,36225,2,0,P|338:318|393:323,1,110,2|2,0:0|0:0,0:0:0:0:
484,260,37107,6,0,P|487:207|489:139,1,110,2|2,0:0|0:0,0:0:0:0:
468,40,37990,1,2,0:0:0:0:
364,72,38431,2,0,L|292:76,1,55,2|0,0:0|0:0,0:0:0:0:
264,44,38872,2,0,P|208:50|148:52,1,110,2|2,0:0|0:0,0:0:0:0:
100,48,39534,1,0,0:0:0:0:
12,116,39975,2,0,L|4:48,2,55,0|2|0,0:0|0:0|0:0,0:0:0:0:
44,160,40637,6,0,P|43:225|37:292,1,110,2|2,0:0|0:0,0:0:0:0:
92,368,41519,1,2,0:0:0:0:
196,336,41960,2,0,L|268:332,1,55,2|0,0:0|0:0,0:0:0:0:
304,348,42401,6,0,P|378:356|436:280,1,165,4|2,0:3|0:0,0:0:0:0:
444,184,43504,2,0,P|389:180|334:179,1,110,2|2,0:0|0:0,0:0:0:0:
284,200,44166,6,0,P|229:199|174:195,1,110,4|8,0:0|0:0,0:0:0:0:
72,240,45048,1,2,0:0:0:0:
8,148,45490,2,0,L|4:84,1,55,8|0,0:0|0:0,0:0:0:0:
16,40,45931,2,0,P|70:33|125:29,1,110,2|8,0:0|0:0,0:0:0:0:
180,32,46593,1,0,0:0:0:0:
276,84,47034,2,0,L|352:76,2,55,0|8|0,0:0|0:0|0:0,0:0:0:0:
240,128,47696,6,0,P|252:188|260:256,2,110,2|8|2,0:0|0:0|0:0,0:0:0:0:
180,32,49019,1,8,0:0:0:0:
88,92,49460,6,0,P|80:146|75:201,1,110,2|8,0:0|0:0,0:0:0:0:
84,256,50122,1,0,0:0:0:0:
84,256,50343,2,0,P|138:248|193:244,1,110,2|8,0:0|0:0,0:0:0:0:
276,316,51225,6,0,P|330:312|385:303,1,110,4|8,0:0|0:0,0:0:0:0:
476,240,52107,2,0,P|444:200|384:192,1,110,2|8,0:0|0:0,0:0:0:0:
336,212,52769,1,2,0:0:0:0:
336,212,52990,2,0,P|332:156|320:76,1,110,4|8,0:3|0:0,0:0:0:0:
316,48,53651,1,0,0:0:0:0:
216,88,54093,2,0,L|208:156,2,55,2|8|2,0:0|0:0|0:0,0:0:0:0:
200,36,54754,6,0,P|148:24|88:20,1,110,0|0,1:0|1:0,0:0:0:0:
40,36,55416,2,0,P|60:104|44:156,2,110,0|0|4,1:0|1:0|0:0,0:0:0:0:
252,292,57622,2,0,L|256:228,2,55,0|8|0,1:0|1:2|0:0,0:0:0:0:
264,344,58284,6,0,P|340:336|404:335,1,110,4|8,0:3|0:0,0:0:0:0:
424,360,58946,1,2,0:0:0:0:
424,360,59166,2,0,P|425:299|431:235,1,110,0|8,0:0|0:0,0:0:0:0:
504,168,60048,2,0,P|507:113|509:58,1,110,2|8,0:0|0:0,0:0:0:0:
480,12,60710,1,2,0:0:0:0:
480,12,60931,2,0,P|422:17|348:20,1,110,0|8,0:0|0:0,0:0:0:0:
268,60,61813,6,0,P|210:54|136:52,1,110,2|8,0:0|0:0,0:0:0:0:
104,56,62475,1,2,0:0:0:0:
104,56,62696,2,0,L|96:-20,2,55,0|0|8,0:0|0:0|0:0,0:0:0:0:
96,112,63357,1,0,0:0:0:0:
96,112,63578,2,0,P|32:124|0:172,2,110,2|8|2,0:0|0:0|0:0,0:0:0:0:
188,172,64901,2,0,L|184:236,1,55,8|0,0:0|0:0,0:0:0:0:
200,280,65343,6,0,P|254:272|309:269,1,110,4|8,0:0|0:0,0:0:0:0:
364,284,66004,1,2,0:0:0:0:
364,284,66225,2,0,P|390:232|376:168,1,110,0|8,0:0|0:0,0:0:0:0:
436,88,67107,2,0,P|383:82|314:81,1,110,2|8,0:0|0:0,0:0:0:0:
272,84,67769,1,2,0:0:0:0:
176,136,68210,2,0,P|144:108|72:108,1,110,0|0,0:0|0:0,0:0:0:0:
32,132,68872,6,0,P|25:59|17:4,2,110,4|8|4,0:0|0:0|0:0,0:0:0:0:
72,236,70196,1,8,0:0:0:0:
180,220,70637,2,0,P|176:260|174:328,2,82.5,4|4|4,1:2|1:2|1:2,0:0:0:0:
228,120,71740,2,0,L|220:40,2,55,2|8|0,0:0|0:0|0:0,0:0:0:0:
256,168,72401,6,0,P|317:154|364:168,1,110,4|8,0:0|0:0,0:0:0:0:
404,200,73063,1,0,0:0:0:0:
476,280,73504,2,0,L|468:348,2,55,0|8|0,0:0|0:0|0:0,0:0:0:0:
500,228,74166,2,0,P|496:164|496:96,1,110,2|8,0:0|0:0,0:0:0:0:
496,64,74828,1,0,0:0:0:0:
496,64,75048,2,0,P|432:56|392:8,1,110,2|8,0:0|0:0,0:0:0:0:
304,80,75931,6,0,P|240:76|176:64,1,110,2|8,0:0|0:0,0:0:0:0:
144,164,76813,2,0,P|198:166|253:175,1,110,2|8,0:0|0:0,0:0:0:0:
308,272,77696,2,0,L|236:280,2,55,2|0|8,0:0|0:0|0:0,0:0:0:0:
360,292,78357,2,0,P|424:290|468:252,1,110,0|0,0:0|0:0,0:0:0:0:
484,216,79019,1,8,0:0:0:0:
484,108,79460,6,0,P|404:112|356:120,1,110,4|8,0:0|0:0,0:0:0:0:
324,136,80122,1,0,0:0:0:0:
324,136,80343,2,0,P|269:129|214:127,1,110,2|8,0:0|0:0,0:0:0:0:
140,48,81225,2,0,P|87:23|13:52,1,110,2|8,0:0|0:0,0:0:0:0:
8,80,81887,1,0,0:0:0:0:
8,80,82107,2,0,P|14:135|16:216,1,110,2|8,0:0|0:0,0:0:0:0:
56,292,82990,5,2,0:0:0:0:
164,264,83431,1,8,0:0:0:0:
244,336,83872,1,2,0:0:0:0:
352,308,84313,1,8,0:0:0:0:
452,356,84754,2,0,P|456:280|460:224,1,110,2|8,0:0|0:0,0:0:0:0:
472,192,85416,1,0,0:0:0:0:
472,192,85637,2,0,L|464:120,2,55,2|2|8,0:0|0:0|0:0,0:0:0:0:
368,224,86519,6,0,P|317:223|267:185,1,110,4|8,0:0|0:0,0:0:0:0:
248,140,87181,1,0,0:0:0:0:
248,32,87622,2,0,L|308:24,2,55,0|8|0,0:0|0:0|0:0,0:0:0:0:
204,64,88284,2,0,P|128:56|72:49,1,110,2|8,0:0|0:0,0:0:0:0:
44,36,88946,1,0,0:0:0:0:
44,36,89166,2,0,P|64:104|56:160,1,110,2|8,0:0|0:0,0:0:0:0:
116,240,90048,6,0,P|164:202|232:208,2,110,2|8|2,0:0|0:0|0:0,0:0:0:0:
200,312,91372,1,8,0:0:0:0:
308,336,91813,2,0,P|383:328|439:321,1,110,2|8,0:0|0:0,0:0:0:0:
468,344,92475,1,0,0:0:0:0:
468,344,92696,2,0,L|474:289|480:234,1,110,2|8,0:0|0:0,0:0:0:0:
456,128,93578,6,0,P|412:164|336:152,1,110,4|8,0:0|0:0,0:0:0:0:
312,136,94240,1,0,0:0:0:0:
208,168,94681,2,0,L|148:160,2,55,0|8|0,0:0|0:0|0:0,0:0:0:0:
252,200,95343,2,0,P|240:276|236:328,1,110,4|8,0:0|0:0,0:0:0:0:
240,364,96004,1,0,0:0:0:0:
240,364,96225,2,0,P|172:356|112:352,1,110,2|8,0:0|0:0,0:0:0:0:
28,312,97107,5,4,0:0:0:0:
0,204,97548,1,8,0:0:0:0:
92,144,97990,1,4,0:0:0:0:
184,200,98431,1,8,0:0:0:0:
256,192,98872,12,4,100637,0:0:0:0:
308,48,114754,6,0,P|352:15|424:20,2,110,4|8|2,0:0|0:0|0:0,0:0:0:0:
396,116,116078,2,0,L|464:108,1,55,8|0,0:0|0:0,0:0:0:0:
504,128,116519,2,0,P|496:200|492:260,1,110,2|8,0:0|0:0,0:0:0:0:
500,292,117181,1,0,0:0:0:0:
392,276,117622,2,0,L|376:208,2,55,0|8|0,0:0|0:0|0:0,0:0:0:0:
384,332,118284,6,0,P|316:340|256:352,1,110,2|8,0:0|0:0,0:0:0:0:
168,328,119166,2,0,P|134:275|140:218,1,110,2|8,0:0|0:0,0:0:0:0:
68,144,120048,2,0,P|122:138|176:128,1,110,2|8,0:0|0:0,0:0:0:0:
224,152,120710,1,0,0:0:0:0:
224,152,120931,2,0,P|278:142|332:136,1,110,2|8,0:0|0:0,0:0:0:0:
436,172,121813,6,0,P|469:224|463:281,1,110,4|8,0:0|0:0,0:0:0:0:
404,360,122696,2,0,P|349:350|295:344,1,110,2|8,0:0|0:0,0:0:0:0:
244,368,123357,1,2,0:0:0:0:
244,368,123578,2,0,P|189:362|144:304,1,110,4|8,0:3|0:0,0:0:0:0:
136,272,124240,1,0,0:0:0:0:
136,272,124460,2,0,L|144:196,2,55,2|2|8,0:0|0:0|0:0,0:0:0:0:
28,252,125343,6,0,P|18:197|12:143,1,110,0|0,1:0|1:0,0:0:0:0:
24,92,126004,2,0,P|72:124|136:108,2,110,0|0|4,1:0|1:0|0:0,0:0:0:0:
292,24,127990,1,0,1:0:0:0:
292,24,128210,2,0,L|360:16,2,55,0|0|0,1:0|1:0|1:0,0:0:0:0:
240,40,128872,6,0,P|199:110|236:204,1,165,4|0,1:2|1:0,0:0:0:0:
268,216,129754,2,0,P|332:207|401:198,1,110,0|0,0:0|0:0,0:0:0:0:
436,296,130637,2,0,P|351:307|256:320,1,165,0|0,1:0|1:0,0:0:0:0:
220,296,131519,2,0,L|148:288,1,55,0|0,0:0|0:0,0:0:0:0:
124,328,131960,2,0,L|52:320,1,55,0|0,0:0|0:0,0:0:0:0:
16,340,132401,6,0,P|12:268|0:168,1,165,0|0,1:0|1:0,0:0:0:0:
24,124,133284,2,0,L|92:132,2,55,0|0|0,0:0|0:0|0:0,0:0:0:0:
72,24,134166,2,0,P|148:32|204:40,1,110,0|0,1:0|1:0,0:0:0:0:
264,112,135048,2,0,P|318:104|373:99,1,110,0|0,1:0|0:0,0:0:0:0:
476,140,135931,6,0,P|504:188|488:260,1,110,4|8,0:0|0:0,0:0:0:0:
472,288,136593,1,2,0:0:0:0:
472,288,136813,2,0,P|417:280|362:275,1,110,0|8,0:0|0:0,0:0:0:0:
272,336,137696,2,0,P|224:304|160:308,1,110,2|8,0:0|0:0,0:0:0:0:
124,328,138357,1,2,0:0:0:0:
24,280,138798,2,0,P|16:212|12:156,1,110,0|0,0:0|0:0,0:0:0:0:
20,116,139460,6,0,P|96:124|148:132,1,110,4|8,0:0|0:0,0:0:0:0:
224,184,140343,1,4,0:0:0:0:
324,136,140784,1,8,0:0:0:0:
420,192,141225,2,0,P|424:232|428:296,2,82.5,4|4|4,1:2|1:2|1:2,0:0:0:0:
88,24,144093,6,0,L|81:95,1,55,8|8,0:0|1:2,0:0:0:0:
120,184,144754,2,0,P|128:232|136:304,1,110,4|8,0:0|0:0,0:0:0:0:
140,348,145416,1,0,0:0:0:0:
140,348,145637,2,0,P|196:316|252:324,1,110,2|8,0:0|0:0,0:0:0:0:
336,372,146519,2,0,P|360:332|332:240,1,110,2|8,0:0|0:0,0:0:0:0:
312,236,147181,1,0,0:0:0:0:
312,236,147401,2,0,P|289:189|300:120,1,110,2|8,0:0|0:0,0:0:0:0:
320,84,148063,1,0,0:0:0:0:
320,84,148284,6,0,P|265:76|210:71,2,110,2|8|2,0:0|0:0|0:0,0:0:0:0:
400,160,149607,1,8,0:0:0:0:
504,128,150048,2,0,P|496:56|488:8,2,110,2|8|0,0:0|0:0|0:0,0:0:0:0:
480,236,151372,1,8,0:0:0:0:
376,272,151813,6,0,P|320:268|276:228,1,110,4|8,0:3|0:0,0:0:0:0:
260,184,152475,1,0,0:0:0:0:
260,184,152696,2,0,P|264:136|272:72,1,110,2|8,0:0|0:0,0:0:0:0:
176,20,153578,2,0,P|121:26|66:31,1,110,2|8,0:0|0:0,0:0:0:0:
12,28,154240,1,0,0:0:0:0:
12,28,154460,2,0,P|40:76|40:144,1,110,2|8,0:0|0:0,0:0:0:0:
88,228,155343,5,2,0:0:0:0:
48,332,155784,1,8,0:0:0:0:
156,352,156225,2,0,P|210:345|264:337,1,110,2|8,0:0|0:0,0:0:0:0:
348,264,157107,2,0,P|316:236|240:228,1,110,2|8,0:0|0:0,0:0:0:0:
200,248,157769,1,0,0:0:0:0:
200,248,157990,2,0,L|188:192,2,55,2|2|8,0:0|0:0|0:0,0:0:0:0:
264,336,158872,6,0,P|318:329|372:321,1,110,4|8,0:0|0:0,0:0:0:0:
428,308,159534,1,0,0:0:0:0:
400,200,159975,2,0,L|324:192,2,55,0|8|0,0:0|0:0|0:0,0:0:0:0:
456,192,160637,2,0,P|484:148|468:76,1,110,2|8,0:0|0:0,0:0:0:0:
448,48,161298,1,0,0:0:0:0:
448,48,161519,2,0,P|396:52|332:60,1,110,2|8,0:0|0:0,0:0:0:0:
240,108,162401,6,0,P|185:103|130:96,2,110,2|8|2,0:0|0:0|0:0,0:0:0:0:
332,164,163725,1,8,0:0:0:0:
296,268,164166,2,0,P|268:300|192:316,1,110,2|8,0:0|0:0,0:0:0:0:
152,304,164828,1,0,0:0:0:0:
152,304,165048,2,0,P|145:249|140:194,1,110,2|8,0:0|0:0,0:0:0:0:
200,100,165931,6,0,P|254:104|309:111,1,110,4|2,0:0|0:3,0:0:0:0:
360,128,166593,1,0,0:0:0:0:
452,188,167034,2,0,L|520:180,2,55,0|2|0,0:0|0:3|0:0,0:0:0:0:
400,208,167696,6,0,P|427:254|426:309,1,110,4|2,0:0|0:3,0:0:0:0:
392,352,168357,1,0,0:0:0:0:
392,352,168578,2,0,P|337:347|282:340,1,110,0|2,0:0|0:3,0:0:0:0:
180,296,169460,5,4,0:0:0:0:
73,324,169901,1,2,0:3:0:0:
13,232,170343,1,4,0:0:0:0:
83,146,170784,1,2,0:3:0:0:
185,186,171225,1,4,0:0:0:0:
460,48,172990,6,0,P|405:52|350:59,1,110,4|8,0:0|0:0,0:0:0:0:
252,112,173872,2,0,L|184:104,1,55,2|0,0:0|0:0,0:0:0:0:
160,64,174313,2,0,L|92:56,1,55,8|0,0:0|0:0,0:0:0:0:
52,76,174754,2,0,P|58:130|63:185,1,110,2|8,0:0|0:0,0:0:0:0:
112,284,175637,1,2,0:0:0:0:
212,240,176078,1,8,0:0:0:0:
276,328,176519,6,0,P|332:360|396:348,2,110,2|8|2,0:0|0:0|0:0,0:0:0:0:
352,248,177843,1,8,0:0:0:0:
456,280,178284,2,0,P|460:225|467:170,1,110,2|8,0:0|0:0,0:0:0:0:
436,64,179166,1,2,0:0:0:0:
332,100,179607,1,8,0:0:0:0:
228,60,180048,6,0,P|234:114|239:169,1,110,2|8,0:0|0:0,0:0:0:0:
320,244,180931,2,0,L|328:172,2,55,2|0|8,0:0|0:0|0:0,0:0:0:0:
328,300,181593,1,0,0:0:0:0:
328,300,181813,2,0,P|273:293|218:288,1,110,2|8,0:0|0:0,0:0:0:0:
116,328,182696,2,0,P|109:273|104:218,1,110,2|8,0:0|0:0,0:0:0:0:
144,116,183578,6,0,P|198:150|262:142,2,110,2|8|2,0:0|0:0|0:0,0:0:0:0:
224,40,184901,1,8,0:0:0:0:
332,20,185343,2,0,P|400:28|448:36,1,110,2|8,0:0|0:0,0:0:0:0:
492,132,186225,2,0,P|483:186|477:240,1,110,2|8,0:0|0:0,0:0:0:0:
392,308,187107,6,0,L|400:376,2,55,4|0|8,0:0|0:0|0:0,0:0:0:0:
320,224,187990,2,0,L|328:156,2,55,2|0|8,0:0|0:0|0:0,0:0:0:0:
304,276,188651,1,0,0:0:0:0:
304,276,188872,2,0,P|252:240|196:244,1,110,2|8,0:0|0:0,0:0:0:0:
160,268,189534,1,0,0:0:0:0:
160,268,189754,2,0,L|168:336,2,55,2|0|8,0:0|0:0|0:0,0:0:0:0:
148,160,190637,6,0,P|93:157|52:116,1,110,2|8,0:0|0:0,0:0:0:0:
32,12,191519,2,0,P|100:20|148:28,1,110,2|8,0:0|0:0,0:0:0:0:
184,60,192181,1,0,0:0:0:0:
184,60,192401,2,0,P|238:51|292:45,2,110,2|8|2,0:0|0:0|0:0,0:0:0:0:
148,160,193725,1,8,0:0:0:0:
236,228,194166,6,0,P|290:234|340:204,1,110,2|8,0:0|0:0,0:0:0:0:
368,160,194828,1,0,0:0:0:0:
368,160,195048,2,0,L|360:88,2,55,2|0|8,0:0|0:0|0:0,0:0:0:0:
456,224,195931,2,0,P|464:160|472:100,2,110,2|8|2,0:0|0:0|0:0,0:0:0:0:
396,316,197254,1,8,0:0:0:0:
256,192,197696,12,0,200563,0:1:0:0:
