osu file format v14

[General]
AudioFilename: audio.mp3
AudioLeadIn: 0
PreviewTime: 61180
Countdown: 0
SampleSet: Soft
StackLeniency: 0.7
Mode: 0
LetterboxInBreaks: 0
EpilepsyWarning: 1
WidescreenStoryboard: 1

[Editor]
Bookmarks: 25702,42398,59093,61180
DistanceSpacing: 0.3
BeatDivisor: 4
GridSize: 32
TimelineZoom: 1

[Metadata]
Title:Xue Mao Jiao
TitleUnicode:学猫叫
Artist:Xiao Pan Pan & Xiao Feng Feng
ArtistUnicode:小潘潘 & 小峰峰
Creator:gibee games
Version:Together
Source:
Tags:Xehn Xenon- Astronic gibee games WildzFlazoon Xen sparxo learning to meow cat chinese
BeatmapID:2227897
BeatmapSetID:1064066

[Difficulty]
HPDrainRate:5
CircleSize:4
OverallDifficulty:7
ApproachRate:8.2
SliderMultiplier:1.6
SliderTickRate:1

[Events]
//Background and Video events
0,0,"bg.jpg",0,0
//Break Periods
//Storyboard Layer 0 (Background)
//Storyboard Layer 1 (Fail)
//Storyboard Layer 2 (Pass)
//Storyboard Layer 3 (Foreground)
//Storyboard Layer 4 (Overlay)
//Storyboard Sound Samples

[TimingPoints]
648,521.739130434783,4,2,2,40,1,0
648,-125,4,2,2,40,0,0
8995,-125,4,2,2,40,0,0
10430,-125,4,2,2,5,0,0
10561,-125,4,2,2,40,0,0
14604,-125,4,2,2,5,0,0
14734,-125,4,2,2,40,0,0
18778,-125,4,2,2,5,0,0
18908,-125,4,2,2,40,0,0
25691,-125,4,2,2,55,0,0
26082,-125,4,2,2,5,0,0
26213,-125,4,2,2,55,0,0
30256,-125,4,2,2,5,0,0
30387,-125,4,2,2,55,0,0
34691,-125,4,2,2,5,0,0
34822,-125,4,2,2,55,0,0
37300,-125,4,2,2,5,0,0
37431,-125,4,2,2,55,0,0
38604,-125,4,2,2,5,0,0
38735,-125,4,2,2,55,0,0
42778,-125,4,2,2,5,0,0
42909,-125,4,2,2,55,0,0
43821,-125,4,2,2,5,0,0
43952,-125,4,2,2,55,0,0
46952,-125,4,2,2,5,0,0
47083,-125,4,2,2,55,0,0
51387,-125,4,2,2,5,0,0
51518,-125,4,2,2,55,0,0
53995,-125,4,2,2,5,0,0
54126,-125,4,2,2,55,0,0
55300,-125,4,2,2,5,0,0
55431,-125,4,2,2,55,0,0
59343,-100,4,2,2,55,0,0
61169,-100,4,2,2,75,0,1
62604,-100,4,2,2,5,0,1
62734,-100,4,2,2,75,0,1
63387,-100,4,2,2,5,0,1
63517,-100,4,2,2,75,0,1
63648,-100,4,2,2,5,0,1
63778,-100,4,2,2,75,0,1
63908,-100,4,2,2,5,0,1
64039,-100,4,2,2,75,0,1
64169,-100,4,2,2,5,0,1
64300,-100,4,2,2,75,0,1
64691,-100,4,2,2,5,0,1
64821,-100,4,2,2,75,0,1
66778,-100,4,2,2,5,0,1
66908,-100,4,2,2,75,0,1
67561,-100,4,2,2,5,0,1
67691,-100,4,2,2,75,0,1
67821,-100,4,2,2,5,0,1
67952,-100,4,2,2,75,0,1
68082,-100,4,2,2,5,0,1
68213,-100,4,2,2,75,0,1
68343,-100,4,2,2,5,0,1
68474,-100,4,2,2,75,0,1
68865,-100,4,2,2,5,0,1
68995,-100,4,2,2,75,0,1
70169,-100,4,2,2,5,0,1
70300,-100,4,2,2,75,0,1
70430,-100,4,2,2,5,0,1
70561,-100,4,2,2,75,0,1
70952,-100,4,2,2,5,0,1
71082,-100,4,2,2,75,0,1
75387,-100,4,2,2,5,0,1
75517,-100,4,2,2,75,0,1
75648,-100,4,2,2,5,0,1
75778,-100,4,2,2,75,0,0
76169,-100,4,2,2,75,0,0
76300,-100,4,2,2,75,0,0
77865,-100,4,2,2,75,0,1
79300,-100,4,2,2,5,0,1
79430,-100,4,2,2,75,0,1
80082,-100,4,2,2,5,0,1
80213,-100,4,2,2,75,0,1
80343,-100,4,2,2,5,0,1
80474,-100,4,2,2,75,0,1
80604,-100,4,2,2,5,0,1
80734,-100,4,2,2,75,0,1
80865,-100,4,2,2,5,0,1
80995,-100,4,2,2,75,0,1
81387,-100,4,2,2,5,0,1
81517,-100,4,2,2,75,0,1
83474,-100,4,2,2,5,0,1
83604,-100,4,2,2,75,0,1
85561,-100,4,2,2,5,0,1
85691,-100,4,2,2,75,0,1
87648,-100,4,2,2,5,0,1
87778,-100,4,2,2,75,0,1
89474,-100,4,2,2,5,0,1
89604,-100,4,2,2,75,0,1
90778,-100,4,2,2,5,0,1
90908,-100,4,2,2,75,0,1
94561,-100,4,2,2,40,0,0

[Colours]
Combo1 : 255,230,85
Combo2 : 179,255,102
Combo3 : 94,174,255
Combo4 : 255,138,138

[HitObjects]
197,109,648,6,0,L|212:27,2,64,2|0|0,0:0|0:0|0:0,0:0:0:0:
145,171,1430,2,0,B|203:165|203:165|211:160|211:160|277:152,1,128,2|0,0:0|0:0,0:0:0:0:
304,226,2213,2,0,L|229:236,1,64,0|0,0:0|0:0,0:0:0:0:
149,283,2734,6,0,L|70:271,2,64,2|0|0,0:0|0:0|0:0,0:0:0:0:
211,333,3517,2,0,B|269:327|269:327|277:322|277:322|343:314,1,128,2|0,0:0|0:0,0:0:0:0:
412,343,4300,2,0,L|432:257,1,64,0|0,0:0|0:0,0:0:0:0:
450,178,4821,6,0,L|534:160,2,64,2|0|0,0:0|0:0|0:0,0:0:0:0:
382,137,5604,2,0,B|322:129|322:129|314:124|314:124|256:118,1,128,2|0,0:0|0:0,0:0:0:0:
195,71,6387,2,0,L|208:144,1,64,0|0,0:0|0:0,0:0:0:0:
223,238,6908,6,0,L|140:225,2,64,2|0|0,0:0|0:0|0:0,0:0:0:0:
290,283,7691,2,0,B|348:277|348:277|356:272|356:272|415:264,1,128,2|0,0:0|0:0,0:0:0:0:
434,185,8474,1,2,0:0:0:0:
451,106,8734,1,0,0:0:0:0:
343,60,8995,6,0,L|279:72,1,64,2|0,0:0|0:0,0:0:0:0:
220,123,9517,2,0,L|156:111,1,64,2|0,0:0|0:0,0:0:0:0:
100,58,10039,2,0,B|121:118|121:118|103:182,1,128,2|2,0:0|0:0,0:0:0:0:
45,235,10821,1,0,0:0:0:0:
167,299,11082,6,0,L|243:312,1,64,2|0,0:0|0:0,0:0:0:0:
290,256,11604,2,0,L|366:243,1,64,2|0,0:0|0:0,0:0:0:0:
420,283,12126,2,0,B|399:205|399:205|415:159,1,128,2|2,0:0|0:0,0:0:0:0:
468,102,12908,1,0,0:0:0:0:
332,47,13169,6,0,L|318:116,1,64,2|0,0:0|0:0,0:0:0:0:
255,157,13691,2,0,L|269:226,1,64,2|0,0:0|0:0,0:0:0:0:
325,275,14213,2,0,B|280:259|280:259|202:280,1,128,2|2,0:0|0:0,0:0:0:0:
139,330,14995,1,0,0:0:0:0:
54,243,15256,6,0,L|73:178,1,64,2|0,0:0|0:0,0:0:0:0:
143,143,15778,2,0,L|128:64,1,64,2|0,0:0|0:0,0:0:0:0:
72,25,16300,2,0,B|134:43|134:43|197:31,1,128,2|2,0:0|0:0,0:0:0:0:
272,6,17082,1,0,0:0:0:0:
332,115,17343,6,0,L|319:182,1,64,2|0,0:0|0:0,0:0:0:0:
248,213,17865,2,0,L|261:280,1,64,2|0,0:0|0:0,0:0:0:0:
279,354,18387,2,0,L|162:332,1,96,2|0,0:0|0:0,0:0:0:0:
153,318,18908,2,0,L|79:331,1,64,2|0,0:0|0:0,0:0:0:0:
16,247,19430,6,0,L|-2:329,2,64,2|0|2,0:0|0:0|0:0,0:0:0:0:
34,169,20213,1,0,0:0:0:0:
54,91,20474,2,0,B|137:75|137:75|181:89,1,128,2|2,0:0|0:0,0:0:0:0:
246,132,21256,1,0,0:0:0:0:
390,60,21517,5,2,0:0:0:0:
362,136,21778,1,0,0:0:0:0:
404,205,22039,1,2,0:0:0:0:
376,281,22300,1,0,0:0:0:0:
345,354,22561,2,0,L|258:330,1,64,2|0,0:0|0:0,0:0:0:0:
219,289,23082,2,0,L|134:307,2,64,2|0|2,0:0|0:0|0:0,0:0:0:0:
256,192,23734,12,2,25169,0:0:0:0:
115,67,25691,6,0,L|223:84,1,96,0|0,3:0|0:0,0:0:0:0:
243,89,26213,2,0,L|174:105,1,64,8|0,0:0|3:0,0:0:0:0:
198,182,26734,2,0,L|268:165,1,64,2|0,0:0|0:0,0:0:0:0:
321,219,27256,2,0,L|388:230,1,64,8|2,0:0|0:0,0:0:0:0:
435,118,27778,6,0,L|444:54,2,64,0|2|8,3:0|0:0|0:0,0:0:0:0:
481,184,28561,2,0,B|475:242|475:242|470:250|470:250|462:309,1,128,0|0,3:0|3:0,0:0:0:0:
403,362,29343,2,0,L|336:377,1,64,8|2,0:0|0:0,0:0:0:0:
255,281,29865,6,0,L|147:264,1,96,0|0,3:0|0:0,0:0:0:0:
127,259,30387,2,0,L|196:243,1,64,8|0,0:0|3:0,0:0:0:0:
247,188,30908,2,0,L|314:200,1,64,2|2,0:0|0:0,0:0:0:0:
377,155,31430,2,0,L|403:227,1,64,8|0,0:0|3:0,0:0:0:0:
440,313,31952,6,0,B|382:307|382:307|374:302|374:302|315:294,1,128,0|8,3:0|0:0,0:0:0:0:
249,246,32734,2,0,B|191:252|191:252|183:257|183:257|124:265,1,128,0|8,3:0|0:0,0:0:0:0:
53,225,33517,2,0,L|35:157,1,64,8|2,0:0|0:0,0:0:0:0:
124,92,34039,5,0,3:0:0:0:
191,137,34300,2,0,L|286:114,1,96,2|0,0:0|0:0,0:0:0:0:
317,106,34821,2,0,L|300:175,1,64,0|0,3:0|0:0,0:0:0:0:
239,216,35343,2,0,L|256:285,2,64,2|8|2,0:0|0:0|0:0,0:0:0:0:
110,233,36126,6,0,L|41:219,2,64,0|2|8,3:0|0:0|0:0,0:0:0:0:
172,284,36908,2,0,L|283:262,1,96,0|0,3:0|0:0,0:0:0:0:
299,258,37430,2,0,L|229:242,1,64,0|8,3:0|0:0,0:0:0:0:
182,185,37952,1,2,0:0:0:0:
323,129,38213,6,0,L|421:108,1,96,0|0,3:0|0:0,0:0:0:0:
450,102,38734,2,0,L|426:172,1,64,8|0,0:0|3:0,0:0:0:0:
365,206,39256,2,0,L|387:271,2,64,2|2|8,0:0|0:0|0:0,0:0:0:0:
290,236,40039,1,0,3:0:0:0:
199,123,40300,6,0,L|176:205,1,64,0|2,3:0|0:0,0:0:0:0:
114,227,40821,2,0,L|137:309,1,64,8|0,0:0|3:0,0:0:0:0:
152,366,41343,1,2,0:3:0:0:
183,361,41473,1,2,0:3:0:0:
215,356,41603,1,2,3:0:0:0:
247,352,41734,1,2,0:3:0:0:
278,347,41864,1,8,0:0:0:0:
335,291,42125,1,2,0:3:0:0:
367,295,42256,1,2,0:3:0:0:
398,300,42387,6,0,L|432:204,1,96,0|0,3:0|0:0,0:0:0:0:
441,177,42908,2,0,L|363:154,1,64,8|0,0:0|3:0,0:0:0:0:
328,98,43430,2,0,L|229:132,1,96,2|0,0:0|0:0,0:0:0:0:
205,143,43952,2,0,L|226:210,1,64,8|2,0:0|0:0,0:0:0:0:
321,283,44474,6,0,L|298:360,2,64,0|2|8,3:0|0:0|0:0,0:0:0:0:
387,237,45256,2,0,B|373:178|373:178|368:171|368:171|357:114,1,128,0|0,3:0|3:0,0:0:0:0:
431,82,46039,2,0,L|446:151,1,64,8|2,0:0|0:0,0:0:0:0:
288,186,46561,6,0,L|173:153,1,96,0|0,3:0|0:0,0:0:0:0:
162,150,47082,2,0,L|187:219,1,64,8|0,0:0|3:0,0:0:0:0:
249,258,47604,2,0,L|224:327,2,64,2|2|8,0:0|0:0|0:0,0:0:0:0:
326,239,48387,1,0,3:0:0:0:
425,129,48648,6,0,L|439:204,2,64,0|2|8,3:0|0:0|0:0,0:0:0:0:
407,51,49430,2,0,B|347:62|347:62|340:67|340:67|283:78,1,128,0|8,3:0|0:0,0:0:0:0:
212,39,50213,2,0,L|194:100,1,64,8|2,0:0|0:0,0:0:0:0:
84,173,50734,5,0,3:0:0:0:
138,232,50995,2,0,L|165:333,1,96,2|0,0:0|0:0,0:0:0:0:
173,358,51517,2,0,L|243:339,1,64,0|0,3:0|0:0,0:0:0:0:
290,285,52039,2,0,L|360:306,2,64,2|8|2,0:0|0:0|0:0,0:0:0:0:
358,146,52821,6,0,L|296:163,2,64,0|2|8,3:0|0:0|0:0,0:0:0:0:
434,120,53604,2,0,L|459:213,1,96,0|0,3:0|0:0,0:0:0:0:
470,246,54126,2,0,L|406:233,1,64,0|8,3:0|0:0,0:0:0:0:
329,217,54648,1,2,0:0:0:0:
220,316,54908,6,0,L|198:204,1,96,0|0,3:0|0:0,0:0:0:0:
194,188,55430,2,0,L|132:210,1,64,8|0,0:0|3:0,0:0:0:0:
81,267,55952,2,0,L|19:245,2,64,2|2|8,0:0|0:0|0:0,0:0:0:0:
136,324,56734,1,0,3:0:0:0:
288,240,56995,6,0,L|371:224,1,64,0|2,3:0|0:0,0:0:0:0:
404,167,57517,1,8,0:0:0:0:
456,105,57778,2,0,B|396:116|396:116|389:121|389:121|332:132,1,128,0|0,3:0|3:0,0:0:0:0:
253,113,58561,1,8,0:0:0:0:
145,93,58821,1,4,0:0:0:0:
73,318,59343,5,0,3:0:0:0:
181,241,59604,1,0,3:0:0:0:
265,345,59865,2,0,L|323:354,1,40,2|2,0:3|0:3,0:0:0:0:
341,328,60126,2,0,L|399:319,1,40,10|2,0:3|0:3,0:0:0:0:
419,347,60387,1,2,0:3:0:0:
381,222,60648,2,0,L|372:164,1,40,8|2,0:0|0:3,0:0:0:0:
398,146,60909,2,0,L|407:88,1,40,2|2,0:3|0:3,0:0:0:0:
423,72,61169,6,0,L|337:51,1,80,4|2,1:2|0:0,0:0:0:0:
159,92,61691,1,8,0:0:0:0:
226,162,61952,1,0,1:0:0:0:
91,259,62213,2,0,L|70:133,1,120,2|0,0:0|0:0,0:0:0:0:
64,107,62734,2,0,L|45:201,1,80,8|2,0:0|0:0,0:0:0:0:
23,345,63256,6,0,L|69:335,1,40,0|0,1:0|0:0,0:0:0:0:
108,238,63517,2,0,L|118:284,1,40,2|0,0:0|0:0,0:0:0:0:
186,318,63778,2,0,L|232:308,1,40,8|0,0:0|0:0,0:0:0:0:
271,211,64039,2,0,L|281:257,1,40,0|0,1:0|0:0,0:0:0:0:
349,291,64300,2,0,L|475:269,1,120,2|0,0:0|0:0,0:0:0:0:
506,262,64821,2,0,L|423:231,1,80,8|2,0:0|0:0,0:0:0:0:
335,100,65343,6,0,L|252:131,1,80,0|2,1:0|0:0,0:0:0:0:
69,60,65865,1,8,0:0:0:0:
176,4,66126,1,0,1:0:0:0:
133,165,66387,2,0,L|105:292,1,120,2|0,0:0|0:0,0:0:0:0:
99,318,66908,2,0,L|178:301,1,80,8|2,0:0|0:0,0:0:0:0:
314,274,67430,6,0,L|304:319,1,40,0|0,1:0|0:0,0:0:0:0:
384,330,67691,2,0,L|394:285,1,40,2|0,0:0|0:0,0:0:0:0:
343,156,67952,2,0,L|333:201,1,40,8|0,0:0|0:0,0:0:0:0:
413,212,68213,2,0,L|423:167,1,40,0|0,1:0|0:0,0:0:0:0:
357,74,68474,2,0,L|230:94,1,120,2|0,0:0|0:0,0:0:0:0:
199,102,68995,2,0,L|241:180,1,80,8|2,0:0|0:0,0:0:0:0:
413,212,69517,6,0,L|371:290,1,80,0|2,1:0|0:0,0:0:0:0:
259,349,70039,6,0,L|251:296,1,40,8|0,0:0|0:0,0:0:0:0:
174,322,70300,2,0,L|179:361,1,40,0|0,1:0|0:0,0:0:0:0:
99,373,70561,2,0,L|81:249,1,120,2|0,0:0|0:0,0:0:0:0:
78,214,71082,2,0,L|173:241,1,80,8|2,0:0|0:0,0:0:0:0:
259,349,71604,6,0,L|354:322,1,80,0|2,1:0|0:0,0:0:0:0:
512,272,72126,1,8,0:0:0:0:
413,233,72387,1,0,1:0:0:0:
453,84,72648,2,0,L|468:192,1,80,2|0,0:0|1:0,0:0:0:0:
288,110,73169,2,0,L|305:8,1,80,8|2,0:0|0:0,0:0:0:0:
128,187,73691,5,0,1:0:0:0:
143,266,73952,1,2,0:0:0:0:
222,251,74213,1,8,0:0:0:0:
207,172,74474,1,0,1:0:0:0:
65,240,74734,5,2,0:0:0:0:
287,196,74995,1,0,1:0:0:0:
155,106,75256,2,0,L|145:46,1,40,8|0,0:0|0:0,0:0:0:0:
197,330,75517,2,0,L|205:375,1,40,2|0,0:0|0:0,0:0:0:0:
365,222,75778,6,0,L|408:98,1,120,0|0,1:0|3:0,0:0:0:0:
422,68,76300,2,0,L|457:152,1,80,8|0,0:0|1:0,0:0:0:0:
512,294,76821,1,10,0:3:0:0:
472,285,76951,1,2,0:3:0:0:
433,277,77081,1,2,0:3:0:0:
394,269,77212,1,2,0:3:0:0:
355,261,77342,1,8,0:0:0:0:
280,323,77604,1,2,0:3:0:0:
271,283,77734,1,2,0:3:0:0:
262,244,77865,6,0,L|245:146,1,80,4|2,1:2|0:0,0:0:0:0:
225,0,78387,1,8,0:0:0:0:
150,104,78648,1,0,1:0:0:0:
355,23,78908,2,0,L|340:148,1,120,2|0,0:0|0:0,0:0:0:0:
337,183,79430,2,0,L|436:150,1,80,8|2,0:0|0:0,0:0:0:0:
409,316,79952,6,0,L|400:271,1,40,0|0,1:0|0:0,0:0:0:0:
344,222,80213,2,0,L|335:177,1,40,2|0,0:0|0:0,0:0:0:0:
335,341,80474,2,0,L|326:296,1,40,8|0,0:0|0:0,0:0:0:0:
270,247,80735,2,0,L|261:202,1,40,0|0,1:0|0:0,0:0:0:0:
153,307,80995,2,0,L|20:278,1,120,2|0,0:0|0:0,0:0:0:0:
1,270,81517,2,0,L|50:193,1,80,8|2,0:0|0:0,0:0:0:0:
240,176,82039,6,0,L|191:95,1,80,0|2,1:0|0:0,0:0:0:0:
11,28,82561,1,8,0:0:0:0:
130,5,82821,1,0,1:0:0:0:
87,155,83082,2,0,L|58:283,1,120,2|0,0:0|0:0,0:0:0:0:
50,307,83604,2,0,L|137:271,1,80,8|2,0:0|0:0,0:0:0:0:
267,157,84126,6,0,L|371:178,1,80,0|2,1:0|0:0,0:0:0:0:
465,312,84648,1,8,0:0:0:0:
468,189,84908,1,0,1:0:0:0:
292,274,85169,2,0,L|261:133,1,120,2|0,0:0|0:0,0:0:0:0:
260,115,85691,2,0,L|179:148,1,80,8|2,0:0|0:0,0:0:0:0:
35,237,86213,6,0,L|121:279,1,80,0|2,1:0|0:0,0:0:0:0:
264,347,86734,1,8,0:0:0:0:
169,374,86995,1,0,1:0:0:0:
286,247,87256,2,0,L|420:222,1,120,2|0,0:0|0:0,0:0:0:0:
435,215,87778,2,0,L|353:170,1,80,8|2,0:0|0:0,0:0:0:0:
292,50,88300,6,0,L|196:85,1,80,0|2,1:0|0:0,0:0:0:0:
55,128,88821,1,8,0:0:0:0:
173,305,89082,2,0,L|190:181,1,120,0|0,1:0|0:0,0:0:0:0:
192,154,89604,2,0,L|101:182,1,80,0|8,1:0|0:0,0:0:0:0:
257,246,90126,1,2,0:0:0:0:
366,55,90387,6,0,L|286:156,1,120,0|0,1:0|0:0,0:0:0:0:
274,170,90908,2,0,L|359:199,1,80,8|0,0:0|1:0,0:0:0:0:
508,245,91430,1,2,0:0:0:0:
438,100,91691,1,0,1:0:0:0:
320,313,91952,1,8,0:0:0:0:
420,229,92213,1,2,0:0:0:0:
192,154,92474,5,4,1:2:0:0:
405,315,92734,1,0,1:0:0:0:
366,55,92995,1,0,1:0:0:0:
213,247,93256,2,0,B|135:254|135:254|127:251|127:251|50:258,1,160,4|2,1:2|0:0,0:0:0:0:
0,323,94039,1,8,0:0:0:0:
12,184,94300,1,0,3:0:0:0:
54,257,94561,5,2,0:0:0:0:
