osu file format v14

[General]
AudioFilename: audio.mp3
AudioLeadIn: 0
PreviewTime: 61180
Countdown: 0
SampleSet: Soft
StackLeniency: 0.7
Mode: 0
LetterboxInBreaks: 0
EpilepsyWarning: 1
WidescreenStoryboard: 1

[Editor]
Bookmarks: 9006,25702,42398,59093,61180
DistanceSpacing: 0.9
BeatDivisor: 2
GridSize: 16
TimelineZoom: 1

[Metadata]
Title:Xue Mao Jiao
TitleUnicode:学猫叫
Artist:Xiao Pan Pan & Xiao Feng Feng
ArtistUnicode:小潘潘 & 小峰峰
Creator:gibee games
Version:Astronic's Normal
Source:
Tags:Xehn Xenon- Astronic gibee games WildzFlazoon Xen sparxo learning to meow cat chinese
BeatmapID:2244852
BeatmapSetID:1064066

[Difficulty]
HPDrainRate:3
CircleSize:3.3
OverallDifficulty:5
ApproachRate:6
SliderMultiplier:1.2
SliderTickRate:1

[Events]
//Background and Video events
0,0,"bg.jpg",0,0
//Break Periods
//Storyboard Layer 0 (Background)
//Storyboard Layer 1 (Fail)
//Storyboard Layer 2 (Pass)
//Storyboard Layer 3 (Foreground)
//Storyboard Layer 4 (Overlay)
//Storyboard Sound Samples

[TimingPoints]
648,521.739130434783,4,2,2,40,1,0
648,-125,4,2,2,40,0,0
8995,-111.111111111111,4,2,2,40,0,0
10430,-111.111111111111,4,2,2,5,0,0
10561,-111.111111111111,4,2,2,40,0,0
14604,-111.111111111111,4,2,2,5,0,0
14734,-111.111111111111,4,2,2,40,0,0
18778,-111.111111111111,4,2,2,5,0,0
18908,-111.111111111111,4,2,2,40,0,0
25691,-111.111111111111,4,2,2,55,0,0
26082,-111.111111111111,4,2,2,5,0,0
26213,-111.111111111111,4,2,2,55,0,0
30256,-111.111111111111,4,2,2,5,0,0
30387,-111.111111111111,4,2,2,55,0,0
34691,-111.111111111111,4,2,2,5,0,0
34822,-111.111111111111,4,2,2,55,0,0
37300,-111.111111111111,4,2,2,5,0,0
37431,-111.111111111111,4,2,2,55,0,0
38604,-111.111111111111,4,2,2,5,0,0
38735,-111.111111111111,4,2,2,55,0,0
42778,-111.111111111111,4,2,2,5,0,0
42909,-111.111111111111,4,2,2,55,0,0
43821,-111.111111111111,4,2,2,5,0,0
43952,-111.111111111111,4,2,2,55,0,0
46952,-111.111111111111,4,2,2,5,0,0
47083,-111.111111111111,4,2,2,55,0,0
51387,-111.111111111111,4,2,2,5,0,0
51518,-111.111111111111,4,2,2,55,0,0
53995,-111.111111111111,4,2,2,5,0,0
54126,-111.111111111111,4,2,2,55,0,0
55300,-111.111111111111,4,2,2,5,0,0
55431,-111.111111111111,4,2,2,55,0,0
61169,-100,4,2,2,75,0,1
62604,-100,4,2,2,5,0,1
62734,-100,4,2,2,75,0,1
63387,-100,4,2,2,5,0,1
63517,-100,4,2,2,75,0,1
63648,-100,4,2,2,5,0,1
63778,-100,4,2,2,75,0,1
63908,-100,4,2,2,5,0,1
64039,-100,4,2,2,75,0,1
64169,-100,4,2,2,5,0,1
64300,-100,4,2,2,75,0,1
64691,-100,4,2,2,5,0,1
64821,-100,4,2,2,75,0,1
66778,-100,4,2,2,5,0,1
66908,-100,4,2,2,75,0,1
67561,-100,4,2,2,5,0,1
67691,-100,4,2,2,75,0,1
67821,-100,4,2,2,5,0,1
67952,-100,4,2,2,75,0,1
68082,-100,4,2,2,5,0,1
68213,-100,4,2,2,75,0,1
68343,-100,4,2,2,5,0,1
68474,-100,4,2,2,75,0,1
68865,-100,4,2,2,5,0,1
68995,-100,4,2,2,75,0,1
70169,-100,4,2,2,5,0,1
70300,-100,4,2,2,75,0,1
70430,-100,4,2,2,5,0,1
70561,-100,4,2,2,75,0,1
71082,-100,4,2,2,75,0,1
75387,-100,4,2,2,5,0,1
75517,-100,4,2,2,75,0,1
75648,-100,4,2,2,5,0,1
75778,-100,4,2,2,75,0,0
77865,-100,4,2,2,75,0,1
79300,-100,4,2,2,5,0,1
79430,-100,4,2,2,75,0,1
80082,-100,4,2,2,5,0,1
80213,-100,4,2,2,75,0,1
80343,-100,4,2,2,5,0,1
80474,-100,4,2,2,75,0,1
80604,-100,4,2,2,5,0,1
80734,-100,4,2,2,75,0,1
80865,-100,4,2,2,5,0,1
80995,-100,4,2,2,75,0,1
81387,-100,4,2,2,5,0,1
81517,-100,4,2,2,75,0,1
83474,-100,4,2,2,5,0,1
83604,-100,4,2,2,75,0,1
85561,-100,4,2,2,5,0,1
85691,-100,4,2,2,75,0,1
87648,-100,4,2,2,5,0,1
87778,-100,4,2,2,75,0,1
89474,-100,4,2,2,5,0,1
89604,-100,4,2,2,75,0,1
90778,-100,4,2,2,5,0,1
90908,-100,4,2,2,75,0,1
94561,-100,4,2,2,40,0,0

[Colours]
Combo1 : 255,228,81
Combo2 : 128,255,0
Combo3 : 66,160,255
Combo4 : 255,102,102

[HitObjects]
320,64,648,6,0,P|368:32|464:56,1,144,2|2,0:0|0:0,0:0:0:0:
400,128,1952,1,0,0:0:0:0:
432,224,2474,1,0,0:0:0:0:
400,256,2734,2,0,L|256:240,1,144,2|2,0:0|0:0,0:0:0:0:
160,224,4039,1,0,0:0:0:0:
80,288,4561,1,0,0:0:0:0:
32,272,4821,6,0,P|1:222|23:134,1,144,2|2,0:0|0:0,0:0:0:0:
94,198,6126,1,0,0:0:0:0:
96,96,6648,1,0,0:0:0:0:
128,64,6908,2,0,L|272:80,1,144,2|2,0:0|0:0,0:0:0:0:
368,96,8213,2,0,L|352:32,2,48,0|2|0,0:0|0:0|0:0,0:0:0:0:
416,128,8995,6,0,L|400:192,1,53.9999983520508,2|0,0:0|0:0,0:0:0:0:
432,224,9517,2,0,L|496:208,2,53.9999983520508,2|0|2,0:0|0:0|0:0,0:0:0:0:
337,280,10561,2,0,L|273:296,1,53.9999983520508,2|0,0:0|0:0,0:0:0:0:
256,336,11082,2,0,L|192:320,1,53.9999983520508,2|0,0:0|0:0,0:0:0:0:
160,304,11604,2,0,L|144:368,2,53.9999983520508,2|0|2,0:0|0:0|0:0,0:0:0:0:
182,209,12648,2,0,L|118:225,1,53.9999983520508,2|0,0:0|0:0,0:0:0:0:
81,229,13169,6,0,L|94:176,2,53.9999983520508,2|0|2,0:0|0:0|0:0,0:0:0:0:
71,276,13952,1,0,0:0:0:0:
60,323,14213,1,2,0:0:0:0:
152,353,14734,2,0,L|216:337,1,53.9999983520508,2|0,0:0|0:0,0:0:0:0:
239,306,15256,6,0,L|303:322,1,53.9999983520508,2|0,0:0|0:0,0:0:0:0:
337,335,15778,2,0,L|318:262,1,53.9999983520508,2|0,0:0|0:0,0:0:0:0:
310,236,16300,1,2,0:0:0:0:
405,251,16821,2,0,L|421:187,1,53.9999983520508,2|0,0:0|0:0,0:0:0:0:
457,170,17343,1,2,0:0:0:0:
490,134,17604,1,0,0:0:0:0:
471,88,17865,2,0,L|407:101,2,53.9999983520508,2|0|2,0:0|0:0|0:0,0:0:0:0:
409,12,18908,2,0,L|345:28,1,53.9999983520508,2|0,0:0|0:0,0:0:0:0:
322,59,19430,6,0,P|274:75|210:59,1,107.999996704102,2|2,0:0|0:0,0:0:0:0:
176,39,20213,1,0,0:0:0:0:
131,19,20474,2,0,L|147:131,1,107.999996704102,2|2,0:0|0:0,0:0:0:0:
219,189,21517,2,0,L|235:125,1,53.9999983520508,2|0,0:0|0:0,0:0:0:0:
272,108,22039,2,0,L|256:44,1,53.9999983520508,2|0,0:0|0:0,0:0:0:0:
243,9,22561,2,0,L|307:25,1,53.9999983520508,2|0,0:0|0:0,0:0:0:0:
341,38,23082,1,2,0:0:0:0:
387,52,23343,1,0,0:0:0:0:
433,67,23604,6,0,B|449:99|449:147|433:147|417:147|417:195|433:227,1,161.999995056153,2|0,0:0|0:0,0:0:0:0:
176,352,25691,5,0,3:0:0:0:
64,320,26213,2,0,L|48:256,1,53.9999983520508,8|0,0:0|3:0,0:0:0:0:
32,224,26734,2,0,P|32:160|80:112,1,107.999996704102,2|8,0:0|0:0,0:0:0:0:
135,200,27778,2,0,L|199:184,1,53.9999983520508,0|2,3:0|0:0,0:0:0:0:
240,176,28300,1,8,0:0:0:0:
288,160,28561,1,0,3:0:0:0:
384,128,29082,2,0,L|448:144,2,53.9999983520508,0|8|2,3:0|0:0|0:0,0:0:0:0:
368,80,29865,6,0,P|336:48|272:48,1,107.999996704102,0|8,3:0|0:0,0:0:0:0:
224,64,30648,1,0,3:0:0:0:
176,80,30908,2,0,L|112:64,1,53.9999983520508,2|2,0:0|0:0,0:0:0:0:
80,48,31430,1,8,0:0:0:0:
32,32,31691,2,0,B|16:80|32:112|32:112|48:144|32:208,1,161.999995056153,0|8,3:0|0:0,0:0:0:0:
128,320,33256,1,8,0:0:0:0:
176,352,33517,2,0,L|240:336,1,53.9999983520508,8|2,0:0|0:0,0:0:0:0:
272,320,34039,6,0,B|288:288|288:288|272:224,2,80.9999975280763,0|0|0,3:0|0:0|3:0,0:0:0:0:
192,256,35343,1,2,0:0:0:0:
160,224,35604,2,0,L|176:160,1,53.9999983520508,8|2,0:0|0:0,0:0:0:0:
192,128,36126,2,0,L|139:141,2,53.9999983520508,0|2|8,3:0|0:0|0:0,0:0:0:0:
240,112,36908,2,0,P|288:80|352:96,1,107.999996704102,0|0,3:0|3:0,0:0:0:0:
432,144,37952,1,2,0:0:0:0:
464,176,38213,6,0,P|464:240|432:272,1,107.999996704102,0|8,3:0|0:0,0:0:0:0:
384,272,38995,1,0,3:0:0:0:
336,256,39256,2,0,L|352:320,2,53.9999983520508,2|2|8,0:0|0:0|0:0,0:0:0:0:
288,240,40039,2,0,B|272:192|288:160|288:160|304:112|288:64,1,161.999995056153,0|8,3:0|0:0,0:0:0:0:
192,32,41343,1,2,0:3:0:0:
144,32,41604,2,0,L|160:144,1,107.999996704102,2|2,3:0|0:3,0:0:0:0:
176,192,42387,5,0,3:0:0:0:
192,304,42908,2,0,L|128:320,1,53.9999983520508,8|0,0:0|3:0,0:0:0:0:
80,336,43430,2,0,P|32:320|16:256,1,107.999996704102,2|8,0:0|0:0,0:0:0:0:
16,208,44213,1,2,0:0:0:0:
16,160,44474,2,0,L|80:144,1,53.9999983520508,0|2,3:0|0:0,0:0:0:0:
112,128,44995,1,8,0:0:0:0:
160,112,45256,1,0,3:0:0:0:
272,80,45778,2,0,L|256:16,2,53.9999983520508,0|8|2,3:0|0:0|0:0,0:0:0:0:
288,128,46561,6,0,L|272:240,1,107.999996704102,0|8,3:0|0:0,0:0:0:0:
256,288,47343,1,0,3:0:0:0:
240,336,47604,2,0,L|176:352,2,53.9999983520508,2|2|8,0:0|0:0|0:0,0:0:0:0:
288,320,48387,2,0,B|336:304|384:320|384:320|432:336|464:320,1,161.999995056153,0|8,3:0|0:0,0:0:0:0:
512,176,49952,1,8,0:0:0:0:
496,128,50213,2,0,L|480:64,1,53.9999983520508,8|2,0:0|0:0,0:0:0:0:
448,32,50734,6,0,B|432:16|432:16|368:16,2,80.9999975280763,0|0|0,3:0|0:0|3:0,0:0:0:0:
384,128,52039,1,2,0:0:0:0:
336,128,52300,2,0,L|272:112,1,53.9999983520508,8|2,0:0|0:0,0:0:0:0:
240,96,52821,2,0,L|256:32,2,53.9999983520508,0|2|8,3:0|0:0|0:0,0:0:0:0:
224,144,53604,2,0,P|224:192|176:240,1,107.999996704102,0|0,3:0|3:0,0:0:0:0:
80,224,54648,1,2,0:0:0:0:
32,208,54908,6,0,L|48:96,1,107.999996704102,0|8,3:0|0:0,0:0:0:0:
64,48,55691,1,0,3:0:0:0:
112,16,55952,2,0,L|176:32,1,53.9999983520508,2|2,0:0|0:0,0:0:0:0:
208,48,56474,1,8,0:0:0:0:
256,64,56734,2,0,L|320:48,1,53.9999983520508,0|0,3:0|3:0,0:0:0:0:
352,32,57256,2,0,P|400:32|304:128,1,323.999990112305,2|4,0:0|0:0,0:0:0:0:
208,144,59343,5,0,3:0:0:0:
160,128,59604,2,0,L|144:192,1,53.9999983520508,0|2,3:0|0:3,0:0:0:0:
128,224,60126,1,10,0:3:0:0:
192,304,60648,2,0,L|256:320,1,53.9999983520508,8|2,0:0|0:3,0:0:0:0:
304,336,61169,6,0,L|368:320,1,60,4|2,1:2|0:0,0:0:0:0:
416,304,61691,1,8,0:0:0:0:
432,256,61952,1,0,1:0:0:0:
448,208,62213,1,2,0:0:0:0:
416,96,62734,2,0,L|352:80,1,60,8|2,0:0|0:0,0:0:0:0:
304,48,63256,6,0,L|240:64,1,60,0|2,1:0|0:0,0:0:0:0:
192,80,63778,2,0,L|208:16,2,60,8|0|2,0:0|1:0|0:0,0:0:0:0:
96,160,64821,2,0,L|112:224,1,60,8|2,0:0|0:0,0:0:0:0:
112,272,65343,6,0,L|176:288,1,60,0|2,1:0|0:0,0:0:0:0:
192,336,65865,2,0,L|256:320,1,60,8|0,0:0|1:0,0:0:0:0:
304,304,66387,1,2,0:0:0:0:
416,256,66908,2,0,L|432:192,1,60,8|2,0:0|0:0,0:0:0:0:
464,160,67430,6,0,L|448:96,1,60,0|2,1:0|0:0,0:0:0:0:
400,80,67952,2,0,L|416:16,2,60,8|0|2,0:0|1:0|0:0,0:0:0:0:
288,112,68995,2,0,L|304:176,1,60,8|2,0:0|0:0,0:0:0:0:
304,224,69517,6,0,L|288:288,1,60,0|2,1:0|0:0,0:0:0:0:
256,320,70039,2,0,P|224:320|192:304,1,60,8|0,0:0|1:0,0:0:0:0:
144,288,70561,1,2,0:0:0:0:
32,240,71082,2,0,L|48:176,1,60,8|2,0:0|0:0,0:0:0:0:
64,128,71604,6,0,L|48:64,1,60,0|2,1:0|0:0,0:0:0:0:
80,32,72126,1,8,0:0:0:0:
144,32,72387,1,0,1:0:0:0:
208,32,72648,1,2,0:0:0:0:
327,64,73169,1,8,0:0:0:0:
378,47,73430,1,2,0:0:0:0:
426,31,73691,6,0,L|442:95,1,60,0|2,1:0|0:0,0:0:0:0:
442,143,74213,2,0,L|378:127,2,60,8|0|2,0:0|1:0|0:0,0:0:0:0:
474,191,74995,1,0,1:0:0:0:
490,255,75256,1,8,0:0:0:0:
506,319,75517,1,2,0:0:0:0:
458,351,75778,6,0,B|410:367|362:351|362:351|330:335|282:351,1,180,0|0,1:0|1:0,0:0:0:0:
16,272,77343,2,0,L|32:208,1,60,8|2,0:0|0:3,0:0:0:0:
80,192,77865,6,0,L|64:128,1,60,4|2,1:2|0:0,0:0:0:0:
48,80,78387,1,8,0:0:0:0:
96,48,78648,1,0,1:0:0:0:
144,16,78908,1,2,0:0:0:0:
240,96,79430,2,0,L|304:80,1,60,8|2,0:0|0:0,0:0:0:0:
352,64,79952,6,0,L|432:80,1,60,0|2,1:0|0:0,0:0:0:0:
460,96,80474,2,0,L|476:32,2,60,8|0|2,0:0|1:0|0:0,0:0:0:0:
448,224,81517,2,0,L|384:208,1,60,8|2,0:0|0:0,0:0:0:0:
336,208,82039,6,0,L|272:224,1,60,0|2,1:0|0:0,0:0:0:0:
224,240,82561,1,8,0:0:0:0:
160,256,82821,1,0,1:0:0:0:
96,272,83082,1,2,0:0:0:0:
32,176,83604,2,0,L|96:160,1,60,8|2,0:0|0:0,0:0:0:0:
112,112,84126,6,0,L|176:128,1,60,0|2,1:0|0:0,0:0:0:0:
224,144,84648,2,0,L|208:80,2,60,8|0|2,0:0|1:0|0:0,0:0:0:0:
336,176,85691,2,0,L|400:160,1,60,8|2,0:0|0:0,0:0:0:0:
448,192,86213,6,0,L|432:256,1,60,0|2,1:0|0:0,0:0:0:0:
384,288,86734,1,8,0:0:0:0:
320,288,86995,1,0,1:0:0:0:
256,288,87256,1,2,0:0:0:0:
144,336,87778,2,0,L|128:272,1,60,8|2,0:0|0:0,0:0:0:0:
80,256,88300,6,0,L|96:192,1,60,0|2,1:0|0:0,0:0:0:0:
112,144,88821,1,8,0:0:0:0:
128,96,89082,2,0,P|176:128|256:112,1,120,0|0,1:0|1:0,0:0:0:0:
288,96,89865,1,8,0:0:0:0:
352,0,90387,6,0,L|224:16,1,120,0|8,1:0|0:0,0:0:0:0:
176,32,91169,1,0,1:0:0:0:
112,48,91430,2,0,L|96:112,1,60,2|0,0:0|1:0,0:0:0:0:
80,160,91952,1,8,0:0:0:0:
64,224,92213,6,0,L|0:240,2,60,2|4|0,0:0|1:2|1:0,0:0:0:0:
112,256,92995,2,0,B|160:240|208:256|208:256|256:272|304:256,1,180,0|2,1:0|0:0,0:0:0:0:
352,240,94039,1,8,0:0:0:0:
400,128,94561,5,2,0:0:0:0:
