osu file format v14

[General]
AudioFilename: audio.mp3
AudioLeadIn: 0
PreviewTime: 37749
Countdown: 0
SampleSet: None
StackLeniency: 0.7
Mode: 0
LetterboxInBreaks: 0
WidescreenStoryboard: 1

[Editor]
Bookmarks: 16415,37582,49749,60416,81582,93749,104415,114749,125749
DistanceSpacing: 1
BeatDivisor: 4
GridSize: 32
TimelineZoom: 4.399998

[Metadata]
Title:Xue Mao Jiao (Speed up ver.)
TitleUnicode:Xue Mao Jiao (Speed up ver.)
Artist:Xiao Pan Pan & Xiao Feng Feng
ArtistUnicode:Xiao Pan Pan & Xiao Feng Feng
Creator:Ameyy
Version:Collab
Source:
Tags:Sakura Blossom
BeatmapID:1962435
BeatmapSetID:939546

[Difficulty]
HPDrainRate:6
CircleSize:4
OverallDifficulty:8
ApproachRate:9
SliderMultiplier:1.9
SliderTickRate:1

[Events]
//Background and Video events
0,0,"Konachan.com - 276189 sample.jpg",0,0
//Break Periods
2,60448,64982
//Storyboard Layer 0 (Background)
//Storyboard Layer 1 (Fail)
//Storyboard Layer 2 (Pass)
//Storyboard Layer 3 (Foreground)
//Storyboard Sound Samples

[TimingPoints]
416,333.333333333333,4,1,0,100,1,0
416,-111.111111111111,4,2,0,60,0,0
15832,-111.111111111111,4,2,0,5,0,0
15915,-333.333333333333,4,2,0,60,0,0
16415,-111.111111111111,4,3,0,70,0,0
16499,-111.111111111111,4,2,0,70,0,0
16749,-111.111111111111,4,2,0,55,0,0
21415,-111.111111111111,4,2,0,70,0,0
21582,-111.111111111111,4,2,0,55,0,0
25415,-100,4,2,0,55,0,0
26582,-111.111111111111,4,2,0,45,0,0
26915,-200,4,2,0,15,0,0
27082,-111.111111111111,4,2,0,55,0,0
31082,-111.111111111111,4,2,0,56,0,0
31249,-111.111111111111,4,2,0,57,0,0
31415,-111.111111111111,4,2,0,58,0,0
31582,-111.111111111111,4,2,0,59,0,0
31749,-111.111111111111,4,2,0,60,0,0
31915,-111.111111111111,4,2,0,55,0,0
35915,-80,4,2,0,55,0,0
36082,-111.111111111111,4,2,0,55,0,0
36582,-95.2380952380952,4,2,0,55,0,0
37582,-111.111111111111,4,2,0,55,0,0
39082,-100,4,2,0,55,0,1
51082,-100,4,2,0,60,0,1
51165,-100,4,2,0,35,0,1
51249,-100,4,2,0,60,0,1
51332,-100,4,2,0,35,0,1
51415,-100,4,2,0,60,0,1
51499,-100,4,2,0,35,0,1
51582,-100,4,2,0,60,0,1
51665,-100,4,2,0,35,0,1
51749,-100,4,2,0,60,0,1
51832,-100,4,2,0,35,0,1
51915,-100,4,2,0,55,0,1
53749,-100,4,2,0,60,0,1
53832,-100,4,2,0,35,0,1
53915,-100,4,2,0,60,0,1
53999,-100,4,2,0,35,0,1
54082,-100,4,2,0,60,0,1
54165,-100,4,2,0,35,0,1
54249,-100,4,2,0,60,0,1
54332,-100,4,2,0,35,0,1
54415,-100,4,2,0,55,0,1
59582,-100,4,2,0,45,0,1
59915,-100,4,2,0,25,0,1
60249,-100,4,2,0,25,0,1
60332,-100,4,2,0,55,0,0
65582,-142.857142857143,4,2,0,55,0,0
71082,-111.111111111111,4,2,0,55,0,0
81749,-100,4,2,0,55,0,0
82749,-100,4,2,0,55,0,0
83082,-100,4,2,0,55,0,1
84415,-100,4,2,0,60,0,1
84499,-100,4,2,0,35,0,1
84582,-100,4,2,0,60,0,1
84665,-100,4,2,0,35,0,1
84749,-100,4,2,0,60,0,1
84832,-100,4,2,0,35,0,1
84915,-100,4,2,0,60,0,1
84999,-100,4,2,0,35,0,1
85082,-100,4,2,0,60,0,1
85165,-100,4,2,0,35,0,1
85249,-100,4,2,0,55,0,1
87082,-100,4,2,0,60,0,1
87165,-100,4,2,0,35,0,1
87249,-100,4,2,0,60,0,1
87332,-100,4,2,0,35,0,1
87415,-100,4,2,0,60,0,1
87499,-100,4,2,0,35,0,1
87582,-100,4,2,0,60,0,1
87665,-100,4,2,0,35,0,1
87749,-100,4,2,0,60,0,1
87832,-100,4,2,0,35,0,1
87915,-100,4,2,0,55,0,1
93582,-100,4,2,0,55,0,0
93749,-100,4,2,0,55,0,1
104082,-100,4,2,0,55,0,0
104415,-100,4,2,0,55,0,1
105749,-100,4,2,0,60,0,1
105832,-100,4,2,0,35,0,1
105915,-100,4,2,0,60,0,1
105999,-100,4,2,0,35,0,1
106082,-100,4,2,0,60,0,1
106165,-100,4,2,0,35,0,1
106249,-100,4,2,0,60,0,1
106332,-100,4,2,0,35,0,1
106415,-100,4,2,0,60,0,1
106499,-100,4,2,0,35,0,1
106582,-100,4,2,0,55,0,1
108415,-100,4,2,0,60,0,1
108499,-100,4,2,0,35,0,1
108582,-100,4,2,0,60,0,1
108665,-100,4,2,0,35,0,1
108749,-100,4,2,0,60,0,1
108832,-100,4,2,0,35,0,1
108915,-100,4,2,0,60,0,1
108999,-100,4,2,0,35,0,1
109082,-100,4,2,0,60,0,1
109165,-100,4,2,0,35,0,1
109249,-100,4,2,0,55,0,1
111582,-100,4,2,0,60,0,1
111915,-100,4,2,0,55,0,1
113415,-100,4,2,0,55,0,1
113499,-100,4,2,0,35,0,1
113582,-100,4,2,0,55,0,1
113665,-100,4,2,0,35,0,1
113749,-100,4,2,0,55,0,1
114582,-100,4,2,0,55,0,0
115082,-100,4,2,0,55,0,1
125249,-100,4,2,0,25,0,1
125415,-100,4,2,0,55,0,0
125749,-200,4,2,0,35,0,0
126415,-200,4,2,0,5,0,0
126749,-133.333333333333,4,2,0,35,0,0
129582,-133.333333333333,4,2,0,5,0,0
129582,-133.333333333333,4,2,0,35,0,0
129749,-133.333333333333,4,2,0,25,0,0
129749,-133.333333333333,4,2,0,35,0,0
129915,-133.333333333333,4,2,0,15,0,0
130082,-133.333333333333,4,2,0,10,0,0
130249,-133.333333333333,4,2,0,35,0,0
130415,-133.333333333333,4,2,0,20,0,0
130582,-133.333333333333,4,2,0,15,0,0
131082,-153.846153846153,4,2,0,15,0,0
133082,-153.846153846153,4,2,0,5,0,0

[HitObjects]
132,262,416,6,0,P|146:191|141:161,1,85.4999973907472
48,103,749,1,0,0:0:0:0:
48,103,915,2,0,P|120:131|213:93,1,170.999994781494
331,83,1415,2,0,P|376:93|422:130,1,85.4999973907472
309,300,1749,6,0,L|219:304,1,85.4999973907472
265,202,2082,1,0,0:0:0:0:
390,281,2249,2,0,P|370:363|283:380,1,170.999994781494
223,303,2749,2,0,P|198:278|141:263,1,85.4999973907472
48,103,3082,5,0,0:0:0:0:
141,168,3249,1,0,0:0:0:0:
237,87,3415,1,0,0:0:0:0:
237,87,3582,2,0,B|268:127|268:127|266:265,1,170.999994781494
79,305,4082,2,0,P|119:271|164:262,1,85.4999973907472
321,305,4415,6,0,P|346:248|339:218,1,85.4999973907472
245,163,4749,1,0,0:0:0:0:
384,97,4915,2,0,B|418:66|418:66|466:111|425:183,1,170.999994781494
237,68,5415,5,0,0:0:0:0:
130,72,5582,1,0,0:0:0:0:
62,190,5749,2,0,L|56:283,1,85.4999973907472
173,329,6082,1,0,0:0:0:0:
283,230,6249,2,0,P|220:210|167:223,1,85.4999973907472
316,326,6582,1,0,0:0:0:0:
395,249,6749,5,0,0:0:0:0:
425,358,6915,1,0,0:0:0:0:
501,222,7082,1,0,0:0:0:0:
408,113,7249,2,0,P|363:113|334:129,1,42.7499986953736
316,59,7415,2,0,P|297:92|293:116,1,42.7499986953736
223,86,7582,2,0,P|228:124|237:141,1,42.7499986953736
167,165,7749,2,0,P|201:194|221:198,1,42.7499986953736
257,269,7915,5,0,0:0:0:0:
126,258,8082,2,0,P|74:226|56:190,1,85.4999973907472
223,86,8415,2,0,L|324:89,1,85.4999973907472
375,225,8749,2,0,P|365:300|354:321,1,85.4999973907472
232,191,9082,1,0,0:0:0:0:
232,191,9416,5,0,0:0:0:0:
266,307,9582,1,0,0:0:0:0:
375,225,9749,1,0,0:0:0:0:
165,151,9915,2,0,P|158:199|167:225,1,42.7499986953736
255,121,10082,2,0,P|269:76|269:63,1,42.7499986953736
299,229,10249,2,0,P|289:278|289:295,1,42.7499986953736
412,200,10415,2,0,P|423:151|423:139,1,42.7499986953736
356,88,10582,5,0,0:0:0:0:
376,283,10749,1,0,0:0:0:0:
207,255,10915,1,0,0:0:0:0:
207,255,11082,2,0,P|140:246|98:253,1,85.4999973907472
236,368,11415,2,0,P|303:380|336:373,1,85.4999973907472
376,283,11749,1,0,0:0:0:0:
376,283,12082,5,0,0:0:0:0:
456,213,12249,1,0,0:0:0:0:
477,321,12415,1,0,0:0:0:0:
376,180,12582,2,0,P|408:137|470:131,1,85.4999973907472
271,274,12915,1,0,0:0:0:0:
271,274,13082,2,0,P|244:210|138:174,1,170.999994781494
161,282,13582,5,0,0:0:0:0:
53,224,13749,2,0,P|54:171|69:126,1,85.4999973907472
93,57,13999,1,0,0:0:0:0:
128,74,14082,2,0,P|187:85|223:81,1,85.4999973907472
314,123,14415,1,0,0:0:0:0:
215,187,14582,1,0,0:0:0:0:
292,260,14749,2,0,P|302:316|300:340,1,42.7499986953736
123,294,14915,2,0,P|126:272|132:252,1,42.7499986953736
210,340,15082,5,0,0:0:0:0:
301,301,15249,1,0,0:0:0:0:
406,354,15415,1,0,0:0:0:0:
406,354,15582,2,0,P|427:265|407:203,1,128.249996086121
386,211,15915,2,0,P|350:210|311:197,1,71.2499978256226
293,172,16415,5,0,0:0:0:0:
101,96,16749,6,0,P|97:148|122:190,1,85.4999973907472
270,270,17082,1,0,0:0:0:0:
346,148,17249,2,0,L|336:37,1,85.4999973907472
277,281,17582,1,0,0:0:0:0:
382,342,17749,2,0,P|442:340|473:304,1,85.4999973907472
276,180,18082,6,0,L|268:282,1,85.4999973907472
479,172,18582,2,0,L|475:85,1,85.4999973907472
353,25,18915,1,0,0:0:0:0:
256,165,19082,1,0,0:0:0:0:
133,139,19249,2,0,P|151:90|182:65,1,85.4999973907472
350,229,19582,6,0,L|355:330,1,85.4999973907472
147,276,19915,1,0,0:0:0:0:
273,147,20082,2,0,L|280:56,1,85.4999973907472
255,249,20415,1,0,0:0:0:0:
427,212,20582,2,0,P|395:164|353:151,1,85.4999973907472
210,40,20915,6,0,P|156:47|120:66,1,85.4999973907472
243,255,21249,1,0,0:0:0:0:
158,384,21415,1,0,0:0:0:0:
402,345,21582,2,0,L|491:335,1,85.4999973907472
360,126,21915,2,0,L|271:138,1,85.4999973907472
200,55,22249,1,0,0:0:0:0:
357,334,22582,6,0,P|307:382|195:367,1,170.999994781494
245,173,23082,1,0,0:0:0:0:
319,107,23249,2,0,P|341:159|334:210,1,85.4999973907472
206,249,23582,2,0,B|165:241|165:241|111:301|33:277,1,170.999994781494
451,296,24415,6,0,L|376:116,1,170.999994781494
390,122,24915,1,0,0:0:0:0:
361,290,25082,1,0,0:0:0:0:
492,207,25249,1,0,0:0:0:0:
236,190,25415,2,0,B|191:173|171:119|191:67|214:51|214:51|231:20|231:20|254:49|254:49|276:45|297:50|297:50|320:25|320:25|337:56|337:56|361:70|384:138|346:197|298:200|271:202|245:193,1,570
274,121,26582,5,0,0:0:0:0:
274,121,26665,1,0,0:0:0:0:
274,121,26749,1,0,0:0:0:0:
272,265,26915,2,0,L|272:272,4,5.9375
159,192,27415,6,0,L|62:180,1,85.4999973907472
265,253,27749,1,0,0:0:0:0:
108,353,27915,2,0,L|13:366,1,85.4999973907472
276,263,28249,2,0,L|283:368,1,85.4999973907472
366,369,28582,1,0,0:0:0:0:
210,218,28749,2,0,P|268:183|298:187,1,85.4999973907472
372,352,29082,1,0,0:0:0:0:
368,171,29249,2,0,P|345:125|297:103,1,85.4999973907472
138,96,29582,5,0,0:0:0:0:
276,219,29749,2,0,L|246:301,1,85.4999973907472
446,322,30082,2,0,P|409:280|368:270,1,85.4999973907472
160,333,30415,1,0,0:0:0:0:
286,214,30582,1,0,0:0:0:0:
210,43,30749,2,0,L|178:134,1,85.4999973907472
342,77,31082,5,0,0:0:0:0:
292,202,31249,1,0,0:0:0:0:
343,95,31415,1,0,0:0:0:0:
391,202,31582,1,0,0:0:0:0:
36,108,31749,6,0,P|90:75|126:74,1,85.4999973907472
230,194,32082,1,0,0:0:0:0:
166,346,32249,2,0,P|147:292|158:250,1,85.4999973907472
241,181,32582,1,0,0:0:0:0:
407,205,32749,2,0,L|510:214,1,85.4999973907472
119,188,33249,5,0,0:0:0:0:
184,67,33415,2,0,B|176:108|176:108|236:162|203:244,1,170.999994781494
326,298,33915,2,0,L|318:201,1,85.4999973907472
333,55,34249,2,0,B|387:127|387:127|391:145|391:145|441:213,1,170.999994781494
491,129,34749,1,0,0:0:0:0:
251,3,34915,6,0,P|239:60|256:108,1,85.4999973907472
503,137,35249,2,0,P|460:98|408:90,1,85.4999973907472
260,288,35582,2,0,P|316:269|346:231,1,85.4999973907472
161,221,35915,2,0,B|144:256|144:256|155:338,1,118.75
266,209,36249,2,0,P|227:161|191:131,1,85.4999973907472
96,72,36582,2,0,B|99:7|1:-14|-25:38|-30:81|-13:108|7:124|7:124|25:135|63:146|63:146|78:152|98:166|112:186|112:186|123:160|142:134|165:122|165:122|203:103|216:41|165:5|117:21|111:56,1,598.49998173523,4|0,0:0|0:0,0:0:0:0:
96,72,37915,5,0,0:0:0:0:
213,213,38082,1,0,0:0:0:0:
85,278,38249,2,0,L|38:278,2,42.7499986953736
204,229,38582,1,0,0:0:0:0:
77,166,38749,1,0,0:0:0:0:
273,114,38915,1,0,0:0:0:0:
278,283,39082,6,0,P|226:317|158:313,1,95
284,104,39415,2,0,P|359:106|402:123,1,95
412,230,39749,1,0,0:0:0:0:
491,160,39915,1,0,0:0:0:0:
510,266,40082,2,0,L|506:369,1,95
283,284,40415,5,0,0:0:0:0:
166,183,40582,2,0,L|107:178,1,47.5
337,149,40749,2,0,L|404:147,1,47.5
155,63,40915,2,0,L|85:44,1,47.5
354,43,41082,2,0,L|420:27,1,47.5
498,68,41249,1,0,0:0:0:0:
337,149,41415,6,0,L|237:153,1,95
74,217,41749,2,0,P|46:267|50:309,1,95
114,134,42082,2,0,P|49:108|-3:115,1,95
175,208,42415,2,0,P|225:238|284:241,1,95
371,159,42749,1,0,0:0:0:0:
366,303,42915,1,0,0:0:0:0:
245,155,43082,1,0,0:0:0:0:
436,112,43249,6,0,P|451:165|448:188,1,47.5
166,137,43415,2,0,P|186:99|214:83,1,47.5
260,298,43582,2,0,P|210:341|196:348,1,47.5
16,244,43749,2,0,P|76:230|99:235,1,47.5
52,317,43915,1,0,0:0:0:0:
36,130,44082,2,0,L|37:26,1,95
251,193,44415,6,0,B|229:226|226:246|226:246|204:245|176:270,1,95
162,131,44749,1,0,0:0:0:0:
338,97,44915,1,0,0:0:0:0:
147,123,45082,1,0,0:0:0:0:
147,123,45415,6,0,L|146:235,1,95
228,292,45749,1,0,0:0:0:0:
131,328,45915,1,0,0:0:0:0:
61,253,46082,1,0,0:0:0:0:
269,182,46249,1,0,0:0:0:0:
269,182,46415,2,0,P|370:187|404:179,1,95
375,180,46665,1,0,0:0:0:0:
384,169,46749,1,0,0:0:0:0:
166,64,46915,5,0,0:0:0:0:
66,136,47082,2,0,B|43:170|43:170|44:326,1,190
187,293,47582,1,0,0:0:0:0:
322,302,47749,2,0,P|411:316|447:330,1,95
435,175,48082,2,0,P|448:122|456:111,1,47.5
343,120,48249,2,0,P|343:69|346:54,1,47.5
259,176,48415,6,0,L|145:177,1,95
66,123,48749,1,0,0:0:0:0:
85,285,48915,1,0,0:0:0:0:
244,327,49082,1,0,0:0:0:0:
286,332,49165,1,0,0:0:0:0:
329,330,49249,1,0,0:0:0:0:
415,223,49415,1,0,0:0:0:0:
443,366,49582,1,0,0:0:0:0:
259,176,49749,6,0,L|272:57,1,95
54,10,50082,2,0,P|71:84|107:107,1,95
325,29,50415,2,0,P|252:6|215:27,1,95
143,264,50749,1,0,0:0:0:0:
190,86,50915,1,0,0:0:0:0:
29,316,51082,6,0,P|64:312|87:299,1,47.5
109,374,51249,2,0,P|137:353|150:330,1,47.5
207,384,51415,2,0,P|221:351|221:325,1,47.5
297,343,51582,2,0,P|292:308|279:284,1,47.5
354,263,51748,2,0,P|333:234|310:221,1,47.5
153,168,51915,1,0,0:0:0:0:
398,181,52082,2,0,P|456:181|505:142,1,95
299,32,52415,5,0,0:0:0:0:
221,228,52582,1,0,0:0:0:0:
103,51,52749,2,0,L|199:42,1,95
440,236,53082,2,0,P|378:258|287:167,1,190
407,35,53582,1,0,0:0:0:0:
216,216,53749,6,0,P|219:153|223:142,1,47.5
191,89,53915,2,0,P|251:73|263:75,1,47.5
305,26,54082,2,0,P|338:79|341:93,1,47.5
400,114,54249,2,0,P|359:162|347:170,1,47.5
345,232,54415,2,0,L|355:338,1,95
84,354,54749,2,0,P|88:290|127:248,1,95
419,167,55082,5,0,0:0:0:0:
230,94,55249,1,0,0:0:0:0:
496,0,55415,2,0,L|505:107,1,95
162,46,55749,2,0,P|219:14|270:22,1,95
434,177,56082,1,0,0:0:0:0:
236,257,56249,1,0,0:0:0:0:
443,384,56415,6,0,L|427:266,1,95
155,205,56749,2,0,L|142:299,1,95
0,56,57082,2,0,P|64:75|168:-7,1,190
248,245,57582,1,0,0:0:0:0:
485,85,57749,6,0,B|451:67|410:68|410:68|367:120|296:104,1,190
450,190,58249,1,0,0:0:0:0:
203,117,58415,2,0,L|214:15,1,95
112,207,58749,1,0,0:0:0:0:
222,358,58915,1,0,0:0:0:0:
47,250,59082,5,0,0:0:0:0:
346,112,59249,1,0,0:0:0:0:
129,66,59415,1,0,0:0:0:0:
418,178,59582,2,0,P|443:124|434:74,1,95
274,46,59915,2,0,P|249:100|258:150,2,95
89,118,65582,5,0,0:0:0:0:
107,141,65665,1,0,0:0:0:0:
127,163,65749,2,0,P|181:158|249:204,1,132.999995941162
158,370,66249,2,0,P|148:315|169:237,1,132.999995941162
283,310,66749,2,0,P|331:311|370:302,1,66.4999979705811
349,307,66999,5,0,0:0:0:0:
349,307,67082,1,0,0:0:0:0:
457,194,67249,1,0,0:0:0:0:
488,345,67415,1,0,0:0:0:0:
373,211,67582,2,0,B|352:173|352:173|352:71,1,132.999995941162
453,52,68082,1,0,0:0:0:0:
207,75,68249,6,0,B|130:70|77:81|77:81|103:102|105:138,1,166.249994926453
121,129,68749,1,0,0:0:0:0:
270,285,68915,2,0,P|229:329|155:323,1,132.999995941162
259,192,69415,1,0,0:0:0:0:
383,284,69582,1,0,0:0:0:0:
124,195,69749,6,0,L|120:107,1,66.4999979705811
279,89,70082,1,0,0:0:0:0:
368,291,70249,2,0,P|334:306|299:304,1,66.4999979705811
288,280,70499,1,0,0:0:0:0:
271,255,70582,1,0,0:0:0:0:
366,160,70749,1,0,0:0:0:0:
470,270,70915,2,0,L|511:268,2,33.2499989852906
131,309,71415,6,0,P|114:258|121:198,1,85.4999973907472
217,151,71749,1,0,0:0:0:0:
233,321,71915,1,0,0:0:0:0:
233,321,72082,2,0,P|207:369|175:389,1,85.4999973907472
12,197,72415,5,0,0:0:0:0:
183,238,72582,1,0,0:0:0:0:
98,53,72749,1,0,0:0:0:0:
291,148,72915,2,0,P|371:156|405:164,1,85.4999973907472
438,262,73249,1,0,0:0:0:0:
496,175,73415,1,0,0:0:0:0:
435,84,73582,1,0,0:0:0:0:
424,264,73749,6,0,L|417:362,1,85.4999973907472
183,238,74082,2,0,L|189:152,1,85.4999973907472
281,89,74415,1,0,0:0:0:0:
175,42,74582,1,0,0:0:0:0:
54,236,74749,2,0,P|45:298|49:335,1,85.4999973907472
297,309,75082,5,0,0:0:0:0:
279,192,75249,1,0,0:0:0:0:
191,264,75415,1,0,0:0:0:0:
442,225,75582,2,0,P|450:171|439:130,1,85.4999973907472
339,88,75915,1,0,0:0:0:0:
396,302,76082,2,0,P|454:316|498:296,1,85.4999973907472
278,193,76415,6,0,L|159:199,1,85.4999973907472
123,284,76749,1,0,0:0:0:0:
396,302,76915,2,0,B|422:264|422:264|429:132,1,170.999994781494
313,78,77415,1,0,0:0:0:0:
202,89,77582,1,0,0:0:0:0:
91,100,77749,5,0,0:0:0:0:
275,306,77915,2,0,P|288:238|284:195,1,85.4999973907472
57,198,78249,2,0,P|40:273|74:333,1,128.249996086121
96,324,78582,2,0,P|165:324|205:335,1,85.4999973907472
180,327,78915,5,0,0:0:0:0:
402,252,79082,2,0,L|399:155,1,85.4999973907472
458,71,79415,1,0,0:0:0:0:
330,75,79582,1,0,0:0:0:0:
233,161,79749,2,0,P|177:162|146:149,1,85.4999973907472
203,55,80082,1,0,0:0:0:0:
279,247,80249,1,0,0:0:0:0:
68,211,80415,6,0,L|66:116,1,85.4999973907472
279,247,80749,1,0,0:0:0:0:
279,247,80915,2,0,L|288:140,1,85.4999973907472
168,296,81249,1,0,0:0:0:0:
432,330,81415,1,0,0:0:0:0:
292,160,81582,5,0,0:0:0:0:
298,151,81749,2,0,B|276:99|273:39|273:39|209:90|209:90|146:44|146:44|143:103|124:151,1,380
151,217,82582,1,0,0:0:0:0:
0,309,82749,2,0,P|73:280|115:288,1,95
222,313,83082,5,0,0:0:0:0:
115,118,83249,1,0,0:0:0:0:
295,149,83415,2,0,L|286:265,1,95
138,35,83749,2,0,P|198:8|249:25,1,95
362,226,84082,1,0,0:0:0:0:
134,207,84249,1,0,0:0:0:0:
0,296,84415,6,0,P|42:286|60:271,1,47.5
93,346,84582,2,0,P|118:311|122:288,1,47.5
196,324,84749,2,0,P|193:280|181:260,1,47.5
261,241,84915,2,0,P|231:209|209:201,1,47.5
257,135,85082,2,0,P|214:130|192:137,1,47.5
363,214,85249,1,0,0:0:0:0:
400,55,85415,2,0,P|471:48|504:21,1,95
218,36,85749,6,0,L|208:149,1,95
15,252,86082,2,0,L|6:157,1,95
287,330,86415,2,0,P|369:328|476:380,1,190
225,237,86915,1,0,0:0:0:0:
40,376,87082,6,0,P|67:343|71:325,1,47.5
145,336,87249,2,0,P|151:293|146:276,1,47.5
215,248,87415,2,0,P|199:208|186:195,1,47.5
232,137,87582,2,0,P|199:109|181:106,1,47.5
191,32,87749,2,0,P|148:25|131:30,1,47.5
307,96,87915,1,0,0:0:0:0:
440,11,88082,2,0,L|430:116,1,95
191,298,88415,6,0,L|181:203,1,95
321,84,88749,1,0,0:0:0:0:
326,307,88915,1,0,0:0:0:0:
110,159,89082,2,0,P|183:121|218:131,1,95
412,272,89415,2,0,P|408:354|382:379,1,95
266,173,89749,5,0,0:0:0:0:
64,88,89915,1,0,0:0:0:0:
286,8,90082,1,0,0:0:0:0:
249,258,90249,1,0,0:0:0:0:
411,130,90415,2,0,L|398:18,1,95
407,290,90749,2,0,L|417:384,1,95
477,169,91082,5,0,0:0:0:0:
215,90,91249,1,0,0:0:0:0:
421,56,91415,1,0,0:0:0:0:
373,303,91582,1,0,0:0:0:0:
119,184,91749,1,0,0:0:0:0:
289,164,91915,1,0,0:0:0:0:
208,307,92082,2,0,P|218:265|234:245,1,47.5
379,311,92249,2,0,P|369:353|353:373,1,47.5
292,309,92415,5,0,0:0:0:0:
108,170,92582,1,0,0:0:0:0:
285,43,92749,1,0,0:0:0:0:
197,197,92915,1,0,0:0:0:0:
63,100,93082,5,0,0:0:0:0:
104,91,93165,1,0,0:0:0:0:
150,100,93249,1,0,0:0:0:0:
184,132,93332,1,0,0:0:0:0:
193,178,93415,1,0,0:0:0:0:
462,125,93582,5,0,0:0:0:0:
414,118,93665,1,0,0:0:0:0:
363,122,93749,2,0,P|347:191|349:233,1,95
435,317,94082,1,0,0:0:0:0:
254,292,94249,1,0,0:0:0:0:
161,179,94415,2,0,L|34:178,1,95
243,118,94749,5,0,0:0:0:0:
254,292,94915,1,0,0:0:0:0:
401,198,95082,1,0,0:0:0:0:
227,117,95249,2,0,P|208:92|194:60,1,47.5
421,202,95415,2,0,P|441:167|448:138,1,47.5
238,293,95582,2,0,P|220:257|212:233,1,47.5
394,359,95749,2,0,P|415:332|431:307,1,47.5
337,288,95915,5,0,0:0:0:0:
154,331,96082,2,0,L|54:322,1,95
76,160,96415,1,0,0:0:0:0:
217,250,96582,1,0,0:0:0:0:
277,126,96749,1,0,0:0:0:0:
352,318,96915,1,0,0:0:0:0:
416,178,97082,2,0,P|426:125|421:71,1,95
217,250,97415,6,0,L|215:372,1,95
308,182,97749,1,0,0:0:0:0:
136,113,97915,1,0,0:0:0:0:
217,249,98082,1,0,0:0:0:0:
219,155,98249,1,0,0:0:0:0:
135,211,98415,2,0,P|71:219|34:211,1,95
212,67,98749,2,0,P|276:59|313:67,1,95
392,245,99082,6,0,B|376:195|376:195|408:44,1,190
484,246,99582,1,0,0:0:0:0:
432,359,99749,1,0,0:0:0:0:
432,359,100082,5,0,0:0:0:0:
357,269,100249,1,0,0:0:0:0:
216,302,100415,1,0,0:0:0:0:
139,183,100582,2,0,P|151:101|167:71,1,95
366,85,100915,1,0,0:0:0:0:
366,85,101082,2,0,P|381:162|356:273,1,190
216,301,101582,5,0,0:0:0:0:
312,201,101749,2,0,P|356:189|430:226,1,95
470,293,101999,1,0,0:0:0:0:
501,286,102082,2,0,L|504:172,1,95
406,91,102415,5,0,0:0:0:0:
313,200,102582,1,0,0:0:0:0:
250,71,102749,1,0,0:0:0:0:
179,188,102915,5,0,0:0:0:0:
321,113,103082,1,0,0:0:0:0:
227,311,103249,1,0,0:0:0:0:
91,148,103415,1,0,0:0:0:0:
68,283,103582,1,0,0:0:0:0:
68,283,103665,1,0,0:0:0:0:
68,283,103749,5,0,0:0:0:0:
172,98,103915,1,0,0:0:0:0:
313,200,104082,2,0,P|324:265|313:318,1,95
219,304,104415,5,0,0:0:0:0:
424,191,104582,1,0,0:0:0:0:
208,80,104749,2,0,L|191:199,1,95
94,384,105082,2,0,L|80:290,1,95
273,182,105415,1,0,0:0:0:0:
65,147,105582,1,0,0:0:0:0:
154,367,105749,6,0,P|186:358|217:328,1,47.5
191,117,105915,2,0,P|169:143|163:182,1,47.5
306,340,106082,2,0,P|307:306|289:269,1,47.5
81,225,106249,2,0,P|99:253|135:273,1,47.5
329,185,106416,2,0,P|297:172|256:177,1,47.5
38,294,106582,1,0,0:0:0:0:
34,21,106749,2,0,L|43:141,1,95
300,101,107082,6,0,P|228:77|186:91,1,95
161,174,107415,2,0,P|176:248|209:277,1,95
471,369,107749,2,0,P|382:322|275:323,1,190
104,381,108249,1,0,0:0:0:0:
6,174,108415,6,0,L|82:166,1,47.5
113,20,108582,2,0,L|188:28,1,47.5
179,136,108749,2,0,L|256:128,1,47.5
304,76,108916,2,0,L|379:85,1,47.5
431,99,109082,2,0,L|507:93,1,47.5
245,0,109249,1,0,0:0:0:0:
380,194,109415,2,0,P|399:266|385:309,1,95
156,217,109749,6,0,L|171:110,1,95
276,290,110082,2,0,L|289:384,1,95
202,37,110415,2,0,P|282:49|386:-15,1,190
510,162,110915,1,0,0:0:0:0:
256,177,111082,5,0,0:0:0:0:
357,272,111249,1,0,0:0:0:0:
317,63,111415,1,0,0:0:0:0:
235,345,111582,2,0,B|135:375|153:301|46:334,1,190
325,198,112082,2,0,P|391:203|435:237,1,95
153,171,112415,5,0,0:0:0:0:
337,56,112582,1,0,0:0:0:0:
213,238,112749,1,0,0:0:0:0:
67,112,112915,1,0,0:0:0:0:
227,358,113082,1,0,0:0:0:0:
329,187,113249,1,0,0:0:0:0:
187,64,113415,2,0,L|198:135,1,47.5
436,237,113582,2,0,L|443:190,1,47.5
282,48,113749,5,0,0:0:0:0:
155,264,113915,1,0,0:0:0:0:
75,124,114082,1,0,0:0:0:0:
264,257,114249,2,0,P|284:308|278:365,1,95
283,348,114499,1,0,0:0:0:0:
317,316,114582,1,0,0:0:0:0:
364,310,114665,1,0,0:0:0:0:
405,333,114748,1,0,0:0:0:0:
456,119,114915,5,0,0:0:0:0:
441,160,114998,1,0,0:0:0:0:
423,192,115082,2,0,P|336:176|300:157,1,95
259,80,115415,1,0,0:0:0:0:
219,206,115582,1,0,0:0:0:0:
405,333,115749,2,0,L|527:323,1,95
315,264,116082,5,0,0:0:0:0:
150,353,116249,1,0,0:0:0:0:
219,206,116415,1,0,0:0:0:0:
371,205,116582,6,0,P|393:260|391:288,1,47.5
141,203,116749,2,0,P|163:152|181:139,1,47.5
317,318,116915,2,0,P|296:367|280:384,1,47.5
219,206,117082,2,0,P|265:177|288:172,1,47.5
371,205,117249,5,0,0:0:0:0:
205,298,117415,2,0,P|136:301|93:293,1,95
258,179,117749,1,0,0:0:0:0:
357,337,117915,1,0,0:0:0:0:
128,136,118082,5,0,0:0:0:0:
110,297,118249,1,0,0:0:0:0:
276,80,118415,1,0,0:0:0:0:
251,273,118582,1,0,0:0:0:0:
128,136,118749,2,0,L|121:30,1,95
360,197,119082,5,0,0:0:0:0:
276,80,119249,1,0,0:0:0:0:
237,316,119415,1,0,0:0:0:0:
424,263,119582,1,0,0:0:0:0:
171,178,119749,1,0,0:0:0:0:
171,178,120082,6,0,L|50:180,1,95
237,316,120415,2,0,P|308:339|448:299,1,190
324,195,120915,1,0,0:0:0:0:
464,86,121082,1,0,0:0:0:0:
477,244,121249,1,0,0:0:0:0:
291,89,121415,2,0,P|221:85|186:91,1,95
97,229,121749,6,0,L|93:343,1,95
226,249,122082,1,0,0:0:0:0:
357,341,122249,2,0,B|386:299|386:299|377:147,1,190
297,104,122749,1,0,0:0:0:0:
485,180,122915,1,0,0:0:0:0:
485,180,122999,1,0,0:0:0:0:
485,180,123082,1,0,0:0:0:0:
224,250,123249,5,0,0:0:0:0:
214,51,123415,1,0,0:0:0:0:
400,211,123582,1,0,0:0:0:0:
153,165,123749,1,0,0:0:0:0:
105,323,123915,1,0,0:0:0:0:
305,283,124082,1,0,0:0:0:0:
297,104,124249,5,0,0:0:0:0:
203,318,124415,1,0,0:0:0:0:
400,211,124582,1,0,0:0:0:0:
214,51,124749,1,0,0:0:0:0:
277,361,124915,1,0,0:0:0:0:
277,361,125249,5,0,0:0:0:0:
421,118,125415,1,8,0:0:0:0:
421,118,125749,6,0,B|390:125|362:157|362:157|298:123|295:166|232:137,1,190
147,74,126749,1,0,0:0:0:0:
132,180,126915,2,0,B|107:202|101:226|107:257|107:257|133:298|113:345|113:345|164:364|228:330|230:272|230:272|225:242|188:221|157:247,1,427.500016307831,0|0,0:3|0:0,0:0:0:0:
34,311,128082,5,0,0:0:0:0:
286,218,128249,2,0,B|258:193|207:185|223:214|164:242|164:242|199:250|220:260|230:282|230:282|282:305|319:284|319:284|333:309|333:309|393:253|359:233|395:186|395:186|417:226|462:247,1,570.000021743775
476,166,129749,6,0,P|471:127|458:95,2,71.2500027179719
380,111,130249,1,0,0:0:0:0:
301,138,130415,2,0,P|234:128|211:118,1,71.2500027179719
130,137,130749,5,0,0:0:0:0:
45,175,130915,1,0,0:0:0:0:
130,29,131082,5,0,0:0:0:0:
256,192,131165,12,0,133082,0:0:0:0:
