osu file format v14

[General]
AudioFilename: audio.mp3
AudioLeadIn: 0
PreviewTime: 25363
Countdown: 0
SampleSet: Normal
StackLeniency: 0.7
Mode: 3
LetterboxInBreaks: 0
SpecialStyle: 0
WidescreenStoryboard: 1

[Editor]
DistanceSpacing: 0.3
BeatDivisor: 4
GridSize: 32
TimelineZoom: 1.3

[Metadata]
Title:Xue Mao Jiao
TitleUnicode:学猫叫
Artist:Xiao Pan Pan & Xiao Feng Feng
ArtistUnicode:小潘潘 & 小峰峰
Creator:ExNeko
Version:Normal
Source:
Tags:潘柚彤 陈峰 pop chinese cat learning how to meow
BeatmapID:1731672
BeatmapSetID:826088

[Difficulty]
HPDrainRate:7
CircleSize:4
OverallDifficulty:7
ApproachRate:5
SliderMultiplier:1.4
SliderTickRate:1

[Events]
//Background and Video events
0,0,"miao.jpg",0,0
//Break Periods
//Storyboard Layer 0 (Background)
//Storyboard Layer 1 (Fail)
//Storyboard Layer 2 (Pass)
//Storyboard Layer 3 (Foreground)
//Storyboard Layer 4 (Overlay)
//Storyboard Sound Samples
Sample,41015,0,"F#5S_Gb5S.wav",70
Sample,41276,0,"G#5S_Ab5S.wav",70
Sample,41798,0,"G#5S_Ab5S.wav",70
Sample,41863,0,"A#6S_Bb6S.wav",70
Sample,48320,0,"A#6S_Bb6S.wav",70
Sample,48580,0,"B6S.wav",70
Sample,48841,0,"A#6S_Bb6S.wav",70
Sample,49102,0,"G#5S_Ab5S.wav",70
Sample,49624,0,"F#5S_Gb5S.wav",70
Sample,50146,0,"C#5S_Db5S.wav",70
Sample,50406,0,"D#5S_Eb5S.wav",70
Sample,59798,0,"A#6S_Bb6S.wav",70
Sample,60320,0,"B6S.wav",70
Sample,60580,0,"C#6S_Db6S.wav",70

[TimingPoints]
320,521.739130434783,4,1,1,35,1,0
60841,-100,4,1,1,35,0,1
94233,-100,4,1,1,35,0,0

[HitObjects]
64,192,320,5,0,0:0:0:0:
448,192,580,128,0,841:0:0:0:0:
192,192,841,1,0,0:0:0:0:
448,192,1102,128,0,1493:0:0:0:0:
448,192,1624,128,0,1885:0:0:0:0:
192,192,1885,1,0,0:0:0:0:
448,192,2146,128,0,2406:0:0:0:0:
64,192,2406,1,0,0:0:0:0:
192,192,2667,128,0,2928:0:0:0:0:
320,192,2928,1,0,0:0:0:0:
192,192,3189,128,0,3580:0:0:0:0:
192,192,3711,128,0,3972:0:0:0:0:
320,192,3972,1,0,0:0:0:0:
192,192,4233,128,0,4493:0:0:0:0:
448,192,4493,1,0,0:0:0:0:
64,192,4754,128,0,5015:0:0:0:0:
320,192,5015,1,0,0:0:0:0:
64,192,5276,128,0,5667:0:0:0:0:
64,192,5798,128,0,6059:0:0:0:0:
320,192,6059,1,0,0:0:0:0:
64,192,6320,128,0,6580:0:0:0:0:
192,192,6580,1,0,0:0:0:0:
320,192,6841,128,0,7102:0:0:0:0:
64,192,7102,1,0,0:0:0:0:
320,192,7363,128,0,8667:0:0:0:0:
64,192,7624,1,0,0:0:0:0:
192,192,7885,1,0,0:0:0:0:
192,192,8146,1,0,0:0:0:0:
192,192,8406,1,0,0:0:0:0:
448,192,8667,1,0,0:0:0:0:
192,192,8928,128,0,9189:0:0:0:0:
448,192,9189,1,0,0:0:0:0:
192,192,9450,128,0,9841:0:0:0:0:
192,192,9972,128,0,10233:0:0:0:0:
448,192,10233,1,0,0:0:0:0:
320,192,10493,1,0,0:0:0:0:
192,192,10754,1,0,0:0:0:0:
448,192,11015,128,0,11276:0:0:0:0:
64,192,11276,1,0,0:0:0:0:
448,192,11537,128,0,11928:0:0:0:0:
448,192,12059,128,0,12320:0:0:0:0:
64,192,12320,1,0,0:0:0:0:
192,192,12580,1,0,0:0:0:0:
448,192,12841,1,0,0:0:0:0:
64,192,13102,128,0,13363:0:0:0:0:
320,192,13363,1,0,0:0:0:0:
64,192,13624,128,0,14015:0:0:0:0:
64,192,14146,128,0,14406:0:0:0:0:
320,192,14406,1,0,0:0:0:0:
192,192,14667,1,0,0:0:0:0:
64,192,14928,1,0,0:0:0:0:
320,192,15189,128,0,15450:0:0:0:0:
192,192,15450,1,0,0:0:0:0:
320,192,15711,128,0,16102:0:0:0:0:
320,192,16233,128,0,16493:0:0:0:0:
192,192,16493,1,0,0:0:0:0:
64,192,16754,1,0,0:0:0:0:
448,192,17015,1,0,0:0:0:0:
64,192,17276,128,0,17537:0:0:0:0:
320,192,17537,1,0,0:0:0:0:
64,192,17798,128,0,18189:0:0:0:0:
64,192,18320,128,0,18580:0:0:0:0:
320,192,18580,1,0,0:0:0:0:
192,192,18841,1,0,0:0:0:0:
64,192,19102,1,0,0:0:0:0:
192,192,19363,128,0,19624:0:0:0:0:
448,192,19624,1,0,0:0:0:0:
192,192,19885,128,0,20276:0:0:0:0:
192,192,20406,128,0,20667:0:0:0:0:
448,192,20667,1,0,0:0:0:0:
320,192,20928,1,0,0:0:0:0:
192,192,21189,1,0,0:0:0:0:
320,192,21450,128,0,21711:0:0:0:0:
64,192,21711,1,0,0:0:0:0:
320,192,21972,128,0,22363:0:0:0:0:
320,192,22493,128,0,22754:0:0:0:0:
64,192,22754,1,0,0:0:0:0:
448,192,23015,1,0,0:0:0:0:
320,192,23276,1,0,0:0:0:0:
448,192,23537,128,0,23798:0:0:0:0:
192,192,23798,1,0,0:0:0:0:
448,192,24059,128,0,24320:0:0:0:0:
192,192,24320,1,0,0:0:0:0:
320,192,24580,128,0,25363:0:0:0:0:
64,192,25363,1,2,0:0:0:0:
192,192,25624,1,0,0:0:0:0:
320,192,25885,1,8,0:2:0:0:
448,192,25885,1,0,0:0:0:0:
64,192,26146,1,2,0:0:0:0:
320,192,26667,1,0,0:0:0:0:
192,192,26928,1,8,0:2:0:0:
64,192,26928,1,0,0:0:0:0:
320,192,27189,1,0,0:0:0:0:
448,192,27450,1,2,0:0:0:0:
192,192,27711,1,0,0:0:0:0:
320,192,27972,1,8,0:2:0:0:
448,192,27972,1,0,0:0:0:0:
64,192,28233,1,2,0:0:0:0:
448,192,28754,1,2,0:0:0:0:
192,192,29015,1,8,0:2:0:0:
64,192,29015,1,0,0:0:0:0:
320,192,29276,1,0,0:0:0:0:
192,192,29537,1,2,0:0:0:0:
64,192,29798,1,0,0:0:0:0:
320,192,30059,1,8,0:2:0:0:
448,192,30059,1,0,0:0:0:0:
192,192,30320,1,2,0:0:0:0:
320,192,30841,1,0,0:0:0:0:
64,192,31102,1,8,0:2:0:0:
192,192,31102,1,0,0:0:0:0:
448,192,31363,1,2,0:0:0:0:
64,192,31624,1,2,0:0:0:0:
192,192,31885,1,0,0:0:0:0:
320,192,32146,1,8,0:2:0:0:
448,192,32146,1,0,0:0:0:0:
64,192,32406,1,2,0:0:0:0:
64,192,32928,1,8,0:2:0:0:
192,192,32928,1,0,0:0:0:0:
320,192,33189,1,8,0:2:0:0:
448,192,33189,1,0,0:0:0:0:
64,192,33450,1,0,0:0:0:0:
192,192,33711,1,2,0:0:0:0:
320,192,33972,1,0,0:0:0:0:
64,192,34233,1,8,0:2:0:0:
192,192,34233,1,0,0:0:0:0:
448,192,34493,1,2,0:0:0:0:
64,192,35015,1,0,0:0:0:0:
320,192,35276,1,8,0:2:0:0:
448,192,35276,1,0,0:0:0:0:
192,192,35537,1,0,0:0:0:0:
64,192,35798,1,2,0:0:0:0:
320,192,36059,1,0,0:0:0:0:
192,192,36320,1,8,0:2:0:0:
64,192,36320,1,0,0:0:0:0:
448,192,36580,1,2,0:0:0:0:
64,192,37102,1,2,0:0:0:0:
320,192,37363,1,8,0:2:0:0:
448,192,37363,1,0,0:0:0:0:
192,192,37624,1,0,0:0:0:0:
320,192,37885,1,2,0:0:0:0:
448,192,38146,1,0,0:0:0:0:
64,192,38406,1,8,0:2:0:0:
192,192,38406,1,0,0:0:0:0:
320,192,38667,1,2,0:0:0:0:
192,192,39189,1,0,0:0:0:0:
448,192,39450,1,8,0:2:0:0:
320,192,39450,1,0,0:0:0:0:
64,192,39711,1,2,0:0:0:0:
192,192,39972,1,2,0:0:0:0:
320,192,40233,1,0,0:0:0:0:
64,192,40493,1,8,0:2:0:0:
192,192,40493,1,0,0:0:0:0:
448,192,40754,1,2,0:0:0:0:
192,192,41015,1,8,0:2:0:0:
320,192,41146,1,8,0:2:0:0:
64,192,41276,1,8,0:2:0:0:
192,192,41406,1,8,0:2:0:0:
320,192,41537,1,8,0:2:0:0:
448,192,41537,1,0,0:0:0:0:
320,192,41798,1,8,0:2:0:0:
192,192,41928,1,8,0:2:0:0:
64,192,42059,1,2,0:0:0:0:
448,192,42059,1,0,0:0:0:0:
320,192,42320,1,0,0:0:0:0:
64,192,42580,1,8,0:2:0:0:
192,192,42580,1,0,0:0:0:0:
448,192,42841,1,2,0:0:0:0:
320,192,43102,1,0,0:0:0:0:
64,192,43363,1,0,0:0:0:0:
320,192,43624,1,8,0:2:0:0:
448,192,43624,1,0,0:0:0:0:
192,192,43885,1,0,0:0:0:0:
64,192,44146,1,2,0:0:0:0:
448,192,44406,1,0,0:0:0:0:
192,192,44667,1,8,0:2:0:0:
64,192,44667,1,0,0:0:0:0:
320,192,44928,1,2,0:0:0:0:
448,192,45189,1,0,0:0:0:0:
64,192,45450,1,2,0:0:0:0:
320,192,45711,1,0,0:0:0:0:
448,192,45711,1,8,0:2:0:0:
192,192,45972,1,0,0:0:0:0:
64,192,46233,1,2,0:0:0:0:
320,192,46493,1,0,0:0:0:0:
448,192,46754,1,8,0:2:0:0:
192,192,46754,1,0,0:0:0:0:
64,192,47015,1,2,0:0:0:0:
320,192,47276,1,0,0:0:0:0:
192,192,47537,1,0,0:0:0:0:
64,192,47798,1,8,0:2:0:0:
448,192,47798,1,0,0:0:0:0:
320,192,48059,1,2,0:0:0:0:
192,192,48320,1,2,0:0:0:0:
448,192,48580,1,0,0:0:0:0:
64,192,48841,1,0,0:0:0:0:
192,192,48841,1,8,0:2:0:0:
320,192,49102,1,2,0:0:0:0:
448,192,49363,1,0,0:0:0:0:
64,192,49624,1,8,0:2:0:0:
192,192,49624,1,0,0:0:0:0:
320,192,49885,1,8,0:2:0:0:
448,192,49885,1,0,0:0:0:0:
192,192,50146,1,0,0:0:0:0:
64,192,50406,1,2,0:0:0:0:
320,192,50667,1,0,0:0:0:0:
64,192,50928,1,8,0:2:0:0:
192,192,50928,1,0,0:0:0:0:
448,192,51189,1,2,0:0:0:0:
320,192,51450,1,0,0:0:0:0:
192,192,51711,1,0,0:0:0:0:
320,192,51972,1,8,0:2:0:0:
448,192,51972,1,0,0:0:0:0:
64,192,52233,1,0,0:0:0:0:
448,192,52493,1,2,0:0:0:0:
320,192,52754,1,0,0:0:0:0:
192,192,53015,1,8,0:2:0:0:
64,192,53015,1,0,0:0:0:0:
448,192,53276,1,2,0:0:0:0:
64,192,53537,1,0,0:0:0:0:
192,192,53798,1,2,0:0:0:0:
448,192,54059,1,8,0:2:0:0:
320,192,54059,1,0,0:0:0:0:
64,192,54320,1,0,0:0:0:0:
192,192,54580,1,2,0:0:0:0:
320,192,54841,1,0,0:0:0:0:
64,192,55102,1,8,0:2:0:0:
192,192,55102,1,0,0:0:0:0:
448,192,55363,1,2,0:0:0:0:
320,192,55624,1,0,0:0:0:0:
192,192,55885,1,0,0:0:0:0:
448,192,56146,1,8,0:2:0:0:
320,192,56146,1,0,0:0:0:0:
64,192,56406,1,2,0:0:0:0:
448,192,56667,1,2,0:0:0:0:
320,192,56928,1,0,0:0:0:0:
192,192,57189,1,8,0:2:0:0:
64,192,57189,1,0,0:0:0:0:
448,192,57450,1,2,0:0:0:0:
320,192,57711,1,0,0:0:0:0:
192,192,57972,1,2,0:0:0:0:
320,192,58233,1,8,0:2:0:0:
448,192,58233,1,0,0:0:0:0:
64,192,58493,1,4,0:2:0:0:
448,192,59015,1,4,0:2:0:0:
320,192,59015,1,2,0:0:0:0:
192,192,59276,1,4,0:2:0:0:
64,192,59276,1,2,0:0:0:0:
320,192,59537,1,8,0:2:0:0:
192,192,59667,1,8,0:2:0:0:
64,192,59798,1,8,0:2:0:0:
320,192,59928,1,8,0:2:0:0:
192,192,60059,1,8,0:2:0:0:
320,192,60320,1,8,0:0:0:0:
448,192,60320,1,0,0:0:0:0:
64,192,60450,1,8,0:2:0:0:
192,192,60580,1,8,0:2:0:0:
320,192,60711,1,8,0:2:0:0:
64,192,60841,1,4,0:0:0:0:
192,192,60841,1,2,0:0:0:0:
448,192,60841,1,0,0:0:0:0:
320,192,61102,1,0,0:0:0:0:
64,192,61363,1,8,0:0:0:0:
448,192,61363,1,0,0:0:0:0:
192,192,61624,1,2,0:0:0:0:
320,192,61885,128,0,62146:0:0:0:70:A#6S_Bb6S.wav
64,192,62146,1,2,0:0:0:0:
192,192,62406,128,0,62667:0:0:0:70:B6S.wav
320,192,62406,1,8,0:0:0:0:
448,192,62667,128,0,62928:0:0:0:70:D#6S_Eb6S.wav
64,192,62928,1,2,0:0:0:0:
320,192,63189,128,0,63450:0:0:0:70:C#6S_Db6S.wav
192,192,63450,1,8,0:0:0:0:
64,192,63450,1,0,0:0:0:0:
320,192,63711,1,2,0:0:0:0:
448,192,63972,1,0,0:0:0:0:
64,192,64233,1,2,0:0:0:0:
192,192,64493,1,0,0:0:0:70:A#6S_Bb6S.wav
448,192,64493,128,8,64754:0:0:0:0:
320,192,64754,128,0,65015:0:0:0:70:G#5S_Ab5S.wav
64,192,64754,1,2,0:0:0:0:
192,192,65015,128,0,65276:0:0:0:70:F#5S_Gb5S.wav
448,192,65015,1,2,0:0:0:0:
64,192,65276,1,0,0:0:0:0:
192,192,65537,1,0,0:0:0:0:
320,192,65537,1,8,0:0:0:0:
448,192,65798,128,0,66059:0:0:0:70:F#6S_Gb6S.wav
64,192,65798,1,2,0:0:0:0:
192,192,66059,1,0,0:0:0:0:
448,192,66320,1,2,0:0:0:0:
64,192,66580,1,8,0:0:0:0:
320,192,66580,1,0,0:0:0:0:
192,192,66841,1,0,0:0:0:0:
320,192,67102,128,0,67363:0:0:0:70:F6S.wav
448,192,67102,1,2,0:0:0:0:
64,192,67363,1,0,0:0:0:0:
448,192,67624,128,0,67885:0:0:0:70:F#6S_Gb6S.wav
320,192,67624,1,8,0:0:0:0:
64,192,67885,128,0,68146:0:0:0:70:F6S.wav
192,192,67885,1,2,0:0:0:0:
320,192,68146,1,0,0:0:0:0:
192,192,68406,128,0,68667:0:0:0:70:C#6S_Db6S.wav
448,192,68406,1,2,0:0:0:0:
64,192,68667,1,8,0:0:0:0:
320,192,68667,1,0,0:0:0:0:
448,192,68928,1,2,0:0:0:0:
320,192,69189,128,0,69450:0:0:0:70:D#6S_Eb6S.wav
192,192,69189,1,2,0:0:0:0:
64,192,69189,1,4,0:0:0:0:
448,192,69450,1,0,0:0:0:0:
64,192,69711,1,8,0:0:0:0:
320,192,69711,1,0,0:0:0:0:
192,192,69972,1,2,0:0:0:0:
320,192,70233,1,0,0:0:0:0:
192,192,70493,128,0,70754:0:0:0:70:F6S.wav
64,192,70493,1,2,0:0:0:0:
320,192,70754,128,0,71015:0:0:0:70:F#6S_Gb6S.wav
448,192,70754,1,8,0:0:0:0:
64,192,71015,128,0,71276:0:0:0:70:F#6S_Gb6S.wav
448,192,71276,1,2,0:0:0:0:
320,192,71537,128,0,71798:0:0:0:70:C#6S_Db6S.wav
64,192,71798,1,8,0:0:0:0:
192,192,71798,1,0,0:0:0:0:
448,192,72059,128,0,72320:0:0:0:70:B6S.wav
320,192,72059,1,2,0:0:0:0:
192,192,72320,1,0,0:0:0:0:
320,192,72580,128,0,72841:0:0:0:70:A#6S_Bb6S.wav
448,192,72580,1,2,0:0:0:0:
64,192,72841,1,8,0:0:0:0:
192,192,72841,1,0,0:0:0:0:
448,192,73102,1,2,0:0:0:0:
64,192,73363,128,0,73624:0:0:0:70:B6S.wav
320,192,73363,1,2,0:0:0:0:
192,192,73624,1,0,0:0:0:0:
320,192,73885,128,0,74146:0:0:0:70:C#6S_Db6S.wav
448,192,73885,1,8,0:0:0:0:
192,192,74146,128,0,74406:0:0:0:70:D#6S_Eb6S.wav
64,192,74146,1,2,0:0:0:0:
448,192,74406,1,0,0:0:0:0:
320,192,74667,1,2,0:0:0:0:
64,192,74928,128,0,75189:0:0:0:70:C#6S_Db6S.wav
192,192,74928,1,8,0:0:0:0:
320,192,75189,128,0,75450:0:0:0:70:A#6S_Bb6S.wav
64,192,75450,1,2,0:0:0:0:
448,192,75711,1,0,0:0:0:0:
64,192,75841,1,2,0:0:0:0:
448,192,75972,1,8,0:0:0:0:
320,192,75972,1,0,0:0:0:0:
64,192,76233,1,4,0:2:0:0:
192,192,76233,1,2,0:0:0:0:
448,192,76493,1,8,0:2:0:0:
320,192,76493,1,0,0:0:0:70:A#6S_Bb6S.wav
192,192,76624,1,8,0:2:0:0:
448,192,76754,1,8,0:2:0:0:
320,192,76885,1,8,0:2:0:0:
192,192,77015,1,8,0:0:0:0:
64,192,77015,1,0,0:0:0:70:B6S.wav
448,192,77276,1,8,0:2:0:0:
320,192,77276,1,0,0:0:0:70:C#6S_Db6S.wav
192,192,77406,1,8,0:2:0:0:
448,192,77537,1,2,0:0:0:0:
64,192,77537,1,4,0:0:0:0:
320,192,77537,1,0,0:0:0:0:
192,192,77798,1,0,0:0:0:0:
320,192,78059,1,8,0:0:0:0:
448,192,78059,1,0,0:0:0:0:
192,192,78320,1,2,0:0:0:0:
448,192,78580,128,0,78841:0:0:0:70:A#6S_Bb6S.wav
64,192,78841,1,2,0:0:0:0:
320,192,79102,128,0,79363:0:0:0:70:B6S.wav
192,192,79102,1,8,0:0:0:0:
448,192,79363,128,0,79624:0:0:0:70:D#6S_Eb6S.wav
64,192,79624,1,2,0:0:0:0:
320,192,79885,128,0,80146:0:0:0:70:C#6S_Db6S.wav
64,192,80146,1,8,0:0:0:0:
192,192,80146,1,0,0:0:0:0:
320,192,80406,1,2,0:0:0:0:
64,192,80667,1,0,0:0:0:0:
192,192,80928,1,2,0:0:0:0:
320,192,81189,128,0,81450:0:0:0:70:A#6S_Bb6S.wav
448,192,81189,1,8,0:0:0:0:
192,192,81450,128,0,81711:0:0:0:70:G#5S_Ab5S.wav
64,192,81450,1,2,0:0:0:0:
448,192,81711,128,0,81972:0:0:0:70:F#5S_Gb5S.wav
320,192,81711,1,2,0:0:0:0:
64,192,81972,1,0,0:0:0:0:
192,192,82233,1,8,0:0:0:0:
320,192,82233,1,0,0:0:0:0:
448,192,82493,128,0,82754:0:0:0:70:F#6S_Gb6S.wav
64,192,82493,1,2,0:0:0:0:
320,192,82754,1,0,0:0:0:0:
192,192,83015,1,2,0:0:0:0:
64,192,83276,1,8,0:0:0:0:
448,192,83276,1,0,0:0:0:0:
320,192,83537,1,0,0:0:0:0:
64,192,83798,128,0,84059:0:0:0:70:F6S.wav
192,192,83798,1,2,0:0:0:0:
320,192,84059,1,0,0:0:0:0:
448,192,84320,128,0,84580:0:0:0:70:F#6S_Gb6S.wav
192,192,84320,1,8,0:0:0:0:
64,192,84580,128,0,84841:0:0:0:70:F6S.wav
320,192,84580,1,2,0:0:0:0:
192,192,84841,1,0,0:0:0:0:
448,192,85102,128,10,85363:0:0:0:70:C#6S_Db6S.wav
320,192,85102,1,2,0:0:0:0:
192,192,85363,1,8,0:0:0:0:
64,192,85363,1,0,0:0:0:0:
448,192,85624,1,2,0:0:0:0:
64,192,85885,128,0,86146:0:0:0:70:D#6S_Eb6S.wav
192,192,85885,1,2,0:0:0:0:
320,192,85885,1,4,0:0:0:0:
448,192,86146,1,0,0:0:0:0:
192,192,86406,1,8,0:0:0:0:
320,192,86406,1,0,0:0:0:0:
64,192,86667,1,2,0:0:0:0:
192,192,86928,1,0,0:0:0:0:
320,192,87189,128,0,87450:0:0:0:70:F6S.wav
448,192,87189,1,2,0:0:0:0:
64,192,87450,128,0,87711:0:0:0:70:F#6S_Gb6S.wav
192,192,87450,1,8,0:0:0:0:
448,192,87711,128,0,87972:0:0:0:70:F#6S_Gb6S.wav
192,192,87972,1,2,0:0:0:0:
320,192,88233,128,0,88493:0:0:0:70:C#6S_Db6S.wav
448,192,88493,1,8,0:0:0:0:
64,192,88493,1,0,0:0:0:0:
192,192,88754,128,0,89015:0:0:0:70:B6S.wav
320,192,88754,1,2,0:0:0:0:
448,192,89015,1,0,0:0:0:0:
64,192,89276,128,0,89537:0:0:0:70:A#6S_Bb6S.wav
192,192,89276,1,2,0:0:0:0:
448,192,89537,1,8,0:0:0:0:
320,192,89537,1,0,0:0:0:0:
192,192,89798,1,2,0:0:0:0:
448,192,90059,128,0,90320:0:0:0:70:B6S.wav
64,192,90059,1,2,0:0:0:0:
320,192,90320,1,0,0:0:0:0:
192,192,90580,128,0,90841:0:0:0:70:C#6S_Db6S.wav
64,192,90580,1,8,0:0:0:0:
448,192,90841,128,0,91102:0:0:0:70:C#6S_Db6S.wav
320,192,90841,1,2,0:0:0:0:
64,192,91102,1,0,0:0:0:0:
192,192,91363,1,2,0:0:0:0:
448,192,91624,128,0,91885:0:0:0:70:G#6S_Ab6S.wav
320,192,91624,1,8,0:0:0:0:
64,192,91885,128,0,92146:0:0:0:70:F#5S_Gb5S.wav
448,192,92146,1,4,0:2:0:0:
320,192,92146,1,2,0:0:0:0:
192,192,92406,1,2,0:0:0:0:
192,192,92667,1,2,0:0:0:0:
448,192,92928,1,4,0:2:0:0:
64,192,92928,1,2,0:0:0:0:
320,192,93189,1,0,0:0:0:0:
192,192,93450,1,0,0:0:0:0:
448,192,93711,1,8,0:0:0:0:
320,192,93711,1,0,0:0:0:0:
64,192,93972,1,2,0:0:0:0:
448,192,94233,1,0,0:0:0:0:
