osu file format v14

[General]
AudioFilename: audio.mp3
AudioLeadIn: 0
PreviewTime: 60603
Countdown: 0
SampleSet: Soft
StackLeniency: 0.7
Mode: 2
LetterboxInBreaks: 0
WidescreenStoryboard: 1

[Editor]
Bookmarks: 8950,25646,42342,102863,111211
DistanceSpacing: 1.9
BeatDivisor: 8
GridSize: 8
TimelineZoom: 1.7

[Metadata]
Title:Xue Mao Jiao
TitleUnicode:学猫叫
Artist:Xiao Pan Pan & Xiao Feng Feng
ArtistUnicode:小潘潘 & 小峰峰
Creator:Dapuluous
Version:Phob's Salad
Source:
Tags:pop chinese cat learning how to meow phob petal matha Mia CheneyF
BeatmapID:2446586
BeatmapSetID:1119839

[Difficulty]
HPDrainRate:4
CircleSize:3
OverallDifficulty:6.5
ApproachRate:6.5
SliderMultiplier:2
SliderTickRate:1

[Events]
//Background and Video events
0,0,"62.jpg",0,0
//Break Periods
2,94716,108149
//Storyboard Layer 0 (Background)
//Storyboard Layer 1 (Fail)
//Storyboard Layer 2 (Pass)
//Storyboard Layer 3 (Foreground)
//Storyboard Layer 4 (Overlay)
//Storyboard Sound Samples

[TimingPoints]
603,521.739130434783,4,2,2,35,1,0
8950,-100,4,2,2,55,0,0
25646,-100,4,2,1,55,0,0
41298,-100,4,2,1,40,0,0
42342,-100,4,2,1,55,0,0
61124,-100,4,2,2,70,0,1
69472,-100,4,2,1,70,0,1
69603,-100,4,2,2,70,0,1
76516,-100,4,2,1,70,0,1
76646,-100,4,2,2,70,0,1
77298,-100,4,2,2,70,0,0
77820,-100,4,2,2,70,0,1
86168,-100,4,2,1,70,0,1
86298,-100,4,2,2,70,0,1
90342,-100,4,2,1,70,0,1
90472,-100,4,2,2,70,0,1
92429,-100,4,2,1,70,0,1
92559,-100,4,2,2,70,0,1
93211,-100,4,2,1,70,0,1
93342,-100,4,2,2,70,0,1
93472,-100,4,2,2,45,0,1
94516,-100,4,2,2,55,0,0
102603,-100,4,2,2,55,0,0
110168,-100,4,2,2,40,0,0
111211,-100,4,2,1,55,0,0
129994,-100,4,2,2,70,0,1
138342,-100,4,2,1,70,0,1
138472,-100,4,2,2,70,0,1
145385,-100,4,2,1,70,0,1
145516,-100,4,2,2,70,0,1
146168,-100,4,2,2,70,0,0
146689,-100,4,2,2,70,0,1
155037,-100,4,2,1,70,0,1
155168,-100,4,2,2,70,0,1
159211,-100,4,2,1,70,0,1
159342,-100,4,2,2,70,0,1
161298,-100,4,2,1,70,0,0
161429,-100,4,2,2,70,0,0
162081,-100,4,2,1,70,0,0
162211,-100,4,2,2,70,0,0
163385,-100,4,2,2,80,0,1
171733,-100,4,2,1,80,0,1
171863,-100,4,2,2,80,0,1
178776,-100,4,2,1,80,0,1
178907,-100,4,2,2,80,0,1
179559,-100,4,2,2,80,0,0
180081,-100,4,2,2,80,0,1
188429,-100,4,2,1,80,0,1
188559,-100,4,2,2,80,0,1
192603,-100,4,2,1,80,0,1
192733,-100,4,2,2,80,0,1
194689,-100,4,2,1,80,0,1
195211,-100,4,2,2,80,0,1
195472,-100,4,2,1,80,0,1
195733,-100,4,2,2,45,0,1
196776,-100,4,2,2,20,0,0
206429,-100,4,2,2,25,0,0
207472,-100,4,2,2,15,0,0
208516,-100,4,2,2,5,0,0

[Colours]
Combo1 : 150,140,120
Combo2 : 130,95,65
Combo3 : 249,140,170
Combo4 : 70,110,130

[HitObjects]
228,239,8168,5,2,3:2:0:0:
360,208,8429,2,0,L|368:104,1,100,2|2,0:0|0:0,0:0:0:0:
136,144,8950,6,0,L|8:144,2,100,2|2|2,0:0|0:0|0:0,0:0:0:0:
256,144,9733,1,2,0:0:0:0:
136,216,9994,2,0,B|136:120|136:120|240:120,1,200,2|2,0:0|1:2,0:0:0:0:
360,120,10776,1,2,0:0:0:0:
128,192,11037,6,0,L|120:296,1,100,2|2,0:0|0:0,0:0:0:0:
248,216,11559,2,0,L|256:320,1,100,2|2,1:2|0:0,0:0:0:0:
384,256,12081,2,0,P|376:176|272:128,1,200,2|2,0:0|1:2,0:0:0:0:
160,128,12863,1,2,1:2:0:0:
392,160,13124,6,0,L|496:160,2,100,2|2|2,0:0|0:0|1:2,0:0:0:0:
272,160,13907,1,2,0:0:0:0:
152,168,14168,2,0,P|114:209|223:289,1,200,2|2,0:0|1:2,0:0:0:0:
308,296,14950,1,2,1:2:0:0:
80,240,15211,6,0,L|72:136,1,100,2|2,0:0|0:0,0:0:0:0:
200,152,15733,2,0,L|208:48,1,100,2|2,0:0|0:0,0:0:0:0:
336,48,16255,1,2,0:0:0:0:
104,176,16776,2,0,L|216:176,1,100,2|2,1:2|1:2,0:0:0:0:
432,200,17298,6,0,L|440:304,1,100,2|2,0:0|0:0,0:0:0:0:
312,296,17820,1,2,0:0:0:0:
432,280,18081,1,2,0:0:0:0:
304,256,18342,2,0,P|240:208|304:136,1,200,2|2,0:0|1:2,0:0:0:0:
424,128,19124,1,2,0:0:0:0:
192,104,19385,6,0,L|184:208,1,100,2|2,0:0|0:0,0:0:0:0:
312,192,19907,2,0,L|424:192,1,100,2|2,0:0|0:0,0:0:0:0:
280,144,20429,2,0,B|264:200|208:200|208:200|256:320|392:296,1,300,2|2,0:0|0:0,0:0:0:0:
152,280,21472,6,0,L|144:176,1,100,2|2,0:0|0:0,0:0:0:0:
264,168,21994,2,0,L|272:64,1,100,2|2,1:2|0:0,0:0:0:0:
392,152,22516,2,0,L|504:152,2,100,2|2|2,0:0|0:0|1:2,0:0:0:0:
272,152,23298,1,2,0:0:0:0:
256,192,23559,12,0,25646,1:0:0:0:
240,104,26168,6,0,L|136:104,1,100,8|0,0:0|1:0,0:0:0:0:
264,144,26689,2,0,P|328:184|256:256,1,200,2|8,0:0|0:0,0:0:0:0:
144,256,27472,1,2,0:0:0:0:
376,192,27733,6,0,L|480:192,2,100,0|2|8,1:0|0:3|0:0,0:0:0:0:
256,192,28516,1,0,1:0:0:0:
456,112,29037,2,0,L|464:224,1,100,0|8,1:0|0:0,0:0:0:0:
344,224,29559,1,2,0:3:0:0:
112,144,29820,6,0,P|120:224|240:272,1,200,0|10,1:0|0:0,0:0:0:0:
336,272,30603,1,0,1:0:0:0:
216,224,30863,2,0,L|208:120,1,100,2|2,0:0|0:3,0:0:0:0:
328,104,31385,1,8,0:0:0:0:
96,144,31646,6,0,P|88:216|256:128,1,400,0|0,1:0|1:0,0:0:0:0:
64,208,33211,2,0,L|176:208,2,100,8|8|2,0:0|0:0|0:3,0:0:0:0:
296,176,33994,5,0,1:0:0:0:
416,176,34255,2,0,P|475:217|408:304,1,200,2|0,0:0|1:0,0:0:0:0:
216,240,35298,1,2,0:0:0:0:
344,208,35559,2,0,L|352:104,1,100,8|2,0:0|0:0,0:0:0:0:
120,120,36081,6,0,L|16:120,2,100,0|2|8,1:0|0:3|0:0,0:0:0:0:
240,120,36863,2,0,P|320:144|352:264,1,200,0|0,1:0|1:0,0:0:0:0:
144,272,37907,1,2,0:3:0:0:
376,248,38168,6,0,B|472:248|472:248|472:240|472:240|376:240,1,200,0|8,1:0|0:0,0:0:0:0:
256,224,38950,1,0,1:0:0:0:
376,192,39211,2,0,L|488:192,2,100,2|2|8,0:0|0:3|0:0,0:0:0:0:
256,192,39994,12,0,42342,1:0:0:0:
408,144,42863,6,0,L|416:40,1,100,8|0,0:0|1:0,0:0:0:0:
288,56,43385,2,0,P|228:94|304:176,1,200,2|8,0:0|0:0,0:0:0:0:
408,184,44168,1,2,0:0:0:0:
176,224,44429,6,0,L|72:224,2,100,0|2|8,1:0|0:3|0:0,0:0:0:0:
296,224,45211,1,0,1:0:0:0:
88,136,45733,2,0,L|80:240,1,100,0|8,1:0|0:0,0:0:0:0:
200,256,46255,1,2,0:3:0:0:
432,136,46516,6,0,P|416:208|304:256,1,200,0|8,1:0|0:0,0:0:0:0:
192,240,47298,1,0,1:0:0:0:
312,208,47559,2,0,L|320:104,1,100,2|2,0:0|0:3,0:0:0:0:
200,88,48081,1,8,0:0:0:0:
432,64,48342,6,0,P|464:208|240:336,1,400,0|0,1:0|1:0,0:0:0:0:
64,280,49907,2,0,L|168:280,1,100,8|8,0:0|0:0,0:0:0:0:
56,248,50429,1,2,0:3:0:0:
288,168,50689,5,0,1:0:0:0:
400,112,50950,2,0,L|200:112,1,200,2|0,0:3|1:0,0:0:0:0:
432,272,51994,2,0,L|320:272,2,100,2|8|2,0:3|0:0|0:0,0:0:0:0:
200,240,52776,5,0,1:0:0:0:
80,208,53037,2,0,L|72:104,1,100,2|8,0:3|0:0,0:0:0:0:
192,96,53559,2,0,B|56:96|56:96|144:96,1,200,0|0,1:0|1:0,0:0:0:0:
352,232,54603,1,2,0:3:0:0:
112,280,54863,6,0,P|112:232|256:160,1,200,0|8,1:0|0:0,0:0:0:0:
328,152,55646,1,0,1:0:0:0:
88,216,55907,2,0,L|80:112,1,100,2|2,0:0|3:0,0:0:0:0:
192,104,56429,1,8,0:0:0:0:
424,256,56689,5,0,1:0:0:0:
216,216,57211,2,0,P|176:96|296:224,1,500,2|8,0:3|0:0,0:0:0:0:
200,232,58776,5,6,0:0:0:0:
408,192,59298,2,0,L|416:88,1,100,6|6,0:0|0:0,0:0:0:0:
120,208,60603,2,0,L|112:104,1,100,8|4,3:2|3:0,0:0:0:0:
344,120,61124,6,0,L|456:120,1,100,6|2,0:0|0:0,0:0:0:0:
320,176,61646,2,0,L|424:176,1,100,8|4,0:0|0:3,0:0:0:0:
296,200,62168,2,0,P|240:232|304:320,1,200,2|8,0:0|0:0,0:0:0:0:
424,312,62950,1,2,0:0:0:0:
192,232,63211,6,0,L|184:128,1,100,4|2,0:3|0:0,0:0:0:0:
304,168,63733,2,0,L|312:64,1,100,10|4,0:0|0:3,0:0:0:0:
192,56,64255,1,2,0:0:0:0:
408,112,64776,2,0,L|416:216,1,100,8|4,0:0|0:3,0:0:0:0:
184,232,65298,6,0,L|72:232,2,100,4|2|8,0:3|0:0|0:0,0:0:0:0:
304,232,66081,1,4,0:3:0:0:
184,216,66342,2,0,P|184:168|312:96,1,200,2|8,0:0|0:0,0:0:0:0:
416,96,67124,1,2,0:0:0:0:
184,160,67385,6,0,L|176:264,1,100,4|2,0:3|0:0,0:0:0:0:
304,208,67907,2,0,L|416:208,2,100,10|4|2,0:0|0:3|0:0,0:0:0:0:
88,136,68950,2,0,L|80:240,1,100,8|4,0:0|0:3,0:0:0:0:
312,120,69472,6,0,L|416:120,1,100,6|2,0:0|0:0,0:0:0:0:
288,160,69994,2,0,L|176:160,1,100,8|4,0:0|0:3,0:0:0:0:
312,176,70516,2,0,P|376:216|296:288,1,200,2|8,0:0|0:0,0:0:0:0:
192,288,71298,1,2,0:0:0:0:
424,208,71559,6,0,L|432:104,1,100,4|2,0:3|0:0,0:0:0:0:
312,160,72081,2,0,L|304:56,1,100,8|4,0:0|0:3,0:0:0:0:
184,80,72603,2,0,P|171:141|360:272,1,300,2|4,0:0|0:3,0:0:0:0:
96,248,73646,6,0,L|64:152,1,100,4|2,0:3|0:0,0:0:0:0:
184,168,74168,2,0,L|176:64,1,100,8|4,0:0|0:3,0:0:0:0:
296,168,74689,2,0,L|304:64,1,100,2|4,0:0|0:3,0:0:0:0:
424,208,75211,2,0,L|456:112,1,100,8|2,0:0|0:0,0:0:0:0:
224,272,75733,6,0,P|184:216|320:80,1,300,4|6,0:3|0:0,0:0:0:0:
88,272,77298,2,0,L|80:168,1,100,8|6,3:2|3:0,0:0:0:0:
312,168,77820,6,0,L|424:168,1,100,6|2,0:0|0:0,0:0:0:0:
288,208,78342,2,0,L|184:208,1,100,8|4,0:0|0:3,0:0:0:0:
312,240,78863,2,0,P|368:232|424:104,1,200,2|8,0:0|0:0,0:0:0:0:
312,96,79646,1,2,0:0:0:0:
80,136,79907,6,0,L|72:240,1,100,4|2,0:3|0:0,0:0:0:0:
192,200,80429,2,0,L|200:304,1,100,10|4,0:0|0:3,0:0:0:0:
320,312,80950,1,2,0:0:0:0:
112,256,81472,2,0,L|104:152,1,100,8|2,0:0|0:0,0:0:0:0:
336,168,81994,6,0,L|440:168,1,100,4|2,0:3|0:0,0:0:0:0:
312,184,82516,2,0,L|304:288,1,100,8|4,0:0|0:3,0:0:0:0:
424,264,83037,2,0,P|392:168|304:144,1,200,2|8,0:0|0:0,0:0:0:0:
184,144,83820,1,2,0:0:0:0:
416,104,84081,6,0,L|424:208,1,100,4|2,0:3|0:0,0:0:0:0:
304,208,84603,2,0,L|296:312,1,100,8|4,0:0|0:3,0:0:0:0:
176,240,85124,2,0,P|192:168|304:120,1,200,2|8,0:0|0:0,0:0:0:0:
416,120,85907,1,4,0:3:0:0:
184,192,86168,6,0,L|80:192,1,100,6|2,0:0|0:0,0:0:0:0:
208,144,86689,2,0,L|88:144,1,100,8|4,0:0|0:3,0:0:0:0:
232,104,87211,2,0,P|288:136|224:232,1,200,2|8,0:0|0:0,0:0:0:0:
112,240,87994,1,2,0:0:0:0:
344,232,88255,6,0,L|448:232,2,100,4|2|8,0:3|0:0|0:0,0:0:0:0:
224,208,89037,1,4,0:3:0:0:
344,96,89298,2,0,P|440:192|336:280,1,300,2|4,0:0|0:3,0:0:0:0:
104,256,90342,6,0,P|112:184|240:144,1,200,2|8,0:0|0:0,0:0:0:0:
336,144,91124,1,4,0:3:0:0:
216,200,91385,1,2,0:0:0:0:
96,176,91646,2,0,L|88:72,1,100,6|8,0:3|0:0,0:0:0:0:
344,64,92168,5,2,0:0:0:0:
256,192,92689,12,2,94516,0:0:0:0:
256,192,109124,12,0,111211,1:0:0:0:
280,104,111733,6,0,L|384:104,1,100,8|0,0:0|1:0,0:0:0:0:
264,96,112255,2,0,P|208:128|280:216,1,200,2|8,0:0|0:0,0:0:0:0:
384,216,113037,1,2,0:0:0:0:
152,272,113298,6,0,L|144:168,1,100,0|2,1:0|0:3,0:0:0:0:
256,144,113820,1,8,0:0:0:0:
144,120,114081,1,0,1:0:0:0:
352,160,114603,2,0,L|464:160,2,100,0|8|2,1:0|0:0|0:3,0:0:0:0:
120,144,115385,6,0,P|144:224|272:256,1,200,0|8,1:0|0:0,0:0:0:0:
360,264,116168,1,0,1:0:0:0:
248,224,116429,2,0,L|240:120,1,100,2|0,0:0|1:0,0:0:0:0:
352,96,116950,1,8,0:0:0:0:
120,48,117211,6,0,P|136:160|384:296,1,400,2|0,0:3|1:0,0:0:0:0:
160,224,118776,1,0,1:0:0:0:
48,192,119037,2,0,L|40:88,1,100,8|2,0:0|0:3,0:0:0:0:
272,72,119559,5,0,1:0:0:0:
392,96,119820,2,0,P|456:144|391:218,1,200,2|0,0:3|1:0,0:0:0:0:
192,232,120863,1,0,1:0:0:0:
304,208,121124,2,0,L|408:208,1,100,8|2,0:0|0:0,0:0:0:0:
168,136,121646,6,0,L|160:240,1,100,0|2,1:0|0:3,0:0:0:0:
280,248,122168,1,8,0:0:0:0:
56,288,122429,2,0,P|104:184|208:176,1,200,0|0,1:0|1:0,0:0:0:0:
408,168,123472,1,2,0:3:0:0:
168,112,123733,6,0,P|104:160|176:232,1,200,0|8,1:0|0:0,0:0:0:0:
280,208,124516,1,0,1:0:0:0:
40,192,124776,2,0,L|32:88,1,100,2|0,0:0|1:0,0:0:0:0:
144,72,125298,1,8,0:0:0:0:
376,152,125559,5,2,0:0:0:0:
168,48,126081,2,0,B|152:360|456:0|432:360,1,500,2|8,0:3|0:0,0:0:0:0:
320,344,127646,5,6,0:0:0:0:
104,240,128168,2,0,L|96:136,1,100,6|6,0:0|0:0,0:0:0:0:
408,240,129472,2,0,L|416:136,1,100,8|4,3:2|3:0,0:0:0:0:
184,128,129994,6,0,L|80:128,2,100,6|2|8,0:0|0:0|0:0,0:0:0:0:
296,128,130776,1,4,0:3:0:0:
184,168,131037,2,0,P|208:248|328:288,1,200,2|8,0:0|0:0,0:0:0:0:
424,288,131820,1,2,0:0:0:0:
192,240,132081,6,0,L|88:240,1,100,4|2,0:3|0:0,0:0:0:0:
208,176,132603,2,0,L|96:176,1,100,10|4,0:0|0:3,0:0:0:0:
224,104,133124,2,0,P|280:128|200:208,1,200,2|8,0:0|0:0,0:0:0:0:
112,208,133907,1,4,0:3:0:0:
344,144,134168,6,0,L|352:248,1,100,4|2,0:3|0:0,0:0:0:0:
240,264,134689,2,0,L|136:264,1,100,8|4,0:0|0:3,0:0:0:0:
256,232,135211,2,0,P|320:192|240:120,1,200,2|8,0:0|0:0,0:0:0:0:
144,120,135994,1,2,0:0:0:0:
376,152,136255,6,0,L|384:256,1,100,4|2,0:3|0:0,0:0:0:0:
264,208,136776,2,0,L|256:312,1,100,10|4,0:0|0:3,0:0:0:0:
136,312,137298,1,2,0:0:0:0:
352,272,137820,2,0,L|464:272,1,100,8|2,0:0|0:0,0:0:0:0:
216,160,138342,6,0,L|112:160,2,100,6|2|8,0:0|0:0|0:0,0:0:0:0:
336,160,139124,1,4,0:3:0:0:
216,120,139385,2,0,P|152:152|232:224,1,200,2|8,0:0|0:0,0:0:0:0:
328,240,140168,1,2,0:0:0:0:
96,280,140429,6,0,L|88:176,1,100,4|2,0:3|0:0,0:0:0:0:
208,192,140950,2,0,L|216:88,1,100,8|4,0:0|0:3,0:0:0:0:
336,80,141472,2,0,P|416:128|312:272,1,300,2|4,0:0|0:3,0:0:0:0:
96,264,142516,6,0,L|72:160,1,100,4|2,0:3|0:0,0:0:0:0:
192,184,143037,2,0,L|184:80,1,100,8|4,0:0|0:3,0:0:0:0:
304,184,143559,2,0,L|312:80,1,100,2|4,0:0|0:3,0:0:0:0:
432,248,144081,2,0,L|456:144,1,100,8|2,0:0|0:0,0:0:0:0:
216,104,144603,6,0,P|213:189|309:103,1,300,4|6,0:3|0:0,0:0:0:0:
88,128,146168,2,0,L|80:232,1,100,8|6,3:2|3:0,0:0:0:0:
312,264,146689,6,0,L|432:264,2,100,6|2|8,0:0|0:0|0:0,0:0:0:0:
192,256,147472,1,4,0:3:0:0:
312,240,147733,2,0,P|376:224|432:96,1,200,2|8,0:0|0:0,0:0:0:0:
320,96,148516,1,2,0:0:0:0:
88,152,148776,6,0,L|80:256,1,100,4|2,0:3|0:0,0:0:0:0:
192,272,149298,2,0,L|304:272,1,100,10|4,0:0|0:3,0:0:0:0:
176,240,149820,2,0,P|200:160|336:128,1,200,2|8,0:0|0:0,0:0:0:0:
416,128,150603,1,2,0:0:0:0:
184,136,150863,6,0,L|72:136,1,100,4|2,0:3|0:0,0:0:0:0:
200,192,151385,2,0,L|72:192,1,100,8|4,0:0|0:3,0:0:0:0:
216,232,151907,2,0,P|280:184|200:112,1,200,2|8,0:0|0:0,0:0:0:0:
104,104,152689,1,2,0:0:0:0:
336,248,152950,6,0,L|344:144,1,100,4|2,0:3|0:0,0:0:0:0:
224,200,153472,2,0,L|216:96,1,100,8|4,0:0|0:3,0:0:0:0:
336,80,153994,1,2,0:0:0:0:
120,168,154516,2,0,L|112:272,1,100,8|4,0:0|0:3,0:0:0:0:
344,224,155037,6,0,L|456:224,2,100,6|2|8,0:0|0:0|0:0,0:0:0:0:
232,224,155820,1,4,0:3:0:0:
344,208,156081,2,0,P|320:128|184:88,1,200,2|8,0:0|0:0,0:0:0:0:
328,64,156863,1,2,0:0:0:0:
96,136,157124,6,0,L|88:240,1,100,4|2,0:3|0:0,0:0:0:0:
208,192,157646,2,0,L|216:296,1,100,8|4,0:0|0:3,0:0:0:0:
96,296,158168,2,0,P|192:272|280:96,1,300,2|4,0:0|0:3,0:0:0:0:
48,88,159211,6,0,P|72:160|200:200,1,200,2|8,0:0|0:0,0:0:0:0:
296,192,159994,1,4,0:3:0:0:
184,240,160255,2,0,L|72:240,2,100,2|6|8,0:0|0:3|0:0,0:0:0:0:
440,240,161037,5,2,0:0:0:0:
256,192,161559,12,8,162863,3:2:0:0:
400,144,163385,6,0,L|280:144,1,100,6|2,0:0|0:0,0:0:0:0:
184,112,163907,2,0,L|296:112,1,100,8|4,0:0|0:3,0:0:0:0:
400,120,164429,2,0,P|368:200|256:240,1,200,2|8,0:0|0:0,0:0:0:0:
384,256,165211,1,2,0:0:0:0:
152,264,165472,6,0,L|144:160,1,100,4|2,0:3|0:0,0:0:0:0:
264,176,165994,2,0,L|272:72,1,100,10|4,0:0|0:3,0:0:0:0:
392,152,166516,1,2,0:0:0:0:
176,224,167037,2,0,L|64:224,1,100,8|4,0:0|0:3,0:0:0:0:
312,168,167559,6,0,L|416:168,2,100,4|2|8,0:3|0:0|0:0,0:0:0:0:
200,160,168342,1,4,0:3:0:0:
312,120,168603,2,0,P|376:160|296:232,1,200,2|8,0:0|0:0,0:0:0:0:
200,232,169385,1,2,0:0:0:0:
432,272,169646,6,0,L|440:168,1,100,4|2,0:3|0:0,0:0:0:0:
320,184,170168,2,0,L|312:80,1,100,10|4,0:0|0:3,0:0:0:0:
192,80,170689,1,2,0:0:0:0:
408,136,171211,2,0,L|416:240,1,100,8|4,0:0|0:3,0:0:0:0:
176,256,171733,6,0,L|72:256,2,100,6|2|8,0:0|0:0|0:0,0:0:0:0:
288,248,172516,1,4,0:3:0:0:
176,224,172776,2,0,P|200:136|304:104,1,200,2|8,0:0|0:0,0:0:0:0:
408,104,173559,1,2,0:0:0:0:
176,224,173820,6,0,L|64:224,2,100,4|2|8,0:3|0:0|0:0,0:0:0:0:
296,200,174603,2,0,B|360:200|360:200|360:128|360:128|296:128,1,200,4|4,0:3|0:3,0:0:0:0:
72,128,175646,1,4,0:3:0:0:
304,200,175907,6,0,L|416:200,1,100,4|2,0:3|0:0,0:0:0:0:
288,176,176429,2,0,L|168:176,1,100,8|4,0:0|0:3,0:0:0:0:
304,144,176950,2,0,L|408:144,1,100,2|4,0:0|0:3,0:0:0:0:
288,104,177472,2,0,L|392:104,1,100,8|2,0:0|0:0,0:0:0:0:
152,48,177994,6,0,P|160:144|352:240,1,300,4|6,0:3|0:0,0:0:0:0:
96,312,179559,2,0,L|88:208,1,100,8|6,3:2|3:0,0:0:0:0:
320,168,180081,6,0,L|424:168,1,100,6|2,0:0|0:0,0:0:0:0:
304,208,180603,2,0,L|200:208,1,100,8|4,0:0|0:3,0:0:0:0:
320,120,181124,2,0,B|352:168|320:216|320:216|280:232|216:224,1,200,2|8,0:0|0:0,0:0:0:0:
112,248,181907,1,2,0:0:0:0:
344,248,182168,6,0,L|352:144,1,100,4|2,0:3|0:0,0:0:0:0:
232,176,182689,2,0,L|224:72,1,100,10|4,0:0|0:3,0:0:0:0:
104,88,183211,1,2,0:0:0:0:
320,136,183733,2,0,L|424:136,1,100,8|2,0:0|0:0,0:0:0:0:
184,224,184255,6,0,L|72:224,2,100,4|2|8,0:3|0:0|0:0,0:0:0:0:
296,224,185037,1,4,0:3:0:0:
184,208,185298,2,0,P|128:168|192:72,1,200,2|8,0:0|0:0,0:0:0:0:
296,72,186081,1,2,0:0:0:0:
64,136,186342,6,0,L|56:240,1,100,4|2,0:3|0:0,0:0:0:0:
176,200,186863,2,0,L|184:304,1,100,8|4,0:0|0:3,0:0:0:0:
304,296,187385,2,0,P|360:264|304:168,1,200,2|8,0:0|0:0,0:0:0:0:
192,160,188168,1,4,0:3:0:0:
424,112,188429,6,0,L|432:216,1,100,6|2,0:0|0:0,0:0:0:0:
320,224,188950,2,0,L|424:224,1,100,8|4,0:0|0:3,0:0:0:0:
304,264,189472,2,0,P|224:232|192:112,1,200,2|8,0:0|0:0,0:0:0:0:
304,112,190255,1,2,0:0:0:0:
72,128,190516,6,0,L|64:232,1,100,4|2,0:3|0:0,0:0:0:0:
176,240,191037,1,8,0:0:0:0:
288,232,191298,2,0,P|264:152|128:112,1,200,4|4,0:3|0:3,0:0:0:0:
384,80,192342,1,6,0:3:0:0:
152,88,192603,6,0,P|96:128|160:224,1,200,2|8,0:0|0:0,0:0:0:0:
264,232,193385,1,4,0:3:0:0:
152,256,193646,2,0,L|40:256,2,100,2|4|8,0:0|0:3|0:0,0:0:0:0:
408,232,194429,5,2,0:0:0:0:
256,192,194950,12,10,196255,0:0:0:0:
128,240,196776,6,0,P|160:160|272:120,2,200,2|2|2,0:0|0:0|0:0,0:0:0:0:
344,264,198342,2,0,L|352:160,1,100,2|2,0:0|0:0,0:0:0:0:
240,232,198863,6,0,B|144:232|144:232|128:128,1,200,2|2,0:0|0:0,0:0:0:0:
344,104,199907,1,2,0:0:0:0:
128,56,200429,2,0,L|240:56,1,100,2|2,0:0|0:0,0:0:0:0:
112,88,200950,6,0,L|312:88,2,200,2|2|2,0:0|0:0|0:0,0:0:0:0:
328,168,202516,2,0,L|432:168,1,100,2|2,0:0|0:0,0:0:0:0:
192,112,203037,6,0,P|128:160|200:232,1,200,2|2,0:0|0:0,0:0:0:0:
320,248,203820,2,0,P|368:96|248:240,1,525,2|2,0:0|0:0,0:0:0:0:
256,192,205646,12,0,209298,0:0:0:0:
