osu file format v14

[General]
AudioFilename: audio.mp3
AudioLeadIn: 0
PreviewTime: 60586
Countdown: 0
SampleSet: Soft
StackLeniency: 0.7
Mode: 0
LetterboxInBreaks: 0
WidescreenStoryboard: 0

[Editor]
Bookmarks: 8483,61178
DistanceSpacing: 1.2
BeatDivisor: 4
GridSize: 32
TimelineZoom: 1.7

[Metadata]
Title:Xue Mao Jiao
TitleUnicode:学猫叫
Artist:Xiao Pan Pan & Xiao Feng Feng
ArtistUnicode:小潘潘 & 小峰峰
Creator:Asaiga
Version:Yugu's Normal
Source:
Tags:yugu cute chinese cat pho pop learning to meow
BeatmapID:1656166
BeatmapSetID:789103

[Difficulty]
HPDrainRate:4
CircleSize:3
OverallDifficulty:4
ApproachRate:5
SliderMultiplier:1.4
SliderTickRate:1

[Events]
//Background and Video events
0,0,"miao.png",0,0
//Break Periods
//Storyboard Layer 0 (Background)
//Storyboard Layer 1 (Fail)
//Storyboard Layer 2 (Pass)
//Storyboard Layer 3 (Foreground)
//Storyboard Sound Samples

[TimingPoints]
652,521.739130434783,4,2,1,30,1,0
8217,-100,4,2,1,40,0,0
8999,-100,4,2,1,60,0,0
26217,-100,4,2,2,70,0,0
61173,-100,4,2,2,80,0,0
94565,-100,4,2,2,80,0,0

[Colours]
Combo1 : 146,239,143
Combo2 : 244,228,138
Combo3 : 242,138,140
Combo4 : 140,191,242

[HitObjects]
104,72,652,6,0,P|127:105|137:159,1,70,2|0,0:0|0:0,0:0:0:0:
150,300,1434,2,0,P|74:273|11:286,2,140,2|2|2,0:0|0:0|0:0,0:0:0:0:
230,274,2738,6,0,L|250:187,1,70,2|0,0:0|0:0,0:0:0:0:
401,141,3521,2,0,P|407:74|380:-3,2,140,2|2|2,0:0|0:0|0:0,0:0:0:0:
369,218,4825,6,0,P|358:251|360:291,1,70,2|0,0:0|0:0,0:0:0:0:
201,343,5608,2,0,L|35:327,2,140,2|2|2,0:0|0:0|0:0,0:0:0:0:
191,259,6912,6,0,L|91:249,1,70,2|0,0:0|0:0,0:0:0:0:
283,207,7695,2,0,L|422:220,1,140,2|2,0:0|0:0,0:0:0:0:
230,56,8999,6,0,P|162:40|96:60,1,140,2|0,0:0|3:0,0:0:0:0:
51,131,9782,2,0,P|49:176|66:212,1,70,0|2,0:0|0:0,0:0:0:0:
47,366,10565,2,0,L|143:354,1,70,0|0,3:0|0:0,0:0:0:0:
158,284,11086,6,0,L|254:296,1,70,2|0,0:0|0:0,0:0:0:0:
309,311,11608,2,0,P|320:343|316:378,2,70,0|0|2,3:0|0:0|0:0,0:0:0:0:
414,180,12652,2,0,P|403:148|407:113,1,70,0|0,3:0|0:0,0:0:0:0:
468,55,13173,6,0,P|405:31|343:59,1,140,2|0,0:0|3:0,0:0:0:0:
270,102,13956,2,0,P|225:108|189:96,1,70,0|2,0:0|0:0,0:0:0:0:
42,48,14738,2,0,L|51:142,1,70,0|0,3:0|0:0,0:0:0:0:
96,187,15260,6,0,L|87:281,1,70,2|0,0:0|0:0,0:0:0:0:
91,340,15782,2,0,P|56:347|22:344,2,70,0|0|2,3:0|0:0|0:0,0:0:0:0:
242,267,16825,2,0,P|276:260|310:263,1,70,0|0,3:0|0:0,0:0:0:0:
389,289,17347,6,0,P|405:221|395:152,1,140,2|0,0:0|3:0,0:0:0:0:
447,86,18130,2,0,P|415:71|380:71,1,70,0|2,0:0|0:0,0:0:0:0:
217,31,18912,2,0,P|185:45|150:45,1,70,0|0,3:0|0:0,0:0:0:0:
68,25,19434,6,0,L|79:173,1,140,2|0,0:0|3:0,0:0:0:0:
48,242,20217,2,0,P|83:248|116:240,1,70,0|2,0:0|0:0,0:0:0:0:
302,69,21260,1,0,0:0:0:0:
302,69,21521,6,0,L|382:77,1,70,2|0,0:0|0:0,0:0:0:0:
378,160,22043,2,0,L|308:153,1,70,0|0,3:0|0:0,0:0:0:0:
244,208,22565,2,0,L|174:214,1,70,2|0,0:0|0:0,0:0:0:0:
99,177,23086,2,0,P|89:214|93:246,1,70,0|0,3:0|0:0,0:0:0:0:
145,312,23608,6,0,L|288:297,1,140,2|0,0:0|3:0,0:0:0:0:
365,319,24391,2,0,P|373:249|407:188,1,140,0|0,0:0|0:0,0:0:0:0:
199,45,25695,6,0,L|185:120,1,70,4|0,0:0|0:0,0:0:0:0:
113,156,26217,2,0,P|135:183|166:197,1,70,8|0,0:0|3:0,0:0:0:0:
218,262,26738,2,0,P|281:234|350:231,1,140,0|8,0:0|0:0,0:0:0:0:
421,184,27521,1,0,0:0:0:0:
421,184,27782,6,0,P|434:216|433:250,1,70,0|0,3:0|0:0,0:0:0:0:
509,286,28304,2,0,P|488:313|457:330,1,70,8|0,0:0|3:0,0:0:0:0:
293,291,29086,2,0,P|289:325|292:360,2,70,0|8|0,0:0|0:0|0:0,0:0:0:0:
250,217,29869,6,0,P|181:207|116:230,1,140,0|8,3:0|0:0,0:0:0:0:
48,281,30652,1,0,3:0:0:0:
48,281,30912,2,0,P|33:249|31:214,1,70,0|0,0:0|0:0,0:0:0:0:
20,131,31434,2,0,L|99:143,1,70,8|0,0:0|3:0,0:0:0:0:
143,76,31956,6,0,P|177:72|211:81,1,70,0|0,0:0|0:0,0:0:0:0:
287,117,32478,2,0,P|321:120|355:111,1,70,8|0,0:0|3:0,0:0:0:0:
405,274,33260,2,0,P|439:270|473:279,2,70,8|8|0,0:0|0:0|0:0,0:0:0:0:
337,324,34043,6,0,P|303:328|269:319,2,70,0|0|8,3:0|0:0|0:0,0:0:0:0:
310,244,34825,1,0,3:0:0:0:
273,80,35347,2,0,P|284:47|308:22,2,70,0|8|0,0:0|0:0|0:0,0:0:0:0:
201,125,36130,6,0,P|166:131|132:127,1,70,0|0,3:0|0:0,0:0:0:0:
81,59,36652,1,8,0:0:0:0:
81,59,36912,2,0,P|50:120|70:185,1,140,0|0,3:0|3:0,0:0:0:0:
110,259,37695,2,0,L|197:247,1,70,8|0,0:0|0:0,0:0:0:0:
246,300,38217,6,0,P|310:275|380:278,1,140,0|8,3:0|0:0,0:0:0:0:
461,255,38999,1,0,3:0:0:0:
461,255,39260,2,0,P|449:222|449:187,1,70,0|0,0:0|0:0,0:0:0:0:
455,103,39782,1,8,0:0:0:0:
455,103,40043,6,0,P|352:115|259:70,1,210,0|8,3:0|0:0,0:0:0:0:
176,87,41086,1,0,3:0:0:0:
176,87,41347,2,0,P|143:75|108:76,2,70,2|2|8,3:0|3:0|0:0,0:0:0:0:
210,163,42130,1,2,3:0:0:0:
251,235,42391,6,0,P|243:292|222:318,1,70,4|0,0:0|0:0,0:0:0:0:
165,346,42912,2,0,L|78:336,1,70,8|0,0:0|3:0,0:0:0:0:
42,275,43434,2,0,P|46:206|88:151,1,140,0|8,0:0|0:0,0:0:0:0:
79,67,44217,1,0,0:0:0:0:
79,67,44478,6,0,L|168:79,1,70,0|0,3:0|0:0,0:0:0:0:
220,33,44999,2,0,L|254:116,1,70,8|0,0:0|3:0,0:0:0:0:
389,186,45782,2,0,P|423:193|457:186,2,70,0|8|0,3:0|0:0|0:0,0:0:0:0:
316,228,46565,6,0,P|304:296|318:365,1,140,0|8,3:0|0:0,0:0:0:0:
231,369,47347,1,0,3:0:0:0:
231,369,47608,2,0,P|197:358|162:355,1,70,0|0,0:0|0:0,0:0:0:0:
78,361,48130,2,0,L|89:270,1,70,8|0,0:0|3:0,0:0:0:0:
58,212,48652,6,0,P|92:207|125:216,1,70,0|0,0:0|0:0,0:0:0:0:
180,152,49173,2,0,P|201:179|209:213,1,70,8|0,0:0|3:0,0:0:0:0:
356,293,49956,2,0,L|352:392,2,70,8|8|0,0:0|0:0|0:0,0:0:0:0:
402,222,50738,6,0,P|446:195|483:195,2,70,0|0|8,3:0|0:0|0:0,0:0:0:0:
317,216,51521,1,0,3:0:0:0:
212,84,52043,2,0,L|214:14,2,70,0|8|0,0:0|0:0|0:0,0:0:0:0:
157,148,52825,6,0,P|128:167|94:174,1,70,0|0,3:0|0:0,0:0:0:0:
35,114,53347,1,8,0:0:0:0:
35,114,53608,2,0,P|11:177|40:239,1,140,0|0,3:0|3:0,0:0:0:0:
78,314,54391,2,0,L|155:309,1,70,8|0,0:0|0:0,0:0:0:0:
225,342,54912,6,0,P|268:288|336:281,1,140,0|8,3:0|0:0,0:0:0:0:
412,319,55695,1,0,3:0:0:0:
412,319,55956,2,0,L|427:243,1,70,0|0,0:0|0:0,0:0:0:0:
488,193,56478,1,8,0:0:0:0:
488,193,56739,6,0,L|473:117,1,70,0|0,3:0|3:0,0:0:0:0:
476,40,57260,2,0,P|375:64|272:49,1,210,0|0,0:0|0:0,0:0:0:0:
191,75,58304,2,0,P|158:58|104:56,2,70,0|8|4,3:0|0:0|0:0,0:0:0:0:
102,215,59347,5,4,3:2:0:0:
102,215,59608,2,0,L|85:361,1,140,4|2,3:2|3:0,0:0:0:0:
243,294,60652,2,0,P|277:286|311:290,1,70,8|0,0:0|3:0,0:0:0:0:
387,326,61173,6,0,P|454:321|477:309,1,70,4|0,3:2|0:0,0:0:0:0:
507,253,61695,1,8,0:0:0:0:
507,253,61956,2,0,P|493:220|490:186,1,70,0|0,3:0|0:0,0:0:0:0:
503,102,62478,1,0,3:0:0:0:
503,102,62738,2,0,L|431:112,1,70,8|0,0:0|0:0,0:0:0:0:
362,66,63260,6,0,L|290:56,1,70,2|2,3:2|0:0,0:0:0:0:
212,73,63782,2,0,L|140:83,2,70,10|2|2,0:0|3:2|0:0,0:0:0:0:
249,152,64565,1,0,3:0:0:0:
249,152,64825,2,0,P|251:186|237:218,1,70,8|0,0:0|0:0,0:0:0:0:
166,264,65347,6,0,P|225:300|290:283,1,140,0|8,3:0|0:0,0:0:0:0:
366,318,66130,2,0,P|395:298|429:290,1,70,0|0,3:0|0:0,0:0:0:0:
470,217,66652,1,0,3:0:0:0:
470,217,66912,2,0,P|452:187|447:152,1,70,8|0,0:0|0:0,0:0:0:0:
480,74,67434,6,0,L|405:64,1,70,2|2,3:2|0:0,0:0:0:0:
332,33,67956,2,0,L|257:43,2,70,10|2|2,0:0|3:2|0:0,0:0:0:0:
346,119,68738,1,0,3:0:0:0:
346,119,68999,2,0,P|329:150|299:181,1,70,8|0,0:0|0:0,0:0:0:0:
228,208,69521,6,0,P|166:176|98:185,1,140,4|8,3:2|0:0,0:0:0:0:
51,255,70304,2,0,P|64:287|89:311,1,70,0|0,3:0|0:0,0:0:0:0:
146,372,70825,1,0,3:0:0:0:
146,372,71086,2,0,P|177:357|212:352,1,70,8|0,0:0|0:0,0:0:0:0:
284,308,71608,6,0,L|437:332,1,140,0|8,3:0|0:0,0:0:0:0:
487,275,72391,2,0,L|501:183,1,70,0|0,3:0|0:0,0:0:0:0:
433,149,72912,2,0,L|447:57,1,70,0|8,3:0|0:0,0:0:0:0:
377,28,73434,1,0,0:0:0:0:
377,28,73695,6,0,P|344:17|309:21,1,70,0|0,3:0|0:0,0:0:0:0:
260,90,74217,2,0,P|227:100|192:96,1,70,8|0,0:0|3:0,0:0:0:0:
110,80,74738,2,0,L|119:171,1,70,0|0,0:0|3:0,0:0:0:0:
176,208,75260,2,0,L|167:299,1,70,8|0,0:0|0:0,0:0:0:0:
195,360,75782,5,0,3:0:0:0:
195,360,76043,2,0,P|229:364|263:355,1,70,0|8,0:0|0:0,0:0:0:0:
340,323,76565,2,0,P|374:318|408:327,2,70,4|2|2,0:0|3:0|3:0,0:0:0:0:
289,254,77347,2,0,P|296:219|312:188,1,70,8|2,0:0|3:0,0:0:0:0:
379,139,77869,6,0,P|375:104|356:75,1,70,4|0,3:2|0:0,0:0:0:0:
274,55,78391,1,8,0:0:0:0:
274,55,78652,2,0,L|188:44,1,70,0|0,3:0|0:0,0:0:0:0:
121,35,79173,1,0,3:0:0:0:
121,35,79434,2,0,P|113:69|122:103,1,70,8|0,0:0|0:0,0:0:0:0:
125,186,79956,6,0,P|132:219|123:253,1,70,2|2,3:2|0:0,0:0:0:0:
87,330,80478,2,0,L|-4:348,2,70,10|2|2,0:0|3:2|0:0,0:0:0:0:
168,360,81260,1,0,3:0:0:0:
168,360,81521,2,0,P|202:353|236:361,1,70,8|0,0:0|0:0,0:0:0:0:
317,340,82043,6,0,P|301:273|322:208,1,140,0|8,3:0|0:0,0:0:0:0:
390,158,82825,2,0,P|399:124|395:90,1,70,0|0,3:0|0:0,0:0:0:0:
344,22,83347,1,0,3:0:0:0:
344,22,83608,2,0,L|255:35,1,70,8|0,0:0|0:0,0:0:0:0:
229,103,84130,6,0,L|140:90,1,70,0|0,3:0|0:0,0:0:0:0:
84,54,84652,2,0,L|-5:67,2,70,8|0|0,0:0|3:0|0:0,0:0:0:0:
91,140,85434,1,0,3:0:0:0:
91,140,85695,2,0,P|100:173|95:207,1,70,8|0,0:0|0:0,0:0:0:0:
135,281,86217,6,0,P|204:266|272:278,1,140,4|8,3:2|0:0,0:0:0:0:
339,327,86999,2,0,P|372:338|406:339,1,70,0|0,3:0|0:0,0:0:0:0:
485,308,87521,1,0,3:0:0:0:
485,308,87782,2,0,L|481:236,1,70,8|0,0:0|0:0,0:0:0:0:
426,173,88304,6,0,L|435:9,1,140,0|8,3:0|0:0,0:0:0:0:
349,31,89086,2,0,P|314:25|280:34,1,70,0|0,3:0|0:0,0:0:0:0:
235,104,89608,2,0,P|200:109|166:100,1,70,8|8,0:0|0:0,0:0:0:0:
86,127,90130,1,0,0:0:0:0:
85,126,90391,6,0,P|103:194|99:264,1,140,0|8,3:0|0:0,0:0:0:0:
132,340,91173,1,0,3:0:0:0:
132,340,91434,2,0,P|162:322|196:317,1,70,0|0,0:0|3:0,0:0:0:0:
277,293,91956,2,0,P|307:310|341:315,1,70,8|0,0:0|0:0,0:0:0:0:
422,339,92478,6,0,L|429:247,1,70,4|0,3:2|3:0,0:0:0:0:
471,198,92999,1,0,3:0:0:0:
471,198,93260,2,0,P|407:119|306:123,1,210,4|8,3:2|0:0,0:0:0:0:
256,192,94304,1,0,3:0:0:0:
256,192,94565,5,0,0:0:0:0:
