osu file format v14

[General]
AudioFilename: audio.mp3
AudioLeadIn: 0
PreviewTime: 60586
Countdown: 0
SampleSet: Soft
StackLeniency: 0.4
Mode: 0
LetterboxInBreaks: 0
WidescreenStoryboard: 1

[Editor]
Bookmarks: 8483,25700,42396,61178,94570
DistanceSpacing: 0.3
BeatDivisor: 4
GridSize: 32
TimelineZoom: 1.7

[Metadata]
Title:Xue Mao Jiao
TitleUnicode:学猫叫
Artist:Xiao Pan Pan & Xiao Feng Feng
ArtistUnicode:小潘潘 & 小峰峰
Creator:Asaiga
Version:Pho's Mao
Source:
Tags:yugu cute chinese cat pho pop learning to meow
BeatmapID:1677982
BeatmapSetID:789103

[Difficulty]
HPDrainRate:5
CircleSize:4
OverallDifficulty:6
ApproachRate:8
SliderMultiplier:1.57
SliderTickRate:1

[Events]
//Background and Video events
0,0,"miao.png",0,0
//Break Periods
//Storyboard Layer 0 (Background)
//Storyboard Layer 1 (Fail)
//Storyboard Layer 2 (Pass)
//Storyboard Layer 3 (Foreground)
//Storyboard Sound Samples

[TimingPoints]
652,521.739130434783,4,2,1,60,1,0
10434,-100,4,2,1,5,0,0
10565,-100,4,2,1,60,0,0
11478,-100,4,2,1,5,0,0
11608,-100,4,2,1,60,0,0
11738,-100,4,2,1,5,0,0
11869,-100,4,2,1,60,0,0
11999,-100,4,2,1,5,0,0
12130,-100,4,2,1,60,0,0
15652,-100,4,2,1,5,0,0
15782,-100,4,2,1,60,0,0
15912,-100,4,2,1,5,0,0
16043,-100,4,2,1,60,0,0
16173,-100,4,2,1,5,0,0
16304,-100,4,2,1,60,0,0
17738,-100,4,2,1,5,0,0
17869,-100,4,2,1,60,0,0
17999,-100,4,2,1,5,0,0
18130,-100,4,2,1,60,0,0
18260,-100,4,2,1,5,0,0
18391,-100,4,2,1,60,0,0
23217,-100,4,2,1,5,0,0
23347,-100,4,2,1,60,0,0
23478,-100,4,2,1,5,0,0
23608,-100,4,2,1,60,0,0
25695,-100,4,2,2,60,0,0
37304,-100,4,2,2,5,0,0
37434,-100,4,2,2,60,0,0
43825,-100,4,2,2,5,0,0
43956,-100,4,2,2,60,0,0
46956,-100,4,2,2,5,0,0
47086,-100,4,2,2,60,0,0
55304,-100,4,2,2,5,0,0
55434,-100,4,2,2,60,0,0
61173,-100,4,2,2,75,0,0
63652,-100,4,2,2,5,0,0
63782,-100,4,2,2,75,0,0
63912,-100,4,2,2,5,0,0
64043,-100,4,2,2,75,0,0
64173,-100,4,2,2,5,0,0
64304,-100,4,2,2,75,0,0
67825,-100,4,2,2,5,0,0
67956,-100,4,2,2,75,0,0
68086,-100,4,2,2,5,0,0
68217,-100,4,2,2,75,0,0
68347,-100,4,2,2,5,0,0
68478,-100,4,2,2,75,0,0
70173,-100,4,2,2,5,0,0
70304,-100,4,2,2,75,0,0
70434,-100,4,2,2,5,0,0
70565,-100,4,2,2,75,0,0
75391,-100,4,2,2,5,0,0
75521,-100,4,2,2,75,0,0
75652,-100,4,2,2,5,0,0
75782,-100,4,2,2,75,0,0
80347,-100,4,2,2,5,0,0
80478,-100,4,2,2,75,0,0
80608,-100,4,2,2,5,0,0
80738,-100,4,2,2,75,0,0
80869,-100,4,2,2,5,0,0
80999,-100,4,2,2,75,0,0
94565,-100,4,2,2,20,0,0

[Colours]
Combo1 : 146,239,143
Combo2 : 244,228,138
Combo3 : 242,138,140
Combo4 : 140,191,242

[HitObjects]
103,72,652,6,0,P|136:101|171:121,1,78.5,2|0,0:0|0:0,0:0:0:0:
258,193,1173,1,0,3:0:0:0:
258,193,1434,2,0,P|203:201|104:244,1,157,2|2,0:0|0:0,0:0:0:0:
74,333,2217,1,0,3:0:0:0:
32,173,2478,1,2,0:0:0:0:
186,308,2738,6,0,L|266:297,1,78.5,2|0,0:0|0:0,0:0:0:0:
331,244,3260,1,0,3:0:0:0:
331,244,3521,2,0,P|340:199|311:65,1,157,2|2,0:0|0:0,0:0:0:0:
260,34,4304,1,0,3:0:0:0:
388,145,4565,1,2,0:0:0:0:
205,174,4825,5,2,0:0:0:0:
144,83,5086,2,0,P|118:131|125:184,1,78.5,0|0,0:0|3:0,0:0:0:0:
116,245,5608,2,0,P|165:246|267:300,1,157,2|2,0:0|0:0,0:0:0:0:
198,354,6391,1,0,3:0:0:0:
349,282,6652,1,2,0:0:0:0:
198,165,6912,5,2,0:0:0:0:
198,165,7173,2,0,P|244:153|278:127,1,78.5,0|0,0:0|3:0,0:0:0:0:
361,198,7695,2,0,P|383:150|372:49,1,157,2|2,0:0|0:0,0:0:0:0:
371,48,8478,5,0,0:0:0:0:
243,63,8738,1,0,0:0:0:0:
286,211,8999,2,0,P|244:222|185:229,1,78.5,2|0,0:0|0:0,0:0:0:0:
160,318,9521,2,0,P|111:305|76:288,1,78.5,0|0,3:0|0:0,0:0:0:0:
20,215,10043,2,0,P|64:177|146:189,1,117.75,2|0,0:0|0:0,0:0:0:0:
130,182,10565,5,0,3:0:0:0:
185,94,10825,1,0,0:0:0:0:
223,240,11086,1,2,0:0:0:0:
381,250,11347,6,0,P|395:232|399:204,1,39.25,0|0,0:0|0:0,0:0:0:0:
472,181,11608,2,0,P|459:162|433:149,1,39.25,0|0,3:0|0:0,0:0:0:0:
435,70,11869,2,0,P|413:76|393:96,1,39.25,0|0,0:0|0:0,0:0:0:0:
334,38,12130,2,0,P|322:88|344:144,1,78.5,2|0,0:0|0:0,0:0:0:0:
386,271,12652,5,0,3:0:0:0:
390,158,12912,1,0,0:0:0:0:
284,206,13173,2,0,P|248:216|194:223,1,78.5,2|0,0:0|0:0,0:0:0:0:
125,189,13695,2,0,P|111:233|119:281,1,78.5,0|0,3:0|0:0,0:0:0:0:
205,146,14217,2,0,P|213:97|190:50,1,78.5,2|0,0:0|0:0,0:0:0:0:
54,32,14738,5,0,3:0:0:0:
127,108,14999,1,0,0:0:0:0:
2,145,15260,1,2,0:0:0:0:
100,232,15521,6,0,L|110:281,1,39.25,0|0,0:0|0:0,0:0:0:0:
170,360,15782,2,0,L|180:311,1,39.25,0|0,3:0|0:0,0:0:0:0:
206,249,16043,2,0,L|259:270,1,39.25,0|0,0:0|0:0,0:0:0:0:
312,315,16304,2,0,P|349:301|407:292,1,78.5,2|0,0:0|0:0,0:0:0:0:
480,167,16825,6,0,P|476:221|454:273,1,78.5,0|0,3:0|0:0,0:0:0:0:
385,175,17347,1,2,0:0:0:0:
487,91,17608,2,0,P|504:73|514:47,1,39.25,0|0,0:0|0:0,0:0:0:0:
387,21,17869,2,0,P|403:32|414:49,1,39.25,0|0,3:0|0:0,0:0:0:0:
351,101,18130,2,0,P|330:105|315:128,1,39.25,0|0,0:0|0:0,0:0:0:0:
314,192,18391,2,0,P|270:198|210:172,1,78.5,2|0,0:0|0:0,0:0:0:0:
32,124,18912,5,0,3:0:0:0:
134,95,19173,1,0,0:0:0:0:
90,216,19434,1,2,0:0:0:0:
40,115,19695,1,0,0:0:0:0:
170,205,19956,1,0,3:0:0:0:
99,353,20217,1,0,0:0:0:0:
255,337,20478,2,0,P|197:282|110:292,1,157,2|0,0:0|3:0,0:0:0:0:
358,319,21260,5,0,0:0:0:0:
408,233,21521,2,0,P|451:226|514:250,1,78.5,2|0,0:0|0:0,0:0:0:0:
321,134,22043,2,0,P|278:162|238:165,1,78.5,0|0,3:0|0:0,0:0:0:0:
105,113,22565,1,2,0:0:0:0:
210,282,22825,1,0,0:0:0:0:
85,251,23086,6,0,P|98:204|112:192,1,39.25,0|0,3:0|0:0,0:0:0:0:
171,177,23347,2,0,P|177:145|168:113,1,39.25,0|0,0:0|0:0,0:0:0:0:
115,81,23608,2,0,P|63:93|21:89,1,78.5,2|0,0:0|0:0,0:0:0:0:
192,23,24130,2,0,P|240:49|279:56,1,78.5,0|0,3:0|0:0,0:0:0:0:
363,14,24652,1,2,0:0:0:0:
420,146,24912,2,0,B|361:171|316:188|288:99|189:153,1,235.5,0|4,0:0|0:0,0:0:0:0:
136,234,25956,1,0,0:0:0:0:
16,173,26217,6,0,P|62:164|101:179,1,78.5,8|0,0:0|3:0,0:0:0:0:
199,279,26738,2,0,P|182:323|66:380,1,157,0|8,0:0|0:0,0:0:0:0:
49,282,27521,1,0,0:0:0:0:
192,358,27782,2,0,P|239:378|294:385,1,78.5,0|0,3:0|0:0,0:0:0:0:
346,326,28304,1,8,0:0:0:0:
280,252,28565,2,0,P|271:207|273:163,1,78.5,0|0,3:0|0:0,0:0:0:0:
487,128,29086,5,0,0:0:0:0:
378,40,29347,1,8,0:0:0:0:
502,117,29608,1,0,0:0:0:0:
384,195,29869,2,0,P|429:223|472:237,1,78.5,0|0,3:0|0:0,0:0:0:0:
267,149,30391,2,0,P|221:161|175:195,2,78.5,8|0|0,0:0|3:0|0:0,0:0:0:0:
388,117,31173,1,0,0:0:0:0:
226,60,31434,1,8,0:0:0:0:
395,33,31695,1,0,3:0:0:0:
279,220,31956,6,0,P|219:205|130:145,1,157,0|8,3:0|0:0,0:0:0:0:
41,155,32738,2,0,P|83:140|174:60,1,157,0|8,3:0|0:0,0:0:0:0:
40,24,33521,5,8,0:0:0:0:
181,75,33782,1,0,0:0:0:0:
112,197,34043,2,0,P|112:241|138:291,1,78.5,0|0,3:0|0:0,0:0:0:0:
205,368,34565,1,8,0:0:0:0:
121,378,34825,2,0,P|167:345|282:323,1,157,0|0,3:0|0:0,0:0:0:0:
347,268,35608,6,0,P|288:236|249:230,1,78.5,8|0,0:0|0:0,0:0:0:0:
34,131,36130,1,0,3:0:0:0:
79,229,36391,1,0,0:0:0:0:
189,55,36652,1,8,0:0:0:0:
108,110,36912,2,0,P|161:140|245:141,1,117.75,0|0,3:0|0:0,0:0:0:0:
227,142,37434,2,0,P|276:110|324:104,1,78.5,0|8,3:0|0:0,0:0:0:0:
495,195,37956,5,0,0:0:0:0:
422,277,38217,2,0,P|376:267|337:236,1,78.5,0|0,3:0|0:0,0:0:0:0:
396,170,38738,2,0,P|380:123|392:75,1,78.5,8|0,0:0|3:0,0:0:0:0:
486,77,39260,1,0,0:0:0:0:
364,17,39521,1,0,0:0:0:0:
436,137,39782,1,8,0:0:0:0:
445,5,40043,1,0,3:0:0:0:
350,110,40304,6,0,P|302:105|257:83,1,78.5,0|0,3:0|0:0,0:0:0:0:
193,28,40825,2,0,P|133:29|90:55,1,78.5,8|0,0:0|3:0,0:0:0:0:
0,145,41347,1,2,3:0:0:0:
5,150,41478,1,2,3:0:0:0:
10,155,41608,2,0,L|27:220,1,39.25,2|0,3:0|0:0,0:0:0:0:
57,282,41869,2,0,P|100:260|166:266,1,78.5,8|2,0:0|3:0,0:0:0:0:
196,297,42260,1,2,3:0:0:0:
200,303,42391,2,0,P|200:354|186:390,1,78.5,4|0,0:0|0:0,0:0:0:0:
267,196,42912,5,8,0:0:0:0:
325,272,43173,1,0,3:0:0:0:
400,224,43434,2,0,P|385:176|383:90,1,117.75,0|0,0:0|0:0,0:0:0:0:
383,97,43956,2,0,P|325:97|284:71,1,78.5,8|0,0:0|0:0,0:0:0:0:
464,22,44478,2,0,P|476:58|474:97,1,78.5,0|0,3:0|0:0,0:0:0:0:
432,194,44999,1,8,0:0:0:0:
432,194,45260,2,0,P|494:181|519:184,1,78.5,0|0,3:0|0:0,0:0:0:0:
382,364,45782,5,0,3:0:0:0:
348,227,46043,1,8,0:0:0:0:
454,337,46304,1,0,0:0:0:0:
281,280,46565,2,0,P|223:280|158:327,1,117.75,0|0,3:0|0:0,0:0:0:0:
165,318,47086,2,0,P|140:273|140:233,2,78.5,8|0|0,0:0|3:0|0:0,0:0:0:0:
206,167,47869,1,0,0:0:0:0:
67,180,48130,2,0,P|86:134|83:90,1,78.5,8|0,0:0|3:0,0:0:0:0:
16,36,48652,5,0,3:0:0:0:
132,20,48912,1,0,0:0:0:0:
13,57,49173,1,8,0:0:0:0:
136,149,49434,2,0,P|198:130|289:122,1,157,0|8,3:0|0:0,0:0:0:0:
414,274,50217,5,8,0:0:0:0:
372,115,50478,1,0,0:0:0:0:
290,322,50738,2,0,P|306:283|305:227,1,78.5,0|0,3:0|0:0,0:0:0:0:
227,197,51260,1,8,0:0:0:0:
227,197,51521,2,0,P|172:207|97:285,1,157,0|0,3:0|0:0,0:0:0:0:
165,330,52304,5,8,0:0:0:0:
136,193,52565,1,0,0:0:0:0:
15,280,52825,2,0,P|21:324|8:378,2,78.5,0|0|8,3:0|0:0|0:0,0:0:0:0:
69,83,53608,2,0,B|71:45|71:45|31:94|62:168,1,157,0|0,3:0|3:0,0:0:0:0:
119,271,54391,1,8,0:0:0:0:
314,192,54652,5,0,0:0:0:0:
265,94,54912,2,0,P|228:124|150:148,1,117.75,0|0,3:0|0:0,0:0:0:0:
154,158,55434,2,0,P|169:209|206:236,1,78.5,8|0,0:0|3:0,0:0:0:0:
224,363,55956,2,0,P|260:324|265:278,1,78.5,0|0,0:0|0:0,0:0:0:0:
354,209,56478,2,0,P|302:196|260:215,2,78.5,8|0|0,0:0|3:0|3:0,0:0:0:0:
487,294,57260,5,0,0:0:0:0:
309,277,57521,1,8,0:0:0:0:
490,324,57782,2,0,P|465:275|465:147,1,157,0|0,3:0|3:0,0:0:0:0:
505,59,58565,1,8,0:0:0:0:
300,122,58825,1,4,0:0:0:0:
119,43,59347,5,4,3:2:0:0:
324,106,59608,2,0,P|313:154|324:214,1,78.5,4|0,3:2|0:0,0:0:0:0:
376,244,59999,1,2,3:0:0:0:
388,249,60130,2,0,L|437:232,2,39.25,2|2|2,3:0|3:0|3:0,0:0:0:0:
273,372,60652,6,0,L|210:358,1,39.25,8|0,0:0|0:0,0:0:0:0:
170,313,60912,2,0,L|132:325,1,39.25,0|0,3:0|0:0,0:0:0:0:
221,249,61173,6,0,P|226:210|206:148,1,78.5,4|0,3:2|0:0,0:0:0:0:
146,53,61695,1,8,0:0:0:0:
114,221,61956,1,0,3:0:0:0:
35,150,62217,2,0,P|38:114|61:58,1,78.5,0|0,0:0|3:0,0:0:0:0:
208,116,62738,5,8,0:0:0:0:
321,66,62999,1,0,0:0:0:0:
120,46,63260,1,2,3:2:0:0:
327,151,63521,6,0,L|306:210,1,39.25,2|0,0:0|0:0,0:0:0:0:
103,228,63782,2,0,L|126:283,1,39.25,10|0,0:0|0:0,0:0:0:0:
343,294,64043,2,0,L|326:351,1,39.25,2|0,3:2|0:0,0:0:0:0:
234,381,64304,2,0,L|220:283,1,78.5,2|0,0:0|3:0,0:0:0:0:
405,173,64825,5,8,0:0:0:0:
480,255,65086,1,0,0:0:0:0:
503,155,65347,1,0,3:0:0:0:
383,248,65608,1,0,0:0:0:0:
346,82,65869,1,8,0:0:0:0:
484,143,66130,1,0,3:0:0:0:
308,195,66391,2,0,L|300:295,1,78.5,0|0,0:0|3:0,0:0:0:0:
157,99,66912,5,8,0:0:0:0:
35,185,67173,1,0,0:0:0:0:
222,225,67434,1,2,3:2:0:0:
38,91,67695,6,0,P|75:80|99:86,1,39.25,2|0,0:0|0:0,0:0:0:0:
119,167,67956,2,0,P|145:176|184:172,1,39.25,10|0,0:0|0:0,0:0:0:0:
234,84,68217,2,0,P|268:79|299:89,1,39.25,2|0,3:2|0:0,0:0:0:0:
363,175,68478,2,0,P|413:196|449:203,1,78.5,2|0,0:0|3:0,0:0:0:0:
262,149,68999,5,8,0:0:0:0:
384,77,69260,1,0,0:0:0:0:
350,256,69521,2,0,P|306:278|264:279,1,78.5,4|0,3:2|0:0,0:0:0:0:
135,315,70043,6,0,L|128:277,1,39.25,8|0,0:0|0:0,0:0:0:0:
62,223,70304,2,0,L|70:185,1,39.25,0|0,3:0|0:0,0:0:0:0:
137,125,70565,2,0,P|153:168|151:202,1,78.5,0|0,0:0|3:0,0:0:0:0:
386,376,71086,5,8,0:0:0:0:
277,280,71347,1,0,0:0:0:0:
432,234,71608,1,0,3:0:0:0:
362,306,71869,1,0,0:0:0:0:
275,174,72130,1,8,0:0:0:0:
401,72,72391,1,0,3:0:0:0:
358,167,72652,2,0,P|281:152|193:120,1,157,0|8,0:0|0:0,0:0:0:0:
52,41,73434,5,0,0:0:0:0:
139,167,73695,1,0,3:0:0:0:
166,54,73956,1,0,0:0:0:0:
24,181,74217,1,8,0:0:0:0:
137,320,74478,1,0,3:0:0:0:
230,196,74738,1,0,0:0:0:0:
26,288,74999,1,0,3:0:0:0:
243,375,75260,6,0,P|223:372|204:368,1,39.25,8|0,0:0|0:0,0:0:0:0:
123,247,75521,2,0,P|116:215|120:184,1,39.25,0|0,0:0|0:0,0:0:0:0:
202,100,75782,2,0,P|215:152|208:216,1,117.75,0|0,3:0|3:0,0:0:0:0:
208,215,76304,1,8,0:0:0:0:
105,82,76565,1,4,0:0:0:0:
278,74,76825,5,2,3:0:0:0:
284,78,76956,1,2,3:0:0:0:
289,83,77086,2,0,L|345:67,1,39.25,2|2,3:0|3:0,0:0:0:0:
457,82,77347,2,0,P|409:106|379:149,1,78.5,8|2,0:0|3:0,0:0:0:0:
379,212,77738,1,2,3:0:0:0:
384,217,77869,6,0,P|445:236|487:236,1,78.5,4|0,3:2|0:0,0:0:0:0:
360,365,78391,1,8,0:0:0:0:
301,285,78652,1,0,3:0:0:0:
223,329,78912,2,0,P|174:343|136:343,1,78.5,0|0,0:0|3:0,0:0:0:0:
8,246,79434,5,8,0:0:0:0:
79,383,79695,1,0,0:0:0:0:
142,185,79956,1,2,3:2:0:0:
15,138,80217,6,0,P|46:167|76:180,1,39.25,2|0,0:0|0:0,0:0:0:0:
206,116,80478,2,0,P|219:82|214:45,1,39.25,10|0,0:0|0:0,0:0:0:0:
85,4,80738,2,0,L|99:59,1,39.25,2|0,3:2|0:0,0:0:0:0:
141,185,80999,2,0,L|112:98,1,78.5,2|0,0:0|3:0,0:0:0:0:
92,300,81521,5,8,0:0:0:0:
204,351,81782,1,0,0:0:0:0:
72,287,82043,2,0,P|129:261|176:261,1,78.5,0|0,3:0|0:0,0:0:0:0:
294,348,82565,1,8,0:0:0:0:
213,189,82825,1,0,3:0:0:0:
316,272,83086,2,0,P|367:286|403:282,1,78.5,0|0,0:0|3:0,0:0:0:0:
455,61,83608,5,8,0:0:0:0:
317,161,83869,1,0,0:0:0:0:
472,229,84130,1,0,3:0:0:0:
406,125,84391,2,0,P|368:141|309:152,1,78.5,0|8,0:0|0:0,0:0:0:0:
178,115,84912,1,0,3:0:0:0:
246,18,85173,2,0,P|266:69|262:123,1,78.5,0|0,0:0|3:0,0:0:0:0:
173,328,85695,6,0,P|154:275|151:219,1,78.5,8|0,0:0|0:0,0:0:0:0:
5,161,86217,2,0,P|55:181|111:177,1,78.5,4|0,3:2|0:0,0:0:0:0:
145,117,86738,1,8,0:0:0:0:
62,264,86999,1,0,3:0:0:0:
224,258,87260,2,0,P|241:211|236:169,1,78.5,0|0,0:0|3:0,0:0:0:0:
339,362,87782,5,8,0:0:0:0:
439,378,88043,1,0,0:0:0:0:
480,282,88304,2,0,P|420:274|395:258,1,78.5,0|0,3:0|0:0,0:0:0:0:
330,199,88825,1,8,0:0:0:0:
393,33,89086,2,0,B|421:76|411:151|411:151|378:116,1,157,0|8,3:0|0:0,0:0:0:0:
306,61,89869,1,8,0:0:0:0:
161,207,90130,5,0,0:0:0:0:
85,134,90391,2,0,P|150:110|246:146,1,157,0|8,3:0|0:0,0:0:0:0:
314,237,91173,1,0,3:0:0:0:
151,333,91434,2,0,P|100:344|60:343,2,78.5,0|0|8,0:0|3:0|0:0,0:0:0:0:
236,236,92217,1,0,0:0:0:0:
13,165,92478,5,4,3:2:0:0:
216,127,92738,1,0,3:0:0:0:
44,279,92999,1,0,3:0:0:0:
249,377,93260,2,0,P|307:367|386:294,1,157,4|0,3:2|0:0,0:0:0:0:
395,131,94043,1,8,0:0:0:0:
463,199,94304,2,0,P|483:235|489:272,1,78.5,0|0,3:0|0:0,0:0:0:0:
