osu file format v14

[General]
AudioFilename: audio.mp3
AudioLeadIn: 0
PreviewTime: 60603
Countdown: 0
SampleSet: Soft
StackLeniency: 0.7
Mode: 0
LetterboxInBreaks: 0
EpilepsyWarning: 1
WidescreenStoryboard: 1

[Editor]
Bookmarks: 8950,25646,42342,61124,77820,94516,111211,129994,146689,163385,180081,196776
DistanceSpacing: 1.2
BeatDivisor: 4
GridSize: 16
TimelineZoom: 1

[Metadata]
Title:Xue Mao Jiao
TitleUnicode:学猫叫
Artist:Xiao Pan Pan & Xiao Feng Feng
ArtistUnicode:小潘潘 & 小峰峰
Creator:- Matha -
Version:AF's Hard
Source:
Tags:chinese cat learning how to meow agatsu smau5 Mia Affirmation Neoskylove CheneyF
BeatmapID:1786526
BeatmapSetID:843389

[Difficulty]
HPDrainRate:5
CircleSize:3.8
OverallDifficulty:5.7
ApproachRate:6.8
SliderMultiplier:0.999999999999999
SliderTickRate:1

[Events]
//Background and Video events
0,0,"BG.jpg",0,0
//Break Periods
2,94516,110282
//Storyboard Layer 0 (Background)
//Storyboard Layer 1 (Fail)
//Storyboard Layer 2 (Pass)
//Storyboard Layer 3 (Foreground)
//Storyboard Sound Samples

[TimingPoints]
603,521.739130434783,4,2,2,55,1,0
603,-71.4285714285714,4,2,2,55,0,0
8950,-71.4285714285714,4,2,2,65,0,0
30211,-71.4285714285714,4,2,2,5,0,0
30342,-71.4285714285714,4,2,2,65,0,0
38559,-71.4285714285714,4,2,2,5,0,0
38689,-71.4285714285714,4,2,2,65,0,0
55255,-71.4285714285714,4,2,2,5,0,0
55385,-71.4285714285714,4,2,2,65,0,0
58776,-71.4285714285714,4,2,1,65,0,0
59820,-71.4285714285714,4,2,2,65,0,0
61124,-71.4285714285714,4,2,2,75,0,0
63342,-71.4285714285714,4,2,2,5,0,0
63472,-71.4285714285714,4,2,2,75,0,0
63603,-71.4285714285714,4,2,2,5,0,0
63733,-71.4285714285714,4,2,2,75,0,0
67516,-71.4285714285714,4,2,2,5,0,0
67646,-71.4285714285714,4,2,2,75,0,0
67776,-71.4285714285714,4,2,2,5,0,0
67907,-71.4285714285714,4,2,2,75,0,0
69472,-71.4285714285714,4,2,1,75,0,0
69733,-71.4285714285714,4,2,2,75,0,0
74298,-71.4285714285714,4,2,2,5,0,0
74429,-71.4285714285714,4,2,2,75,0,0
76385,-71.4285714285714,4,2,2,5,0,0
76516,-71.4285714285714,4,2,1,75,0,0
76776,-71.4285714285714,4,2,2,75,0,0
77429,-71.4285714285714,4,2,2,5,0,0
77559,-71.4285714285714,4,2,2,75,0,0
80037,-71.4285714285714,4,2,2,5,0,0
80168,-71.4285714285714,4,2,2,75,0,0
80298,-71.4285714285714,4,2,2,5,0,0
80429,-71.4285714285714,4,2,2,75,0,0
84211,-71.4285714285714,4,2,2,5,0,0
84342,-71.4285714285714,4,2,2,75,0,0
84472,-71.4285714285714,4,2,2,5,0,0
84603,-71.4285714285714,4,2,2,75,0,0
86168,-71.4285714285714,4,2,1,75,0,0
86429,-71.4285714285714,4,2,2,75,0,0
87863,-71.4285714285714,4,2,2,5,0,0
87994,-71.4285714285714,4,2,2,75,0,0
92429,-71.4285714285714,4,2,1,75,0,0
92559,-71.4285714285714,4,2,2,5,0,0
92689,-71.4285714285714,4,2,2,75,0,0
92820,-71.4285714285714,4,2,2,5,0,0
92950,-71.4285714285714,4,2,2,75,0,0
93211,-71.4285714285714,4,2,1,75,0,0
93342,-71.4285714285714,4,2,2,75,0,0
93994,-71.4285714285714,4,2,2,35,0,0
102863,-71.4285714285714,4,2,2,65,0,0
111211,-71.4285714285714,4,2,1,65,0,0
111472,-71.4285714285714,4,2,2,65,0,0
127646,-71.4285714285714,4,2,1,65,0,0
128689,-71.4285714285714,4,2,2,75,0,0
132211,-71.4285714285714,4,2,2,5,0,0
132342,-71.4285714285714,4,2,2,75,0,0
132472,-71.4285714285714,4,2,2,5,0,0
132603,-71.4285714285714,4,2,2,75,0,0
136385,-71.4285714285714,4,2,2,5,0,0
136516,-71.4285714285714,4,2,2,75,0,0
136646,-71.4285714285714,4,2,2,5,0,0
136776,-71.4285714285714,4,2,2,75,0,0
138342,-71.4285714285714,4,2,1,75,0,0
138603,-71.4285714285714,4,2,2,75,0,0
141081,-71.4285714285714,4,2,2,5,0,0
141211,-71.4285714285714,4,2,2,75,0,0
142907,-71.4285714285714,4,2,2,5,0,0
143037,-71.4285714285714,4,2,2,75,0,0
144211,-71.4285714285714,4,2,2,5,0,0
144342,-71.4285714285714,4,2,2,75,0,0
145385,-71.4285714285714,4,2,1,75,0,0
145646,-71.4285714285714,4,2,2,75,0,0
146298,-71.4285714285714,4,2,2,5,0,0
146429,-71.4285714285714,4,2,2,75,0,0
148907,-71.4285714285714,4,2,2,5,0,0
149037,-71.4285714285714,4,2,2,75,0,0
149168,-71.4285714285714,4,2,2,5,0,0
149298,-71.4285714285714,4,2,2,75,0,0
153081,-71.4285714285714,4,2,2,5,0,0
153211,-71.4285714285714,4,2,2,75,0,0
153342,-71.4285714285714,4,2,2,5,0,0
153472,-71.4285714285714,4,2,2,75,0,0
155037,-71.4285714285714,4,2,1,75,0,0
155298,-71.4285714285714,4,2,2,75,0,0
155950,-71.4285714285714,4,2,2,5,0,0
156081,-71.4285714285714,4,2,2,75,0,0
156733,-71.4285714285714,4,2,2,5,0,0
156863,-71.4285714285714,4,2,2,75,0,0
159603,-71.4285714285714,4,2,2,5,0,0
159733,-71.4285714285714,4,2,2,75,0,0
161298,-71.4285714285714,4,2,1,75,0,0
161429,-71.4285714285714,4,2,2,75,0,0
161689,-71.4285714285714,4,2,2,5,0,0
161820,-71.4285714285714,4,2,2,75,0,0
163385,-71.4285714285714,4,2,2,80,0,1
165603,-71.4285714285714,4,2,2,5,0,1
165733,-71.4285714285714,4,2,2,80,0,1
165863,-71.4285714285714,4,2,2,5,0,1
165994,-71.4285714285714,4,2,2,80,0,1
166124,-71.4285714285714,4,2,2,5,0,1
166255,-71.4285714285714,4,2,2,80,0,1
166385,-71.4285714285714,4,2,2,5,0,1
166516,-71.4285714285714,4,2,2,80,0,1
167429,-71.4285714285714,4,2,2,5,0,1
167559,-71.4285714285714,4,2,2,80,0,1
168211,-71.4285714285714,4,2,2,5,0,1
168342,-71.4285714285714,4,2,2,80,0,1
169776,-71.4285714285714,4,2,2,5,0,1
169907,-71.4285714285714,4,2,2,80,0,1
170037,-71.4285714285714,4,2,2,5,0,1
170168,-71.4285714285714,4,2,2,80,0,1
170298,-71.4285714285714,4,2,2,5,0,1
170429,-71.4285714285714,4,2,2,80,0,1
170559,-71.4285714285714,4,2,2,5,0,1
170689,-71.4285714285714,4,2,2,80,0,1
171733,-71.4285714285714,4,2,1,80,0,1
171994,-71.4285714285714,4,2,2,80,0,1
172385,-71.4285714285714,4,2,2,5,0,1
172516,-71.4285714285714,4,2,2,80,0,1
174994,-71.4285714285714,4,2,2,5,0,1
175124,-71.4285714285714,4,2,2,80,0,1
176559,-71.4285714285714,4,2,2,5,0,1
176689,-71.4285714285714,4,2,2,80,0,1
177603,-71.4285714285714,4,2,2,5,0,1
177733,-71.4285714285714,4,2,2,80,0,1
177863,-71.4285714285714,4,2,2,5,0,1
177994,-71.4285714285714,4,2,2,80,0,1
178776,-71.4285714285714,4,2,1,80,0,1
179037,-71.4285714285714,4,2,2,80,0,1
179559,-71.4285714285714,4,2,2,80,0,0
179689,-71.4285714285714,4,2,2,5,0,0
179820,-71.4285714285714,4,2,2,80,0,0
180081,-71.4285714285714,4,2,2,80,0,1
182298,-71.4285714285714,4,2,2,5,0,1
182429,-71.4285714285714,4,2,2,80,0,1
182559,-71.4285714285714,4,2,2,5,0,1
182689,-71.4285714285714,4,2,2,80,0,1
182820,-71.4285714285714,4,2,2,5,0,1
182950,-71.4285714285714,4,2,2,80,0,1
183081,-71.4285714285714,4,2,2,5,0,1
183211,-71.4285714285714,4,2,2,80,0,1
184124,-71.4285714285714,4,2,2,5,0,1
184255,-71.4285714285714,4,2,2,80,0,1
185950,-71.4285714285714,4,2,2,5,0,1
186081,-71.4285714285714,4,2,2,80,0,1
186472,-71.4285714285714,4,2,2,5,0,1
186603,-71.4285714285714,4,2,2,80,0,1
186733,-71.4285714285714,4,2,2,5,0,1
186863,-71.4285714285714,4,2,2,80,0,1
186994,-71.4285714285714,4,2,2,5,0,1
187124,-71.4285714285714,4,2,2,80,0,1
187255,-71.4285714285714,4,2,2,5,0,1
187385,-71.4285714285714,4,2,2,80,0,1
188037,-71.4285714285714,4,2,2,5,0,1
188168,-71.4285714285714,4,2,2,80,0,1
188429,-71.4285714285714,4,2,1,80,0,1
188689,-71.4285714285714,4,2,2,80,0,1
191168,-71.4285714285714,4,2,2,5,0,1
191298,-71.4285714285714,4,2,2,80,0,1
191689,-71.4285714285714,4,2,2,5,0,1
191820,-71.4285714285714,4,2,2,80,0,1
192994,-71.4285714285714,4,2,2,5,0,1
193124,-71.4285714285714,4,2,2,80,0,1
194689,-71.4285714285714,4,2,1,80,0,1
194950,-71.4285714285714,4,2,2,80,0,1
195472,-71.4285714285714,4,2,1,80,0,1
195603,-71.4285714285714,4,2,2,80,0,1
196776,-71.4285714285714,4,2,2,45,0,0

[Colours]
Combo1 : 250,201,180
Combo2 : 255,255,125
Combo3 : 112,220,235
Combo4 : 193,238,205
SliderBorder : 226,230,202
SliderTrackOverride : 40,50,70

[HitObjects]
190,155,603,5,6,0:0:0:0:
248,215,863,2,0,L|317:204,1,69.9999978637695,0|8,0:0|0:0,0:0:0:0:
382,150,1385,2,0,P|364:215|402:271,2,139.999995727539,2|0|2,0:0|0:0|0:0,0:0:0:0:
439,88,2689,5,2,0:0:0:0:
367,44,2950,2,0,L|298:55,1,69.9999978637695,0|8,0:0|0:0,0:0:0:0:
230,106,3472,2,0,P|164:123|108:85,2,139.999995727539,0|0|2,0:0|0:0|0:0,0:0:0:0:
283,171,4776,5,2,0:0:0:0:
220,226,5037,2,0,L|231:295,1,69.9999978637695,0|8,0:0|0:0,0:0:0:0:
283,360,5559,2,0,P|217:378|161:340,2,139.999995727539,2|0|2,0:0|0:0|0:0,0:0:0:0:
340,299,6863,5,2,0:0:0:0:
309,220,7124,2,0,L|320:151,1,69.9999978637695,0|8,0:0|0:0,0:0:0:0:
267,84,7646,2,0,B|231:83|206:109|206:109|183:132|139:130,1,139.999995727539,0|2,0:0|0:0,0:0:0:0:
69,83,8429,1,2,0:0:0:0:
69,83,8689,1,2,0:0:0:0:
31,159,8950,6,0,L|41:298,1,139.999995727539,2|8,0:0|0:0,0:0:0:0:
99,360,9733,2,0,B|134:363|163:333|163:333|189:310|226:315,1,139.999995727539,0|0,0:0|0:0,0:0:0:0:
300,355,10516,1,8,0:0:0:0:
467,161,11037,6,0,P|401:179|343:144,1,139.999995727539,2|8,0:0|0:0,0:0:0:0:
286,81,11820,2,0,P|220:62|162:97,1,139.999995727539,2|2,0:0|0:0,0:0:0:0:
118,169,12603,2,0,L|124:238,1,69.9999978637695,8|2,0:0|0:0,0:0:0:0:
96,318,13124,6,0,P|154:283|219:302,1,139.999995727539,2|8,0:0|0:0,0:0:0:0:
284,357,13907,2,0,L|264:219,1,139.999995727539,2|2,0:0|0:0,0:0:0:0:
327,163,14689,1,8,0:0:0:0:
142,73,15211,6,0,L|280:93,1,139.999995727539,2|8,0:0|0:0,0:0:0:0:
327,163,15994,2,0,L|465:142,1,139.999995727539,2|2,0:0|0:0,0:0:0:0:
496,220,16776,2,0,L|426:230,1,69.9999978637695,8|2,0:0|0:0,0:0:0:0:
382,301,17298,6,0,P|321:273|258:301,1,139.999995727539,2|8,0:0|0:0,0:0:0:0:
206,367,18081,2,0,B|216:332|197:301|197:301|181:273|194:231,1,139.999995727539,2|2,0:0|0:0,0:0:0:0:
257,176,18863,1,8,0:0:0:0:
470,253,19385,6,0,P|408:225|346:253,1,139.999995727539,2|8,0:0|0:0,0:0:0:0:
350,338,20168,2,0,P|411:365|473:337,1,139.999995727539,2|0,0:0|0:0,0:0:0:0:
470,253,20950,2,0,L|461:183,1,69.9999978637695,8|0,0:0|0:0,0:0:0:0:
470,98,21472,6,0,P|404:114|350:73,1,139.999995727539,2|8,0:0|0:0,0:0:0:0:
286,18,22255,2,0,P|220:2|166:43,1,139.999995727539,0|2,0:0|0:0,0:0:0:0:
173,126,23037,1,8,0:0:0:0:
43,280,23559,6,0,L|32:210,2,69.9999978637695,2|2|8,0:0|0:0|0:0,0:0:0:0:
27,362,24342,2,0,P|93:345|125:286,1,139.999995727539,2|0,0:0|0:0,0:0:0:0:
125,285,25646,6,0,L|265:307,1,139.999995727539,2|8,0:0|0:0,0:0:0:0:
309,375,26429,2,0,P|343:316|324:251,1,139.999995727539,2|0,0:0|0:0,0:0:0:0:
259,197,27211,1,8,0:0:0:0:
408,24,27733,6,0,L|477:15,1,69.9999978637695,2|0,0:0|0:0,0:0:0:0:
511,92,28255,1,8,0:0:0:0:
464,161,28516,2,0,L|324:144,1,139.999995727539,2|2,0:0|0:0,0:0:0:0:
259,197,29298,1,8,0:0:0:0:
68,27,29820,6,0,B|31:63|31:63|45:150,1,139.999995727539,2|8,0:0|0:0,0:0:0:0:
125,177,30603,2,0,L|108:316,1,139.999995727539,2|0,0:0|0:0,0:0:0:0:
176,366,31385,2,0,L|245:357,1,69.9999978637695,8|2,0:0|0:0,0:0:0:0:
328,374,31907,6,0,B|334:327|334:327|321:286|321:286|330:237,1,139.999995727539,2|8,0:0|0:0,0:0:0:0:
398,187,32689,2,0,P|331:201|276:162,1,139.999995727539,2|8,0:0|0:0,0:0:0:0:
349,118,33472,1,8,0:0:0:0:
215,20,33994,6,0,L|75:36,1,139.999995727539,2|8,0:0|0:0,0:0:0:0:
66,119,34776,2,0,L|205:102,1,139.999995727539,2|0,0:0|0:0,0:0:0:0:
282,69,35559,1,8,0:0:0:0:
111,231,36081,6,0,B|101:264|101:264|111:298,1,69.9999978637695,2|2,0:0|0:0,0:0:0:0:
180,346,36603,1,8,0:0:0:0:
239,285,36863,2,0,P|301:260|363:289,1,139.999995727539,2|2,0:0|0:0,0:0:0:0:
299,344,37646,1,8,0:0:0:0:
111,231,38168,6,0,B|102:179|102:179|117:140|117:140|109:95,1,139.999995727539,2|8,0:0|0:0,0:0:0:0:
46,39,38950,2,0,B|90:56|90:56|180:34,1,139.999995727539,2|0,0:0|0:0,0:0:0:0:
256,64,39733,2,0,B|251:134,1,69.9999978637695,8|2,0:0|0:0,0:0:0:0:
190,191,40255,6,0,P|251:219|313:191,1,139.999995727539,2|8,0:0|0:0,0:0:0:0:
370,129,41037,1,2,0:0:0:0:
449,156,41298,2,0,L|444:190,4,34.9999989318848,0|0|0|0|2,3:3|3:3|3:3|3:3|0:3,0:0:0:0:
370,129,42081,1,2,0:3:0:0:
370,129,42211,1,2,0:3:0:0:
370,129,42342,6,0,L|353:268,1,139.999995727539,2|8,0:0|0:0,0:0:0:0:
303,335,43124,1,2,0:0:0:0:
238,280,43385,2,0,P|177:249|113:274,1,139.999995727539,2|8,0:0|0:0,0:0:0:0:
54,117,44429,6,0,L|45:47,2,69.9999978637695,2|0|8,0:0|0:0|0:0,0:0:0:0:
24,195,45211,2,0,P|91:190|134:137,1,139.999995727539,2|2,0:0|0:0,0:0:0:0:
154,55,45994,1,8,0:0:0:0:
308,121,46516,6,0,B|342:127|372:103|372:103|398:81|439:88,1,139.999995727539,2|8,0:0|0:0,0:0:0:0:
509,134,47298,1,2,0:0:0:0:
461,203,47559,2,0,L|453:343,1,139.999995727539,0|8,0:0|0:0,0:0:0:0:
378,381,48342,1,2,0:0:0:0:
315,325,48603,6,0,P|247:316|199:364,1,139.999995727539,2|8,0:0|0:0,0:0:0:0:
123,327,49385,2,0,P|131:259|83:211,1,139.999995727539,2|8,0:0|0:0,0:0:0:0:
3,184,50168,1,8,0:0:0:0:
186,52,50689,6,0,B|234:64|234:64|256:98|256:98|304:109,1,139.999995727539,2|8,0:0|0:0,0:0:0:0:
380,74,51472,2,0,P|335:124|345:191,1,139.999995727539,2|0,0:0|0:0,0:0:0:0:
412,242,52255,1,8,0:0:0:0:
181,121,52776,6,0,L|186:52,2,69.9999978637695,2|0|8,0:0|0:0|0:0,0:0:0:0:
97,123,53559,2,0,L|106:262,1,139.999995727539,2|2,0:0|0:0,0:0:0:0:
54,329,54342,1,8,0:0:0:0:
283,369,54863,6,0,B|307:327|307:327|285:237,1,139.999995727539,2|8,0:0|0:0,0:0:0:0:
211,195,55646,2,0,P|266:154|333:167,1,139.999995727539,2|0,0:0|0:0,0:0:0:0:
406,209,56429,2,0,B|422:140,1,69.9999978637695,8|2,0:0|0:0,0:0:0:0:
482,82,56950,6,0,P|416:99|358:62,1,139.999995727539,2|8,0:0|0:0,0:0:0:0:
287,17,57733,2,0,P|221:0|163:36,1,139.999995727539,2|2,0:0|0:0,0:0:0:0:
123,110,58516,1,8,0:0:0:0:
123,110,58776,1,4,0:0:0:0:
243,227,59298,5,4,0:0:0:0:
249,143,59559,1,4,0:0:0:0:
123,254,60081,6,0,L|88:250,2,34.9999989318848,0|0|0,3:0|3:0|3:0,0:0:0:0:
255,287,60603,1,8,3:0:0:0:
255,287,60733,1,0,3:0:0:0:
255,287,60863,1,0,3:0:0:0:
255,287,60994,1,0,3:0:0:0:
255,287,61124,6,0,L|256:357,1,69.9999978637695,6|0,0:0|0:0,0:0:0:0:
337,336,61646,2,0,L|335:266,1,69.9999978637695,8|2,0:0|0:0,0:0:0:0:
292,195,62168,2,0,P|352:225|415:200,1,139.999995727539,0|8,0:0|0:0,0:0:0:0:
356,140,62950,1,0,0:0:0:0:
276,111,63211,6,0,P|243:124|220:150,1,69.9999978637695,2|0,0:0|0:0,0:0:0:0:
135,150,63733,2,0,P|139:115|129:82,1,69.9999978637695,8|2,0:0|0:0,0:0:0:0:
49,56,64255,2,0,P|34:124|60:188,1,139.999995727539,0|8,0:0|0:0,0:0:0:0:
131,234,65037,1,2,0:0:0:0:
202,280,65298,6,0,L|193:349,1,69.9999978637695,2|0,0:0|0:0,0:0:0:0:
274,374,65820,2,0,L|282:304,1,69.9999978637695,8|2,0:0|0:0,0:0:0:0:
326,232,66342,2,0,P|386:262|449:237,1,139.999995727539,0|8,0:0|0:0,0:0:0:0:
390,177,67124,1,0,0:0:0:0:
330,117,67385,6,0,L|261:129,1,69.9999978637695,2|0,0:0|0:0,0:0:0:0:
296,206,67907,2,0,L|227:218,1,69.9999978637695,8|2,0:0|0:0,0:0:0:0:
262,295,68429,2,0,L|124:320,1,139.999995727539,0|8,0:0|0:0,0:0:0:0:
74,251,69211,1,2,0:0:0:0:
25,183,69472,6,0,P|56:167|91:168,1,69.9999978637695,6|0,0:0|0:0,0:0:0:0:
125,92,69994,2,0,P|153:111|170:141,1,69.9999978637695,8|2,0:0|0:0,0:0:0:0:
252,132,70516,2,0,P|232:197|170:224,1,139.999995727539,0|8,0:0|0:0,0:0:0:0:
99,181,71298,1,0,0:0:0:0:
54,253,71559,6,0,L|59:322,1,69.9999978637695,2|0,0:0|0:0,0:0:0:0:
140,301,72081,2,0,L|145:370,1,69.9999978637695,8|2,0:0|0:0,0:0:0:0:
228,379,72603,2,0,B|276:368|276:368|303:332|303:332|347:320,1,139.999995727539,0|8,0:0|0:0,0:0:0:0:
421,359,73385,1,2,0:0:0:0:
458,283,73646,6,0,P|467:249|460:215,1,69.9999978637695,2|0,0:0|0:0,0:0:0:0:
497,139,74168,2,0,P|463:129|429:136,1,69.9999978637695,8|2,0:0|0:0,0:0:0:0:
353,100,74689,2,0,P|343:133|350:167,1,69.9999978637695,0|2,0:0|0:0,0:0:0:0:
314,244,75211,2,0,P|347:253|381:246,1,69.9999978637695,8|0,0:0|0:0,0:0:0:0:
407,325,75733,6,0,P|339:337|272:319,1,139.999995727539,2|8,3:0|3:0,0:0:0:0:
202,271,76516,1,4,0:0:0:0:
136,323,76776,1,0,3:0:0:0:
136,323,76907,1,0,3:0:0:0:
136,323,77037,2,0,L|138:357,2,34.9999989318848,0|0|10,3:0|3:0|3:0,0:0:0:0:
82,257,77559,1,8,3:0:0:0:
82,257,77689,1,8,3:0:0:0:
82,257,77820,6,0,L|86:187,1,69.9999978637695,6|0,0:0|0:0,0:0:0:0:
122,110,78342,2,0,L|52:105,1,69.9999978637695,8|2,0:0|0:0,0:0:0:0:
49,21,78863,2,0,L|188:30,1,139.999995727539,0|8,0:0|0:0,0:0:0:0:
253,84,79646,1,0,0:0:0:0:
321,35,79907,6,0,P|335:68|335:102,1,69.9999978637695,2|0,0:0|0:0,0:0:0:0:
342,185,80429,2,0,P|307:180|277:163,1,69.9999978637695,8|2,0:0|0:0,0:0:0:0:
199,194,80950,2,0,P|200:126|253:83,1,139.999995727539,0|8,0:0|0:0,0:0:0:0:
277,163,81733,1,2,0:0:0:0:
265,244,81994,6,0,L|260:313,1,69.9999978637695,2|0,0:0|0:0,0:0:0:0:
185,274,82516,2,0,L|181:344,1,69.9999978637695,8|2,0:0|0:0,0:0:0:0:
100,373,83037,2,0,L|109:233,1,139.999995727539,0|8,0:0|0:0,0:0:0:0:
146,157,83820,1,2,0:0:0:0:
79,106,84081,6,0,P|105:83|138:72,1,69.9999978637695,2|0,0:0|0:0,0:0:0:0:
214,41,84603,2,0,P|220:75|213:109,1,69.9999978637695,8|2,0:0|0:0,0:0:0:0:
266,173,85124,2,0,P|202:193|145:156,1,139.999995727539,0|8,0:0|0:0,0:0:0:0:
213,109,85907,1,2,0:0:0:0:
266,173,86168,6,0,L|259:242,1,69.9999978637695,6|0,0:0|0:0,0:0:0:0:
218,316,86689,2,0,L|287:322,1,69.9999978637695,8|2,0:0|0:0,0:0:0:0:
348,381,87211,2,0,L|487:367,1,139.999995727539,0|8,0:0|0:0,0:0:0:0:
449,292,87994,1,0,0:0:0:0:
496,222,88255,6,0,L|489:152,1,69.9999978637695,2|0,0:0|0:0,0:0:0:0:
410,181,88776,2,0,L|346:152,1,69.9999978637695,8|2,0:0|0:0,0:0:0:0:
331,234,89298,2,0,L|217:315,1,139.999995727539,0|8,0:0|0:0,0:0:0:0:
136,339,90081,1,2,0:0:0:0:
155,256,90342,6,0,B|162:207|162:207|148:164|148:164|155:119,1,139.999995727539,2|8,0:0|0:0,0:0:0:0:
207,52,91124,1,2,0:0:0:0:
286,79,91385,2,0,B|276:148,1,69.9999978637695,0|2,0:0|0:0,0:0:0:0:
360,145,91907,2,0,B|350:214,1,69.9999978637695,8|0,0:0|0:0,0:0:0:0:
289,272,92429,5,6,0:0:0:0:
370,295,92689,1,2,0:0:0:0:
347,376,92950,1,2,0:0:0:0:
266,353,93211,2,0,L|56:370,1,209.999993591309,4|0,0:0|0:0,0:0:0:0:
74,119,111211,6,0,P|140:133|200:100,1,139.999995727539,6|8,0:0|0:0,0:0:0:0:
256,37,111994,1,2,0:0:0:0:
311,100,112255,2,0,P|371:133|438:119,1,139.999995727539,0|8,0:0|0:0,0:0:0:0:
484,335,113298,6,0,L|414:344,1,69.9999978637695,2|0,0:0|0:0,0:0:0:0:
356,283,113820,1,8,0:0:0:0:
299,345,114081,2,0,B|251:334|251:334|224:298|224:298|180:286,1,139.999995727539,2|2,0:0|0:0,0:0:0:0:
97,304,114863,1,8,0:0:0:0:
84,89,115385,6,0,B|128:101|128:101|155:137|155:137|203:148,1,139.999995727539,2|8,0:0|0:0,0:0:0:0:
260,86,116167,1,2,0:0:0:0:
318,147,116429,2,0,L|387:137,1,69.9999978637695,0|2,0:0|0:0,0:0:0:0:
469,121,116950,1,8,0:0:0:0:
423,332,117472,6,0,P|360:359|298:331,1,139.999995727539,2|8,0:0|0:0,0:0:0:0:
213,331,118255,2,0,P|151:359|89:332,1,139.999995727539,2|2,0:0|0:0,0:0:0:0:
48,258,119037,1,8,0:0:0:0:
162,48,119559,6,0,B|205:75|205:75|213:163,1,139.999995727539,2|8,0:0|0:0,0:0:0:0:
298,163,120342,2,0,B|307:75|307:75|350:48,1,139.999995727539,2|2,0:0|0:0,0:0:0:0:
424,86,121124,1,8,0:0:0:0:
362,242,121646,6,0,B|355:311,1,69.9999978637695,2|0,0:0|0:0,0:0:0:0:
287,361,122168,1,8,0:0:0:0:
227,301,122429,2,0,P|164:273|102:301,1,139.999995727539,2|2,0:0|0:0,0:0:0:0:
54,370,123211,1,8,0:0:0:0:
89,112,123733,6,0,P|151:139|213:111,1,139.999995727539,2|8,0:0|0:0,0:0:0:0:
298,111,124516,2,0,P|360:138|422:111,1,139.999995727539,2|2,0:0|0:0,0:0:0:0:
361,53,125298,1,8,0:0:0:0:
431,260,125820,6,0,B|381:253|381:253|345:276|345:276|298:271,1,139.999995727539,2|8,0:0|0:0,0:0:0:0:
213,271,126603,2,0,B|167:276|167:276|131:253|131:253|80:260,1,139.999995727539,2|2,0:0|0:0,0:0:0:0:
110,339,127385,1,8,0:0:0:0:
110,339,127646,1,4,0:0:0:0:
189,191,128168,5,4,0:0:0:0:
181,107,128429,1,4,0:0:0:0:
342,152,128950,6,0,L|337:186,2,34.9999989318848,0|0|0,3:0|3:0|3:0,0:0:0:0:
459,200,129472,1,8,3:0:0:0:
459,200,129603,1,0,3:0:0:0:
459,200,129733,1,0,3:0:0:0:
459,200,129863,1,0,3:0:0:0:
459,200,129994,6,0,L|450:269,1,69.9999978637695,6|0,0:0|0:0,0:0:0:0:
472,350,130516,2,0,L|402:341,1,69.9999978637695,8|2,0:0|0:0,0:0:0:0:
336,289,131037,2,0,L|197:306,1,139.999995727539,0|8,0:0|0:0,0:0:0:0:
120,341,131820,1,0,0:0:0:0:
59,282,132081,6,0,P|60:247|79:217,1,69.9999978637695,2|0,0:0|0:0,0:0:0:0:
30,149,132603,2,0,P|60:134|94:134,1,69.9999978637695,8|2,0:0|0:0,0:0:0:0:
128,59,133125,2,0,P|174:108|166:176,1,139.999995727539,0|8,0:0|0:0,0:0:0:0:
235,224,133907,1,2,0:0:0:0:
299,169,134168,6,0,L|368:160,1,69.9999978637695,2|0,0:0|0:0,0:0:0:0:
449,183,134689,2,0,L|440:113,1,69.9999978637695,8|2,0:0|0:0,0:0:0:0:
368,160,135211,2,0,L|385:298,1,139.999995727539,0|8,0:0|0:0,0:0:0:0:
318,350,135994,1,0,0:0:0:0:
241,315,136255,6,0,L|171:323,1,69.9999978637695,2|0,0:0|0:0,0:0:0:0:
191,242,136776,2,0,L|148:186,1,69.9999978637695,8|2,0:0|0:0,0:0:0:0:
229,162,137298,2,0,L|283:33,1,139.999995727539,0|8,0:0|0:0,0:0:0:0:
367,23,138081,1,2,0:0:0:0:
410,94,138342,6,0,L|382:158,1,69.9999978637695,6|0,0:0|0:0,0:0:0:0:
466,166,138863,2,0,L|438:230,1,69.9999978637695,8|2,0:0|0:0,0:0:0:0:
460,311,139385,2,0,P|409:265|340:267,1,139.999995727539,0|8,0:0|0:0,0:0:0:0:
287,331,140168,1,0,0:0:0:0:
218,282,140429,6,0,L|226:212,1,69.9999978637695,2|0,0:0|0:0,0:0:0:0:
146,237,140950,2,0,L|154:167,1,69.9999978637695,8|2,0:0|0:0,0:0:0:0:
82,122,141472,2,0,L|64:260,1,139.999995727539,0|8,0:0|0:0,0:0:0:0:
44,342,142255,1,2,0:0:0:0:
126,320,142516,6,0,L|195:328,1,69.9999978637695,2|0,0:0|0:0,0:0:0:0:
267,373,143037,2,0,L|275:303,1,69.9999978637695,8|2,0:0|0:0,0:0:0:0:
320,232,143559,2,0,L|250:223,1,69.9999978637695,0|2,0:0|0:0,0:0:0:0:
179,179,144081,2,0,L|170:248,1,69.9999978637695,8|0,0:0|0:0,0:0:0:0:
85,247,144603,6,0,L|102:108,1,139.999995727539,2|8,0:0|3:0,0:0:0:0:
175,66,145385,1,4,0:0:0:0:
247,128,145646,1,0,3:0:0:0:
247,128,145776,1,0,3:0:0:0:
247,128,145907,2,0,L|281:120,2,34.9999989318848,0|0|10,3:0|3:0|3:0,0:0:0:0:
179,179,146429,1,8,3:0:0:0:
179,179,146559,1,8,3:0:0:0:
179,179,146689,6,0,L|170:248,1,69.9999978637695,6|0,0:0|0:0,0:0:0:0:
251,270,147211,2,0,L|260:201,1,69.9999978637695,8|2,0:0|0:0,0:0:0:0:
340,222,147733,2,0,L|322:360,1,139.999995727539,0|8,0:0|0:0,0:0:0:0:
406,373,148516,1,0,0:0:0:0:
466,315,148776,6,0,P|464:280|445:250,1,69.9999978637695,2|0,0:0|0:0,0:0:0:0:
495,182,149298,2,0,P|464:167|430:167,1,69.9999978637695,8|2,0:0|0:0,0:0:0:0:
397,92,149820,2,0,P|350:141|358:209,1,139.999995727539,0|8,0:0|0:0,0:0:0:0:
300,270,150603,1,2,0:0:0:0:
248,203,150863,6,0,L|178:201,1,69.9999978637695,2|0,0:0|0:0,0:0:0:0:
100,168,151385,2,0,L|98:237,1,69.9999978637695,8|2,0:0|0:0,0:0:0:0:
20,270,151907,2,0,L|23:130,1,139.999995727539,0|8,0:0|0:0,0:0:0:0:
85,73,152689,1,2,0:0:0:0:
161,106,152950,6,0,L|230:107,1,69.9999978637695,2|0,0:0|0:0,0:0:0:0:
288,45,153472,2,0,L|321:106,1,69.9999978637695,8|2,0:0|0:0,0:0:0:0:
404,124,153994,2,0,L|331:243,1,139.999995727539,0|8,0:0|0:0,0:0:0:0:
266,297,154776,1,2,0:0:0:0:
184,277,155037,6,0,P|171:244|173:210,1,69.9999978637695,6|0,0:0|0:0,0:0:0:0:
116,148,155559,2,0,P|137:120|168:105,1,69.9999978637695,8|0,0:0|0:0,0:0:0:0:
192,24,156081,2,0,P|256:48|276:113,1,139.999995727539,0|8,0:0|0:0,0:0:0:0:
250,193,156863,1,0,0:0:0:0:
322,235,157124,6,0,L|391:224,1,69.9999978637695,2|0,0:0|0:0,0:0:0:0:
375,307,157646,2,0,L|349:372,1,69.9999978637695,8|2,0:0|0:0,0:0:0:0:
286,316,158168,2,0,L|199:206,1,139.999995727539,0|8,0:0|0:0,0:0:0:0:
127,163,158950,1,0,0:0:0:0:
182,99,159211,6,0,L|320:119,1,139.999995727539,2|8,0:0|0:0,0:0:0:0:
382,176,159994,1,2,0:0:0:0:
435,110,160255,2,0,L|424:40,2,69.9999978637695,0|2|8,0:0|0:0|0:0,0:0:0:0:
382,176,161037,1,0,0:0:0:0:
457,213,161298,6,0,B|450:259|450:259|466:302|466:302|457:348,1,139.999995727539,6|8,0:0|0:0,0:0:0:0:
379,379,162081,1,0,3:0:0:0:
311,328,162342,2,0,L|311:293,2,34.9999989318848,0|0|0,3:0|3:0|3:0,0:0:0:0:
203,267,162863,1,8,3:0:0:0:
203,267,162994,1,0,3:0:0:0:
203,267,163124,1,0,3:0:0:0:
203,267,163255,1,0,3:0:0:0:
203,267,163385,6,0,P|176:291|145:306,1,69.9999978637695,6|0,0:0|0:0,0:0:0:0:
206,183,163907,2,0,P|172:172|143:152,1,69.9999978637695,8|2,0:0|0:0,0:0:0:0:
281,143,164429,2,0,P|275:73|303:10,1,139.999995727539,0|8,0:0|0:0,0:0:0:0:
370,60,165211,1,0,0:0:0:0:
275,173,165472,6,0,L|205:183,1,69.9999978637695,2|0,0:0|0:0,0:0:0:0:
188,297,165994,2,0,L|145:242,1,69.9999978637695,8|2,0:0|0:0,0:0:0:0:
36,284,166516,2,0,L|75:186,1,104.999996795654,0|0,0:0|0:0,0:0:0:0:
74,186,167037,1,8,0:0:0:0:
57,104,167298,1,2,0:0:0:0:
124,54,167559,6,0,P|158:63|189:80,1,69.9999978637695,2|0,0:0|0:0,0:0:0:0:
298,126,168081,2,0,P|264:134|234:152,1,69.9999978637695,8|2,0:0|0:0,0:0:0:0:
104,234,168603,2,0,P|170:252|218:302,1,139.999995727539,0|8,0:0|0:0,0:0:0:0:
263,373,169385,1,0,0:0:0:0:
360,286,169646,6,0,P|360:251|364:216,1,69.9999978637695,2|0,0:0|0:0,0:0:0:0:
295,346,170168,2,0,P|325:363|353:384,1,69.9999978637695,8|2,0:0|0:0,0:0:0:0:
273,259,170689,2,0,P|226:281|174:281,1,104.999996795654
174,281,171211,1,8,0:0:0:0:
107,231,171472,1,2,0:0:0:0:
154,95,171733,6,0,P|167:128|175:162,1,69.9999978637695,6|0,0:0|0:0,0:0:0:0:
278,62,172255,2,0,P|272:96|262:130,1,69.9999978637695,8|2,0:0|0:0,0:0:0:0:
274,259,172776,2,0,P|336:228|405:221,1,139.999995727539,0|8,0:0|0:0,0:0:0:0:
394,305,173559,1,0,0:0:0:0:
250,252,173820,6,0,L|180:246,1,69.9999978637695,2|0,0:0|0:0,0:0:0:0:
275,144,174342,1,8,0:0:0:0:
275,144,174603,2,0,L|135:155,1,139.999995727539,2|2,0:0|0:0,0:0:0:0:
238,54,175385,2,0,L|168:48,1,69.9999978637695,8|2,0:0|0:0,0:0:0:0:
58,118,175907,6,0,P|49:152|56:186,1,69.9999978637695,2|0,0:0|0:0,0:0:0:0:
202,157,176429,2,0,P|168:147|134:155,1,69.9999978637695,8|2,0:0|0:0,0:0:0:0:
162,301,176951,2,0,P|172:267|164:233,1,69.9999978637695,0|2,0:0|0:0,0:0:0:0:
19,262,177472,2,0,P|52:271|86:265,1,69.9999978637695,8|0,0:0|0:0,0:0:0:0:
195,194,177994,6,0,P|261:178|319:215,1,139.999995727539,2|8,0:0|0:0,0:0:0:0:
373,279,178776,1,4,0:0:0:0:
425,213,179037,1,0,3:0:0:0:
425,213,179168,1,0,3:0:0:0:
425,213,179298,2,0,L|427:178,2,34.9999989318848,0|0|10,3:0|3:0|3:0,0:0:0:0:
373,279,179820,1,8,3:0:0:0:
373,279,179950,1,8,3:0:0:0:
373,279,180081,6,0,L|378:348,1,69.9999978637695,6|0,0:0|0:0,0:0:0:0:
293,251,180603,2,0,L|235:290,1,69.9999978637695,8|2,0:0|0:0,0:0:0:0:
277,167,181124,2,0,L|150:106,1,139.999995727539,0|8,0:0|0:0,0:0:0:0:
70,132,181907,1,0,0:0:0:0:
173,290,182168,6,0,L|167:220,1,69.9999978637695,2|0,0:0|0:0,0:0:0:0:
277,167,182689,2,0,L|282:236,1,69.9999978637695,8|2,0:0|0:0,0:0:0:0:
150,292,183211,2,0,L|142:187,1,104.999996795654,0|0,0:0|0:0,0:0:0:0:
142,187,183733,1,8,0:0:0:0:
142,103,183994,1,2,0:0:0:0:
277,167,184255,6,0,P|311:171|343:158,1,69.9999978637695,2|0,0:0|0:0,0:0:0:0:
451,236,184776,2,0,P|416:240|384:227,1,69.9999978637695,8|2,0:0|0:0,0:0:0:0:
267,192,185298,2,0,P|288:258|285:327,1,139.999995727539,0|8,0:0|0:0,0:0:0:0:
214,372,186081,1,0,0:0:0:0:
102,293,186342,6,0,P|134:307|168:309,1,69.9999978637695,2|0,0:0|0:0,0:0:0:0:
218,210,186863,2,0,P|186:224|151:225,1,69.9999978637695,8|2,0:0|0:0,0:0:0:0:
73,114,187385,2,0,P|116:142|168:141,1,104.999996795654,0|0,0:0|0:0,0:0:0:0:
168,141,187907,1,8,0:0:0:0:
230,84,188168,1,2,0:0:0:0:
151,225,188429,6,0,P|186:224|218:210,1,69.9999978637695,6|0,0:0|0:0,0:0:0:0:
278,299,188950,2,0,P|294:268|298:234,1,69.9999978637695,8|0,0:0|0:0,0:0:0:0:
421,293,189472,2,0,P|405:225|357:175,1,139.999995727539,0|8,0:0|0:0,0:0:0:0:
280,141,190255,1,0,0:0:0:0:
323,68,190516,6,0,L|392:57,1,69.9999978637695,2|0,0:0|0:0,0:0:0:0:
280,141,191037,1,8,0:0:0:0:
280,141,191298,2,0,L|141:119,1,139.999995727539,2|2,0:0|0:0,0:0:0:0:
74,214,192081,2,0,L|144:204,1,69.9999978637695,8|2,0:0|0:0,0:0:0:0:
244,270,192603,6,0,P|185:303|120:284,1,139.999995727539,2|8,0:0|0:0,0:0:0:0:
74,214,193385,1,2,0:0:0:0:
27,143,193646,2,0,L|37:73,1,69.9999978637695,0|2,0:0|0:0,0:0:0:0:
121,73,194168,2,0,L|110:142,1,69.9999978637695,8|0,0:0|0:0,0:0:0:0:
179,190,194689,5,4,0:0:0:0:
254,154,194950,1,2,0:0:0:0:
322,200,195211,1,2,0:0:0:0:
397,164,195472,2,0,B|353:212|353:212|369:355,1,209.999993591309,4|8,0:0|0:0,0:0:0:0:
451,373,196516,1,2,0:0:0:0:
486,254,196776,5,2,0:0:0:0:
