osu file format v14

[General]
AudioFilename: audio.mp3
AudioLeadIn: 0
PreviewTime: 209316
Countdown: 1
SampleSet: Soft
StackLeniency: 0.7
Mode: 0
LetterboxInBreaks: 0
WidescreenStoryboard: 1

[Editor]
Bookmarks: 32258
DistanceSpacing: 0.3
BeatDivisor: 6
GridSize: 4
TimelineZoom: 2.4

[Metadata]
Title:STORIA
TitleUnicode:STORIA
Artist:Xi and Sakuzyo
ArtistUnicode:Xi and Sakuzyo
Creator:WalterandAaron
Version:Insane
Source:Cytus
Tags:Cytus
BeatmapID:2101543
BeatmapSetID:1004104

[Difficulty]
HPDrainRate:8
CircleSize:4
OverallDifficulty:8
ApproachRate:8
SliderMultiplier:1.2
SliderTickRate:2

[Events]
//Background and Video events
0,0,"tumblr_nx5740zSqA1tlehkfo1_1280.png",0,0
//Break Periods
2,81549,89929
//Storyboard Layer 0 (Background)
//Storyboard Layer 1 (Fail)
//Storyboard Layer 2 (Pass)
//Storyboard Layer 3 (Foreground)
//Storyboard Sound Samples

[TimingPoints]
45.6521385977529,333.21300641435,4,2,0,100,1,0
25704,-66.6666666666667,4,3,0,100,0,0
38365,-133.333333333333,4,1,0,75,0,0
49027,-117.647058823529,4,1,0,85,0,0
58802,-66.6666666666667,4,1,0,100,0,0
59690,-50,4,1,0,100,0,0
59801,-66.6666666666667,4,1,0,100,0,0
92012,-133.333333333333,4,2,0,100,0,0

[Colours]
Combo1 : 0,0,0
Combo2 : 0,19,253
Combo3 : 255,0,0
Combo4 : 255,255,255

[HitObjects]
256,192,45,12,0,4710,0:0:0:0:
256,80,5376,6,0,P|284:88|300:120,1,60
309,155,5710,1,0,0:0:0:0:
289,200,5876,1,0,0:0:0:0:
264,224,6043,2,0,P|224:240|212:268,1,60
208,280,6376,1,0,0:0:0:0:
222,310,6543,1,0,0:0:0:0:
260,320,6709,2,0,P|292:312|304:284,1,60
304,256,7042,2,0,P|320:220|352:216,1,60
372,212,7376,1,0,0:0:0:0:
420,196,7542,1,0,0:0:0:0:
344,112,7875,1,0,0:0:0:0:
140,60,8209,5,0,0:0:0:0:
136,56,8375,2,0,P|112:92|120:128,1,60
120,116,8708,2,0,P|136:156|156:168,1,60
148,164,9042,2,0,P|176:180|184:216,1,60
185,206,9375,2,0,P|176:248|200:268,1,60
184,259,9708,2,0,P|220:272|224:292,1,60
228,296,10041,1,0,0:0:0:0:
228,296,10208,2,0,P|280:324|348:300,1,120
116,76,10874,5,0,0:0:0:0:
208,106,11041,1,0,0:0:0:0:
128,164,11207,1,0,0:0:0:0:
212,204,11374,1,0,0:0:0:0:
128,272,11541,1,0,0:0:0:0:
208,320,11707,1,0,0:0:0:0:
292,268,11874,1,0,0:0:0:0:
212,204,12040,1,0,0:0:0:0:
292,152,12207,1,0,0:0:0:0:
208,106,12374,1,0,0:0:0:0:
292,72,12540,1,0,0:0:0:0:
384,128,12707,1,0,0:0:0:0:
384,128,12873,2,0,P|424:168|404:232,1,120
84,104,13540,5,0,0:0:0:0:
144,60,13707,1,0,0:0:0:0:
204,96,13873,2,0,P|224:140|216:176,1,60
204,212,14206,1,0,0:0:0:0:
148,268,14373,2,0,P|160:304|200:324,1,60
216,260,14706,2,0,P|260:244|296:256,1,60
260,312,15039,2,0,P|292:320|328:300,1,60
372,264,15373,5,0,0:0:0:0:
400,192,15539,1,0,0:0:0:0:
384,116,15706,1,0,0:0:0:0:
328,64,15872,1,0,0:0:0:0:
236,60,16039,2,0,B|196:64|180:288|244:120|516:28|-32:384|-56:12|408:380|352:236|356:180|292:76|468:116,2,480
136,124,19038,5,0,0:0:0:0:
108,172,19204,1,0,0:0:0:0:
76,212,19371,2,0,P|56:256|96:292,2,80
148,212,20037,2,0,P|188:244|168:292,2,80
84,192,20704,1,0,0:0:0:0:
88,48,21037,1,0,0:0:0:0:
208,68,21371,2,0,P|264:84|268:196,1,180
136,192,22370,2,0,B|284:332|524:376|324:-80|152:320,1,600
148,124,25702,5,0,0:0:0:0:
300,92,26035,1,0,0:0:0:0:
356,120,26202,1,0,0:0:0:0:
388,176,26368,1,0,0:0:0:0:
384,240,26535,1,0,0:0:0:0:
336,276,26702,6,0,P|60:260|104:52,1,540.000020599366
87,66,28035,2,0,B|428:40|360:52|460:292|336:296|192:224|320:120|288:124,1,540.000020599366
289,139,29367,6,0,P|329:183|377:83,1,180.000006866455
289,139,30034,2,0,P|249:103|173:175,1,180.000006866455
192,264,30701,2,0,P|228:304|372:272,1,180.000006866455
436,60,31367,5,0,0:0:0:0:
376,128,31534,1,0,0:0:0:0:
464,176,31700,1,0,0:0:0:0:
392,236,31867,1,0,0:0:0:0:
448,304,32034,2,0,P|372:340|272:340,1,180.000006866455
184,292,32700,6,0,P|140:212|176:136,1,180.000006866455
248,124,33366,2,0,B|296:136|384:104|408:36,1,180.000006866455
401,51,34033,2,0,P|460:64|477:130,2,120.000004577637
336,49,34699,2,0,P|220:72|368:328,1,540.000020599366
256,192,36032,12,0,37032,0:0:0:0:
256,192,37365,5,14,0:0:0:0:
344,44,38365,5,0,0:0:0:0:
376,88,38448,1,0,0:0:0:0:
384,132,38531,1,0,0:0:0:0:
376,152,38615,1,0,0:0:0:0:
368,164,38698,2,0,P|348:184|288:200,1,90.0000034332277
272,204,39142,1,0,0:0:0:0:
184,176,39475,1,0,0:0:0:0:
184,80,39809,1,0,0:0:0:0:
260,48,40142,1,0,0:0:0:0:
340,88,40475,1,0,0:0:0:0:
344,176,40808,1,0,0:0:0:0:
260,332,41030,5,0,3:0:0:0:
201,314,41114,1,0,3:0:0:0:
163,272,41197,1,0,3:0:0:0:
151,225,41280,1,0,3:0:0:0:
154,202,41364,1,0,3:0:0:0:
168,92,41808,1,0,0:0:0:0:
336,244,42141,1,0,0:0:0:0:
344,88,42474,1,0,0:0:0:0:
160,240,42807,1,0,0:0:0:0:
256,152,43141,1,0,0:0:0:0:
256,148,43474,1,0,0:0:0:0:
256,148,43807,6,0,B|360:148|256:220|364:220,1,135.000005149841
272,272,44529,1,0,0:0:0:0:
256,288,44612,1,0,0:0:0:0:
236,292,44696,2,0,P|208:292|180:280,1,45.0000017166138
112,156,45029,1,0,0:0:0:0:
168,88,45196,1,0,0:0:0:0:
336,96,45529,5,0,0:0:0:0:
380,164,45862,2,0,P|376:220|348:252,1,90.0000034332277
304,272,46362,1,0,0:0:0:0:
204,272,46528,1,0,0:0:0:0:
136,240,46695,2,0,B|112:208|176:148|108:112,1,135.000005149841
176,100,47528,1,0,0:0:0:0:
284,164,47695,1,0,0:0:0:0:
248,64,47861,2,0,P|357:89|373:179,1,210.000008010865
352,224,49027,5,0,0:0:0:0:
320,256,49111,1,0,0:0:0:0:
260,264,49194,1,0,0:0:0:0:
204,240,49277,1,0,0:0:0:0:
156,184,49361,6,0,P|152:148|208:108,1,102.000001945496
280,92,49805,1,0,0:0:0:0:
368,120,50138,1,0,0:0:0:0:
420,200,50471,1,0,0:0:0:0:
376,296,50805,1,0,0:0:0:0:
244,312,51138,1,0,0:0:0:0:
196,224,51471,1,0,0:0:0:0:
192,132,51693,5,0,0:0:0:0:
228,96,51776,1,0,0:0:0:0:
264,84,51860,1,0,0:0:0:0:
304,80,51943,1,0,0:0:0:0:
348,84,52026,1,0,0:0:0:0:
124,304,52304,1,0,0:0:0:0:
232,192,52471,1,0,0:0:0:0:
328,140,52804,1,0,0:0:0:0:
432,168,53137,1,0,0:0:0:0:
472,260,53470,1,0,0:0:0:0:
416,340,53804,1,0,0:0:0:0:
312,360,54137,1,0,0:0:0:0:
332,80,54470,5,0,0:0:0:0:
300,104,54581,1,0,0:0:0:0:
288,128,54692,1,0,0:0:0:0:
316,272,55136,5,4,0:0:0:0:
384,104,55359,1,8,0:0:0:0:
136,144,55525,5,0,0:0:0:0:
328,112,55692,1,0,0:0:0:0:
396,252,55858,2,0,P|352:292|260:284,1,153.000002918243
316,272,56469,5,4,0:0:0:0:
384,104,56692,1,8,0:0:0:0:
136,144,56858,5,0,0:0:0:0:
328,112,57025,1,0,0:0:0:0:
256,192,57191,12,12,58524,0:0:0:0:
400,76,58802,5,8,0:0:0:0:
108,312,59079,1,8,0:0:0:0:
256,192,59357,1,14,0:0:0:0:
336,72,59690,6,2,P|384:104|396:148,1,80
392,240,59968,6,0,P|380:280|300:300,1,120.000004577637
216,272,60357,1,0,0:0:0:0:
152,196,60523,1,0,0:0:0:0:
196,68,60690,2,0,P|240:40|300:56,1,90.0000034332277
400,120,61023,1,0,0:0:0:0:
400,268,61190,2,0,P|384:312|276:332,1,150.000005722046
196,272,61690,1,0,0:0:0:0:
128,176,61856,1,0,0:0:0:0:
204,92,62023,1,0,0:0:0:0:
312,256,62189,1,0,0:0:0:0:
316,84,62356,1,0,0:0:0:0:
188,256,62523,1,0,0:0:0:0:
368,280,62689,6,0,P|360:312|308:320,1,90.0000034332277
192,284,63022,1,0,0:0:0:0:
156,132,63189,1,0,0:0:0:0:
264,64,63356,2,0,P|300:64|360:100,1,90.0000034332277
396,212,63689,1,0,0:0:0:0:
348,304,63855,2,0,P|312:272|256:276,1,90.0000034332277
348,304,64189,2,0,P|325:261|271:246,1,90.0000034332277
348,304,64522,2,0,P|340:256|295:223,1,90.0000034332277
348,304,64855,2,0,P|357:256|326:210,1,90.0000034332277
408,300,65188,1,0,0:0:0:0:
256,192,65355,5,0,0:0:0:0:
256,192,65688,1,0,0:0:0:0:
388,80,66021,1,0,0:0:0:0:
388,300,66188,1,0,0:0:0:0:
124,304,66355,1,0,0:0:0:0:
128,84,66522,1,0,0:0:0:0:
380,204,66688,6,0,L|400:252,3,45.0000017166138
332,284,67021,2,0,L|288:292,3,45.0000017166138
252,232,67354,2,0,L|232:180,3,45.0000017166138
300,160,67687,1,0,0:0:0:0:
328,120,67771,1,0,0:0:0:0:
316,64,67854,1,0,0:0:0:0:
264,44,67937,1,0,0:0:0:0:
212,64,68021,6,0,P|176:96|164:152,1,90.0000034332277
184,208,68354,1,0,0:0:0:0:
232,272,68520,1,0,0:0:0:0:
240,280,68604,1,0,0:0:0:0:
248,288,68687,2,0,P|292:296|344:264,2,90.0000034332277
208,268,69076,1,0,0:0:0:0:
168,240,69187,1,0,0:0:0:0:
148,200,69270,1,0,0:0:0:0:
140,160,69353,6,0,P|144:116|192:104,1,90.0000034332277
212,120,69603,1,0,0:0:0:0:
248,140,69687,2,0,P|300:144|320:88,1,90.0000034332277
264,72,70020,1,0,0:0:0:0:
380,52,70186,5,0,0:0:0:0:
424,60,70270,1,0,0:0:0:0:
472,92,70353,1,0,0:0:0:0:
484,140,70436,1,0,0:0:0:0:
464,184,70520,1,0,0:0:0:0:
416,200,70603,1,0,0:0:0:0:
343,212,70686,6,0,P|287:225|245:278,1,90.0000034332277
211,284,71020,1,0,0:0:0:0:
112,281,71186,1,0,0:0:0:0:
74,203,71353,1,0,0:0:0:0:
127,118,71519,1,0,0:0:0:0:
242,89,71686,1,0,0:0:0:0:
332,149,71853,2,0,P|376:200|363:227,1,90.0000034332277
326,260,72186,2,0,P|286:284|221:269,1,90.0000034332277
190,253,72519,2,0,B|217:214|159:223|180:169,1,90.0000034332277
175,104,72852,2,0,B|186:44|231:101|249:37,1,90.0000034332277
241,55,73185,1,0,0:0:0:0:
241,55,73352,1,0,0:0:0:0:
347,117,73519,5,0,0:0:0:0:
273,163,73685,2,0,P|255:219|274:275,1,90.0000034332277
194,125,74018,1,0,0:0:0:0:
270,162,74185,2,0,P|252:226|269:263,1,90.0000034332277
258,246,74518,1,0,0:0:0:0:
380,249,74685,2,0,P|371:305|320:335,1,90.0000034332277
132,249,75018,2,0,P|141:305|192:335,1,90.0000034332277
309,249,75351,2,0,P|300:305|249:335,1,90.0000034332277
203,249,75685,2,0,P|212:305|263:335,1,90.0000034332277
256,240,76018,1,0,0:0:0:0:
372,72,76351,6,0,B|328:132|432:132|376:216,1,135.000005149841
387,195,76684,1,0,0:0:0:0:
124,195,76851,1,0,0:0:0:0:
321,193,77017,1,0,0:0:0:0:
190,193,77184,1,0,0:0:0:0:
312,280,77351,2,0,L|352:260,1,45.0000017166138
288,220,77517,2,0,L|344:196,1,45.0000017166138
256,164,77684,2,0,L|320:136,1,45.0000017166138
224,112,77850,2,0,L|288:80,1,45.0000017166138
148,80,78017,2,0,L|148:128,1,45.0000017166138
256,112,78184,2,0,L|256:160,1,45.0000017166138
380,164,78350,2,0,L|380:216,1,45.0000017166138
256,224,78517,2,0,L|256:272,1,45.0000017166138
256,340,78683,5,0,0:0:0:0:
256,192,78850,1,0,0:0:0:0:
312,60,79017,2,0,P|368:96|388:132,1,90.0000034332277
312,120,79350,2,0,P|296:172|328:216,1,90.0000034332277
356,160,79683,2,0,P|376:208|352:268,1,90.0000034332277
344,268,80016,1,0,0:0:0:0:
308,288,80100,1,0,0:0:0:0:
264,268,80183,1,0,0:0:0:0:
240,228,80266,1,0,0:0:0:0:
252,176,80349,1,0,0:0:0:0:
280,144,80433,1,0,0:0:0:0:
320,132,80516,1,0,0:0:0:0:
356,156,80599,1,0,0:0:0:0:
356,184,80683,2,0,P|352:212|336:232,8,45.0000017166138
256,192,90679,12,0,92012,0:0:0:0:
296,132,92179,5,0,0:0:0:0:
312,124,92345,2,0,P|336:144|336:168,1,45.0000017166138
328,180,92678,1,0,0:0:0:0:
320,188,92845,2,0,P|300:196|288:220,2,45.0000017166138
336,184,93345,1,0,0:0:0:0:
356,180,93511,2,0,P|384:168|400:144,1,45.0000017166138
393,157,93845,2,0,P|384:120|396:100,1,45.0000017166138
396,164,94178,2,0,P|432:152|452:160,1,45.0000017166138
396,164,94511,2,0,P|404:192|400:220,1,45.0000017166138
403,207,94844,1,0,0:0:0:0:
404,216,95011,2,0,P|392:248|368:256,1,45.0000017166138
384,252,95344,2,0,P|344:260|328:252,1,45.0000017166138
328,240,95677,2,0,P|280:216|256:240,1,90.0000034332277
268,244,96177,1,0,0:0:0:0:
268,244,96260,1,0,0:0:0:0:
268,244,96344,2,0,P|252:268|240:264,1,45.0000017166138
212,272,96677,1,0,0:0:0:0:
140,176,96844,1,0,0:0:0:0:
84,296,97010,1,0,0:0:0:0:
256,120,97343,6,0,P|292:108|328:120,1,67.5000025749207
320,120,97677,2,0,P|320:148|368:152,1,67.5000025749207
364,160,98010,2,0,P|400:160|420:188,1,67.5000025749207
412,196,98343,2,0,P|408:232|416:256,1,45.0000017166138
408,252,98676,2,0,L|424:316,1,45.0000017166138
418,295,99009,2,0,L|372:312,1,45.0000017166138
376,310,99343,2,0,L|340:276,1,45.0000017166138
336,272,99676,2,0,L|356:224,1,45.0000017166138
353,230,100009,1,0,0:0:0:0:
252,64,100176,1,0,0:0:0:0:
172,256,100342,1,0,0:0:0:0:
360,112,100509,1,0,0:0:0:0:
160,112,100675,1,0,0:0:0:0:
344,256,100842,1,0,0:0:0:0:
160,112,101009,1,0,0:0:0:0:
256,192,101175,12,0,102675,0:0:0:0:
256,32,103008,6,0,B|-32:72|-32:72|544:80|544:80|4:120|4:120|500:144|500:144|16:172|16:172|460:200|460:200|40:224|44:224|424:256|416:256|84:288|92:288|400:288|392:288|116:316|128:320|344:328|336:328|180:344|192:344|296:352|288:352|232:364|240:360|264:360|264:360|256:372,1,3285.00012531281
