osu file format v14

[General]
AudioFilename: 13. Vanitas.mp3
AudioLeadIn: 0
PreviewTime: -1
Countdown: 0
SampleSet: None
StackLeniency: 0.7
Mode: 3
LetterboxInBreaks: 1
SpecialStyle: 0
WidescreenStoryboard: 0

[Editor]
DistanceSpacing: 0.8
BeatDivisor: 8
GridSize: 8
TimelineZoom: 2.5

[Metadata]
Title:Vanitas
TitleUnicode:Vanitas
Artist:Xi
ArtistUnicode:Xi
Creator:Armed Jellyfish
Version:The Journey of Creation
Source:Z : 2
Tags:Xi Vanitas
BeatmapID:888888
BeatmapSetID:409481

[Difficulty]
HPDrainRate:8
CircleSize:4
OverallDifficulty:5
ApproachRate:5
SliderMultiplier:1.4
SliderTickRate:1

[Events]
//Background and Video events
0,0,"bg.png",0,0
//Break Periods
//Storyboard Layer 0 (Background)
//Storyboard Layer 1 (Fail)
//Storyboard Layer 2 (Pass)
//Storyboard Layer 3 (Foreground)
//Storyboard Sound Samples

[TimingPoints]
413,300,4,1,0,0,1,0

[HitObjects]
64,192,413,5,0,0:0:0:0:
192,192,413,1,0,0:0:0:0:
320,192,1613,1,0,0:0:0:0:
448,192,1663,1,0,0:0:0:0:
320,192,2813,1,0,0:0:0:0:
448,192,2813,1,0,0:0:0:0:
64,192,4013,1,0,0:0:0:0:
320,192,4013,1,0,0:0:0:0:
64,192,5213,1,0,0:0:0:0:
192,192,5213,1,0,0:0:0:0:
320,192,5213,1,0,0:0:0:0:
64,192,6413,1,0,0:0:0:0:
192,192,7013,1,0,0:0:0:0:
320,192,7013,1,0,0:0:0:0:
448,192,7013,1,0,0:0:0:0:
64,192,7613,1,0,0:0:0:0:
320,192,7613,1,0,0:0:0:0:
64,192,8813,1,0,0:0:0:0:
320,192,8813,1,0,0:0:0:0:
64,192,9413,1,0,0:0:0:0:
448,192,9713,1,0,0:0:0:0:
192,192,10013,1,0,0:0:0:0:
320,192,10013,1,0,0:0:0:0:
192,192,11213,1,0,0:0:0:0:
64,192,12413,1,0,0:0:0:0:
64,192,13613,1,0,0:0:0:0:
192,192,13613,1,0,0:0:0:0:
64,192,14813,1,0,0:0:0:0:
192,192,14813,1,0,0:0:0:0:
320,192,14813,1,0,0:0:0:0:
192,192,16013,1,0,0:0:0:0:
320,192,16013,1,0,0:0:0:0:
448,192,16013,1,0,0:0:0:0:
64,192,17213,1,0,0:0:0:0:
320,192,17213,1,0,0:0:0:0:
64,192,18413,1,0,0:0:0:0:
192,192,18463,1,0,0:0:0:0:
64,192,19613,1,0,0:0:0:0:
192,192,19613,1,0,0:0:0:0:
320,192,19613,1,0,0:0:0:0:
448,192,19613,1,0,0:0:0:0:
64,192,20513,1,0,0:0:0:0:
192,192,20588,1,0,0:0:0:0:
320,192,20663,1,0,0:0:0:0:
448,192,20738,1,0,0:0:0:0:
64,192,20813,1,0,0:0:0:0:
192,192,20813,1,0,0:0:0:0:
320,192,20813,1,0,0:0:0:0:
64,192,22013,1,0,0:0:0:0:
448,192,22013,1,0,0:0:0:0:
64,192,22913,1,0,0:0:0:0:
192,192,22988,1,0,0:0:0:0:
320,192,23063,1,0,0:0:0:0:
192,192,23138,1,0,0:0:0:0:
64,192,23213,1,0,0:0:0:0:
448,192,23213,1,0,0:0:0:0:
192,192,23963,1,0,0:0:0:0:
64,192,24113,1,0,0:0:0:0:
192,192,24188,1,0,0:0:0:0:
320,192,24263,1,0,0:0:0:0:
192,192,24338,1,0,0:0:0:0:
320,192,24413,1,0,0:0:0:0:
448,192,24413,1,0,0:0:0:0:
64,192,26213,1,0,0:0:0:0:
448,192,26213,1,0,0:0:0:0:
64,192,26813,1,0,0:0:0:0:
320,192,26813,1,0,0:0:0:0:
448,192,28013,1,0,0:0:0:0:
320,192,28313,1,0,0:0:0:0:
192,192,28613,1,0,0:0:0:0:
320,192,28613,1,0,0:0:0:0:
448,192,28613,1,0,0:0:0:0:
64,192,28913,1,0,0:0:0:0:
64,192,29213,1,0,0:0:0:0:
192,192,29213,1,0,0:0:0:0:
320,192,29213,1,0,0:0:0:0:
448,192,29213,1,0,0:0:0:0:
64,192,29363,1,0,0:0:0:0:
64,192,29663,1,0,0:0:0:0:
64,192,29963,1,0,0:0:0:0:
64,192,30113,1,0,0:0:0:0:
192,192,30188,1,0,0:0:0:0:
64,192,30263,1,0,0:0:0:0:
320,192,30263,1,0,0:0:0:0:
448,192,30338,1,0,0:0:0:0:
64,192,30413,1,0,0:0:0:0:
320,192,30413,1,0,0:0:0:0:
64,192,30563,1,0,0:0:0:0:
64,192,30863,1,0,0:0:0:0:
192,192,31013,1,0,0:0:0:0:
448,192,31013,1,0,0:0:0:0:
64,192,31163,1,0,0:0:0:0:
64,192,31463,1,0,0:0:0:0:
320,192,31463,1,0,0:0:0:0:
448,192,31463,1,0,0:0:0:0:
64,192,31613,1,0,0:0:0:0:
192,192,31613,1,0,0:0:0:0:
320,192,31613,1,0,0:0:0:0:
448,192,31613,1,0,0:0:0:0:
64,192,31763,1,0,0:0:0:0:
64,192,32063,1,0,0:0:0:0:
64,192,32363,1,0,0:0:0:0:
320,192,32363,1,0,0:0:0:0:
64,192,32513,1,0,0:0:0:0:
192,192,32588,1,0,0:0:0:0:
64,192,32663,1,0,0:0:0:0:
320,192,32663,1,0,0:0:0:0:
448,192,32738,1,0,0:0:0:0:
64,192,32813,1,0,0:0:0:0:
192,192,32813,1,0,0:0:0:0:
320,192,32813,1,0,0:0:0:0:
448,192,32813,1,0,0:0:0:0:
64,192,32963,1,0,0:0:0:0:
64,192,33263,1,0,0:0:0:0:
64,192,33563,1,0,0:0:0:0:
64,192,33863,1,0,0:0:0:0:
64,192,34013,1,0,0:0:0:0:
192,192,34013,1,0,0:0:0:0:
320,192,34013,1,0,0:0:0:0:
448,192,34013,1,0,0:0:0:0:
64,192,34163,1,0,0:0:0:0:
64,192,34463,1,0,0:0:0:0:
64,192,34763,1,0,0:0:0:0:
192,192,34763,1,0,0:0:0:0:
320,192,34913,1,0,0:0:0:0:
64,192,35063,1,0,0:0:0:0:
448,192,35063,1,0,0:0:0:0:
64,192,35213,1,0,0:0:0:0:
192,192,35213,1,0,0:0:0:0:
320,192,35213,1,0,0:0:0:0:
448,192,35213,1,0,0:0:0:0:
64,192,35363,1,0,0:0:0:0:
64,192,35663,1,0,0:0:0:0:
64,192,35813,1,0,0:0:0:0:
192,192,35813,1,0,0:0:0:0:
320,192,35813,1,0,0:0:0:0:
448,192,35813,1,0,0:0:0:0:
64,192,35963,1,0,0:0:0:0:
64,192,36263,1,0,0:0:0:0:
64,192,36413,1,0,0:0:0:0:
192,192,36413,1,0,0:0:0:0:
320,192,36413,1,0,0:0:0:0:
448,192,36413,1,0,0:0:0:0:
192,192,36488,1,0,0:0:0:0:
64,192,36563,1,0,0:0:0:0:
192,192,36638,1,0,0:0:0:0:
64,192,36713,1,0,0:0:0:0:
192,192,36788,1,0,0:0:0:0:
64,192,36863,1,0,0:0:0:0:
192,192,36938,1,0,0:0:0:0:
64,192,37013,1,0,0:0:0:0:
192,192,37088,1,0,0:0:0:0:
64,192,37163,1,0,0:0:0:0:
192,192,37238,1,0,0:0:0:0:
64,192,37313,1,0,0:0:0:0:
192,192,37388,1,0,0:0:0:0:
64,192,37463,1,0,0:0:0:0:
192,192,37538,1,0,0:0:0:0:
320,192,37613,1,0,0:0:0:0:
448,192,37688,1,0,0:0:0:0:
320,192,37763,1,0,0:0:0:0:
448,192,37838,1,0,0:0:0:0:
320,192,37913,1,0,0:0:0:0:
448,192,37988,1,0,0:0:0:0:
320,192,38063,1,0,0:0:0:0:
448,192,38138,1,0,0:0:0:0:
320,192,38213,1,0,0:0:0:0:
448,192,38288,1,0,0:0:0:0:
320,192,38363,1,0,0:0:0:0:
448,192,38438,1,0,0:0:0:0:
320,192,38513,1,0,0:0:0:0:
448,192,38588,1,0,0:0:0:0:
320,192,38663,1,0,0:0:0:0:
192,192,38738,1,0,0:0:0:0:
64,192,38813,1,0,0:0:0:0:
192,192,38888,1,0,0:0:0:0:
64,192,38963,1,0,0:0:0:0:
192,192,39038,1,0,0:0:0:0:
64,192,39113,1,0,0:0:0:0:
192,192,39188,1,0,0:0:0:0:
64,192,39263,1,0,0:0:0:0:
192,192,39338,1,0,0:0:0:0:
320,192,39413,1,0,0:0:0:0:
448,192,39488,1,0,0:0:0:0:
320,192,39563,1,0,0:0:0:0:
448,192,39638,1,0,0:0:0:0:
320,192,39713,1,0,0:0:0:0:
448,192,39788,1,0,0:0:0:0:
320,192,39863,1,0,0:0:0:0:
192,192,39938,1,0,0:0:0:0:
64,192,40013,1,0,0:0:0:0:
192,192,40088,1,0,0:0:0:0:
320,192,40163,1,0,0:0:0:0:
448,192,40238,1,0,0:0:0:0:
320,192,40313,1,0,0:0:0:0:
192,192,40388,1,0,0:0:0:0:
64,192,40463,1,0,0:0:0:0:
448,192,40463,1,0,0:0:0:0:
320,192,40613,1,0,0:0:0:0:
192,192,40763,1,0,0:0:0:0:
64,192,40913,1,0,0:0:0:0:
64,192,41063,1,0,0:0:0:0:
64,192,41213,1,0,0:0:0:0:
192,192,41213,1,0,0:0:0:0:
320,192,41213,1,0,0:0:0:0:
448,192,41213,1,0,0:0:0:0:
64,192,41363,1,0,0:0:0:0:
448,192,41513,1,0,0:0:0:0:
64,192,41663,1,0,0:0:0:0:
192,192,41663,1,0,0:0:0:0:
320,192,41663,1,0,0:0:0:0:
448,192,41813,1,0,0:0:0:0:
64,192,41963,1,0,0:0:0:0:
192,192,42113,1,0,0:0:0:0:
320,192,42113,1,0,0:0:0:0:
448,192,42113,1,0,0:0:0:0:
64,192,42263,1,0,0:0:0:0:
448,192,42413,1,0,0:0:0:0:
64,192,42563,1,0,0:0:0:0:
192,192,42563,1,0,0:0:0:0:
320,192,42563,1,0,0:0:0:0:
448,192,42713,1,0,0:0:0:0:
64,192,42863,1,0,0:0:0:0:
192,192,43013,1,0,0:0:0:0:
320,192,43013,1,0,0:0:0:0:
448,192,43013,1,0,0:0:0:0:
64,192,43163,1,0,0:0:0:0:
64,192,43313,1,0,0:0:0:0:
192,192,43313,1,0,0:0:0:0:
320,192,43313,1,0,0:0:0:0:
192,192,43463,1,0,0:0:0:0:
320,192,43463,1,0,0:0:0:0:
448,192,43463,1,0,0:0:0:0:
64,192,43613,1,0,0:0:0:0:
320,192,43613,1,0,0:0:0:0:
448,192,43613,1,0,0:0:0:0:
192,192,43763,1,0,0:0:0:0:
320,192,43913,1,0,0:0:0:0:
64,192,44063,1,0,0:0:0:0:
192,192,44063,1,0,0:0:0:0:
448,192,44063,1,0,0:0:0:0:
320,192,44213,1,0,0:0:0:0:
192,192,44363,1,0,0:0:0:0:
64,192,44513,1,0,0:0:0:0:
320,192,44513,1,0,0:0:0:0:
448,192,44513,1,0,0:0:0:0:
192,192,44663,1,0,0:0:0:0:
320,192,44813,1,0,0:0:0:0:
64,192,44963,1,0,0:0:0:0:
192,192,44963,1,0,0:0:0:0:
448,192,44963,1,0,0:0:0:0:
320,192,45113,1,0,0:0:0:0:
192,192,45263,1,0,0:0:0:0:
64,192,45413,1,0,0:0:0:0:
320,192,45413,1,0,0:0:0:0:
448,192,45413,1,0,0:0:0:0:
192,192,45563,1,0,0:0:0:0:
64,192,45713,1,0,0:0:0:0:
320,192,45713,1,0,0:0:0:0:
448,192,45713,1,0,0:0:0:0:
192,192,45788,1,0,0:0:0:0:
64,192,45863,1,0,0:0:0:0:
320,192,45863,1,0,0:0:0:0:
448,192,45938,1,0,0:0:0:0:
192,192,46013,1,0,0:0:0:0:
320,192,46013,1,0,0:0:0:0:
448,192,46013,1,0,0:0:0:0:
64,192,46163,1,0,0:0:0:0:
448,192,46313,1,0,0:0:0:0:
64,192,46463,1,0,0:0:0:0:
192,192,46463,1,0,0:0:0:0:
320,192,46463,1,0,0:0:0:0:
448,192,46613,1,0,0:0:0:0:
64,192,46763,1,0,0:0:0:0:
192,192,46913,1,0,0:0:0:0:
320,192,46913,1,0,0:0:0:0:
448,192,46913,1,0,0:0:0:0:
64,192,47063,1,0,0:0:0:0:
448,192,47213,1,0,0:0:0:0:
64,192,47363,1,0,0:0:0:0:
192,192,47363,1,0,0:0:0:0:
320,192,47363,1,0,0:0:0:0:
448,192,47513,1,0,0:0:0:0:
64,192,47663,1,0,0:0:0:0:
192,192,47813,1,0,0:0:0:0:
320,192,47813,1,0,0:0:0:0:
448,192,47813,1,0,0:0:0:0:
64,192,47963,1,0,0:0:0:0:
64,192,48113,1,0,0:0:0:0:
192,192,48113,1,0,0:0:0:0:
320,192,48113,1,0,0:0:0:0:
192,192,48263,1,0,0:0:0:0:
320,192,48263,1,0,0:0:0:0:
448,192,48263,1,0,0:0:0:0:
64,192,48413,1,0,0:0:0:0:
320,192,48413,1,0,0:0:0:0:
448,192,48413,1,0,0:0:0:0:
192,192,48563,1,0,0:0:0:0:
320,192,48713,1,0,0:0:0:0:
64,192,48863,1,0,0:0:0:0:
192,192,48863,1,0,0:0:0:0:
448,192,48863,1,0,0:0:0:0:
320,192,49013,1,0,0:0:0:0:
192,192,49163,1,0,0:0:0:0:
64,192,49313,1,0,0:0:0:0:
320,192,49313,1,0,0:0:0:0:
448,192,49313,1,0,0:0:0:0:
192,192,49463,1,0,0:0:0:0:
320,192,49613,1,0,0:0:0:0:
64,192,49763,1,0,0:0:0:0:
192,192,49763,1,0,0:0:0:0:
448,0,49763,128,0,49913:1:0:0:0:
320,192,49913,1,0,0:0:0:0:
192,192,49988,1,0,0:0:0:0:
64,192,50063,1,0,0:0:0:0:
192,192,50138,1,0,0:0:0:0:
64,192,50213,1,0,0:0:0:0:
192,192,50213,1,0,0:0:0:0:
320,192,50213,1,0,0:0:0:0:
448,192,50213,1,0,0:0:0:0:
64,192,50438,1,0,0:0:0:0:
192,192,50438,1,0,0:0:0:0:
320,192,50438,1,0,0:0:0:0:
448,192,50438,1,0,0:0:0:0:
64,192,50513,1,0,0:0:0:0:
448,192,50513,1,0,0:0:0:0:
192,192,50588,1,0,0:0:0:0:
64,192,50663,1,0,0:0:0:0:
192,192,50663,1,0,0:0:0:0:
320,192,50663,1,0,0:0:0:0:
448,192,50663,1,0,0:0:0:0:
448,192,50738,1,0,0:0:0:0:
64,192,50813,1,0,0:0:0:0:
192,192,50813,1,0,0:0:0:0:
320,192,50813,1,0,0:0:0:0:
448,192,50813,1,0,0:0:0:0:
192,192,50963,1,0,0:0:0:0:
64,192,51113,1,0,0:0:0:0:
448,192,51113,1,0,0:0:0:0:
64,192,51263,1,0,0:0:0:0:
192,192,51263,1,0,0:0:0:0:
320,192,51263,1,0,0:0:0:0:
192,192,51413,1,0,0:0:0:0:
448,192,51413,1,0,0:0:0:0:
320,192,51513,1,0,0:0:0:0:
64,192,51563,1,0,0:0:0:0:
192,192,51613,1,0,0:0:0:0:
192,192,51713,1,0,0:0:0:0:
320,192,51713,1,0,0:0:0:0:
448,192,51713,1,0,0:0:0:0:
64,192,51813,1,0,0:0:0:0:
192,192,51863,1,0,0:0:0:0:
448,192,51863,1,0,0:0:0:0:
320,192,51913,1,0,0:0:0:0:
64,192,52013,1,0,0:0:0:0:
192,192,52013,1,0,0:0:0:0:
448,192,52013,1,0,0:0:0:0:
448,192,52113,1,0,0:0:0:0:
64,192,52163,1,0,0:0:0:0:
192,192,52163,1,0,0:0:0:0:
320,192,52163,1,0,0:0:0:0:
448,192,52213,1,0,0:0:0:0:
64,192,52313,1,0,0:0:0:0:
192,192,52313,1,0,0:0:0:0:
320,192,52313,1,0,0:0:0:0:
192,192,52413,1,0,0:0:0:0:
320,192,52463,1,0,0:0:0:0:
448,192,52463,1,0,0:0:0:0:
64,192,52513,1,0,0:0:0:0:
192,192,52613,1,0,0:0:0:0:
320,192,52613,1,0,0:0:0:0:
448,192,52613,1,0,0:0:0:0:
448,192,52713,1,0,0:0:0:0:
64,192,52763,1,0,0:0:0:0:
320,192,52813,1,0,0:0:0:0:
64,192,52913,1,0,0:0:0:0:
192,192,52913,1,0,0:0:0:0:
320,192,52913,1,0,0:0:0:0:
64,192,53013,1,0,0:0:0:0:
192,192,53063,1,0,0:0:0:0:
320,192,53063,1,0,0:0:0:0:
448,192,53063,1,0,0:0:0:0:
64,192,53113,1,0,0:0:0:0:
64,192,53213,1,0,0:0:0:0:
320,192,53213,1,0,0:0:0:0:
448,192,53213,1,0,0:0:0:0:
448,192,53313,1,0,0:0:0:0:
64,192,53363,1,0,0:0:0:0:
320,192,53363,1,0,0:0:0:0:
192,192,53413,1,0,0:0:0:0:
64,192,53513,1,0,0:0:0:0:
448,192,53513,1,0,0:0:0:0:
320,192,53613,1,0,0:0:0:0:
64,192,53663,1,0,0:0:0:0:
192,192,53663,1,0,0:0:0:0:
448,192,53663,1,0,0:0:0:0:
320,192,53713,1,0,0:0:0:0:
192,192,53813,1,0,0:0:0:0:
448,192,53813,1,0,0:0:0:0:
64,192,53913,1,0,0:0:0:0:
320,192,53963,1,0,0:0:0:0:
448,192,53963,1,0,0:0:0:0:
192,192,54013,1,0,0:0:0:0:
64,192,54113,1,0,0:0:0:0:
320,192,54113,1,0,0:0:0:0:
448,192,54113,1,0,0:0:0:0:
192,192,54213,1,0,0:0:0:0:
64,192,54263,1,0,0:0:0:0:
320,192,54263,1,0,0:0:0:0:
448,192,54313,1,0,0:0:0:0:
64,192,54413,1,0,0:0:0:0:
320,192,54413,1,0,0:0:0:0:
320,192,54513,1,0,0:0:0:0:
64,192,54563,1,0,0:0:0:0:
192,192,54563,1,0,0:0:0:0:
448,192,54563,1,0,0:0:0:0:
320,192,54613,1,0,0:0:0:0:
64,192,54713,1,0,0:0:0:0:
192,192,54713,1,0,0:0:0:0:
448,192,54813,1,0,0:0:0:0:
64,192,54863,1,0,0:0:0:0:
320,192,54863,1,0,0:0:0:0:
192,192,54913,1,0,0:0:0:0:
64,192,55013,1,0,0:0:0:0:
320,192,55013,1,0,0:0:0:0:
448,192,55013,1,0,0:0:0:0:
64,192,55113,1,0,0:0:0:0:
320,192,55163,1,0,0:0:0:0:
448,192,55163,1,0,0:0:0:0:
192,192,55213,1,0,0:0:0:0:
64,192,55313,1,0,0:0:0:0:
448,192,55313,1,0,0:0:0:0:
64,192,55388,1,0,0:0:0:0:
192,192,55388,1,0,0:0:0:0:
192,192,55463,1,0,0:0:0:0:
320,192,55463,1,0,0:0:0:0:
320,192,55538,1,0,0:0:0:0:
448,192,55538,1,0,0:0:0:0:
64,192,55613,1,0,0:0:0:0:
192,192,55613,1,0,0:0:0:0:
320,192,55613,1,0,0:0:0:0:
448,192,55613,1,0,0:0:0:0:
64,192,55763,1,0,0:0:0:0:
448,192,55913,1,0,0:0:0:0:
64,192,56063,1,0,0:0:0:0:
192,192,56063,1,0,0:0:0:0:
320,192,56063,1,0,0:0:0:0:
448,192,56213,1,0,0:0:0:0:
64,192,56363,1,0,0:0:0:0:
192,192,56513,1,0,0:0:0:0:
320,192,56513,1,0,0:0:0:0:
448,192,56513,1,0,0:0:0:0:
64,192,56663,1,0,0:0:0:0:
192,192,56663,1,0,0:0:0:0:
64,192,56813,1,0,0:0:0:0:
192,192,56813,1,0,0:0:0:0:
320,192,56813,1,0,0:0:0:0:
448,192,56813,1,0,0:0:0:0:
64,192,56963,1,0,0:0:0:0:
192,192,56963,1,0,0:0:0:0:
320,192,56963,1,0,0:0:0:0:
320,192,57113,1,0,0:0:0:0:
448,192,57113,1,0,0:0:0:0:
320,192,57213,1,0,0:0:0:0:
64,192,57263,1,0,0:0:0:0:
192,192,57263,1,0,0:0:0:0:
448,192,57313,1,0,0:0:0:0:
64,192,57413,1,0,0:0:0:0:
192,192,57413,1,0,0:0:0:0:
320,192,57413,1,0,0:0:0:0:
448,192,57413,1,0,0:0:0:0:
192,192,57513,1,0,0:0:0:0:
320,192,57563,1,0,0:0:0:0:
448,192,57563,1,0,0:0:0:0:
64,192,57613,1,0,0:0:0:0:
448,192,57638,1,0,0:0:0:0:
64,192,57713,1,0,0:0:0:0:
192,192,57713,1,0,0:0:0:0:
320,192,57713,1,0,0:0:0:0:
64,192,57813,1,0,0:0:0:0:
192,192,57863,1,0,0:0:0:0:
320,192,57863,1,0,0:0:0:0:
448,192,57863,1,0,0:0:0:0:
64,192,57938,1,0,0:0:0:0:
64,192,58013,1,0,0:0:0:0:
192,192,58013,1,0,0:0:0:0:
320,192,58013,1,0,0:0:0:0:
448,192,58013,1,0,0:0:0:0:
64,192,58163,1,0,0:0:0:0:
192,192,58163,1,0,0:0:0:0:
320,192,58313,1,0,0:0:0:0:
448,192,58313,1,0,0:0:0:0:
64,192,58463,1,0,0:0:0:0:
192,192,58463,1,0,0:0:0:0:
448,192,58463,1,0,0:0:0:0:
64,192,58613,1,0,0:0:0:0:
192,192,58613,1,0,0:0:0:0:
320,192,58613,1,0,0:0:0:0:
448,192,58613,1,0,0:0:0:0:
64,192,58763,1,0,0:0:0:0:
192,192,58763,1,0,0:0:0:0:
64,192,58913,1,0,0:0:0:0:
320,192,58913,1,0,0:0:0:0:
448,192,58913,1,0,0:0:0:0:
64,192,59063,1,0,0:0:0:0:
192,192,59063,1,0,0:0:0:0:
64,192,59213,1,0,0:0:0:0:
192,192,59213,1,0,0:0:0:0:
320,192,59213,1,0,0:0:0:0:
448,192,59213,1,0,0:0:0:0:
192,192,59263,1,0,0:0:0:0:
320,192,59313,1,0,0:0:0:0:
448,192,59363,1,0,0:0:0:0:
320,192,59413,1,0,0:0:0:0:
64,192,59463,1,0,0:0:0:0:
192,192,59513,1,0,0:0:0:0:
320,192,59563,1,0,0:0:0:0:
448,192,59613,1,0,0:0:0:0:
320,192,59663,1,0,0:0:0:0:
64,192,59713,1,0,0:0:0:0:
192,192,59763,1,0,0:0:0:0:
320,192,59813,1,0,0:0:0:0:
448,192,59863,1,0,0:0:0:0:
320,192,59913,1,0,0:0:0:0:
64,192,59963,1,0,0:0:0:0:
192,192,60013,1,0,0:0:0:0:
320,192,60063,1,0,0:0:0:0:
448,192,60113,1,0,0:0:0:0:
320,192,60163,1,0,0:0:0:0:
64,192,60213,1,0,0:0:0:0:
192,192,60263,1,0,0:0:0:0:
320,192,60313,1,0,0:0:0:0:
448,192,60363,1,0,0:0:0:0:
64,192,60413,1,0,0:0:0:0:
192,192,60413,1,0,0:0:0:0:
320,192,60413,1,0,0:0:0:0:
448,192,60413,1,0,0:0:0:0:
192,192,60563,1,0,0:0:0:0:
64,192,60713,1,0,0:0:0:0:
320,192,60713,1,0,0:0:0:0:
448,192,60713,1,0,0:0:0:0:
192,192,60788,1,0,0:0:0:0:
64,192,60863,1,0,0:0:0:0:
320,192,60863,1,0,0:0:0:0:
448,192,60863,1,0,0:0:0:0:
192,192,60938,1,0,0:0:0:0:
64,192,61013,1,0,0:0:0:0:
320,192,61013,1,0,0:0:0:0:
448,192,61088,1,0,0:0:0:0:
64,192,61163,1,0,0:0:0:0:
320,192,61163,1,0,0:0:0:0:
192,192,61238,1,0,0:0:0:0:
64,192,61313,1,0,0:0:0:0:
320,192,61313,1,0,0:0:0:0:
448,192,61313,1,0,0:0:0:0:
192,192,61388,1,0,0:0:0:0:
64,192,61463,1,0,0:0:0:0:
192,192,61538,1,0,0:0:0:0:
320,192,61538,1,0,0:0:0:0:
448,192,61538,1,0,0:0:0:0:
64,192,61613,1,0,0:0:0:0:
64,192,61763,1,0,0:0:0:0:
320,192,61763,1,0,0:0:0:0:
448,192,61763,1,0,0:0:0:0:
192,192,61838,1,0,0:0:0:0:
64,192,61913,1,0,0:0:0:0:
320,192,61913,1,0,0:0:0:0:
192,192,61988,1,0,0:0:0:0:
64,192,62063,1,0,0:0:0:0:
448,192,62063,1,0,0:0:0:0:
320,192,62138,1,0,0:0:0:0:
64,192,62213,1,0,0:0:0:0:
192,192,62213,1,0,0:0:0:0:
448,192,62213,1,0,0:0:0:0:
192,192,62288,1,0,0:0:0:0:
64,192,62363,1,0,0:0:0:0:
320,192,62363,1,0,0:0:0:0:
448,192,62438,1,0,0:0:0:0:
192,192,62438,1,0,0:0:0:0:
64,192,62513,1,0,0:0:0:0:
192,192,62513,1,0,0:0:0:0:
448,192,62513,1,0,0:0:0:0:
320,192,62588,1,0,0:0:0:0:
192,192,62663,1,0,0:0:0:0:
448,192,62663,1,0,0:0:0:0:
320,192,62738,1,0,0:0:0:0:
64,192,62813,1,0,0:0:0:0:
192,192,62813,1,0,0:0:0:0:
448,192,62813,1,0,0:0:0:0:
320,192,62888,1,0,0:0:0:0:
192,192,62963,1,0,0:0:0:0:
448,192,62963,1,0,0:0:0:0:
64,192,63038,1,0,0:0:0:0:
192,192,63113,1,0,0:0:0:0:
320,192,63113,1,0,0:0:0:0:
64,192,63188,1,0,0:0:0:0:
192,192,63263,1,0,0:0:0:0:
320,192,63263,1,0,0:0:0:0:
448,192,63263,1,0,0:0:0:0:
64,192,63338,1,0,0:0:0:0:
192,192,63413,1,0,0:0:0:0:
448,192,63413,1,0,0:0:0:0:
320,192,63488,1,0,0:0:0:0:
192,192,63563,1,0,0:0:0:0:
448,192,63563,1,0,0:0:0:0:
64,192,63638,1,0,0:0:0:0:
192,192,63638,1,0,0:0:0:0:
192,192,63713,1,0,0:0:0:0:
320,192,63713,1,0,0:0:0:0:
448,192,63713,1,0,0:0:0:0:
64,192,63863,1,0,0:0:0:0:
64,192,64013,1,0,0:0:0:0:
448,192,64013,1,0,0:0:0:0:
192,192,64088,1,0,0:0:0:0:
64,192,64163,1,0,0:0:0:0:
320,192,64163,1,0,0:0:0:0:
448,192,64163,1,0,0:0:0:0:
320,192,64238,1,0,0:0:0:0:
64,192,64313,1,0,0:0:0:0:
448,192,64313,1,0,0:0:0:0:
192,192,64388,1,0,0:0:0:0:
320,192,64463,1,0,0:0:0:0:
448,192,64463,1,0,0:0:0:0:
64,192,64538,1,0,0:0:0:0:
192,192,64613,1,0,0:0:0:0:
320,192,64613,1,0,0:0:0:0:
448,192,64613,1,0,0:0:0:0:
64,192,64688,1,0,0:0:0:0:
320,192,64763,1,0,0:0:0:0:
448,192,64763,1,0,0:0:0:0:
192,192,64838,1,0,0:0:0:0:
64,192,64913,1,0,0:0:0:0:
320,192,64913,1,0,0:0:0:0:
448,192,64913,1,0,0:0:0:0:
192,192,64988,1,0,0:0:0:0:
64,192,65063,1,0,0:0:0:0:
320,192,65063,1,0,0:0:0:0:
448,192,65063,1,0,0:0:0:0:
192,192,65138,1,0,0:0:0:0:
64,192,65213,1,0,0:0:0:0:
192,192,65213,1,0,0:0:0:0:
320,192,65213,1,0,0:0:0:0:
448,192,65213,1,0,0:0:0:0:
320,192,65363,1,0,0:0:0:0:
192,192,65363,1,0,0:0:0:0:
64,192,65513,1,0,0:0:0:0:
448,192,65513,1,0,0:0:0:0:
192,192,65588,1,0,0:0:0:0:
64,192,65663,1,0,0:0:0:0:
320,192,65663,1,0,0:0:0:0:
448,192,65663,1,0,0:0:0:0:
192,192,65738,1,0,0:0:0:0:
64,192,65813,1,0,0:0:0:0:
320,192,65813,1,0,0:0:0:0:
192,192,65888,1,0,0:0:0:0:
320,192,65963,1,0,0:0:0:0:
448,192,65963,1,0,0:0:0:0:
192,192,66038,1,0,0:0:0:0:
64,192,66113,1,0,0:0:0:0:
320,192,66113,1,0,0:0:0:0:
448,192,66113,1,0,0:0:0:0:
192,192,66263,1,0,0:0:0:0:
64,192,66413,1,0,0:0:0:0:
320,192,66413,1,0,0:0:0:0:
448,192,66413,1,0,0:0:0:0:
192,192,66488,1,0,0:0:0:0:
64,192,66563,1,0,0:0:0:0:
320,192,66563,1,0,0:0:0:0:
448,192,66563,1,0,0:0:0:0:
192,192,66638,1,0,0:0:0:0:
64,192,66713,1,0,0:0:0:0:
448,192,66713,1,0,0:0:0:0:
320,192,66788,1,0,0:0:0:0:
64,192,66863,1,0,0:0:0:0:
448,192,66863,1,0,0:0:0:0:
192,192,66938,1,0,0:0:0:0:
64,192,67013,1,0,0:0:0:0:
320,192,67013,1,0,0:0:0:0:
448,192,67013,1,0,0:0:0:0:
320,192,67088,1,0,0:0:0:0:
64,192,67163,1,0,0:0:0:0:
192,192,67163,1,0,0:0:0:0:
320,192,67238,1,0,0:0:0:0:
64,192,67313,1,0,0:0:0:0:
192,192,67313,1,0,0:0:0:0:
448,192,67313,1,0,0:0:0:0:
192,192,67388,1,0,0:0:0:0:
64,192,67463,1,0,0:0:0:0:
320,192,67463,1,0,0:0:0:0:
64,192,67613,1,0,0:0:0:0:
192,192,67613,1,0,0:0:0:0:
448,192,67613,1,0,0:0:0:0:
320,192,67688,1,0,0:0:0:0:
64,192,67763,1,0,0:0:0:0:
192,192,67763,1,0,0:0:0:0:
448,192,67763,1,0,0:0:0:0:
192,192,67838,1,0,0:0:0:0:
64,192,67913,1,0,0:0:0:0:
320,192,67913,1,0,0:0:0:0:
448,192,67913,1,0,0:0:0:0:
320,192,67988,1,0,0:0:0:0:
64,192,68063,1,0,0:0:0:0:
192,192,68063,1,0,0:0:0:0:
448,192,68063,1,0,0:0:0:0:
320,192,68138,1,0,0:0:0:0:
64,192,68213,1,0,0:0:0:0:
192,192,68213,1,0,0:0:0:0:
320,192,68288,1,0,0:0:0:0:
192,192,68363,1,0,0:0:0:0:
448,192,68363,1,0,0:0:0:0:
64,192,68438,1,0,0:0:0:0:
192,192,68513,1,0,0:0:0:0:
320,192,68513,1,0,0:0:0:0:
448,192,68513,1,0,0:0:0:0:
448,192,68588,1,0,0:0:0:0:
192,192,68663,1,0,0:0:0:0:
320,192,68663,1,0,0:0:0:0:
64,192,68738,1,0,0:0:0:0:
192,192,68813,1,0,0:0:0:0:
448,192,68813,1,0,0:0:0:0:
320,192,68888,1,0,0:0:0:0:
64,192,68963,1,0,0:0:0:0:
192,192,68988,1,0,0:0:0:0:
320,192,69013,1,0,0:0:0:0:
448,192,69038,1,0,0:0:0:0:
64,192,69063,1,0,0:0:0:0:
192,192,69088,1,0,0:0:0:0:
320,192,69113,1,0,0:0:0:0:
448,192,69138,1,0,0:0:0:0:
64,192,69188,1,0,0:0:0:0:
192,192,69263,1,0,0:0:0:0:
320,192,69263,1,0,0:0:0:0:
64,192,69338,1,0,0:0:0:0:
448,192,69338,1,0,0:0:0:0:
64,192,69413,1,0,0:0:0:0:
192,192,69413,1,0,0:0:0:0:
320,192,69413,1,0,0:0:0:0:
448,192,69413,1,0,0:0:0:0:
64,192,69638,1,0,0:0:0:0:
192,192,69638,1,0,0:0:0:0:
320,192,69638,1,0,0:0:0:0:
448,192,69638,1,0,0:0:0:0:
64,192,69863,1,0,0:0:0:0:
192,192,69863,1,0,0:0:0:0:
320,192,69863,1,0,0:0:0:0:
448,192,69863,1,0,0:0:0:0:
64,192,70013,1,0,0:0:0:0:
192,192,70013,1,0,0:0:0:0:
320,192,70013,1,0,0:0:0:0:
448,192,70013,1,0,0:0:0:0:
448,192,70088,1,0,0:0:0:0:
64,192,70163,1,0,0:0:0:0:
320,192,70163,1,0,0:0:0:0:
192,192,70238,1,0,0:0:0:0:
320,192,70313,1,0,0:0:0:0:
448,192,70313,1,0,0:0:0:0:
320,192,70388,1,0,0:0:0:0:
64,192,70463,1,0,0:0:0:0:
192,192,70463,1,0,0:0:0:0:
448,192,70463,1,0,0:0:0:0:
64,192,70538,1,0,0:0:0:0:
192,192,70613,1,0,0:0:0:0:
320,192,70613,1,0,0:0:0:0:
64,192,70688,1,0,0:0:0:0:
192,192,70763,1,0,0:0:0:0:
448,192,70763,1,0,0:0:0:0:
320,192,70838,1,0,0:0:0:0:
64,192,70913,1,0,0:0:0:0:
192,192,70913,1,0,0:0:0:0:
448,192,70913,1,0,0:0:0:0:
64,192,70988,1,0,0:0:0:0:
192,192,71063,1,0,0:0:0:0:
448,192,71063,1,0,0:0:0:0:
320,192,71138,1,0,0:0:0:0:
64,192,71213,1,0,0:0:0:0:
448,192,71213,1,0,0:0:0:0:
192,192,71288,1,0,0:0:0:0:
64,192,71363,1,0,0:0:0:0:
320,192,71363,1,0,0:0:0:0:
448,192,71363,1,0,0:0:0:0:
192,192,71438,1,0,0:0:0:0:
64,192,71513,1,0,0:0:0:0:
320,192,71513,1,0,0:0:0:0:
448,192,71513,1,0,0:0:0:0:
192,192,71588,1,0,0:0:0:0:
64,192,71663,1,0,0:0:0:0:
448,192,71663,1,0,0:0:0:0:
192,192,71738,1,0,0:0:0:0:
64,192,71813,1,0,0:0:0:0:
320,192,71813,1,0,0:0:0:0:
448,192,71813,1,0,0:0:0:0:
320,192,71888,1,0,0:0:0:0:
192,192,71963,1,0,0:0:0:0:
448,192,71963,1,0,0:0:0:0:
320,192,72038,1,0,0:0:0:0:
64,192,72113,1,0,0:0:0:0:
192,192,72113,1,0,0:0:0:0:
448,192,72113,1,0,0:0:0:0:
192,192,72188,1,0,0:0:0:0:
64,192,72263,1,0,0:0:0:0:
320,192,72263,1,0,0:0:0:0:
192,192,72338,1,0,0:0:0:0:
448,192,72338,1,0,0:0:0:0:
64,192,72413,1,0,0:0:0:0:
192,192,72413,1,0,0:0:0:0:
320,192,72488,1,0,0:0:0:0:
64,192,72563,1,0,0:0:0:0:
448,192,72563,1,0,0:0:0:0:
320,192,72638,1,0,0:0:0:0:
192,192,72713,1,0,0:0:0:0:
448,192,72713,1,0,0:0:0:0:
64,192,72788,1,0,0:0:0:0:
192,192,72863,1,0,0:0:0:0:
320,192,72863,1,0,0:0:0:0:
448,192,72863,1,0,0:0:0:0:
320,192,72938,1,0,0:0:0:0:
64,192,73013,1,0,0:0:0:0:
448,192,73013,1,0,0:0:0:0:
192,192,73088,1,0,0:0:0:0:
320,192,73163,1,0,0:0:0:0:
448,192,73163,1,0,0:0:0:0:
192,192,73238,1,0,0:0:0:0:
64,192,73313,1,0,0:0:0:0:
320,192,73313,1,0,0:0:0:0:
448,192,73313,1,0,0:0:0:0:
320,192,73388,1,0,0:0:0:0:
192,192,73463,1,0,0:0:0:0:
448,192,73463,1,0,0:0:0:0:
64,192,73538,1,0,0:0:0:0:
192,192,73613,1,0,0:0:0:0:
192,192,73763,1,0,0:0:0:0:
320,192,73763,1,0,0:0:0:0:
448,192,73763,1,0,0:0:0:0:
64,192,73913,1,0,0:0:0:0:
192,192,73913,1,0,0:0:0:0:
320,192,73913,1,0,0:0:0:0:
448,192,74063,1,0,0:0:0:0:
64,192,74213,1,0,0:0:0:0:
192,192,74213,1,0,0:0:0:0:
320,192,74213,1,0,0:0:0:0:
320,192,74363,1,0,0:0:0:0:
64,192,74438,1,0,0:0:0:0:
192,192,74438,1,0,0:0:0:0:
448,192,74438,1,0,0:0:0:0:
320,192,74513,1,0,0:0:0:0:
192,192,74663,1,0,0:0:0:0:
320,192,74663,1,0,0:0:0:0:
448,192,74663,1,0,0:0:0:0:
64,192,74813,1,0,0:0:0:0:
192,192,74813,1,0,0:0:0:0:
320,192,74813,1,0,0:0:0:0:
448,192,74813,1,0,0:0:0:0:
320,192,74963,1,0,0:0:0:0:
64,192,75113,1,0,0:0:0:0:
448,192,75113,1,0,0:0:0:0:
192,192,75188,1,0,0:0:0:0:
64,192,75263,1,0,0:0:0:0:
320,192,75263,1,0,0:0:0:0:
448,192,75263,1,0,0:0:0:0:
192,192,75338,1,0,0:0:0:0:
64,192,75413,1,0,0:0:0:0:
320,192,75413,1,0,0:0:0:0:
192,192,75488,1,0,0:0:0:0:
64,192,75563,1,0,0:0:0:0:
448,192,75563,1,0,0:0:0:0:
192,192,75638,1,0,0:0:0:0:
64,192,75713,1,0,0:0:0:0:
320,192,75713,1,0,0:0:0:0:
448,192,75713,1,0,0:0:0:0:
448,192,75788,1,0,0:0:0:0:
192,192,75863,1,0,0:0:0:0:
320,192,75863,1,0,0:0:0:0:
64,192,76013,1,0,0:0:0:0:
192,192,76013,1,0,0:0:0:0:
320,192,76013,1,0,0:0:0:0:
448,192,76013,1,0,0:0:0:0:
320,192,76088,1,0,0:0:0:0:
192,192,76163,1,0,0:0:0:0:
448,192,76163,1,0,0:0:0:0:
320,192,76238,1,0,0:0:0:0:
192,192,76313,1,0,0:0:0:0:
448,192,76313,1,0,0:0:0:0:
64,192,76388,1,0,0:0:0:0:
320,192,76463,1,0,0:0:0:0:
448,192,76463,1,0,0:0:0:0:
192,192,76538,1,0,0:0:0:0:
64,192,76613,1,0,0:0:0:0:
192,192,76613,1,0,0:0:0:0:
320,192,76613,1,0,0:0:0:0:
448,192,76613,1,0,0:0:0:0:
192,192,76688,1,0,0:0:0:0:
64,192,76763,1,0,0:0:0:0:
448,192,76763,1,0,0:0:0:0:
320,192,76838,1,0,0:0:0:0:
64,192,76913,1,0,0:0:0:0:
448,192,76913,1,0,0:0:0:0:
192,192,76988,1,0,0:0:0:0:
64,192,77063,1,0,0:0:0:0:
320,192,77063,1,0,0:0:0:0:
448,192,77138,1,0,0:0:0:0:
64,192,77213,1,0,0:0:0:0:
192,192,77213,1,0,0:0:0:0:
320,192,77213,1,0,0:0:0:0:
448,192,77213,1,0,0:0:0:0:
192,192,77288,1,0,0:0:0:0:
64,192,77363,1,0,0:0:0:0:
320,192,77363,1,0,0:0:0:0:
448,192,77438,1,0,0:0:0:0:
192,192,77513,1,0,0:0:0:0:
320,192,77513,1,0,0:0:0:0:
448,192,77588,1,0,0:0:0:0:
64,192,77663,1,0,0:0:0:0:
320,192,77663,1,0,0:0:0:0:
192,192,77738,1,0,0:0:0:0:
64,192,77813,1,0,0:0:0:0:
192,192,77813,1,0,0:0:0:0:
320,192,77813,1,0,0:0:0:0:
448,192,77813,1,0,0:0:0:0:
64,192,77888,1,0,0:0:0:0:
192,192,77963,1,0,0:0:0:0:
320,192,77963,1,0,0:0:0:0:
448,192,78038,1,0,0:0:0:0:
64,192,78113,1,0,0:0:0:0:
320,192,78113,1,0,0:0:0:0:
448,192,78188,1,0,0:0:0:0:
192,192,78263,1,0,0:0:0:0:
320,192,78263,1,0,0:0:0:0:
64,192,78338,1,0,0:0:0:0:
64,192,78413,1,0,0:0:0:0:
192,192,78413,1,0,0:0:0:0:
320,192,78413,1,0,0:0:0:0:
448,192,78413,1,0,0:0:0:0:
320,192,78488,1,0,0:0:0:0:
448,192,78488,1,0,0:0:0:0:
64,192,78563,1,0,0:0:0:0:
192,192,78563,1,0,0:0:0:0:
320,192,78638,1,0,0:0:0:0:
448,192,78638,1,0,0:0:0:0:
64,192,78713,1,0,0:0:0:0:
192,192,78713,1,0,0:0:0:0:
320,192,78788,1,0,0:0:0:0:
448,192,78788,1,0,0:0:0:0:
64,192,78863,1,0,0:0:0:0:
192,192,78863,1,0,0:0:0:0:
320,192,78938,1,0,0:0:0:0:
448,192,78938,1,0,0:0:0:0:
64,192,79013,1,0,0:0:0:0:
192,192,79013,1,0,0:0:0:0:
320,192,79063,1,0,0:0:0:0:
448,192,79063,1,0,0:0:0:0:
64,192,79113,1,0,0:0:0:0:
192,192,79113,1,0,0:0:0:0:
320,192,79163,1,0,0:0:0:0:
448,192,79163,1,0,0:0:0:0:
64,192,79213,1,0,0:0:0:0:
192,192,79213,1,0,0:0:0:0:
320,192,79263,1,0,0:0:0:0:
448,192,79263,1,0,0:0:0:0:
64,192,79313,1,0,0:0:0:0:
192,192,79313,1,0,0:0:0:0:
320,192,79350,1,0,0:0:0:0:
448,192,79350,1,0,0:0:0:0:
64,192,79388,1,0,0:0:0:0:
192,192,79388,1,0,0:0:0:0:
320,192,79425,1,0,0:0:0:0:
448,192,79425,1,0,0:0:0:0:
64,192,79463,1,0,0:0:0:0:
192,192,79463,1,0,0:0:0:0:
320,192,79500,1,0,0:0:0:0:
448,192,79500,1,0,0:0:0:0:
64,192,79538,1,0,0:0:0:0:
192,192,79538,1,0,0:0:0:0:
64,192,79613,1,0,0:0:0:0:
192,192,79613,1,0,0:0:0:0:
320,192,79613,1,0,0:0:0:0:
448,192,79613,1,0,0:0:0:0:
448,192,79763,1,0,0:0:0:0:
64,192,79913,1,0,0:0:0:0:
320,192,79913,1,0,0:0:0:0:
192,192,79988,1,0,0:0:0:0:
64,192,80063,1,0,0:0:0:0:
320,192,80063,1,0,0:0:0:0:
448,192,80063,1,0,0:0:0:0:
192,192,80138,1,0,0:0:0:0:
64,192,80213,1,0,0:0:0:0:
320,192,80213,1,0,0:0:0:0:
192,192,80288,1,0,0:0:0:0:
64,192,80363,1,0,0:0:0:0:
448,192,80363,1,0,0:0:0:0:
192,192,80438,1,0,0:0:0:0:
64,192,80513,1,0,0:0:0:0:
320,192,80513,1,0,0:0:0:0:
448,192,80513,1,0,0:0:0:0:
192,192,80588,1,0,0:0:0:0:
448,192,80588,1,0,0:0:0:0:
64,192,80663,1,0,0:0:0:0:
192,192,80738,1,0,0:0:0:0:
320,192,80738,1,0,0:0:0:0:
448,192,80738,1,0,0:0:0:0:
64,192,80813,1,0,0:0:0:0:
64,192,80963,1,0,0:0:0:0:
320,192,80963,1,0,0:0:0:0:
192,192,81038,1,0,0:0:0:0:
64,192,81113,1,0,0:0:0:0:
448,192,81113,1,0,0:0:0:0:
192,192,81188,1,0,0:0:0:0:
320,192,81263,1,0,0:0:0:0:
448,192,81263,1,0,0:0:0:0:
64,192,81263,1,0,0:0:0:0:
192,192,81338,1,0,0:0:0:0:
192,192,81413,1,0,0:0:0:0:
320,192,81413,1,0,0:0:0:0:
448,192,81413,1,0,0:0:0:0:
64,192,81488,1,0,0:0:0:0:
192,192,81563,1,0,0:0:0:0:
448,192,81563,1,0,0:0:0:0:
320,192,81638,1,0,0:0:0:0:
64,192,81713,1,0,0:0:0:0:
192,192,81713,1,0,0:0:0:0:
320,192,81788,1,0,0:0:0:0:
192,192,81863,1,0,0:0:0:0:
448,192,81863,1,0,0:0:0:0:
320,192,81938,1,0,0:0:0:0:
64,192,82013,1,0,0:0:0:0:
192,192,82013,1,0,0:0:0:0:
448,192,82013,1,0,0:0:0:0:
320,192,82088,1,0,0:0:0:0:
192,192,82163,1,0,0:0:0:0:
448,192,82163,1,0,0:0:0:0:
64,192,82238,1,0,0:0:0:0:
320,192,82313,1,0,0:0:0:0:
448,192,82313,1,0,0:0:0:0:
64,192,82388,1,0,0:0:0:0:
192,192,82463,1,0,0:0:0:0:
448,192,82463,1,0,0:0:0:0:
320,192,82538,1,0,0:0:0:0:
64,192,82613,1,0,0:0:0:0:
192,192,82613,1,0,0:0:0:0:
448,192,82613,1,0,0:0:0:0:
320,192,82688,1,0,0:0:0:0:
192,192,82763,1,0,0:0:0:0:
448,192,82763,1,0,0:0:0:0:
64,192,82838,1,0,0:0:0:0:
192,192,82913,1,0,0:0:0:0:
320,192,82913,1,0,0:0:0:0:
320,192,83063,1,0,0:0:0:0:
64,192,83213,1,0,0:0:0:0:
192,192,83213,1,0,0:0:0:0:
320,192,83213,1,0,0:0:0:0:
448,192,83213,1,0,0:0:0:0:
192,192,83288,1,0,0:0:0:0:
320,192,83363,1,0,0:0:0:0:
448,192,83363,1,0,0:0:0:0:
192,192,83438,1,0,0:0:0:0:
320,192,83513,1,0,0:0:0:0:
448,192,83513,1,0,0:0:0:0:
64,192,83588,1,0,0:0:0:0:
192,192,83663,1,0,0:0:0:0:
448,192,83663,1,0,0:0:0:0:
320,192,83738,1,0,0:0:0:0:
64,192,83813,1,0,0:0:0:0:
192,192,83813,1,0,0:0:0:0:
448,192,83888,1,0,0:0:0:0:
64,192,83963,1,0,0:0:0:0:
320,192,83963,1,0,0:0:0:0:
192,192,84038,1,0,0:0:0:0:
64,192,84113,1,0,0:0:0:0:
448,192,84113,1,0,0:0:0:0:
64,192,84188,1,0,0:0:0:0:
192,192,84188,1,0,0:0:0:0:
192,192,84263,1,0,0:0:0:0:
320,192,84263,1,0,0:0:0:0:
320,192,84338,1,0,0:0:0:0:
448,192,84338,1,0,0:0:0:0:
64,192,84413,1,0,0:0:0:0:
192,192,84413,1,0,0:0:0:0:
448,192,84413,1,0,0:0:0:0:
320,192,84488,1,0,0:0:0:0:
64,192,84563,1,0,0:0:0:0:
448,192,84563,1,0,0:0:0:0:
192,192,84638,1,0,0:0:0:0:
64,192,84713,1,0,0:0:0:0:
448,192,84713,1,0,0:0:0:0:
320,192,84788,1,0,0:0:0:0:
64,192,84863,1,0,0:0:0:0:
192,192,84863,1,0,0:0:0:0:
192,192,84938,1,0,0:0:0:0:
64,192,85013,1,0,0:0:0:0:
320,192,85013,1,0,0:0:0:0:
448,192,85088,1,0,0:0:0:0:
64,192,85163,1,0,0:0:0:0:
320,192,85163,1,0,0:0:0:0:
192,192,85238,1,0,0:0:0:0:
320,192,85313,1,0,0:0:0:0:
448,192,85313,1,0,0:0:0:0:
192,192,85388,1,0,0:0:0:0:
64,192,85463,1,0,0:0:0:0:
320,192,85463,1,0,0:0:0:0:
192,192,85538,1,0,0:0:0:0:
64,192,85613,1,0,0:0:0:0:
448,192,85613,1,0,0:0:0:0:
320,192,85688,1,0,0:0:0:0:
64,192,85763,1,0,0:0:0:0:
192,192,85763,1,0,0:0:0:0:
448,192,85763,1,0,0:0:0:0:
192,192,85838,1,0,0:0:0:0:
64,192,85913,1,0,0:0:0:0:
320,192,85913,1,0,0:0:0:0:
448,192,85913,1,0,0:0:0:0:
64,192,85988,1,0,0:0:0:0:
192,192,86063,1,0,0:0:0:0:
320,192,86063,1,0,0:0:0:0:
448,192,86063,1,0,0:0:0:0:
64,192,86138,1,0,0:0:0:0:
192,192,86213,1,0,0:0:0:0:
320,192,86213,1,0,0:0:0:0:
448,192,86213,1,0,0:0:0:0:
64,192,86288,1,0,0:0:0:0:
192,192,86363,1,0,0:0:0:0:
320,192,86363,1,0,0:0:0:0:
448,192,86363,1,0,0:0:0:0:
320,192,86438,1,0,0:0:0:0:
64,192,86513,1,0,0:0:0:0:
192,192,86513,1,0,0:0:0:0:
448,192,86513,1,0,0:0:0:0:
192,192,86588,1,0,0:0:0:0:
64,192,86663,1,0,0:0:0:0:
320,192,86663,1,0,0:0:0:0:
448,192,86663,1,0,0:0:0:0:
192,192,86738,1,0,0:0:0:0:
64,192,86813,1,0,0:0:0:0:
320,192,86813,1,0,0:0:0:0:
448,192,86813,1,0,0:0:0:0:
320,192,86888,1,0,0:0:0:0:
64,192,86963,1,0,0:0:0:0:
192,192,86963,1,0,0:0:0:0:
448,192,87038,1,0,0:0:0:0:
192,192,87113,1,0,0:0:0:0:
320,192,87113,1,0,0:0:0:0:
448,192,87188,1,0,0:0:0:0:
64,192,87263,1,0,0:0:0:0:
192,192,87263,1,0,0:0:0:0:
320,192,87263,1,0,0:0:0:0:
64,192,87338,1,0,0:0:0:0:
320,192,87338,1,0,0:0:0:0:
192,192,87413,1,0,0:0:0:0:
448,192,87413,1,0,0:0:0:0:
320,192,87488,1,0,0:0:0:0:
448,192,87488,1,0,0:0:0:0:
192,192,87563,1,0,0:0:0:0:
320,192,87563,1,0,0:0:0:0:
64,192,87638,1,0,0:0:0:0:
192,192,87638,1,0,0:0:0:0:
64,192,87713,1,0,0:0:0:0:
448,192,87713,1,0,0:0:0:0:
320,192,87788,1,0,0:0:0:0:
64,192,87863,1,0,0:0:0:0:
192,192,87863,1,0,0:0:0:0:
448,192,87863,1,0,0:0:0:0:
320,192,87938,1,0,0:0:0:0:
64,192,88013,1,0,0:0:0:0:
192,192,88013,1,0,0:0:0:0:
448,192,88013,1,0,0:0:0:0:
64,192,88163,1,0,0:0:0:0:
192,192,88188,1,0,0:0:0:0:
320,192,88213,1,0,0:0:0:0:
448,192,88238,1,0,0:0:0:0:
64,192,88263,1,0,0:0:0:0:
192,192,88288,1,0,0:0:0:0:
320,192,88313,1,0,0:0:0:0:
448,192,88313,1,0,0:0:0:0:
64,192,88388,1,0,0:0:0:0:
192,192,88388,1,0,0:0:0:0:
320,192,88463,1,0,0:0:0:0:
448,192,88463,1,0,0:0:0:0:
64,192,88613,1,0,0:0:0:0:
192,192,88613,1,0,0:0:0:0:
320,192,88613,1,0,0:0:0:0:
448,192,88613,1,0,0:0:0:0:
64,192,88838,1,0,0:0:0:0:
192,192,88838,1,0,0:0:0:0:
320,192,88838,1,0,0:0:0:0:
448,192,88838,1,0,0:0:0:0:
64,192,89063,1,0,0:0:0:0:
192,192,89063,1,0,0:0:0:0:
320,192,89063,1,0,0:0:0:0:
448,192,89063,1,0,0:0:0:0:
64,192,89213,1,0,0:0:0:0:
192,192,89213,1,0,0:0:0:0:
320,192,89213,1,0,0:0:0:0:
448,192,89213,1,0,0:0:0:0:
320,192,89288,1,0,0:0:0:0:
64,192,89363,1,0,0:0:0:0:
448,192,89363,1,0,0:0:0:0:
192,192,89438,1,0,0:0:0:0:
320,192,89513,1,0,0:0:0:0:
448,192,89513,1,0,0:0:0:0:
192,192,89588,1,0,0:0:0:0:
64,192,89663,1,0,0:0:0:0:
320,192,89663,1,0,0:0:0:0:
192,192,89738,1,0,0:0:0:0:
64,192,89813,1,0,0:0:0:0:
448,192,89813,1,0,0:0:0:0:
320,192,89888,1,0,0:0:0:0:
192,192,89963,1,0,0:0:0:0:
448,192,89963,1,0,0:0:0:0:
64,192,90038,1,0,0:0:0:0:
192,192,90113,1,0,0:0:0:0:
320,192,90113,1,0,0:0:0:0:
64,192,90188,1,0,0:0:0:0:
192,192,90263,1,0,0:0:0:0:
448,192,90263,1,0,0:0:0:0:
320,192,90338,1,0,0:0:0:0:
64,192,90413,1,0,0:0:0:0:
448,192,90413,1,0,0:0:0:0:
192,192,90488,1,0,0:0:0:0:
64,192,90563,1,0,0:0:0:0:
320,192,90563,1,0,0:0:0:0:
192,192,90638,1,0,0:0:0:0:
320,192,90713,1,0,0:0:0:0:
448,192,90713,1,0,0:0:0:0:
192,192,90788,1,0,0:0:0:0:
64,192,90863,1,0,0:0:0:0:
320,192,90863,1,0,0:0:0:0:
192,192,90938,1,0,0:0:0:0:
448,192,90938,1,0,0:0:0:0:
64,192,91013,1,0,0:0:0:0:
320,192,91013,1,0,0:0:0:0:
448,192,91088,1,0,0:0:0:0:
192,192,91163,1,0,0:0:0:0:
320,192,91163,1,0,0:0:0:0:
448,192,91238,1,0,0:0:0:0:
64,192,91238,1,0,0:0:0:0:
64,192,91313,1,0,0:0:0:0:
320,192,91313,1,0,0:0:0:0:
192,192,91388,1,0,0:0:0:0:
64,192,91463,1,0,0:0:0:0:
320,192,91463,1,0,0:0:0:0:
448,192,91538,1,0,0:0:0:0:
64,192,91613,1,0,0:0:0:0:
192,192,91613,1,0,0:0:0:0:
320,192,91613,1,0,0:0:0:0:
448,192,91688,1,0,0:0:0:0:
192,192,91763,1,0,0:0:0:0:
320,192,91763,1,0,0:0:0:0:
448,192,91838,1,0,0:0:0:0:
64,192,91913,1,0,0:0:0:0:
320,192,91913,1,0,0:0:0:0:
192,192,91988,1,0,0:0:0:0:
64,192,92063,1,0,0:0:0:0:
448,192,92063,1,0,0:0:0:0:
320,192,92138,1,0,0:0:0:0:
192,192,92213,1,0,0:0:0:0:
448,192,92213,1,0,0:0:0:0:
64,192,92288,1,0,0:0:0:0:
320,192,92363,1,0,0:0:0:0:
448,192,92363,1,0,0:0:0:0:
192,192,92438,1,0,0:0:0:0:
64,192,92438,1,0,0:0:0:0:
320,192,92513,1,0,0:0:0:0:
448,192,92513,1,0,0:0:0:0:
192,192,92588,1,0,0:0:0:0:
64,192,92663,1,0,0:0:0:0:
448,192,92663,1,0,0:0:0:0:
192,192,92738,1,0,0:0:0:0:
64,192,92813,1,0,0:0:0:0:
320,192,92813,1,0,0:0:0:0:
448,192,92813,1,0,0:0:0:0:
64,192,92963,1,0,0:0:0:0:
192,192,92963,1,0,0:0:0:0:
448,192,92963,1,0,0:0:0:0:
64,192,93113,1,0,0:0:0:0:
192,192,93113,1,0,0:0:0:0:
320,192,93263,1,0,0:0:0:0:
64,192,93413,1,0,0:0:0:0:
192,192,93413,1,0,0:0:0:0:
448,192,93413,1,0,0:0:0:0:
448,192,93563,1,0,0:0:0:0:
64,192,93638,1,0,0:0:0:0:
192,192,93638,1,0,0:0:0:0:
320,192,93638,1,0,0:0:0:0:
64,192,93713,1,0,0:0:0:0:
448,192,93713,1,0,0:0:0:0:
320,192,93788,1,0,0:0:0:0:
192,192,93863,1,0,0:0:0:0:
448,192,93863,1,0,0:0:0:0:
320,192,93938,1,0,0:0:0:0:
64,192,94013,1,0,0:0:0:0:
192,192,94013,1,0,0:0:0:0:
320,192,94013,1,0,0:0:0:0:
448,192,94013,1,0,0:0:0:0:
64,192,94088,1,0,0:0:0:0:
192,192,94163,1,0,0:0:0:0:
448,192,94163,1,0,0:0:0:0:
64,192,94238,1,0,0:0:0:0:
192,192,94313,1,0,0:0:0:0:
320,192,94313,1,0,0:0:0:0:
64,192,94388,1,0,0:0:0:0:
192,192,94463,1,0,0:0:0:0:
448,192,94463,1,0,0:0:0:0:
64,192,94538,1,0,0:0:0:0:
320,192,94613,1,0,0:0:0:0:
448,192,94613,1,0,0:0:0:0:
192,192,94688,1,0,0:0:0:0:
320,192,94763,1,0,0:0:0:0:
448,192,94763,1,0,0:0:0:0:
64,192,94838,1,0,0:0:0:0:
192,192,94913,1,0,0:0:0:0:
448,192,94913,1,0,0:0:0:0:
320,192,94988,1,0,0:0:0:0:
64,192,95063,1,0,0:0:0:0:
192,192,95063,1,0,0:0:0:0:
320,192,95138,1,0,0:0:0:0:
64,192,95213,1,0,0:0:0:0:
192,192,95213,1,0,0:0:0:0:
320,192,95213,1,0,0:0:0:0:
448,192,95213,1,0,0:0:0:0:
320,192,95288,1,0,0:0:0:0:
192,192,95363,1,0,0:0:0:0:
448,192,95363,1,0,0:0:0:0:
64,192,95438,1,0,0:0:0:0:
192,192,95513,1,0,0:0:0:0:
448,192,95513,1,0,0:0:0:0:
320,192,95588,1,0,0:0:0:0:
192,192,95663,1,0,0:0:0:0:
448,192,95663,1,0,0:0:0:0:
64,192,95738,1,0,0:0:0:0:
64,192,95813,1,0,0:0:0:0:
192,192,95813,1,0,0:0:0:0:
320,192,95813,1,0,0:0:0:0:
448,192,95813,1,0,0:0:0:0:
64,192,95888,1,0,0:0:0:0:
192,192,95963,1,0,0:0:0:0:
448,192,95963,1,0,0:0:0:0:
320,192,96038,1,0,0:0:0:0:
64,192,96113,1,0,0:0:0:0:
448,192,96113,1,0,0:0:0:0:
320,192,96188,1,0,0:0:0:0:
192,192,96263,1,0,0:0:0:0:
448,192,96263,1,0,0:0:0:0:
64,192,96338,1,0,0:0:0:0:
64,192,96413,1,0,0:0:0:0:
192,192,96413,1,0,0:0:0:0:
320,192,96413,1,0,0:0:0:0:
448,192,96413,1,0,0:0:0:0:
448,192,96488,1,0,0:0:0:0:
64,192,96563,1,0,0:0:0:0:
320,192,96563,1,0,0:0:0:0:
192,192,96638,1,0,0:0:0:0:
64,192,96713,1,0,0:0:0:0:
448,192,96713,1,0,0:0:0:0:
320,192,96788,1,0,0:0:0:0:
192,192,96863,1,0,0:0:0:0:
448,192,96863,1,0,0:0:0:0:
64,192,96938,1,0,0:0:0:0:
64,192,97013,1,0,0:0:0:0:
192,192,97013,1,0,0:0:0:0:
320,192,97013,1,0,0:0:0:0:
448,192,97013,1,0,0:0:0:0:
192,192,97088,1,0,0:0:0:0:
64,192,97163,1,0,0:0:0:0:
320,192,97163,1,0,0:0:0:0:
192,192,97238,1,0,0:0:0:0:
64,192,97313,1,0,0:0:0:0:
320,192,97313,1,0,0:0:0:0:
448,192,97388,1,0,0:0:0:0:
64,192,97463,1,0,0:0:0:0:
320,192,97463,1,0,0:0:0:0:
192,192,97538,1,0,0:0:0:0:
64,192,97613,1,0,0:0:0:0:
192,192,97613,1,0,0:0:0:0:
320,192,97613,1,0,0:0:0:0:
448,192,97613,1,0,0:0:0:0:
320,192,97688,1,0,0:0:0:0:
448,192,97688,1,0,0:0:0:0:
64,192,97763,1,0,0:0:0:0:
192,192,97763,1,0,0:0:0:0:
320,192,97838,1,0,0:0:0:0:
448,192,97838,1,0,0:0:0:0:
64,192,97913,1,0,0:0:0:0:
192,192,97913,1,0,0:0:0:0:
320,192,97988,1,0,0:0:0:0:
448,192,97988,1,0,0:0:0:0:
64,192,98063,1,0,0:0:0:0:
192,192,98063,1,0,0:0:0:0:
320,192,98138,1,0,0:0:0:0:
448,192,98138,1,0,0:0:0:0:
64,192,98213,1,0,0:0:0:0:
192,192,98213,1,0,0:0:0:0:
320,192,98263,1,0,0:0:0:0:
448,192,98263,1,0,0:0:0:0:
64,192,98313,1,0,0:0:0:0:
192,192,98313,1,0,0:0:0:0:
320,192,98363,1,0,0:0:0:0:
448,192,98363,1,0,0:0:0:0:
64,192,98413,1,0,0:0:0:0:
192,192,98413,1,0,0:0:0:0:
320,192,98463,1,0,0:0:0:0:
448,192,98463,1,0,0:0:0:0:
64,192,98513,1,0,0:0:0:0:
192,192,98513,1,0,0:0:0:0:
320,192,98550,1,0,0:0:0:0:
448,192,98550,1,0,0:0:0:0:
64,192,98588,1,0,0:0:0:0:
192,192,98588,1,0,0:0:0:0:
320,192,98625,1,0,0:0:0:0:
448,192,98625,1,0,0:0:0:0:
64,192,98663,1,0,0:0:0:0:
192,192,98663,1,0,0:0:0:0:
320,192,98700,1,0,0:0:0:0:
448,192,98700,1,0,0:0:0:0:
64,192,98738,1,0,0:0:0:0:
192,192,98738,1,0,0:0:0:0:
64,192,98813,1,0,0:0:0:0:
192,192,98813,1,0,0:0:0:0:
320,192,98813,1,0,0:0:0:0:
448,192,98813,1,0,0:0:0:0:
64,192,103613,1,0,0:0:0:0:
448,192,106013,1,0,0:0:0:0:
64,192,108413,1,0,0:0:0:0:
192,192,108413,1,0,0:0:0:0:
320,192,108413,1,0,0:0:0:0:
448,192,108413,1,0,0:0:0:0:
64,192,109613,1,0,0:0:0:0:
192,192,109663,1,0,0:0:0:0:
192,192,110813,1,0,0:0:0:0:
320,192,110813,1,0,0:0:0:0:
64,192,112013,1,0,0:0:0:0:
64,192,113213,1,0,0:0:0:0:
320,192,113213,1,0,0:0:0:0:
448,192,113213,1,0,0:0:0:0:
64,192,114413,1,0,0:0:0:0:
320,192,115013,1,0,0:0:0:0:
448,192,115013,1,0,0:0:0:0:
192,192,115613,1,0,0:0:0:0:
448,192,115613,1,0,0:0:0:0:
64,192,115650,1,0,0:0:0:0:
192,192,116813,1,0,0:0:0:0:
448,192,116813,1,0,0:0:0:0:
64,192,116850,1,0,0:0:0:0:
64,192,117413,1,0,0:0:0:0:
448,192,117713,1,0,0:0:0:0:
64,192,118013,1,0,0:0:0:0:
320,192,118013,1,0,0:0:0:0:
192,192,118113,1,0,0:0:0:0:
320,192,118213,1,0,0:0:0:0:
64,192,118313,1,0,0:0:0:0:
192,192,118413,1,0,0:0:0:0:
320,192,118513,1,0,0:0:0:0:
448,192,118613,1,0,0:0:0:0:
448,192,118913,1,0,0:0:0:0:
320,192,119013,1,0,0:0:0:0:
192,192,119113,1,0,0:0:0:0:
64,192,119213,1,0,0:0:0:0:
192,192,119213,1,0,0:0:0:0:
448,192,119213,1,0,0:0:0:0:
192,192,119313,1,0,0:0:0:0:
320,192,119413,1,0,0:0:0:0:
64,192,119513,1,0,0:0:0:0:
320,192,119613,1,0,0:0:0:0:
192,192,119713,1,0,0:0:0:0:
448,192,119813,1,0,0:0:0:0:
320,192,119913,1,0,0:0:0:0:
192,192,120013,1,0,0:0:0:0:
320,192,120113,1,0,0:0:0:0:
448,192,120213,1,0,0:0:0:0:
320,192,120313,1,0,0:0:0:0:
64,192,120413,1,0,0:0:0:0:
448,192,120413,1,0,0:0:0:0:
192,192,120413,1,0,0:0:0:0:
320,192,120513,1,0,0:0:0:0:
192,192,120613,1,0,0:0:0:0:
320,192,120713,1,0,0:0:0:0:
192,192,120813,1,0,0:0:0:0:
64,192,120913,1,0,0:0:0:0:
64,192,121013,1,0,0:0:0:0:
64,192,121313,1,0,0:0:0:0:
192,192,121413,1,0,0:0:0:0:
320,192,121513,1,0,0:0:0:0:
64,192,121613,1,0,0:0:0:0:
192,192,121613,1,0,0:0:0:0:
448,192,121713,1,0,0:0:0:0:
320,192,121813,1,0,0:0:0:0:
448,192,121913,1,0,0:0:0:0:
320,192,122013,1,0,0:0:0:0:
192,192,122113,1,0,0:0:0:0:
64,192,122213,1,0,0:0:0:0:
64,192,122513,1,0,0:0:0:0:
192,192,122613,1,0,0:0:0:0:
320,192,122713,1,0,0:0:0:0:
64,192,122813,1,0,0:0:0:0:
192,192,122813,1,0,0:0:0:0:
320,192,122813,1,0,0:0:0:0:
448,192,122913,1,0,0:0:0:0:
320,192,123013,1,0,0:0:0:0:
448,192,123113,1,0,0:0:0:0:
320,192,123213,1,0,0:0:0:0:
192,192,123313,1,0,0:0:0:0:
64,192,123413,1,0,0:0:0:0:
64,192,123713,1,0,0:0:0:0:
192,192,123813,1,0,0:0:0:0:
320,192,123913,1,0,0:0:0:0:
192,192,124013,1,0,0:0:0:0:
320,192,124013,1,0,0:0:0:0:
448,192,124013,1,0,0:0:0:0:
448,192,124113,1,0,0:0:0:0:
320,192,124213,1,0,0:0:0:0:
448,192,124313,1,0,0:0:0:0:
320,192,124413,1,0,0:0:0:0:
192,192,124513,1,0,0:0:0:0:
64,192,124613,1,0,0:0:0:0:
192,192,124713,1,0,0:0:0:0:
320,192,124813,1,0,0:0:0:0:
192,192,124913,1,0,0:0:0:0:
320,192,125013,1,0,0:0:0:0:
448,192,125113,1,0,0:0:0:0:
192,192,125213,1,0,0:0:0:0:
448,192,125213,1,0,0:0:0:0:
64,192,125213,1,0,0:0:0:0:
320,192,125313,1,0,0:0:0:0:
192,192,125413,1,0,0:0:0:0:
320,192,125513,1,0,0:0:0:0:
192,192,125613,1,0,0:0:0:0:
64,192,125713,1,0,0:0:0:0:
192,192,125813,1,0,0:0:0:0:
320,192,125913,1,0,0:0:0:0:
448,192,126013,1,0,0:0:0:0:
320,192,126113,1,0,0:0:0:0:
192,192,126213,1,0,0:0:0:0:
320,192,126313,1,0,0:0:0:0:
64,192,126413,1,0,0:0:0:0:
448,192,126413,1,0,0:0:0:0:
192,192,126413,1,0,0:0:0:0:
320,192,126513,1,0,0:0:0:0:
192,192,126613,1,0,0:0:0:0:
320,192,126713,1,0,0:0:0:0:
192,192,126813,1,0,0:0:0:0:
64,192,126913,1,0,0:0:0:0:
192,192,127013,1,0,0:0:0:0:
320,192,127113,1,0,0:0:0:0:
448,192,127213,1,0,0:0:0:0:
64,192,127313,1,0,0:0:0:0:
192,192,127388,1,0,0:0:0:0:
320,192,127463,1,0,0:0:0:0:
448,192,127538,1,0,0:0:0:0:
64,192,127613,1,0,0:0:0:0:
192,192,127613,1,0,0:0:0:0:
320,192,127613,1,0,0:0:0:0:
448,192,127613,1,0,0:0:0:0:
192,192,128063,1,0,0:0:0:0:
192,192,128513,1,0,0:0:0:0:
320,192,128513,1,0,0:0:0:0:
192,192,128813,1,0,0:0:0:0:
448,192,128813,1,0,0:0:0:0:
192,192,129263,1,0,0:0:0:0:
192,192,129713,1,0,0:0:0:0:
192,192,130013,1,0,0:0:0:0:
448,192,130013,1,0,0:0:0:0:
192,192,130463,1,0,0:0:0:0:
192,192,130913,1,0,0:0:0:0:
320,192,130913,1,0,0:0:0:0:
448,192,130913,1,0,0:0:0:0:
192,192,131213,1,0,0:0:0:0:
320,192,131213,1,0,0:0:0:0:
448,192,131213,1,0,0:0:0:0:
192,192,131663,1,0,0:0:0:0:
192,192,131813,1,0,0:0:0:0:
320,192,131813,1,0,0:0:0:0:
448,192,132038,1,0,0:0:0:0:
192,192,132113,1,0,0:0:0:0:
320,192,132263,1,0,0:0:0:0:
192,192,132413,1,0,0:0:0:0:
320,192,132413,1,0,0:0:0:0:
448,192,132413,1,0,0:0:0:0:
192,192,132863,1,0,0:0:0:0:
192,192,133163,1,0,0:0:0:0:
192,192,133313,1,0,0:0:0:0:
320,192,133313,1,0,0:0:0:0:
448,192,133463,1,0,0:0:0:0:
192,192,133613,1,0,0:0:0:0:
448,192,133613,1,0,0:0:0:0:
320,192,133688,1,0,0:0:0:0:
192,192,133763,1,0,0:0:0:0:
320,192,133838,1,0,0:0:0:0:
192,192,133913,1,0,0:0:0:0:
64,192,133988,1,0,0:0:0:0:
192,192,134063,1,0,0:0:0:0:
320,192,134063,1,0,0:0:0:0:
64,192,134138,1,0,0:0:0:0:
320,192,134213,1,0,0:0:0:0:
448,192,134213,1,0,0:0:0:0:
192,192,134513,1,0,0:0:0:0:
192,192,134813,1,0,0:0:0:0:
320,192,134813,1,0,0:0:0:0:
448,192,134863,1,0,0:0:0:0:
192,192,135263,1,0,0:0:0:0:
192,192,135713,1,0,0:0:0:0:
320,192,136013,1,0,0:0:0:0:
448,192,136013,1,0,0:0:0:0:
192,192,136463,1,0,0:0:0:0:
448,192,136613,1,0,0:0:0:0:
192,192,136913,1,0,0:0:0:0:
64,192,137213,1,0,0:0:0:0:
192,192,137213,1,0,0:0:0:0:
320,192,137213,1,0,0:0:0:0:
448,192,137213,1,0,0:0:0:0:
64,192,137363,1,0,0:0:0:0:
64,192,137663,1,0,0:0:0:0:
192,192,137663,1,0,0:0:0:0:
64,192,137963,1,0,0:0:0:0:
192,192,137963,1,0,0:0:0:0:
64,192,138113,1,0,0:0:0:0:
192,192,138113,1,0,0:0:0:0:
320,192,138188,1,0,0:0:0:0:
64,192,138263,1,0,0:0:0:0:
448,192,138263,1,0,0:0:0:0:
448,192,138413,1,0,0:0:0:0:
64,192,138563,1,0,0:0:0:0:
64,192,138863,1,0,0:0:0:0:
192,192,138863,1,0,0:0:0:0:
320,192,139013,1,0,0:0:0:0:
64,192,139163,1,0,0:0:0:0:
192,192,139313,1,0,0:0:0:0:
192,192,139463,1,0,0:0:0:0:
320,192,139463,1,0,0:0:0:0:
448,192,139463,1,0,0:0:0:0:
64,192,139613,1,0,0:0:0:0:
192,192,139613,1,0,0:0:0:0:
320,192,139613,1,0,0:0:0:0:
448,192,139613,1,0,0:0:0:0:
64,192,139763,1,0,0:0:0:0:
64,192,140063,1,0,0:0:0:0:
192,192,140063,1,0,0:0:0:0:
64,192,140363,1,0,0:0:0:0:
192,192,140363,1,0,0:0:0:0:
64,192,140513,1,0,0:0:0:0:
320,192,140513,1,0,0:0:0:0:
192,192,140588,1,0,0:0:0:0:
64,192,140663,1,0,0:0:0:0:
320,192,140663,1,0,0:0:0:0:
448,192,140738,1,0,0:0:0:0:
64,192,140813,1,0,0:0:0:0:
192,192,140813,1,0,0:0:0:0:
320,192,140813,1,0,0:0:0:0:
448,192,140813,1,0,0:0:0:0:
64,192,140963,1,0,0:0:0:0:
64,192,141263,1,0,0:0:0:0:
192,192,141263,1,0,0:0:0:0:
64,192,141563,1,0,0:0:0:0:
192,192,141713,1,0,0:0:0:0:
64,192,141863,1,0,0:0:0:0:
64,192,142013,1,0,0:0:0:0:
192,192,142013,1,0,0:0:0:0:
320,192,142013,1,0,0:0:0:0:
448,192,142013,1,0,0:0:0:0:
64,192,142163,1,0,0:0:0:0:
64,192,142463,1,0,0:0:0:0:
192,192,142463,1,0,0:0:0:0:
64,192,142763,1,0,0:0:0:0:
192,192,142763,1,0,0:0:0:0:
192,192,142913,1,0,0:0:0:0:
320,192,142913,1,0,0:0:0:0:
64,192,143063,1,0,0:0:0:0:
448,192,143063,1,0,0:0:0:0:
64,192,143213,1,0,0:0:0:0:
192,192,143213,1,0,0:0:0:0:
320,192,143213,1,0,0:0:0:0:
448,192,143213,1,0,0:0:0:0:
64,192,143363,1,0,0:0:0:0:
192,192,143513,1,0,0:0:0:0:
64,192,143663,1,0,0:0:0:0:
192,192,143663,1,0,0:0:0:0:
64,192,143813,1,0,0:0:0:0:
192,192,143813,1,0,0:0:0:0:
320,192,143813,1,0,0:0:0:0:
448,192,143813,1,0,0:0:0:0:
64,192,143963,1,0,0:0:0:0:
192,192,144113,1,0,0:0:0:0:
64,192,144263,1,0,0:0:0:0:
192,192,144263,1,0,0:0:0:0:
64,192,144413,1,0,0:0:0:0:
192,192,144413,1,0,0:0:0:0:
320,192,144413,1,0,0:0:0:0:
448,192,144413,1,0,0:0:0:0:
192,192,144488,1,0,0:0:0:0:
64,192,144563,1,0,0:0:0:0:
192,192,144638,1,0,0:0:0:0:
64,192,144713,1,0,0:0:0:0:
448,192,144713,1,0,0:0:0:0:
192,192,144788,1,0,0:0:0:0:
64,192,144863,1,0,0:0:0:0:
192,192,144938,1,0,0:0:0:0:
64,192,145013,1,0,0:0:0:0:
448,192,145013,1,0,0:0:0:0:
192,192,145088,1,0,0:0:0:0:
64,192,145163,1,0,0:0:0:0:
192,192,145238,1,0,0:0:0:0:
64,192,145313,1,0,0:0:0:0:
448,192,145313,1,0,0:0:0:0:
192,192,145388,1,0,0:0:0:0:
64,192,145463,1,0,0:0:0:0:
192,192,145538,1,0,0:0:0:0:
320,192,145613,1,0,0:0:0:0:
448,192,145688,1,0,0:0:0:0:
320,192,145763,1,0,0:0:0:0:
448,192,145838,1,0,0:0:0:0:
320,192,145913,1,0,0:0:0:0:
64,192,145913,1,0,0:0:0:0:
448,192,145988,1,0,0:0:0:0:
320,192,146063,1,0,0:0:0:0:
448,192,146138,1,0,0:0:0:0:
320,192,146213,1,0,0:0:0:0:
64,192,146213,1,0,0:0:0:0:
448,192,146288,1,0,0:0:0:0:
320,192,146363,1,0,0:0:0:0:
448,192,146438,1,0,0:0:0:0:
320,192,146513,1,0,0:0:0:0:
64,192,146513,1,0,0:0:0:0:
448,192,146588,1,0,0:0:0:0:
320,192,146663,1,0,0:0:0:0:
192,192,146738,1,0,0:0:0:0:
64,192,146813,1,0,0:0:0:0:
448,192,146813,1,0,0:0:0:0:
192,192,146888,1,0,0:0:0:0:
64,192,146963,1,0,0:0:0:0:
192,192,147038,1,0,0:0:0:0:
64,192,147113,1,0,0:0:0:0:
448,192,147113,1,0,0:0:0:0:
192,192,147188,1,0,0:0:0:0:
64,192,147263,1,0,0:0:0:0:
192,192,147338,1,0,0:0:0:0:
320,192,147413,1,0,0:0:0:0:
448,192,147488,1,0,0:0:0:0:
320,192,147563,1,0,0:0:0:0:
448,192,147638,1,0,0:0:0:0:
320,192,147713,1,0,0:0:0:0:
448,192,147788,1,0,0:0:0:0:
320,192,147863,1,0,0:0:0:0:
192,192,147938,1,0,0:0:0:0:
64,192,148013,1,0,0:0:0:0:
192,192,148088,1,0,0:0:0:0:
320,192,148163,1,0,0:0:0:0:
448,192,148238,1,0,0:0:0:0:
320,192,148313,1,0,0:0:0:0:
64,192,148313,1,0,0:0:0:0:
192,192,148388,1,0,0:0:0:0:
448,192,148388,1,0,0:0:0:0:
64,192,148463,1,0,0:0:0:0:
320,192,148463,1,0,0:0:0:0:
192,192,148538,1,0,0:0:0:0:
320,192,148613,1,0,0:0:0:0:
448,192,148613,1,0,0:0:0:0:
64,192,148613,1,0,0:0:0:0:
320,192,148763,1,0,0:0:0:0:
192,192,148913,1,0,0:0:0:0:
64,192,149063,1,0,0:0:0:0:
64,192,149213,1,0,0:0:0:0:
192,192,149213,1,0,0:0:0:0:
320,192,149213,1,0,0:0:0:0:
448,192,149213,1,0,0:0:0:0:
64,192,149513,1,0,0:0:0:0:
192,192,149513,1,0,0:0:0:0:
320,192,149513,1,0,0:0:0:0:
64,192,149813,1,0,0:0:0:0:
192,192,149813,1,0,0:0:0:0:
448,192,149813,1,0,0:0:0:0:
192,192,150113,1,0,0:0:0:0:
320,192,150113,1,0,0:0:0:0:
448,192,150113,1,0,0:0:0:0:
64,192,150413,1,0,0:0:0:0:
448,192,150413,1,0,0:0:0:0:
64,192,150713,1,0,0:0:0:0:
192,192,150713,1,0,0:0:0:0:
320,192,150713,1,0,0:0:0:0:
192,192,151013,1,0,0:0:0:0:
320,192,151013,1,0,0:0:0:0:
448,192,151013,1,0,0:0:0:0:
64,192,151313,1,0,0:0:0:0:
320,192,151313,1,0,0:0:0:0:
448,192,151313,1,0,0:0:0:0:
64,192,151613,1,0,0:0:0:0:
448,192,151613,1,0,0:0:0:0:
64,192,151913,1,0,0:0:0:0:
192,192,151913,1,0,0:0:0:0:
320,192,151913,1,0,0:0:0:0:
64,192,152213,1,0,0:0:0:0:
192,192,152213,1,0,0:0:0:0:
448,192,152213,1,0,0:0:0:0:
192,192,152513,1,0,0:0:0:0:
320,192,152513,1,0,0:0:0:0:
448,192,152513,1,0,0:0:0:0:
64,192,152813,1,0,0:0:0:0:
448,192,152813,1,0,0:0:0:0:
192,192,153113,1,0,0:0:0:0:
320,192,153113,1,0,0:0:0:0:
448,192,153113,1,0,0:0:0:0:
64,192,153413,1,0,0:0:0:0:
192,192,153413,1,0,0:0:0:0:
320,192,153413,1,0,0:0:0:0:
192,192,153713,1,0,0:0:0:0:
320,192,153713,1,0,0:0:0:0:
448,192,153713,1,0,0:0:0:0:
64,192,154013,1,0,0:0:0:0:
448,192,154013,1,0,0:0:0:0:
192,192,154163,1,0,0:0:0:0:
64,192,154313,1,0,0:0:0:0:
192,192,154313,1,0,0:0:0:0:
320,192,154313,1,0,0:0:0:0:
192,192,154463,1,0,0:0:0:0:
64,192,154613,1,0,0:0:0:0:
192,192,154613,1,0,0:0:0:0:
448,192,154613,1,0,0:0:0:0:
64,192,154763,1,0,0:0:0:0:
192,192,154913,1,0,0:0:0:0:
320,192,154913,1,0,0:0:0:0:
448,192,154913,1,0,0:0:0:0:
192,192,155063,1,0,0:0:0:0:
64,192,155213,1,0,0:0:0:0:
448,192,155213,1,0,0:0:0:0:
320,192,155363,1,0,0:0:0:0:
64,192,155513,1,0,0:0:0:0:
192,192,155513,1,0,0:0:0:0:
320,192,155513,1,0,0:0:0:0:
448,192,155663,1,0,0:0:0:0:
192,192,155813,1,0,0:0:0:0:
320,192,155813,1,0,0:0:0:0:
448,192,155813,1,0,0:0:0:0:
320,192,155963,1,0,0:0:0:0:
64,192,156113,1,0,0:0:0:0:
320,192,156113,1,0,0:0:0:0:
448,192,156113,1,0,0:0:0:0:
192,192,156263,1,0,0:0:0:0:
64,192,156413,1,0,0:0:0:0:
448,192,156413,1,0,0:0:0:0:
192,192,156563,1,0,0:0:0:0:
64,192,156713,1,0,0:0:0:0:
192,192,156713,1,0,0:0:0:0:
320,192,156713,1,0,0:0:0:0:
320,192,156863,1,0,0:0:0:0:
64,192,157013,1,0,0:0:0:0:
192,192,157013,1,0,0:0:0:0:
448,192,157013,1,0,0:0:0:0:
320,192,157163,1,0,0:0:0:0:
192,192,157313,1,0,0:0:0:0:
320,192,157313,1,0,0:0:0:0:
448,192,157313,1,0,0:0:0:0:
64,192,157463,1,0,0:0:0:0:
64,192,157613,1,0,0:0:0:0:
448,192,157613,1,0,0:0:0:0:
64,192,157763,1,0,0:0:0:0:
192,192,157788,1,0,0:0:0:0:
320,192,157813,1,0,0:0:0:0:
448,192,157838,1,0,0:0:0:0:
64,192,157863,1,0,0:0:0:0:
192,192,157888,1,0,0:0:0:0:
320,192,157913,1,0,0:0:0:0:
448,192,157938,1,0,0:0:0:0:
64,192,157988,1,0,0:0:0:0:
192,192,158063,1,0,0:0:0:0:
448,192,158063,1,0,0:0:0:0:
64,192,158138,1,0,0:0:0:0:
64,192,158213,1,0,0:0:0:0:
192,192,158213,1,0,0:0:0:0:
320,192,158213,1,0,0:0:0:0:
448,192,158363,1,0,0:0:0:0:
192,192,158438,1,0,0:0:0:0:
320,192,158438,1,0,0:0:0:0:
64,192,158513,1,0,0:0:0:0:
320,192,158513,1,0,0:0:0:0:
448,192,158513,1,0,0:0:0:0:
192,192,158588,1,0,0:0:0:0:
64,192,158663,1,0,0:0:0:0:
192,192,158663,1,0,0:0:0:0:
320,192,158663,1,0,0:0:0:0:
448,192,158738,1,0,0:0:0:0:
64,192,158813,1,0,0:0:0:0:
192,192,158813,1,0,0:0:0:0:
320,192,158813,1,0,0:0:0:0:
448,192,158813,1,0,0:0:0:0:
64,192,159113,1,0,0:0:0:0:
192,192,159113,1,0,0:0:0:0:
320,192,159113,1,0,0:0:0:0:
192,192,159188,1,0,0:0:0:0:
64,192,159263,1,0,0:0:0:0:
320,192,159338,1,0,0:0:0:0:
64,192,159413,1,0,0:0:0:0:
192,192,159413,1,0,0:0:0:0:
448,192,159413,1,0,0:0:0:0:
320,192,159488,1,0,0:0:0:0:
192,192,159563,1,0,0:0:0:0:
320,192,159638,1,0,0:0:0:0:
192,192,159713,1,0,0:0:0:0:
320,192,159713,1,0,0:0:0:0:
448,192,159713,1,0,0:0:0:0:
64,192,159788,1,0,0:0:0:0:
192,192,159863,1,0,0:0:0:0:
320,192,159938,1,0,0:0:0:0:
64,192,160013,1,0,0:0:0:0:
192,192,160013,1,0,0:0:0:0:
448,192,160013,1,0,0:0:0:0:
448,192,160163,1,0,0:0:0:0:
320,192,160238,1,0,0:0:0:0:
64,192,160313,1,0,0:0:0:0:
192,192,160313,1,0,0:0:0:0:
448,192,160313,1,0,0:0:0:0:
320,192,160388,1,0,0:0:0:0:
448,192,160463,1,0,0:0:0:0:
192,192,160538,1,0,0:0:0:0:
64,192,160613,1,0,0:0:0:0:
320,192,160613,1,0,0:0:0:0:
448,192,160613,1,0,0:0:0:0:
320,192,160688,1,0,0:0:0:0:
192,192,160763,1,0,0:0:0:0:
64,192,160838,1,0,0:0:0:0:
64,192,160913,1,0,0:0:0:0:
320,192,160913,1,0,0:0:0:0:
448,192,160913,1,0,0:0:0:0:
192,192,160988,1,0,0:0:0:0:
320,192,161063,1,0,0:0:0:0:
192,192,161138,1,0,0:0:0:0:
64,192,161213,1,0,0:0:0:0:
448,192,161213,1,0,0:0:0:0:
320,192,161288,1,0,0:0:0:0:
192,192,161363,1,0,0:0:0:0:
64,192,161438,1,0,0:0:0:0:
64,192,161513,1,0,0:0:0:0:
192,192,161513,1,0,0:0:0:0:
320,192,161513,1,0,0:0:0:0:
192,192,161588,1,0,0:0:0:0:
64,192,161663,1,0,0:0:0:0:
320,192,161738,1,0,0:0:0:0:
64,192,161813,1,0,0:0:0:0:
192,192,161813,1,0,0:0:0:0:
448,192,161813,1,0,0:0:0:0:
320,192,161888,1,0,0:0:0:0:
192,192,161963,1,0,0:0:0:0:
64,192,162038,1,0,0:0:0:0:
192,192,162113,1,0,0:0:0:0:
320,192,162113,1,0,0:0:0:0:
448,192,162113,1,0,0:0:0:0:
64,192,162188,1,0,0:0:0:0:
192,192,162263,1,0,0:0:0:0:
320,192,162338,1,0,0:0:0:0:
64,192,162413,1,0,0:0:0:0:
448,192,162413,1,0,0:0:0:0:
192,192,162488,1,0,0:0:0:0:
320,192,162563,1,0,0:0:0:0:
64,192,162638,1,0,0:0:0:0:
192,192,162713,1,0,0:0:0:0:
320,192,162713,1,0,0:0:0:0:
448,192,162713,1,0,0:0:0:0:
64,192,162788,1,0,0:0:0:0:
192,192,162863,1,0,0:0:0:0:
320,192,162938,1,0,0:0:0:0:
64,192,163013,1,0,0:0:0:0:
192,192,163013,1,0,0:0:0:0:
320,192,163013,1,0,0:0:0:0:
448,192,163088,1,0,0:0:0:0:
320,192,163163,1,0,0:0:0:0:
192,192,163238,1,0,0:0:0:0:
192,192,163313,1,0,0:0:0:0:
320,192,163313,1,0,0:0:0:0:
448,192,163313,1,0,0:0:0:0:
320,192,163388,1,0,0:0:0:0:
192,192,163463,1,0,0:0:0:0:
64,192,163538,1,0,0:0:0:0:
64,192,163613,1,0,0:0:0:0:
192,192,163613,1,0,0:0:0:0:
320,192,163613,1,0,0:0:0:0:
448,192,163613,1,0,0:0:0:0:
448,192,163763,1,0,0:0:0:0:
320,192,163813,1,0,0:0:0:0:
192,192,163863,1,0,0:0:0:0:
64,192,163913,1,0,0:0:0:0:
192,192,163913,1,0,0:0:0:0:
320,192,163913,1,0,0:0:0:0:
448,192,163988,1,0,0:0:0:0:
320,192,164063,1,0,0:0:0:0:
192,192,164138,1,0,0:0:0:0:
64,192,164213,1,0,0:0:0:0:
192,192,164213,1,0,0:0:0:0:
448,192,164213,1,0,0:0:0:0:
320,192,164288,1,0,0:0:0:0:
192,192,164363,1,0,0:0:0:0:
192,192,164513,1,0,0:0:0:0:
320,192,164513,1,0,0:0:0:0:
448,192,164513,1,0,0:0:0:0:
64,192,164588,1,0,0:0:0:0:
192,192,164663,1,0,0:0:0:0:
320,192,164663,1,0,0:0:0:0:
192,192,164738,1,0,0:0:0:0:
64,192,164813,1,0,0:0:0:0:
192,192,164813,1,0,0:0:0:0:
320,192,164813,1,0,0:0:0:0:
448,192,164813,1,0,0:0:0:0:
320,192,164888,1,0,0:0:0:0:
448,192,164963,1,0,0:0:0:0:
320,192,165038,1,0,0:0:0:0:
64,192,165113,1,0,0:0:0:0:
192,192,165113,1,0,0:0:0:0:
320,192,165113,1,0,0:0:0:0:
448,192,165188,1,0,0:0:0:0:
64,192,165263,1,0,0:0:0:0:
320,192,165263,1,0,0:0:0:0:
448,192,165338,1,0,0:0:0:0:
64,192,165413,1,0,0:0:0:0:
192,192,165413,1,0,0:0:0:0:
320,192,165413,1,0,0:0:0:0:
448,192,165413,1,0,0:0:0:0:
320,192,165488,1,0,0:0:0:0:
64,192,165563,1,0,0:0:0:0:
448,192,165563,1,0,0:0:0:0:
192,192,165638,1,0,0:0:0:0:
320,192,165638,1,0,0:0:0:0:
64,192,165713,1,0,0:0:0:0:
320,192,165713,1,0,0:0:0:0:
448,192,165713,1,0,0:0:0:0:
448,192,165788,1,0,0:0:0:0:
64,192,165863,1,0,0:0:0:0:
320,192,165863,1,0,0:0:0:0:
192,192,165938,1,0,0:0:0:0:
448,192,165938,1,0,0:0:0:0:
64,192,166013,1,0,0:0:0:0:
192,192,166013,1,0,0:0:0:0:
320,192,166013,1,0,0:0:0:0:
448,192,166013,1,0,0:0:0:0:
320,192,166088,1,0,0:0:0:0:
192,192,166163,1,0,0:0:0:0:
448,192,166163,1,0,0:0:0:0:
64,192,166238,1,0,0:0:0:0:
192,192,166313,1,0,0:0:0:0:
320,192,166313,1,0,0:0:0:0:
448,192,166313,1,0,0:0:0:0:
192,192,166388,1,0,0:0:0:0:
64,192,166463,1,0,0:0:0:0:
448,192,166463,1,0,0:0:0:0:
192,192,166538,1,0,0:0:0:0:
64,192,166613,1,0,0:0:0:0:
192,192,166613,1,0,0:0:0:0:
320,192,166613,1,0,0:0:0:0:
448,192,166613,1,0,0:0:0:0:
192,192,166688,1,0,0:0:0:0:
320,192,166763,1,0,0:0:0:0:
448,192,166763,1,0,0:0:0:0:
192,192,166838,1,0,0:0:0:0:
64,192,166913,1,0,0:0:0:0:
192,192,166913,1,0,0:0:0:0:
448,192,166913,1,0,0:0:0:0:
320,192,166988,1,0,0:0:0:0:
192,192,167063,1,0,0:0:0:0:
448,192,167063,1,0,0:0:0:0:
320,192,167138,1,0,0:0:0:0:
64,192,167213,1,0,0:0:0:0:
192,192,167213,1,0,0:0:0:0:
320,192,167213,1,0,0:0:0:0:
448,192,167213,1,0,0:0:0:0:
448,192,167263,1,0,0:0:0:0:
320,192,167313,1,0,0:0:0:0:
192,192,167363,1,0,0:0:0:0:
64,192,167413,1,0,0:0:0:0:
192,192,167463,1,0,0:0:0:0:
64,192,167513,1,0,0:0:0:0:
320,192,167513,1,0,0:0:0:0:
448,192,167513,1,0,0:0:0:0:
64,192,167588,1,0,0:0:0:0:
192,192,167588,1,0,0:0:0:0:
320,192,167663,1,0,0:0:0:0:
448,192,167663,1,0,0:0:0:0:
64,192,167738,1,0,0:0:0:0:
192,192,167738,1,0,0:0:0:0:
64,192,167813,1,0,0:0:0:0:
448,192,167813,1,0,0:0:0:0:
320,192,167850,1,0,0:0:0:0:
192,192,167888,1,0,0:0:0:0:
64,192,167925,1,0,0:0:0:0:
448,192,167963,1,0,0:0:0:0:
320,192,168000,1,0,0:0:0:0:
192,192,168038,1,0,0:0:0:0:
64,192,168075,1,0,0:0:0:0:
448,192,168113,1,0,0:0:0:0:
320,192,168150,1,0,0:0:0:0:
192,192,168188,1,0,0:0:0:0:
64,192,168225,1,0,0:0:0:0:
448,192,168263,1,0,0:0:0:0:
320,192,168300,1,0,0:0:0:0:
192,192,168338,1,0,0:0:0:0:
64,192,168375,1,0,0:0:0:0:
64,192,168413,1,0,0:0:0:0:
192,192,168413,1,0,0:0:0:0:
320,192,168413,1,0,0:0:0:0:
448,192,168413,1,0,0:0:0:0:
192,192,168563,1,0,0:0:0:0:
320,192,168713,1,0,0:0:0:0:
448,192,168863,1,0,0:0:0:0:
320,192,169013,1,0,0:0:0:0:
64,192,169163,1,0,0:0:0:0:
448,192,169163,1,0,0:0:0:0:
192,192,169313,1,0,0:0:0:0:
448,192,169313,1,0,0:0:0:0:
64,192,169463,1,0,0:0:0:0:
320,192,169463,1,0,0:0:0:0:
192,192,169613,1,0,0:0:0:0:
320,192,169613,1,0,0:0:0:0:
448,192,169613,1,0,0:0:0:0:
64,192,169763,1,0,0:0:0:0:
192,192,169913,1,0,0:0:0:0:
320,192,170063,1,0,0:0:0:0:
64,192,170213,1,0,0:0:0:0:
320,192,170363,1,0,0:0:0:0:
192,192,170513,1,0,0:0:0:0:
64,192,170663,1,0,0:0:0:0:
192,192,170813,1,0,0:0:0:0:
320,192,170813,1,0,0:0:0:0:
448,192,170813,1,0,0:0:0:0:
64,192,170963,1,0,0:0:0:0:
192,192,171113,1,0,0:0:0:0:
320,192,171263,1,0,0:0:0:0:
192,192,171413,1,0,0:0:0:0:
64,192,171563,1,0,0:0:0:0:
320,192,171563,1,0,0:0:0:0:
192,192,171713,1,0,0:0:0:0:
448,192,171713,1,0,0:0:0:0:
320,192,171863,1,0,0:0:0:0:
448,192,171863,1,0,0:0:0:0:
192,192,172013,1,0,0:0:0:0:
320,192,172013,1,0,0:0:0:0:
448,192,172013,1,0,0:0:0:0:
64,192,172163,1,0,0:0:0:0:
192,192,172313,1,0,0:0:0:0:
64,192,172463,1,0,0:0:0:0:
192,192,172613,1,0,0:0:0:0:
320,192,172613,1,0,0:0:0:0:
448,192,172613,1,0,0:0:0:0:
192,192,172763,1,0,0:0:0:0:
320,192,172838,1,0,0:0:0:0:
448,192,172838,1,0,0:0:0:0:
192,192,172913,1,0,0:0:0:0:
192,192,173063,1,0,0:0:0:0:
320,192,173063,1,0,0:0:0:0:
448,192,173063,1,0,0:0:0:0:
64,192,173213,1,0,0:0:0:0:
320,192,173213,1,0,0:0:0:0:
448,192,173213,1,0,0:0:0:0:
192,192,173363,1,0,0:0:0:0:
320,192,173513,1,0,0:0:0:0:
192,192,173663,1,0,0:0:0:0:
320,192,173813,1,0,0:0:0:0:
64,192,173963,1,0,0:0:0:0:
192,192,173963,1,0,0:0:0:0:
64,192,174113,1,0,0:0:0:0:
320,192,174113,1,0,0:0:0:0:
192,192,174263,1,0,0:0:0:0:
448,192,174263,1,0,0:0:0:0:
64,192,174413,1,0,0:0:0:0:
448,192,174413,1,0,0:0:0:0:
320,192,174488,1,0,0:0:0:0:
192,192,174563,1,0,0:0:0:0:
448,192,174563,1,0,0:0:0:0:
320,192,174638,1,0,0:0:0:0:
192,192,174713,1,0,0:0:0:0:
448,192,174713,1,0,0:0:0:0:
64,192,174788,1,0,0:0:0:0:
192,192,174863,1,0,0:0:0:0:
320,192,174863,1,0,0:0:0:0:
64,192,174938,1,0,0:0:0:0:
192,192,175013,1,0,0:0:0:0:
320,192,175013,1,0,0:0:0:0:
448,192,175013,1,0,0:0:0:0:
64,192,175163,1,0,0:0:0:0:
192,192,175313,1,0,0:0:0:0:
64,192,175463,1,0,0:0:0:0:
64,192,175613,1,0,0:0:0:0:
448,192,175613,1,0,0:0:0:0:
192,192,175663,1,0,0:0:0:0:
320,192,175763,1,0,0:0:0:0:
192,192,175913,1,0,0:0:0:0:
448,192,176063,1,0,0:0:0:0:
64,192,176213,1,0,0:0:0:0:
320,192,176213,1,0,0:0:0:0:
64,192,176313,1,0,0:0:0:0:
192,192,176363,1,0,0:0:0:0:
448,192,176413,1,0,0:0:0:0:
64,192,176513,1,0,0:0:0:0:
320,192,176513,1,0,0:0:0:0:
192,192,176613,1,0,0:0:0:0:
448,192,176663,1,0,0:0:0:0:
320,192,176713,1,0,0:0:0:0:
64,192,176813,1,0,0:0:0:0:
192,192,176813,1,0,0:0:0:0:
320,192,176813,1,0,0:0:0:0:
448,192,176913,1,0,0:0:0:0:
64,0,176963,128,0,177113:1:0:0:0:
320,192,177013,1,0,0:0:0:0:
448,192,177113,1,0,0:0:0:0:
192,192,177188,1,0,0:0:0:0:
320,192,177188,1,0,0:0:0:0:
64,192,177263,1,0,0:0:0:0:
448,192,177263,1,0,0:0:0:0:
192,192,177338,1,0,0:0:0:0:
320,192,177338,1,0,0:0:0:0:
64,192,177413,1,0,0:0:0:0:
192,192,177413,1,0,0:0:0:0:
320,192,177413,1,0,0:0:0:0:
448,192,177413,1,0,0:0:0:0:
64,192,177638,1,0,0:0:0:0:
192,192,177638,1,0,0:0:0:0:
320,192,177638,1,0,0:0:0:0:
448,192,177638,1,0,0:0:0:0:
64,192,177863,1,0,0:0:0:0:
192,192,177863,1,0,0:0:0:0:
320,192,177863,1,0,0:0:0:0:
448,192,177863,1,0,0:0:0:0:
64,192,178013,1,0,0:0:0:0:
192,192,178013,1,0,0:0:0:0:
320,192,178013,1,0,0:0:0:0:
448,192,178013,1,0,0:0:0:0:
192,192,178163,1,0,0:0:0:0:
64,192,178313,1,0,0:0:0:0:
320,192,178313,1,0,0:0:0:0:
448,192,178413,1,0,0:0:0:0:
192,192,178463,1,0,0:0:0:0:
320,192,178513,1,0,0:0:0:0:
192,192,178613,1,0,0:0:0:0:
448,192,178613,1,0,0:0:0:0:
320,192,178713,1,0,0:0:0:0:
64,192,178763,1,0,0:0:0:0:
448,192,178813,1,0,0:0:0:0:
192,192,178913,1,0,0:0:0:0:
320,192,178913,1,0,0:0:0:0:
64,192,179013,1,0,0:0:0:0:
320,192,179063,1,0,0:0:0:0:
192,192,179113,1,0,0:0:0:0:
64,192,179213,1,0,0:0:0:0:
192,192,179213,1,0,0:0:0:0:
448,192,179213,1,0,0:0:0:0:
320,192,179288,1,0,0:0:0:0:
64,192,179363,1,0,0:0:0:0:
192,192,179363,1,0,0:0:0:0:
320,192,179438,1,0,0:0:0:0:
192,192,179513,1,0,0:0:0:0:
448,192,179513,1,0,0:0:0:0:
64,192,179588,1,0,0:0:0:0:
192,192,179663,1,0,0:0:0:0:
448,192,179663,1,0,0:0:0:0:
320,192,179738,1,0,0:0:0:0:
64,192,179813,1,0,0:0:0:0:
192,192,179813,1,0,0:0:0:0:
448,192,179813,1,0,0:0:0:0:
320,192,179888,1,0,0:0:0:0:
64,192,179963,1,0,0:0:0:0:
192,192,179963,1,0,0:0:0:0:
320,192,180038,1,0,0:0:0:0:
192,192,180113,1,0,0:0:0:0:
448,192,180113,1,0,0:0:0:0:
64,192,180188,1,0,0:0:0:0:
192,192,180263,1,0,0:0:0:0:
448,192,180263,1,0,0:0:0:0:
320,192,180338,1,0,0:0:0:0:
64,192,180413,1,0,0:0:0:0:
192,192,180413,1,0,0:0:0:0:
448,192,180413,1,0,0:0:0:0:
320,192,180563,1,0,0:0:0:0:
64,192,180713,1,0,0:0:0:0:
192,192,180713,1,0,0:0:0:0:
64,192,180813,1,0,0:0:0:0:
320,192,180863,1,0,0:0:0:0:
192,192,180913,1,0,0:0:0:0:
64,192,181013,1,0,0:0:0:0:
320,192,181013,1,0,0:0:0:0:
448,192,181013,1,0,0:0:0:0:
192,192,181113,1,0,0:0:0:0:
64,192,181163,1,0,0:0:0:0:
320,192,181163,1,0,0:0:0:0:
448,192,181213,1,0,0:0:0:0:
64,192,181313,1,0,0:0:0:0:
448,192,181313,1,0,0:0:0:0:
192,192,181388,1,0,0:0:0:0:
320,192,181463,1,0,0:0:0:0:
448,192,181538,1,0,0:0:0:0:
64,192,181613,1,0,0:0:0:0:
192,192,181613,1,0,0:0:0:0:
448,192,181613,1,0,0:0:0:0:
320,192,181763,1,0,0:0:0:0:
448,192,181838,1,0,0:0:0:0:
192,192,181913,1,0,0:0:0:0:
448,192,181913,1,0,0:0:0:0:
64,192,182063,1,0,0:0:0:0:
320,192,182138,1,0,0:0:0:0:
192,192,182213,1,0,0:0:0:0:
320,192,182213,1,0,0:0:0:0:
448,192,182363,1,0,0:0:0:0:
192,192,182438,1,0,0:0:0:0:
192,192,182513,1,0,0:0:0:0:
320,192,182513,1,0,0:0:0:0:
64,192,182663,1,0,0:0:0:0:
64,192,182813,1,0,0:0:0:0:
192,192,182813,1,0,0:0:0:0:
320,192,182813,1,0,0:0:0:0:
448,192,182813,1,0,0:0:0:0:
320,192,182913,1,0,0:0:0:0:
64,192,182963,1,0,0:0:0:0:
192,192,183013,1,0,0:0:0:0:
320,192,183113,1,0,0:0:0:0:
448,192,183113,1,0,0:0:0:0:
192,192,183213,1,0,0:0:0:0:
448,192,183263,1,0,0:0:0:0:
64,192,183313,1,0,0:0:0:0:
192,192,183413,1,0,0:0:0:0:
448,192,183413,1,0,0:0:0:0:
320,192,183513,1,0,0:0:0:0:
64,192,183563,1,0,0:0:0:0:
192,192,183563,1,0,0:0:0:0:
448,192,183613,1,0,0:0:0:0:
64,192,183713,1,0,0:0:0:0:
192,192,183713,1,0,0:0:0:0:
320,192,183713,1,0,0:0:0:0:
192,192,183813,1,0,0:0:0:0:
320,192,183863,1,0,0:0:0:0:
448,192,183863,1,0,0:0:0:0:
64,192,183913,1,0,0:0:0:0:
64,192,184013,1,0,0:0:0:0:
192,192,184013,1,0,0:0:0:0:
320,192,184013,1,0,0:0:0:0:
448,192,184013,1,0,0:0:0:0:
448,192,184088,1,0,0:0:0:0:
320,192,184163,1,0,0:0:0:0:
192,192,184238,1,0,0:0:0:0:
64,192,184313,1,0,0:0:0:0:
192,192,184388,1,0,0:0:0:0:
320,192,184463,1,0,0:0:0:0:
64,192,184538,1,0,0:0:0:0:
64,192,184613,1,0,0:0:0:0:
192,192,184613,1,0,0:0:0:0:
320,192,184613,1,0,0:0:0:0:
448,192,184613,1,0,0:0:0:0:
448,192,184688,1,0,0:0:0:0:
320,192,184763,1,0,0:0:0:0:
192,192,184838,1,0,0:0:0:0:
64,192,184913,1,0,0:0:0:0:
192,192,184988,1,0,0:0:0:0:
320,192,185063,1,0,0:0:0:0:
64,192,185138,1,0,0:0:0:0:
64,192,185213,1,0,0:0:0:0:
192,192,185213,1,0,0:0:0:0:
320,192,185213,1,0,0:0:0:0:
448,192,185213,1,0,0:0:0:0:
64,192,185313,1,0,0:0:0:0:
320,192,185363,1,0,0:0:0:0:
192,192,185413,1,0,0:0:0:0:
320,192,185513,1,0,0:0:0:0:
64,192,185513,1,0,0:0:0:0:
192,192,185613,1,0,0:0:0:0:
64,192,185663,1,0,0:0:0:0:
320,192,185713,1,0,0:0:0:0:
64,192,185813,1,0,0:0:0:0:
192,192,185813,1,0,0:0:0:0:
320,192,185813,1,0,0:0:0:0:
448,192,185813,1,0,0:0:0:0:
64,192,185913,1,0,0:0:0:0:
320,192,185963,1,0,0:0:0:0:
192,192,186013,1,0,0:0:0:0:
64,192,186113,1,0,0:0:0:0:
320,192,186113,1,0,0:0:0:0:
192,192,186213,1,0,0:0:0:0:
64,192,186263,1,0,0:0:0:0:
320,192,186313,1,0,0:0:0:0:
64,192,186413,1,0,0:0:0:0:
192,192,186413,1,0,0:0:0:0:
320,192,186488,1,0,0:0:0:0:
448,192,186488,1,0,0:0:0:0:
64,192,186563,1,0,0:0:0:0:
192,192,186563,1,0,0:0:0:0:
320,192,186638,1,0,0:0:0:0:
448,192,186638,1,0,0:0:0:0:
64,192,186713,1,0,0:0:0:0:
192,192,186713,1,0,0:0:0:0:
320,192,186788,1,0,0:0:0:0:
448,192,186788,1,0,0:0:0:0:
64,192,186863,1,0,0:0:0:0:
192,192,186863,1,0,0:0:0:0:
320,192,186938,1,0,0:0:0:0:
448,192,186938,1,0,0:0:0:0:
64,192,187013,1,0,0:0:0:0:
192,192,187013,1,0,0:0:0:0:
320,192,187063,1,0,0:0:0:0:
448,192,187063,1,0,0:0:0:0:
64,192,187113,1,0,0:0:0:0:
192,192,187113,1,0,0:0:0:0:
320,192,187163,1,0,0:0:0:0:
448,192,187163,1,0,0:0:0:0:
64,192,187213,1,0,0:0:0:0:
192,192,187213,1,0,0:0:0:0:
320,192,187263,1,0,0:0:0:0:
448,192,187263,1,0,0:0:0:0:
64,192,187313,1,0,0:0:0:0:
192,192,187313,1,0,0:0:0:0:
320,192,187350,1,0,0:0:0:0:
448,192,187350,1,0,0:0:0:0:
64,192,187388,1,0,0:0:0:0:
192,192,187388,1,0,0:0:0:0:
320,192,187425,1,0,0:0:0:0:
448,192,187425,1,0,0:0:0:0:
64,192,187463,1,0,0:0:0:0:
192,192,187463,1,0,0:0:0:0:
320,192,187500,1,0,0:0:0:0:
448,192,187500,1,0,0:0:0:0:
64,192,187538,1,0,0:0:0:0:
192,192,187538,1,0,0:0:0:0:
320,192,187575,1,0,0:0:0:0:
448,192,187575,1,0,0:0:0:0:
64,192,187613,1,0,0:0:0:0:
192,192,187613,1,0,0:0:0:0:
320,192,187613,1,0,0:0:0:0:
448,192,187613,1,0,0:0:0:0:
192,192,188813,1,0,0:0:0:0:
320,192,188813,1,0,0:0:0:0:
448,192,188813,1,0,0:0:0:0:
64,192,190013,1,0,0:0:0:0:
192,192,190013,1,0,0:0:0:0:
320,192,190013,1,0,0:0:0:0:
448,192,190013,1,0,0:0:0:0:
64,192,191213,1,0,0:0:0:0:
192,192,191288,1,0,0:0:0:0:
64,192,191363,1,0,0:0:0:0:
192,192,191438,1,0,0:0:0:0:
64,192,191513,1,0,0:0:0:0:
192,192,191588,1,0,0:0:0:0:
64,192,191663,1,0,0:0:0:0:
192,192,191738,1,0,0:0:0:0:
64,192,191813,1,0,0:0:0:0:
448,192,191813,1,0,0:0:0:0:
192,192,191888,1,0,0:0:0:0:
64,192,191963,1,0,0:0:0:0:
320,192,191963,1,0,0:0:0:0:
192,192,192038,1,0,0:0:0:0:
64,192,192113,1,0,0:0:0:0:
448,192,192113,1,0,0:0:0:0:
192,192,192188,1,0,0:0:0:0:
320,192,192188,1,0,0:0:0:0:
64,192,192263,1,0,0:0:0:0:
448,192,192263,1,0,0:0:0:0:
192,192,192338,1,0,0:0:0:0:
320,192,192338,1,0,0:0:0:0:
64,192,192413,1,0,0:0:0:0:
192,192,192413,1,0,0:0:0:0:
320,192,192413,1,0,0:0:0:0:
448,192,192413,1,0,0:0:0:0:
320,192,192513,1,0,0:0:0:0:
64,192,192563,1,0,0:0:0:0:
192,192,192613,1,0,0:0:0:0:
320,192,192713,1,0,0:0:0:0:
448,192,192713,1,0,0:0:0:0:
448,192,192813,1,0,0:0:0:0:
64,192,192863,1,0,0:0:0:0:
192,192,192863,1,0,0:0:0:0:
320,192,192913,1,0,0:0:0:0:
192,192,193013,1,0,0:0:0:0:
448,192,193013,1,0,0:0:0:0:
64,192,193163,1,0,0:0:0:0:
64,192,193313,1,0,0:0:0:0:
320,192,193313,1,0,0:0:0:0:
192,192,193388,1,0,0:0:0:0:
320,192,193463,1,0,0:0:0:0:
448,192,193538,1,0,0:0:0:0:
64,192,193613,1,0,0:0:0:0:
192,192,193613,1,0,0:0:0:0:
320,192,193613,1,0,0:0:0:0:
448,192,193688,1,0,0:0:0:0:
64,192,193763,1,0,0:0:0:0:
320,192,193763,1,0,0:0:0:0:
192,192,193838,1,0,0:0:0:0:
320,192,193913,1,0,0:0:0:0:
448,192,193913,1,0,0:0:0:0:
64,192,193988,1,0,0:0:0:0:
192,192,194063,1,0,0:0:0:0:
320,192,194063,1,0,0:0:0:0:
448,192,194063,1,0,0:0:0:0:
64,192,194138,1,0,0:0:0:0:
192,192,194213,1,0,0:0:0:0:
448,192,194213,1,0,0:0:0:0:
320,192,194363,1,0,0:0:0:0:
64,192,194513,1,0,0:0:0:0:
320,192,194513,1,0,0:0:0:0:
448,192,194513,1,0,0:0:0:0:
192,192,194588,1,0,0:0:0:0:
64,192,194663,1,0,0:0:0:0:
320,192,194663,1,0,0:0:0:0:
448,192,194738,1,0,0:0:0:0:
64,192,194813,1,0,0:0:0:0:
192,192,194813,1,0,0:0:0:0:
320,192,194813,1,0,0:0:0:0:
448,192,194888,1,0,0:0:0:0:
64,192,194963,1,0,0:0:0:0:
192,192,194963,1,0,0:0:0:0:
320,192,195038,1,0,0:0:0:0:
192,192,195113,1,0,0:0:0:0:
448,192,195113,1,0,0:0:0:0:
320,192,195188,1,0,0:0:0:0:
192,192,195263,1,0,0:0:0:0:
448,192,195263,1,0,0:0:0:0:
64,192,195338,1,0,0:0:0:0:
192,192,195413,1,0,0:0:0:0:
320,192,195413,1,0,0:0:0:0:
192,192,195563,1,0,0:0:0:0:
448,192,195563,1,0,0:0:0:0:
64,192,195713,1,0,0:0:0:0:
320,192,195713,1,0,0:0:0:0:
448,192,195713,1,0,0:0:0:0:
192,192,195788,1,0,0:0:0:0:
64,192,195863,1,0,0:0:0:0:
320,192,195863,1,0,0:0:0:0:
448,192,195938,1,0,0:0:0:0:
64,192,196013,1,0,0:0:0:0:
192,192,196013,1,0,0:0:0:0:
320,192,196013,1,0,0:0:0:0:
448,192,196088,1,0,0:0:0:0:
64,192,196163,1,0,0:0:0:0:
320,192,196163,1,0,0:0:0:0:
192,192,196238,1,0,0:0:0:0:
320,192,196313,1,0,0:0:0:0:
448,192,196313,1,0,0:0:0:0:
64,192,196388,1,0,0:0:0:0:
192,192,196463,1,0,0:0:0:0:
448,192,196463,1,0,0:0:0:0:
64,192,196538,1,0,0:0:0:0:
192,192,196613,1,0,0:0:0:0:
320,192,196613,1,0,0:0:0:0:
64,192,196763,1,0,0:0:0:0:
192,192,196763,1,0,0:0:0:0:
64,192,196913,1,0,0:0:0:0:
320,192,196913,1,0,0:0:0:0:
448,192,196913,1,0,0:0:0:0:
192,192,196988,1,0,0:0:0:0:
64,192,197063,1,0,0:0:0:0:
320,192,197063,1,0,0:0:0:0:
448,192,197138,1,0,0:0:0:0:
192,192,197213,1,0,0:0:0:0:
320,192,197213,1,0,0:0:0:0:
448,192,197213,1,0,0:0:0:0:
64,192,197288,1,0,0:0:0:0:
320,192,197363,1,0,0:0:0:0:
448,192,197363,1,0,0:0:0:0:
192,192,197438,1,0,0:0:0:0:
64,192,197513,1,0,0:0:0:0:
320,192,197513,1,0,0:0:0:0:
448,192,197588,1,0,0:0:0:0:
64,192,197663,1,0,0:0:0:0:
192,192,197663,1,0,0:0:0:0:
320,192,197738,1,0,0:0:0:0:
192,192,197813,1,0,0:0:0:0:
448,192,197813,1,0,0:0:0:0:
320,192,197888,1,0,0:0:0:0:
64,192,197963,1,0,0:0:0:0:
448,192,197963,1,0,0:0:0:0:
320,192,198038,1,0,0:0:0:0:
64,192,198113,1,0,0:0:0:0:
192,192,198113,1,0,0:0:0:0:
448,192,198113,1,0,0:0:0:0:
320,192,198188,1,0,0:0:0:0:
192,192,198263,1,0,0:0:0:0:
64,192,198338,1,0,0:0:0:0:
192,192,198413,1,0,0:0:0:0:
320,192,198413,1,0,0:0:0:0:
448,192,198413,1,0,0:0:0:0:
64,192,198488,1,0,0:0:0:0:
192,192,198563,1,0,0:0:0:0:
320,192,198563,1,0,0:0:0:0:
448,192,198638,1,0,0:0:0:0:
192,192,198713,1,0,0:0:0:0:
320,192,198713,1,0,0:0:0:0:
448,192,198788,1,0,0:0:0:0:
64,192,198863,1,0,0:0:0:0:
192,192,198863,1,0,0:0:0:0:
320,192,198938,1,0,0:0:0:0:
192,192,199013,1,0,0:0:0:0:
448,192,199013,1,0,0:0:0:0:
320,192,199088,1,0,0:0:0:0:
64,192,199163,1,0,0:0:0:0:
192,192,199163,1,0,0:0:0:0:
320,192,199238,1,0,0:0:0:0:
64,192,199313,1,0,0:0:0:0:
192,192,199313,1,0,0:0:0:0:
448,192,199313,1,0,0:0:0:0:
320,192,199388,1,0,0:0:0:0:
192,192,199463,1,0,0:0:0:0:
448,192,199463,1,0,0:0:0:0:
64,192,199538,1,0,0:0:0:0:
192,192,199613,1,0,0:0:0:0:
320,192,199613,1,0,0:0:0:0:
448,192,199613,1,0,0:0:0:0:
64,192,199688,1,0,0:0:0:0:
192,192,199763,1,0,0:0:0:0:
448,192,199763,1,0,0:0:0:0:
64,192,199838,1,0,0:0:0:0:
320,192,199913,1,0,0:0:0:0:
448,192,199913,1,0,0:0:0:0:
192,192,199988,1,0,0:0:0:0:
64,192,200063,1,0,0:0:0:0:
448,192,200063,1,0,0:0:0:0:
192,192,200138,1,0,0:0:0:0:
320,192,200213,1,0,0:0:0:0:
448,192,200213,1,0,0:0:0:0:
192,192,200288,1,0,0:0:0:0:
64,192,200363,1,0,0:0:0:0:
448,192,200363,1,0,0:0:0:0:
320,192,200438,1,0,0:0:0:0:
64,192,200513,1,0,0:0:0:0:
192,192,200513,1,0,0:0:0:0:
448,192,200513,1,0,0:0:0:0:
320,192,200588,1,0,0:0:0:0:
192,192,200663,1,0,0:0:0:0:
448,192,200663,1,0,0:0:0:0:
64,192,200738,1,0,0:0:0:0:
192,192,200813,1,0,0:0:0:0:
320,192,200813,1,0,0:0:0:0:
448,192,200813,1,0,0:0:0:0:
64,192,200963,1,0,0:0:0:0:
192,192,200988,1,0,0:0:0:0:
448,192,201013,1,0,0:0:0:0:
320,192,201038,1,0,0:0:0:0:
64,192,201063,1,0,0:0:0:0:
192,192,201088,1,0,0:0:0:0:
448,192,201113,1,0,0:0:0:0:
320,192,201138,1,0,0:0:0:0:
64,192,201188,1,0,0:0:0:0:
192,192,201188,1,0,0:0:0:0:
320,192,201263,1,0,0:0:0:0:
448,192,201263,1,0,0:0:0:0:
64,192,201338,1,0,0:0:0:0:
192,192,201338,1,0,0:0:0:0:
64,192,201413,1,0,0:0:0:0:
192,192,201413,1,0,0:0:0:0:
320,192,201413,1,0,0:0:0:0:
448,192,201413,1,0,0:0:0:0:
64,192,201638,1,0,0:0:0:0:
192,192,201638,1,0,0:0:0:0:
320,192,201638,1,0,0:0:0:0:
448,192,201638,1,0,0:0:0:0:
64,192,201863,1,0,0:0:0:0:
192,192,201863,1,0,0:0:0:0:
320,192,201863,1,0,0:0:0:0:
448,192,201863,1,0,0:0:0:0:
64,192,202013,1,0,0:0:0:0:
192,192,202013,1,0,0:0:0:0:
320,192,202013,1,0,0:0:0:0:
448,192,202013,1,0,0:0:0:0:
320,192,202113,1,0,0:0:0:0:
448,192,202163,1,0,0:0:0:0:
192,192,202213,1,0,0:0:0:0:
64,192,202313,1,0,0:0:0:0:
320,192,202313,1,0,0:0:0:0:
320,192,202413,1,0,0:0:0:0:
192,192,202463,1,0,0:0:0:0:
448,192,202463,1,0,0:0:0:0:
64,192,202513,1,0,0:0:0:0:
64,192,202613,1,0,0:0:0:0:
320,192,202613,1,0,0:0:0:0:
192,192,202713,1,0,0:0:0:0:
64,192,202763,1,0,0:0:0:0:
320,192,202813,1,0,0:0:0:0:
64,192,202913,1,0,0:0:0:0:
320,192,202913,1,0,0:0:0:0:
448,192,202913,1,0,0:0:0:0:
192,192,202988,1,0,0:0:0:0:
448,192,203013,1,0,0:0:0:0:
320,192,203063,1,0,0:0:0:0:
64,192,203113,1,0,0:0:0:0:
448,192,203138,1,0,0:0:0:0:
64,192,203213,1,0,0:0:0:0:
192,192,203213,1,0,0:0:0:0:
320,192,203213,1,0,0:0:0:0:
448,192,203288,1,0,0:0:0:0:
64,192,203363,1,0,0:0:0:0:
192,192,203363,1,0,0:0:0:0:
320,192,203438,1,0,0:0:0:0:
192,192,203513,1,0,0:0:0:0:
448,192,203513,1,0,0:0:0:0:
320,192,203588,1,0,0:0:0:0:
192,192,203663,1,0,0:0:0:0:
448,192,203663,1,0,0:0:0:0:
64,192,203738,1,0,0:0:0:0:
64,192,203813,1,0,0:0:0:0:
192,192,203813,1,0,0:0:0:0:
320,192,203813,1,0,0:0:0:0:
448,192,203888,1,0,0:0:0:0:
64,192,203963,1,0,0:0:0:0:
192,192,203963,1,0,0:0:0:0:
320,192,204038,1,0,0:0:0:0:
64,192,204113,1,0,0:0:0:0:
192,192,204113,1,0,0:0:0:0:
448,192,204113,1,0,0:0:0:0:
320,192,204188,1,0,0:0:0:0:
192,192,204263,1,0,0:0:0:0:
448,192,204263,1,0,0:0:0:0:
64,192,204338,1,0,0:0:0:0:
192,192,204413,1,0,0:0:0:0:
320,192,204413,1,0,0:0:0:0:
448,192,204413,1,0,0:0:0:0:
64,192,204488,1,0,0:0:0:0:
192,192,204563,1,0,0:0:0:0:
448,192,204563,1,0,0:0:0:0:
64,192,204638,1,0,0:0:0:0:
192,192,204713,1,0,0:0:0:0:
320,192,204713,1,0,0:0:0:0:
64,192,204788,1,0,0:0:0:0:
192,192,204863,1,0,0:0:0:0:
448,192,204863,1,0,0:0:0:0:
320,192,204938,1,0,0:0:0:0:
64,192,205013,1,0,0:0:0:0:
448,192,205013,1,0,0:0:0:0:
192,192,205088,1,0,0:0:0:0:
64,192,205163,1,0,0:0:0:0:
320,192,205163,1,0,0:0:0:0:
448,192,205238,1,0,0:0:0:0:
192,192,205313,1,0,0:0:0:0:
320,192,205313,1,0,0:0:0:0:
448,192,205313,1,0,0:0:0:0:
64,192,205388,1,0,0:0:0:0:
192,192,205463,1,0,0:0:0:0:
448,192,205463,1,0,0:0:0:0:
320,192,205538,1,0,0:0:0:0:
64,192,205613,1,0,0:0:0:0:
192,192,205613,1,0,0:0:0:0:
320,192,205613,1,0,0:0:0:0:
448,192,205663,1,0,0:0:0:0:
192,192,205688,1,0,0:0:0:0:
64,192,205763,1,0,0:0:0:0:
320,192,205763,1,0,0:0:0:0:
448,192,205838,1,0,0:0:0:0:
64,192,205913,1,0,0:0:0:0:
320,192,205913,1,0,0:0:0:0:
192,192,205988,1,0,0:0:0:0:
64,192,206063,1,0,0:0:0:0:
448,192,206063,1,0,0:0:0:0:
192,192,206138,1,0,0:0:0:0:
320,192,206213,1,0,0:0:0:0:
448,192,206213,1,0,0:0:0:0:
64,192,206288,1,0,0:0:0:0:
192,192,206363,1,0,0:0:0:0:
448,192,206363,1,0,0:0:0:0:
64,192,206438,1,0,0:0:0:0:
192,192,206513,1,0,0:0:0:0:
320,192,206513,1,0,0:0:0:0:
448,192,206513,1,0,0:0:0:0:
64,192,206588,1,0,0:0:0:0:
192,192,206663,1,0,0:0:0:0:
448,192,206663,1,0,0:0:0:0:
320,192,206738,1,0,0:0:0:0:
64,192,206813,1,0,0:0:0:0:
192,192,206813,1,0,0:0:0:0:
320,192,206813,1,0,0:0:0:0:
448,192,206863,1,0,0:0:0:0:
192,192,206888,1,0,0:0:0:0:
64,192,206963,1,0,0:0:0:0:
320,192,206963,1,0,0:0:0:0:
192,192,207038,1,0,0:0:0:0:
64,192,207113,1,0,0:0:0:0:
320,192,207113,1,0,0:0:0:0:
448,192,207113,1,0,0:0:0:0:
192,192,207188,1,0,0:0:0:0:
64,192,207263,1,0,0:0:0:0:
320,192,207263,1,0,0:0:0:0:
448,192,207338,1,0,0:0:0:0:
64,192,207413,1,0,0:0:0:0:
192,192,207413,1,0,0:0:0:0:
320,192,207413,1,0,0:0:0:0:
320,192,207488,1,0,0:0:0:0:
192,192,207563,1,0,0:0:0:0:
448,192,207563,1,0,0:0:0:0:
64,192,207638,1,0,0:0:0:0:
192,192,207713,1,0,0:0:0:0:
320,192,207713,1,0,0:0:0:0:
448,192,207713,1,0,0:0:0:0:
64,192,207813,1,0,0:0:0:0:
192,192,207863,1,0,0:0:0:0:
320,192,207913,1,0,0:0:0:0:
64,192,208013,1,0,0:0:0:0:
192,192,208013,1,0,0:0:0:0:
320,192,208013,1,0,0:0:0:0:
448,192,208063,1,0,0:0:0:0:
320,192,208088,1,0,0:0:0:0:
64,192,208163,1,0,0:0:0:0:
192,192,208163,1,0,0:0:0:0:
320,192,208238,1,0,0:0:0:0:
64,192,208313,1,0,0:0:0:0:
448,192,208313,1,0,0:0:0:0:
320,192,208388,1,0,0:0:0:0:
192,192,208463,1,0,0:0:0:0:
448,192,208463,1,0,0:0:0:0:
64,192,208538,1,0,0:0:0:0:
64,192,208613,1,0,0:0:0:0:
192,192,208613,1,0,0:0:0:0:
320,192,208613,1,0,0:0:0:0:
448,192,208663,1,0,0:0:0:0:
320,192,208688,1,0,0:0:0:0:
64,192,208763,1,0,0:0:0:0:
192,192,208763,1,0,0:0:0:0:
320,192,208838,1,0,0:0:0:0:
64,192,208913,1,0,0:0:0:0:
192,192,208913,1,0,0:0:0:0:
448,192,208913,1,0,0:0:0:0:
320,192,208988,1,0,0:0:0:0:
192,192,209063,1,0,0:0:0:0:
448,192,209063,1,0,0:0:0:0:
64,192,209138,1,0,0:0:0:0:
64,192,209213,1,0,0:0:0:0:
192,192,209213,1,0,0:0:0:0:
320,192,209213,1,0,0:0:0:0:
448,192,209213,1,0,0:0:0:0:
64,192,209363,1,0,0:0:0:0:
448,192,209363,1,0,0:0:0:0:
64,192,209513,1,0,0:0:0:0:
192,192,209513,1,0,0:0:0:0:
320,192,209513,1,0,0:0:0:0:
192,192,209663,1,0,0:0:0:0:
320,192,209663,1,0,0:0:0:0:
448,192,209663,1,0,0:0:0:0:
64,192,209813,1,0,0:0:0:0:
192,192,209813,1,0,0:0:0:0:
320,192,209813,1,0,0:0:0:0:
448,192,209813,1,0,0:0:0:0:
192,192,209963,1,0,0:0:0:0:
320,192,209963,1,0,0:0:0:0:
192,192,210113,1,0,0:0:0:0:
320,192,210113,1,0,0:0:0:0:
448,192,210113,1,0,0:0:0:0:
64,192,210263,1,0,0:0:0:0:
448,192,210263,1,0,0:0:0:0:
64,192,210413,1,0,0:0:0:0:
192,192,210413,1,0,0:0:0:0:
320,192,210413,1,0,0:0:0:0:
448,192,210413,1,0,0:0:0:0:
320,192,210488,1,0,0:0:0:0:
448,192,210488,1,0,0:0:0:0:
64,192,210563,1,0,0:0:0:0:
192,192,210563,1,0,0:0:0:0:
320,192,210638,1,0,0:0:0:0:
448,192,210638,1,0,0:0:0:0:
64,192,210713,1,0,0:0:0:0:
192,192,210713,1,0,0:0:0:0:
320,192,210788,1,0,0:0:0:0:
448,192,210788,1,0,0:0:0:0:
64,192,210863,1,0,0:0:0:0:
192,192,210863,1,0,0:0:0:0:
320,192,210938,1,0,0:0:0:0:
448,192,210938,1,0,0:0:0:0:
64,192,211013,1,0,0:0:0:0:
192,192,211013,1,0,0:0:0:0:
320,192,211063,1,0,0:0:0:0:
448,192,211063,1,0,0:0:0:0:
64,192,211113,1,0,0:0:0:0:
192,192,211113,1,0,0:0:0:0:
320,192,211163,1,0,0:0:0:0:
448,192,211163,1,0,0:0:0:0:
64,192,211213,1,0,0:0:0:0:
192,192,211213,1,0,0:0:0:0:
320,192,211263,1,0,0:0:0:0:
448,192,211263,1,0,0:0:0:0:
64,192,211313,1,0,0:0:0:0:
192,192,211313,1,0,0:0:0:0:
320,192,211350,1,0,0:0:0:0:
448,192,211350,1,0,0:0:0:0:
64,192,211388,1,0,0:0:0:0:
192,192,211388,1,0,0:0:0:0:
320,192,211425,1,0,0:0:0:0:
448,192,211425,1,0,0:0:0:0:
64,192,211463,1,0,0:0:0:0:
192,192,211463,1,0,0:0:0:0:
320,192,211500,1,0,0:0:0:0:
448,192,211500,1,0,0:0:0:0:
64,192,211538,1,0,0:0:0:0:
192,192,211538,1,0,0:0:0:0:
64,192,211613,1,0,0:0:0:0:
192,192,211613,1,0,0:0:0:0:
320,192,211613,1,0,0:0:0:0:
448,192,211613,1,0,0:0:0:0:
192,192,211713,1,0,0:0:0:0:
64,192,211813,1,0,0:0:0:0:
64,192,211913,1,0,0:0:0:0:
192,192,211913,1,0,0:0:0:0:
320,192,211913,1,0,0:0:0:0:
448,192,211913,1,0,0:0:0:0:
320,192,212013,1,0,0:0:0:0:
192,192,212063,1,0,0:0:0:0:
448,192,212063,1,0,0:0:0:0:
64,192,212113,1,0,0:0:0:0:
64,192,212213,1,0,0:0:0:0:
320,192,212213,1,0,0:0:0:0:
192,192,212363,1,0,0:0:0:0:
64,192,212513,1,0,0:0:0:0:
320,192,212513,1,0,0:0:0:0:
448,192,212513,1,0,0:0:0:0:
192,192,212588,1,0,0:0:0:0:
64,192,212663,1,0,0:0:0:0:
320,192,212663,1,0,0:0:0:0:
448,192,212738,1,0,0:0:0:0:
64,192,212813,1,0,0:0:0:0:
192,192,212813,1,0,0:0:0:0:
320,192,212813,1,0,0:0:0:0:
448,192,212813,1,0,0:0:0:0:
320,192,212913,1,0,0:0:0:0:
448,192,212963,1,0,0:0:0:0:
192,192,213013,1,0,0:0:0:0:
320,192,213113,1,0,0:0:0:0:
448,192,213113,1,0,0:0:0:0:
64,192,213213,1,0,0:0:0:0:
192,192,213263,1,0,0:0:0:0:
448,192,213263,1,0,0:0:0:0:
320,192,213313,1,0,0:0:0:0:
64,192,213413,1,0,0:0:0:0:
192,192,213413,1,0,0:0:0:0:
320,192,213563,1,0,0:0:0:0:
64,192,213713,1,0,0:0:0:0:
320,192,213713,1,0,0:0:0:0:
448,192,213713,1,0,0:0:0:0:
192,192,213788,1,0,0:0:0:0:
320,192,213863,1,0,0:0:0:0:
448,192,213938,1,0,0:0:0:0:
64,192,214013,1,0,0:0:0:0:
192,192,214013,1,0,0:0:0:0:
320,192,214013,1,0,0:0:0:0:
320,192,214113,1,0,0:0:0:0:
64,192,214163,1,0,0:0:0:0:
448,192,214163,1,0,0:0:0:0:
192,192,214213,1,0,0:0:0:0:
320,192,214313,1,0,0:0:0:0:
448,192,214313,1,0,0:0:0:0:
192,192,214413,1,0,0:0:0:0:
64,192,214463,1,0,0:0:0:0:
320,192,214463,1,0,0:0:0:0:
192,192,214513,1,0,0:0:0:0:
64,192,214613,1,0,0:0:0:0:
320,192,214613,1,0,0:0:0:0:
448,192,214613,1,0,0:0:0:0:
192,192,214763,1,0,0:0:0:0:
448,192,214763,1,0,0:0:0:0:
64,192,214913,1,0,0:0:0:0:
320,192,214913,1,0,0:0:0:0:
448,192,214913,1,0,0:0:0:0:
192,192,214988,1,0,0:0:0:0:
64,192,215063,1,0,0:0:0:0:
320,192,215063,1,0,0:0:0:0:
448,192,215138,1,0,0:0:0:0:
64,192,215213,1,0,0:0:0:0:
192,192,215213,1,0,0:0:0:0:
320,192,215213,1,0,0:0:0:0:
448,192,215313,1,0,0:0:0:0:
192,192,215363,1,0,0:0:0:0:
320,192,215413,1,0,0:0:0:0:
64,192,215513,1,0,0:0:0:0:
448,192,215513,1,0,0:0:0:0:
320,192,215613,1,0,0:0:0:0:
192,192,215663,1,0,0:0:0:0:
448,192,215663,1,0,0:0:0:0:
64,192,215713,1,0,0:0:0:0:
192,192,215813,1,0,0:0:0:0:
320,192,215813,1,0,0:0:0:0:
192,192,215963,1,0,0:0:0:0:
64,192,216113,1,0,0:0:0:0:
320,192,216113,1,0,0:0:0:0:
448,192,216113,1,0,0:0:0:0:
192,192,216188,1,0,0:0:0:0:
64,192,216263,1,0,0:0:0:0:
320,192,216263,1,0,0:0:0:0:
448,192,216338,1,0,0:0:0:0:
64,192,216413,1,0,0:0:0:0:
192,192,216413,1,0,0:0:0:0:
320,192,216413,1,0,0:0:0:0:
448,192,216488,1,0,0:0:0:0:
64,192,216563,1,0,0:0:0:0:
320,192,216563,1,0,0:0:0:0:
192,192,216638,1,0,0:0:0:0:
64,192,216713,1,0,0:0:0:0:
320,192,216713,1,0,0:0:0:0:
192,192,216788,1,0,0:0:0:0:
320,192,216863,1,0,0:0:0:0:
448,192,216863,1,0,0:0:0:0:
64,192,216938,1,0,0:0:0:0:
192,192,217013,1,0,0:0:0:0:
448,192,217013,1,0,0:0:0:0:
320,192,217088,1,0,0:0:0:0:
64,192,217163,1,0,0:0:0:0:
192,192,217163,1,0,0:0:0:0:
320,192,217238,1,0,0:0:0:0:
64,192,217313,1,0,0:0:0:0:
448,192,217313,1,0,0:0:0:0:
192,192,217388,1,0,0:0:0:0:
64,192,217463,1,0,0:0:0:0:
320,192,217463,1,0,0:0:0:0:
192,192,217538,1,0,0:0:0:0:
64,192,217613,1,0,0:0:0:0:
448,192,217613,1,0,0:0:0:0:
192,192,217688,1,0,0:0:0:0:
320,192,217763,1,0,0:0:0:0:
448,192,217763,1,0,0:0:0:0:
192,192,217838,1,0,0:0:0:0:
64,192,217913,1,0,0:0:0:0:
320,192,217913,1,0,0:0:0:0:
448,192,217988,1,0,0:0:0:0:
192,192,218063,1,0,0:0:0:0:
320,192,218063,1,0,0:0:0:0:
64,192,218138,1,0,0:0:0:0:
192,192,218213,1,0,0:0:0:0:
320,192,218213,1,0,0:0:0:0:
448,192,218213,1,0,0:0:0:0:
64,192,218288,1,0,0:0:0:0:
192,192,218363,1,0,0:0:0:0:
448,192,218363,1,0,0:0:0:0:
320,192,218438,1,0,0:0:0:0:
64,192,218513,1,0,0:0:0:0:
448,192,218513,1,0,0:0:0:0:
192,192,218588,1,0,0:0:0:0:
64,192,218663,1,0,0:0:0:0:
320,192,218663,1,0,0:0:0:0:
448,192,218738,1,0,0:0:0:0:
64,192,218813,1,0,0:0:0:0:
192,192,218813,1,0,0:0:0:0:
320,192,218813,1,0,0:0:0:0:
448,192,218888,1,0,0:0:0:0:
64,192,218963,1,0,0:0:0:0:
320,192,218963,1,0,0:0:0:0:
448,192,219038,1,0,0:0:0:0:
64,192,219113,1,0,0:0:0:0:
192,192,219113,1,0,0:0:0:0:
320,192,219188,1,0,0:0:0:0:
64,192,219263,1,0,0:0:0:0:
448,192,219263,1,0,0:0:0:0:
192,192,219338,1,0,0:0:0:0:
64,192,219413,1,0,0:0:0:0:
320,192,219413,1,0,0:0:0:0:
448,192,219413,1,0,0:0:0:0:
192,192,219488,1,0,0:0:0:0:
320,192,219563,1,0,0:0:0:0:
448,192,219563,1,0,0:0:0:0:
64,192,219638,1,0,0:0:0:0:
192,192,219713,1,0,0:0:0:0:
448,192,219713,1,0,0:0:0:0:
320,192,219788,1,0,0:0:0:0:
64,192,219863,1,0,0:0:0:0:
192,192,219863,1,0,0:0:0:0:
192,192,219938,1,0,0:0:0:0:
320,192,219938,1,0,0:0:0:0:
64,192,220013,1,0,0:0:0:0:
192,192,220013,1,0,0:0:0:0:
320,192,220013,1,0,0:0:0:0:
448,192,220013,1,0,0:0:0:0:
64,192,220163,1,0,0:0:0:0:
192,192,220188,1,0,0:0:0:0:
448,192,220213,1,0,0:0:0:0:
320,192,220238,1,0,0:0:0:0:
64,192,220263,1,0,0:0:0:0:
192,192,220288,1,0,0:0:0:0:
448,192,220313,1,0,0:0:0:0:
320,192,220338,1,0,0:0:0:0:
64,192,220388,1,0,0:0:0:0:
192,192,220463,1,0,0:0:0:0:
320,192,220538,1,0,0:0:0:0:
64,192,220613,1,0,0:0:0:0:
192,192,220613,1,0,0:0:0:0:
448,192,220613,1,0,0:0:0:0:
192,192,220838,1,0,0:0:0:0:
320,192,220838,1,0,0:0:0:0:
448,192,220838,1,0,0:0:0:0:
64,192,220913,1,0,0:0:0:0:
192,192,220913,1,0,0:0:0:0:
320,192,220913,1,0,0:0:0:0:
448,192,220913,1,0,0:0:0:0:
64,192,221063,1,0,0:0:0:0:
192,192,221063,1,0,0:0:0:0:
448,192,221063,1,0,0:0:0:0:
64,192,221213,1,0,0:0:0:0:
192,192,221213,1,0,0:0:0:0:
320,192,221213,1,0,0:0:0:0:
448,192,221213,1,0,0:0:0:0:
320,192,221288,1,0,0:0:0:0:
192,192,221363,1,0,0:0:0:0:
448,192,221363,1,0,0:0:0:0:
64,192,221438,1,0,0:0:0:0:
192,192,221513,1,0,0:0:0:0:
448,192,221513,1,0,0:0:0:0:
320,192,221588,1,0,0:0:0:0:
64,192,221663,1,0,0:0:0:0:
192,192,221663,1,0,0:0:0:0:
320,192,221663,1,0,0:0:0:0:
448,192,221663,1,0,0:0:0:0:
64,192,221738,1,0,0:0:0:0:
192,192,221813,1,0,0:0:0:0:
320,192,221813,1,0,0:0:0:0:
448,192,221813,1,0,0:0:0:0:
64,192,221888,1,0,0:0:0:0:
192,192,221963,1,0,0:0:0:0:
448,192,221963,1,0,0:0:0:0:
320,192,222038,1,0,0:0:0:0:
64,192,222113,1,0,0:0:0:0:
192,192,222113,1,0,0:0:0:0:
320,192,222188,1,0,0:0:0:0:
64,192,222263,1,0,0:0:0:0:
448,192,222263,1,0,0:0:0:0:
320,192,222338,1,0,0:0:0:0:
64,192,222413,1,0,0:0:0:0:
192,192,222413,1,0,0:0:0:0:
320,192,222413,1,0,0:0:0:0:
448,192,222413,1,0,0:0:0:0:
448,192,222488,1,0,0:0:0:0:
64,192,222563,1,0,0:0:0:0:
320,192,222563,1,0,0:0:0:0:
192,192,222638,1,0,0:0:0:0:
320,192,222713,1,0,0:0:0:0:
448,192,222713,1,0,0:0:0:0:
64,192,222788,1,0,0:0:0:0:
64,192,222863,1,0,0:0:0:0:
192,192,222863,1,0,0:0:0:0:
320,192,222863,1,0,0:0:0:0:
448,192,222863,1,0,0:0:0:0:
448,192,222938,1,0,0:0:0:0:
64,192,223013,1,0,0:0:0:0:
192,192,223013,1,0,0:0:0:0:
320,192,223013,1,0,0:0:0:0:
448,192,223088,1,0,0:0:0:0:
192,192,223163,1,0,0:0:0:0:
320,192,223163,1,0,0:0:0:0:
448,192,223238,1,0,0:0:0:0:
64,192,223313,1,0,0:0:0:0:
320,192,223313,1,0,0:0:0:0:
192,192,223388,1,0,0:0:0:0:
320,192,223463,1,0,0:0:0:0:
448,192,223463,1,0,0:0:0:0:
64,192,223538,1,0,0:0:0:0:
64,192,223613,1,0,0:0:0:0:
192,192,223613,1,0,0:0:0:0:
320,192,223613,1,0,0:0:0:0:
448,192,223613,1,0,0:0:0:0:
192,192,223688,1,0,0:0:0:0:
64,192,223763,1,0,0:0:0:0:
320,192,223763,1,0,0:0:0:0:
448,192,223838,1,0,0:0:0:0:
192,192,223913,1,0,0:0:0:0:
320,192,223913,1,0,0:0:0:0:
448,192,223988,1,0,0:0:0:0:
64,192,224063,1,0,0:0:0:0:
192,192,224063,1,0,0:0:0:0:
320,192,224063,1,0,0:0:0:0:
448,192,224138,1,0,0:0:0:0:
192,192,224213,1,0,0:0:0:0:
320,192,224213,1,0,0:0:0:0:
64,192,224288,1,0,0:0:0:0:
64,192,224363,1,0,0:0:0:0:
192,192,224363,1,0,0:0:0:0:
448,192,224363,1,0,0:0:0:0:
320,192,224438,1,0,0:0:0:0:
64,192,224513,1,0,0:0:0:0:
192,192,224513,1,0,0:0:0:0:
448,192,224513,1,0,0:0:0:0:
64,192,224588,1,0,0:0:0:0:
320,192,224588,1,0,0:0:0:0:
192,192,224663,1,0,0:0:0:0:
448,192,224663,1,0,0:0:0:0:
320,192,224738,1,0,0:0:0:0:
64,192,224813,1,0,0:0:0:0:
192,192,224813,1,0,0:0:0:0:
448,192,224813,1,0,0:0:0:0:
320,192,224888,1,0,0:0:0:0:
192,192,224963,1,0,0:0:0:0:
448,192,224963,1,0,0:0:0:0:
64,192,225038,1,0,0:0:0:0:
192,192,225113,1,0,0:0:0:0:
320,192,225113,1,0,0:0:0:0:
448,192,225113,1,0,0:0:0:0:
320,192,225188,1,0,0:0:0:0:
448,192,225188,1,0,0:0:0:0:
64,192,225263,1,0,0:0:0:0:
192,192,225263,1,0,0:0:0:0:
64,192,225338,1,0,0:0:0:0:
192,192,225413,1,0,0:0:0:0:
320,192,225413,1,0,0:0:0:0:
448,192,225413,1,0,0:0:0:0:
192,192,225488,1,0,0:0:0:0:
320,192,225488,1,0,0:0:0:0:
64,192,225563,1,0,0:0:0:0:
448,192,225563,1,0,0:0:0:0:
320,192,225638,1,0,0:0:0:0:
64,192,225713,1,0,0:0:0:0:
192,192,225713,1,0,0:0:0:0:
448,192,225713,1,0,0:0:0:0:
64,192,225788,1,0,0:0:0:0:
192,192,225788,1,0,0:0:0:0:
320,192,225863,1,0,0:0:0:0:
448,192,225863,1,0,0:0:0:0:
192,192,225938,1,0,0:0:0:0:
64,192,226013,1,0,0:0:0:0:
192,192,226013,1,0,0:0:0:0:
320,192,226013,1,0,0:0:0:0:
448,192,226013,1,0,0:0:0:0:
64,192,226088,1,0,0:0:0:0:
320,192,226088,1,0,0:0:0:0:
192,192,226163,1,0,0:0:0:0:
448,192,226163,1,0,0:0:0:0:
320,192,226238,1,0,0:0:0:0:
192,192,226313,1,0,0:0:0:0:
448,192,226313,1,0,0:0:0:0:
64,192,226388,1,0,0:0:0:0:
192,192,226463,1,0,0:0:0:0:
448,192,226463,1,0,0:0:0:0:
320,192,226538,1,0,0:0:0:0:
64,192,226613,1,0,0:0:0:0:
192,192,226613,1,0,0:0:0:0:
448,192,226613,1,0,0:0:0:0:
64,192,226763,1,0,0:0:0:0:
448,192,226763,1,0,0:0:0:0:
64,192,226913,1,0,0:0:0:0:
192,192,226913,1,0,0:0:0:0:
320,192,226913,1,0,0:0:0:0:
192,192,227063,1,0,0:0:0:0:
448,192,227063,1,0,0:0:0:0:
64,192,227213,1,0,0:0:0:0:
192,192,227213,1,0,0:0:0:0:
320,192,227213,1,0,0:0:0:0:
448,192,227213,1,0,0:0:0:0:
448,192,227288,1,0,0:0:0:0:
64,192,227363,1,0,0:0:0:0:
320,192,227363,1,0,0:0:0:0:
192,192,227438,1,0,0:0:0:0:
64,192,227513,1,0,0:0:0:0:
320,192,227513,1,0,0:0:0:0:
448,192,227513,1,0,0:0:0:0:
64,192,227663,1,0,0:0:0:0:
448,192,227663,1,0,0:0:0:0:
64,192,227813,1,0,0:0:0:0:
192,192,227813,1,0,0:0:0:0:
320,192,227813,1,0,0:0:0:0:
448,192,227813,1,0,0:0:0:0:
448,192,227888,1,0,0:0:0:0:
64,192,227963,1,0,0:0:0:0:
320,192,227963,1,0,0:0:0:0:
192,192,228038,1,0,0:0:0:0:
448,192,228038,1,0,0:0:0:0:
64,192,228113,1,0,0:0:0:0:
192,192,228113,1,0,0:0:0:0:
320,192,228113,1,0,0:0:0:0:
64,192,228263,1,0,0:0:0:0:
320,192,228263,1,0,0:0:0:0:
192,192,228338,1,0,0:0:0:0:
448,192,228338,1,0,0:0:0:0:
64,192,228413,1,0,0:0:0:0:
192,192,228413,1,0,0:0:0:0:
320,192,228413,1,0,0:0:0:0:
448,192,228413,1,0,0:0:0:0:
448,192,228513,1,0,0:0:0:0:
64,192,228563,1,0,0:0:0:0:
192,192,228563,1,0,0:0:0:0:
320,192,228613,1,0,0:0:0:0:
64,192,228713,1,0,0:0:0:0:
192,192,228713,1,0,0:0:0:0:
448,192,228713,1,0,0:0:0:0:
448,192,228813,1,0,0:0:0:0:
64,192,228863,1,0,0:0:0:0:
320,192,228863,1,0,0:0:0:0:
192,192,228913,1,0,0:0:0:0:
64,192,229013,1,0,0:0:0:0:
192,192,229013,1,0,0:0:0:0:
320,192,229013,1,0,0:0:0:0:
448,192,229013,1,0,0:0:0:0:
320,192,229113,1,0,0:0:0:0:
192,192,229163,1,0,0:0:0:0:
448,192,229163,1,0,0:0:0:0:
64,192,229213,1,0,0:0:0:0:
64,192,229313,1,0,0:0:0:0:
320,192,229313,1,0,0:0:0:0:
448,192,229313,1,0,0:0:0:0:
448,192,229413,1,0,0:0:0:0:
192,192,229463,1,0,0:0:0:0:
320,192,229463,1,0,0:0:0:0:
64,192,229513,1,0,0:0:0:0:
64,192,229613,1,0,0:0:0:0:
192,192,229613,1,0,0:0:0:0:
320,192,229613,1,0,0:0:0:0:
448,192,229613,1,0,0:0:0:0:
320,192,229713,1,0,0:0:0:0:
64,192,229763,1,0,0:0:0:0:
192,192,229763,1,0,0:0:0:0:
448,192,229813,1,0,0:0:0:0:
192,192,229913,1,0,0:0:0:0:
320,192,229913,1,0,0:0:0:0:
448,192,229913,1,0,0:0:0:0:
320,192,230013,1,0,0:0:0:0:
64,192,230063,1,0,0:0:0:0:
192,192,230063,1,0,0:0:0:0:
448,192,230113,1,0,0:0:0:0:
64,192,230213,1,0,0:0:0:0:
192,192,230213,1,0,0:0:0:0:
320,192,230213,1,0,0:0:0:0:
448,192,230213,1,0,0:0:0:0:
192,192,230313,1,0,0:0:0:0:
64,192,230363,1,0,0:0:0:0:
448,192,230363,1,0,0:0:0:0:
320,192,230413,1,0,0:0:0:0:
64,192,230513,1,0,0:0:0:0:
192,192,230513,1,0,0:0:0:0:
448,192,230513,1,0,0:0:0:0:
64,192,230613,1,0,0:0:0:0:
320,192,230663,1,0,0:0:0:0:
448,192,230663,1,0,0:0:0:0:
192,192,230713,1,0,0:0:0:0:
64,192,230813,1,0,0:0:0:0:
192,192,230813,1,0,0:0:0:0:
320,192,230813,1,0,0:0:0:0:
448,192,230813,1,0,0:0:0:0:
320,192,230888,1,0,0:0:0:0:
448,192,230888,1,0,0:0:0:0:
64,192,230963,1,0,0:0:0:0:
192,192,230963,1,0,0:0:0:0:
320,192,231038,1,0,0:0:0:0:
448,192,231038,1,0,0:0:0:0:
64,192,231113,1,0,0:0:0:0:
192,192,231113,1,0,0:0:0:0:
320,192,231188,1,0,0:0:0:0:
448,192,231188,1,0,0:0:0:0:
64,192,231263,1,0,0:0:0:0:
192,192,231263,1,0,0:0:0:0:
320,192,231338,1,0,0:0:0:0:
448,192,231338,1,0,0:0:0:0:
64,192,231413,1,0,0:0:0:0:
192,192,231413,1,0,0:0:0:0:
320,192,231488,1,0,0:0:0:0:
448,192,231488,1,0,0:0:0:0:
64,192,231563,1,0,0:0:0:0:
192,192,231563,1,0,0:0:0:0:
320,192,231638,1,0,0:0:0:0:
448,192,231638,1,0,0:0:0:0:
64,192,231713,1,0,0:0:0:0:
192,192,231713,1,0,0:0:0:0:
320,192,231788,1,0,0:0:0:0:
448,192,231788,1,0,0:0:0:0:
64,192,231863,1,0,0:0:0:0:
192,192,231863,1,0,0:0:0:0:
320,192,231938,1,0,0:0:0:0:
448,192,231938,1,0,0:0:0:0:
64,192,232013,1,0,0:0:0:0:
192,192,232013,1,0,0:0:0:0:
320,192,232063,1,0,0:0:0:0:
448,192,232063,1,0,0:0:0:0:
64,192,232113,1,0,0:0:0:0:
192,192,232113,1,0,0:0:0:0:
320,192,232163,1,0,0:0:0:0:
448,192,232163,1,0,0:0:0:0:
64,192,232238,1,0,0:0:0:0:
192,192,232238,1,0,0:0:0:0:
320,192,232313,1,0,0:0:0:0:
448,192,232313,1,0,0:0:0:0:
64,192,232363,1,0,0:0:0:0:
192,192,232363,1,0,0:0:0:0:
320,192,232413,1,0,0:0:0:0:
448,192,232413,1,0,0:0:0:0:
64,192,232463,1,0,0:0:0:0:
192,192,232463,1,0,0:0:0:0:
320,192,232538,1,0,0:0:0:0:
448,192,232538,1,0,0:0:0:0:
64,192,232613,1,0,0:0:0:0:
192,192,232613,1,0,0:0:0:0:
320,192,232663,1,0,0:0:0:0:
448,192,232663,1,0,0:0:0:0:
64,192,232713,1,0,0:0:0:0:
192,192,232713,1,0,0:0:0:0:
320,192,232763,1,0,0:0:0:0:
448,192,232763,1,0,0:0:0:0:
64,192,232838,1,0,0:0:0:0:
192,192,232838,1,0,0:0:0:0:
320,192,232913,1,0,0:0:0:0:
448,192,232913,1,0,0:0:0:0:
64,192,232950,1,0,0:0:0:0:
192,192,232950,1,0,0:0:0:0:
320,192,232988,1,0,0:0:0:0:
448,192,232988,1,0,0:0:0:0:
64,192,233025,1,0,0:0:0:0:
192,192,233025,1,0,0:0:0:0:
320,192,233063,1,0,0:0:0:0:
448,192,233063,1,0,0:0:0:0:
64,192,233100,1,0,0:0:0:0:
192,192,233100,1,0,0:0:0:0:
320,192,233138,1,0,0:0:0:0:
448,192,233138,1,0,0:0:0:0:
64,192,233213,1,0,0:0:0:0:
192,192,233213,1,0,0:0:0:0:
320,192,233213,1,0,0:0:0:0:
448,192,233213,1,0,0:0:0:0:
64,192,233363,1,0,0:0:0:0:
448,192,233513,1,0,0:0:0:0:
64,192,233663,1,0,0:0:0:0:
192,192,233663,1,0,0:0:0:0:
320,192,233663,1,0,0:0:0:0:
448,192,233813,1,0,0:0:0:0:
64,192,233963,1,0,0:0:0:0:
192,192,234113,1,0,0:0:0:0:
320,192,234113,1,0,0:0:0:0:
448,192,234113,1,0,0:0:0:0:
64,192,234263,1,0,0:0:0:0:
448,192,234413,1,0,0:0:0:0:
64,192,234563,1,0,0:0:0:0:
192,192,234563,1,0,0:0:0:0:
320,192,234563,1,0,0:0:0:0:
448,192,234713,1,0,0:0:0:0:
64,192,234863,1,0,0:0:0:0:
192,192,235013,1,0,0:0:0:0:
320,192,235013,1,0,0:0:0:0:
448,192,235013,1,0,0:0:0:0:
64,192,235163,1,0,0:0:0:0:
64,192,235313,1,0,0:0:0:0:
192,192,235313,1,0,0:0:0:0:
320,192,235313,1,0,0:0:0:0:
192,192,235463,1,0,0:0:0:0:
320,192,235463,1,0,0:0:0:0:
448,192,235463,1,0,0:0:0:0:
64,192,235613,1,0,0:0:0:0:
320,192,235613,1,0,0:0:0:0:
448,192,235613,1,0,0:0:0:0:
192,192,235763,1,0,0:0:0:0:
320,192,235913,1,0,0:0:0:0:
64,192,236063,1,0,0:0:0:0:
192,192,236063,1,0,0:0:0:0:
448,192,236063,1,0,0:0:0:0:
320,192,236213,1,0,0:0:0:0:
192,192,236363,1,0,0:0:0:0:
64,192,236513,1,0,0:0:0:0:
320,192,236513,1,0,0:0:0:0:
448,192,236513,1,0,0:0:0:0:
192,192,236663,1,0,0:0:0:0:
320,192,236813,1,0,0:0:0:0:
64,192,236963,1,0,0:0:0:0:
192,192,236963,1,0,0:0:0:0:
448,192,236963,1,0,0:0:0:0:
320,192,237113,1,0,0:0:0:0:
192,192,237263,1,0,0:0:0:0:
64,192,237413,1,0,0:0:0:0:
320,192,237413,1,0,0:0:0:0:
448,192,237413,1,0,0:0:0:0:
192,192,237563,1,0,0:0:0:0:
64,192,237713,1,0,0:0:0:0:
320,192,237713,1,0,0:0:0:0:
448,192,237713,1,0,0:0:0:0:
192,192,237788,1,0,0:0:0:0:
64,192,237863,1,0,0:0:0:0:
320,192,237863,1,0,0:0:0:0:
448,192,237938,1,0,0:0:0:0:
192,192,238013,1,0,0:0:0:0:
320,192,238013,1,0,0:0:0:0:
448,192,238013,1,0,0:0:0:0:
64,192,238163,1,0,0:0:0:0:
448,192,238313,1,0,0:0:0:0:
64,192,238463,1,0,0:0:0:0:
192,192,238463,1,0,0:0:0:0:
320,192,238463,1,0,0:0:0:0:
448,192,238613,1,0,0:0:0:0:
64,192,238763,1,0,0:0:0:0:
192,192,238913,1,0,0:0:0:0:
320,192,238913,1,0,0:0:0:0:
448,192,238913,1,0,0:0:0:0:
64,192,239063,1,0,0:0:0:0:
448,192,239213,1,0,0:0:0:0:
64,192,239363,1,0,0:0:0:0:
192,192,239363,1,0,0:0:0:0:
320,192,239363,1,0,0:0:0:0:
448,192,239513,1,0,0:0:0:0:
64,192,239663,1,0,0:0:0:0:
192,192,239813,1,0,0:0:0:0:
320,192,239813,1,0,0:0:0:0:
448,192,239813,1,0,0:0:0:0:
64,192,239963,1,0,0:0:0:0:
64,192,240113,1,0,0:0:0:0:
192,192,240113,1,0,0:0:0:0:
320,192,240113,1,0,0:0:0:0:
192,192,240263,1,0,0:0:0:0:
320,192,240263,1,0,0:0:0:0:
448,192,240263,1,0,0:0:0:0:
64,192,240413,1,0,0:0:0:0:
320,192,240413,1,0,0:0:0:0:
448,192,240413,1,0,0:0:0:0:
192,192,240563,1,0,0:0:0:0:
320,192,240713,1,0,0:0:0:0:
64,192,240863,1,0,0:0:0:0:
192,192,240863,1,0,0:0:0:0:
448,192,240863,1,0,0:0:0:0:
320,192,241013,1,0,0:0:0:0:
192,192,241163,1,0,0:0:0:0:
64,192,241313,1,0,0:0:0:0:
320,192,241313,1,0,0:0:0:0:
448,192,241313,1,0,0:0:0:0:
192,192,241463,1,0,0:0:0:0:
320,192,241613,1,0,0:0:0:0:
64,192,241763,1,0,0:0:0:0:
192,192,241763,1,0,0:0:0:0:
448,0,241763,128,0,241913:1:0:0:0:
320,192,241913,1,0,0:0:0:0:
192,192,241988,1,0,0:0:0:0:
64,192,242063,1,0,0:0:0:0:
192,192,242138,1,0,0:0:0:0:
64,192,242213,1,0,0:0:0:0:
192,192,242213,1,0,0:0:0:0:
320,192,242213,1,0,0:0:0:0:
448,192,242213,1,0,0:0:0:0:
192,192,242363,1,0,0:0:0:0:
320,192,242363,1,0,0:0:0:0:
448,192,242363,1,0,0:0:0:0:
64,192,242513,1,0,0:0:0:0:
448,192,242513,1,0,0:0:0:0:
64,192,242588,1,0,0:0:0:0:
192,192,242588,1,0,0:0:0:0:
192,192,242663,1,0,0:0:0:0:
320,192,242663,1,0,0:0:0:0:
320,192,242738,1,0,0:0:0:0:
448,192,242738,1,0,0:0:0:0:
64,192,242813,1,0,0:0:0:0:
192,192,242813,1,0,0:0:0:0:
320,192,242813,1,0,0:0:0:0:
192,192,242913,1,0,0:0:0:0:
64,192,242963,1,0,0:0:0:0:
320,192,243013,1,0,0:0:0:0:
64,192,243113,1,0,0:0:0:0:
448,192,243113,1,0,0:0:0:0:
448,192,243213,1,0,0:0:0:0:
64,192,243263,1,0,0:0:0:0:
192,192,243263,1,0,0:0:0:0:
320,192,243263,1,0,0:0:0:0:
448,192,243313,1,0,0:0:0:0:
192,192,243413,1,0,0:0:0:0:
448,192,243413,1,0,0:0:0:0:
320,192,243513,1,0,0:0:0:0:
64,192,243563,1,0,0:0:0:0:
192,192,243613,1,0,0:0:0:0:
192,192,243713,1,0,0:0:0:0:
320,192,243713,1,0,0:0:0:0:
448,192,243713,1,0,0:0:0:0:
64,192,243813,1,0,0:0:0:0:
192,192,243863,1,0,0:0:0:0:
448,192,243863,1,0,0:0:0:0:
320,192,243913,1,0,0:0:0:0:
64,192,244013,1,0,0:0:0:0:
192,192,244013,1,0,0:0:0:0:
448,192,244013,1,0,0:0:0:0:
448,192,244113,1,0,0:0:0:0:
64,192,244163,1,0,0:0:0:0:
192,192,244163,1,0,0:0:0:0:
320,192,244163,1,0,0:0:0:0:
448,192,244213,1,0,0:0:0:0:
64,192,244313,1,0,0:0:0:0:
192,192,244313,1,0,0:0:0:0:
320,192,244313,1,0,0:0:0:0:
192,192,244413,1,0,0:0:0:0:
320,192,244463,1,0,0:0:0:0:
448,192,244463,1,0,0:0:0:0:
64,192,244513,1,0,0:0:0:0:
192,192,244613,1,0,0:0:0:0:
320,192,244613,1,0,0:0:0:0:
448,192,244613,1,0,0:0:0:0:
448,192,244713,1,0,0:0:0:0:
64,192,244763,1,0,0:0:0:0:
320,192,244813,1,0,0:0:0:0:
64,192,244913,1,0,0:0:0:0:
192,192,244913,1,0,0:0:0:0:
320,192,244913,1,0,0:0:0:0:
64,192,245013,1,0,0:0:0:0:
192,192,245063,1,0,0:0:0:0:
320,192,245063,1,0,0:0:0:0:
448,192,245063,1,0,0:0:0:0:
64,192,245113,1,0,0:0:0:0:
64,192,245213,1,0,0:0:0:0:
320,192,245213,1,0,0:0:0:0:
448,192,245213,1,0,0:0:0:0:
448,192,245313,1,0,0:0:0:0:
64,192,245363,1,0,0:0:0:0:
320,192,245363,1,0,0:0:0:0:
192,192,245413,1,0,0:0:0:0:
64,192,245513,1,0,0:0:0:0:
448,192,245513,1,0,0:0:0:0:
320,192,245613,1,0,0:0:0:0:
64,192,245663,1,0,0:0:0:0:
192,192,245663,1,0,0:0:0:0:
448,192,245663,1,0,0:0:0:0:
320,192,245713,1,0,0:0:0:0:
192,192,245813,1,0,0:0:0:0:
448,192,245813,1,0,0:0:0:0:
64,192,245913,1,0,0:0:0:0:
320,192,245963,1,0,0:0:0:0:
448,192,245963,1,0,0:0:0:0:
192,192,246013,1,0,0:0:0:0:
64,192,246113,1,0,0:0:0:0:
320,192,246113,1,0,0:0:0:0:
448,192,246113,1,0,0:0:0:0:
192,192,246213,1,0,0:0:0:0:
64,192,246263,1,0,0:0:0:0:
320,192,246263,1,0,0:0:0:0:
448,192,246313,1,0,0:0:0:0:
64,192,246413,1,0,0:0:0:0:
320,192,246413,1,0,0:0:0:0:
320,192,246513,1,0,0:0:0:0:
64,192,246563,1,0,0:0:0:0:
192,192,246563,1,0,0:0:0:0:
448,192,246563,1,0,0:0:0:0:
320,192,246613,1,0,0:0:0:0:
64,192,246713,1,0,0:0:0:0:
192,192,246713,1,0,0:0:0:0:
448,192,246813,1,0,0:0:0:0:
64,192,246863,1,0,0:0:0:0:
320,192,246863,1,0,0:0:0:0:
192,192,246913,1,0,0:0:0:0:
64,192,247013,1,0,0:0:0:0:
320,192,247013,1,0,0:0:0:0:
448,192,247013,1,0,0:0:0:0:
64,192,247113,1,0,0:0:0:0:
320,192,247163,1,0,0:0:0:0:
448,192,247163,1,0,0:0:0:0:
192,192,247213,1,0,0:0:0:0:
64,192,247313,1,0,0:0:0:0:
448,192,247313,1,0,0:0:0:0:
64,192,247388,1,0,0:0:0:0:
192,192,247388,1,0,0:0:0:0:
192,192,247463,1,0,0:0:0:0:
320,192,247463,1,0,0:0:0:0:
320,192,247538,1,0,0:0:0:0:
448,192,247538,1,0,0:0:0:0:
64,192,247613,1,0,0:0:0:0:
192,192,247613,1,0,0:0:0:0:
320,192,247613,1,0,0:0:0:0:
448,192,247613,1,0,0:0:0:0:
192,192,247713,1,0,0:0:0:0:
64,192,247763,1,0,0:0:0:0:
320,192,247813,1,0,0:0:0:0:
192,192,247913,1,0,0:0:0:0:
448,192,247913,1,0,0:0:0:0:
448,192,248013,1,0,0:0:0:0:
64,192,248063,1,0,0:0:0:0:
192,192,248063,1,0,0:0:0:0:
320,192,248063,1,0,0:0:0:0:
448,192,248113,1,0,0:0:0:0:
192,192,248213,1,0,0:0:0:0:
448,192,248213,1,0,0:0:0:0:
320,192,248313,1,0,0:0:0:0:
64,192,248363,1,0,0:0:0:0:
448,192,248413,1,0,0:0:0:0:
192,192,248513,1,0,0:0:0:0:
320,192,248513,1,0,0:0:0:0:
448,192,248513,1,0,0:0:0:0:
448,192,248613,1,0,0:0:0:0:
64,192,248663,1,0,0:0:0:0:
192,192,248663,1,0,0:0:0:0:
320,192,248713,1,0,0:0:0:0:
64,192,248813,1,0,0:0:0:0:
192,192,248813,1,0,0:0:0:0:
320,192,248813,1,0,0:0:0:0:
448,192,248813,1,0,0:0:0:0:
448,192,248913,1,0,0:0:0:0:
64,192,248963,1,0,0:0:0:0:
192,192,248963,1,0,0:0:0:0:
320,192,248963,1,0,0:0:0:0:
448,192,249013,1,0,0:0:0:0:
320,192,249113,1,0,0:0:0:0:
448,192,249113,1,0,0:0:0:0:
320,192,249213,1,0,0:0:0:0:
64,192,249263,1,0,0:0:0:0:
192,192,249263,1,0,0:0:0:0:
448,192,249313,1,0,0:0:0:0:
64,192,249413,1,0,0:0:0:0:
192,192,249413,1,0,0:0:0:0:
320,192,249413,1,0,0:0:0:0:
448,192,249413,1,0,0:0:0:0:
192,192,249513,1,0,0:0:0:0:
320,192,249563,1,0,0:0:0:0:
448,192,249563,1,0,0:0:0:0:
64,192,249613,1,0,0:0:0:0:
448,192,249638,1,0,0:0:0:0:
64,192,249713,1,0,0:0:0:0:
192,192,249713,1,0,0:0:0:0:
320,192,249713,1,0,0:0:0:0:
64,192,249813,1,0,0:0:0:0:
192,192,249863,1,0,0:0:0:0:
320,192,249863,1,0,0:0:0:0:
448,192,249863,1,0,0:0:0:0:
64,192,249938,1,0,0:0:0:0:
64,192,250013,1,0,0:0:0:0:
192,192,250013,1,0,0:0:0:0:
320,192,250013,1,0,0:0:0:0:
448,192,250013,1,0,0:0:0:0:
64,192,250163,1,0,0:0:0:0:
192,192,250163,1,0,0:0:0:0:
320,192,250313,1,0,0:0:0:0:
448,192,250313,1,0,0:0:0:0:
64,192,250463,1,0,0:0:0:0:
192,192,250463,1,0,0:0:0:0:
448,192,250463,1,0,0:0:0:0:
64,192,250613,1,0,0:0:0:0:
192,192,250613,1,0,0:0:0:0:
320,192,250613,1,0,0:0:0:0:
448,192,250613,1,0,0:0:0:0:
64,192,250763,1,0,0:0:0:0:
192,192,250763,1,0,0:0:0:0:
64,192,250913,1,0,0:0:0:0:
320,192,250913,1,0,0:0:0:0:
448,192,250913,1,0,0:0:0:0:
64,192,251063,1,0,0:0:0:0:
192,192,251063,1,0,0:0:0:0:
64,192,251213,1,0,0:0:0:0:
192,192,251213,1,0,0:0:0:0:
320,192,251213,1,0,0:0:0:0:
448,192,251213,1,0,0:0:0:0:
192,192,251250,1,0,0:0:0:0:
320,192,251288,1,0,0:0:0:0:
448,192,251325,1,0,0:0:0:0:
64,192,251363,1,0,0:0:0:0:
192,192,251400,1,0,0:0:0:0:
320,192,251438,1,0,0:0:0:0:
448,192,251475,1,0,0:0:0:0:
64,192,251513,1,0,0:0:0:0:
192,192,251550,1,0,0:0:0:0:
320,192,251588,1,0,0:0:0:0:
448,192,251625,1,0,0:0:0:0:
64,192,251663,1,0,0:0:0:0:
192,192,251700,1,0,0:0:0:0:
320,192,251738,1,0,0:0:0:0:
448,192,251775,1,0,0:0:0:0:
64,192,251813,1,0,0:0:0:0:
192,192,251850,1,0,0:0:0:0:
320,192,251888,1,0,0:0:0:0:
448,192,251925,1,0,0:0:0:0:
64,192,251963,1,0,0:0:0:0:
192,192,252000,1,0,0:0:0:0:
320,192,252038,1,0,0:0:0:0:
448,192,252075,1,0,0:0:0:0:
64,192,252113,1,0,0:0:0:0:
192,192,252150,1,0,0:0:0:0:
320,192,252188,1,0,0:0:0:0:
448,192,252225,1,0,0:0:0:0:
64,192,252263,1,0,0:0:0:0:
192,192,252300,1,0,0:0:0:0:
320,192,252338,1,0,0:0:0:0:
448,192,252375,1,0,0:0:0:0:
64,192,252413,1,0,0:0:0:0:
192,192,252413,1,0,0:0:0:0:
320,192,252413,1,0,0:0:0:0:
448,192,252413,1,0,0:0:0:0:
64,192,253688,1,0,0:0:0:0:
192,192,254963,1,0,0:0:0:0:
320,192,256238,1,0,0:0:0:0:
448,192,257513,1,0,0:0:0:0:
