osu file format v14

[General]
AudioFilename: audio.mp3
AudioLeadIn: 0
PreviewTime:78739
Countdown: 0
SampleSet: Drum
StackLeniency: 0.4
Mode: 0
LetterboxInBreaks: 0
WidescreenStoryboard: 1

[Editor]
DistanceSpacing: 0.8
BeatDivisor: 4
GridSize: 32
TimelineZoom: 3.199999

[Metadata]
Title:Shoujo Kisoukyoku ~ Speed Battle
TitleUnicode:少女綺走曲 ~ Speed Battle
Artist:Xi
ArtistUnicode:Xi
Creator:Leader
Version:Shurelia's Lunatic
Source:東方永夜抄 ~ Imperishable Night.
Tags:OWC 2020 RO32 NM2 Shurelia PaRaDoGi Respirte 神速裁判 ~ Rapidity is a justice AQUAELIE 少女綺想曲 ~ Dream Battle 東方Project Touhou th08 博麗 霊夢 Hakurei Reimu Theme ZUN Metal Instrumental Video Game
BeatmapID:2749371
BeatmapSetID:1286282

[Difficulty]
HPDrainRate:6
CircleSize:4
OverallDifficulty:8.6
ApproachRate:9
SliderMultiplier:1.6
SliderTickRate:1

[Events]
//Background and Video events
0,0,"reimubg1.jpg",0,0
//Break Periods
2,136020,145599
//Storyboard Layer 0 (Background)
//Storyboard Layer 1 (Fail)
//Storyboard Layer 2 (Pass)
//Storyboard Layer 3 (Foreground)
//Storyboard Layer 4 (Overlay)
//Storyboard Sound Samples

[TimingPoints]
902,324.324324324324,4,2,1,50,1,0
902,-133.333333333333,4,2,1,50,0,0
6091,-133.333333333333,4,3,1,50,0,0
10956,-200,4,2,1,70,0,0
11280,-100,4,3,1,70,0,0
34631,-100,4,3,1,70,0,0
34956,-100,4,3,1,50,0,0
35280,-100,4,3,1,40,0,0
35604,-100,4,3,1,30,0,0
35929,-100,4,3,1,20,0,0
36253,-100,4,3,1,10,0,0
36577,-100,4,3,1,5,0,0
36901,-100,4,3,1,40,0,0
37064,-100,4,3,1,50,0,0
37226,-100,4,3,1,60,0,0
76793,-50,4,3,1,60,0,0
77118,-100,4,3,1,60,0,0
78739,-66.6666666666667,4,3,1,70,0,1
89037,-100,4,3,1,70,0,0
89118,-66.6666666666667,4,3,1,70,0,1
95929,-57.1428571428571,4,3,1,70,0,1
96901,-66.6666666666667,4,3,1,70,0,1
98361,-50,4,3,1,70,0,1
99496,-100,4,3,1,60,0,0
104685,-100,4,3,1,60,0,0
125442,-83.3333333333333,4,3,1,60,0,0
146199,-125,4,3,1,40,0,0
147496,-125,4,3,1,45,0,0
148793,-125,4,3,1,50,0,0
150091,-125,4,3,1,55,0,0
151388,-125,4,3,1,60,0,0
152685,-125,4,3,1,65,0,0
153983,-100,4,3,1,70,0,0
156415,-100,4,3,1,5,0,0
156577,-66.6666666666667,4,3,1,70,0,1
166874,-100,4,3,1,70,0,0
166956,-66.6666666666667,4,3,1,70,0,1
177359,324.324324324324,4,3,1,70,1,0
177359,-100,4,3,1,70,0,0
180926,-100,4,3,1,60,0,0
181250,-100,4,3,1,50,0,0
181575,-100,4,3,1,40,0,0
181899,-100,4,3,1,30,0,0
182223,-100,4,3,1,20,0,0
182518,324.324324324324,4,3,1,60,1,0
184463,-1000,4,3,1,60,0,0
184788,-1000,4,3,1,5,0,0

[Colours]
Combo1 : 113,15,32
Combo2 : 159,134,133
Combo3 : 130,133,134
Combo4 : 124,124,132

[HitObjects]
365,104,902,6,0,P|425:98|485:93,1,120.000004577637,2|2,0:0|0:0,0:0:0:0:
279,272,1550,1,2,0:0:0:0:
279,272,1793,1,2,0:0:0:0:
279,272,2037,1,2,0:0:0:0:
279,272,2361,1,2,0:0:0:0:
164,360,2523,6,0,P|104:354|44:349,1,120.000004577637,2|2,0:0|0:0,0:0:0:0:
155,253,3091,1,0,0:0:0:0:
59,180,3334,2,0,P|47:122|38:62,1,120.000004577637,2|0,0:0|0:0,0:0:0:0:
157,159,3820,1,2,0:0:0:0:
263,72,4145,1,2,0:0:0:0:
263,72,4388,1,2,0:0:0:0:
263,72,4631,1,2,0:0:0:0:
263,72,4956,5,2,0:0:0:0:
371,148,5118,1,2,0:0:0:0:
371,148,5442,1,2,0:0:0:0:
371,148,5685,1,2,0:0:0:0:
371,148,5929,1,2,0:0:0:0:
342,258,6091,6,0,P|282:266|223:275,1,120.000004577637,6|8,0:0|0:0,0:0:0:0:
226,292,6739,2,0,P|285:299|344:309,1,120.000004577637,2|8,0:0|0:0,0:0:0:0:
174,163,7388,6,0,P|114:170|55:180,1,120.000004577637,2|8,0:0|0:0,0:0:0:0:
57,196,8036,2,0,P|116:203|175:213,1,120.000004577637,2|8,0:0|0:0,0:0:0:0:
327,33,8523,1,0,0:0:0:0:
327,33,8685,6,0,P|267:40|208:50,1,120.000004577637,6|8,0:0|0:0,0:0:0:0:
210,66,9333,2,0,P|269:73|328:83,1,120.000004577637,2|8,0:0|0:0,0:0:0:0:
243,282,9820,1,0,0:0:0:0:
242,282,9983,6,0,P|271:285|301:287,1,60.0000022888184,2|0,0:0|0:0,0:0:0:0:
302,322,10307,2,0,P|272:325|242:327,1,60.0000022888184,8|0,0:0|0:0,0:0:0:0:
110,294,10631,1,2,0:0:0:0:
91,261,10712,1,0,0:0:0:0:
79,230,10793,1,0,0:0:0:0:
70,189,10874,1,0,0:0:0:0:
68,152,10956,6,0,P|65:119|64:92,1,60,4|0,0:0|0:0,0:0:0:0:
62,57,11280,5,6,0:0:0:0:
77,55,11361,1,0,0:0:0:0:
93,54,11442,1,0,0:0:0:0:
109,52,11523,1,0,0:0:0:0:
124,50,11604,2,0,L|163:45,1,40,8|0,0:0|0:0,0:0:0:0:
227,9,11766,2,0,L|266:14,1,40
327,67,11929,6,0,L|332:106,3,40,2|0|0|0,0:0|0:0|0:0|0:0,0:0:0:0:
422,77,12253,2,0,L|407:114,3,40,8|0|0|0,0:0|0:0|0:0|0:0,0:0:0:0:
444,181,12577,5,2,0:0:0:0:
446,204,12658,1,0,0:0:0:0:
448,227,12739,1,0,0:0:0:0:
451,250,12820,1,0,0:0:0:0:
463,270,12901,6,0,L|502:271,3,40,8|0|0|0,0:0|0:0|0:0|0:0,0:0:0:0:
394,312,13226,2,0,L|354:310,1,40,2|0,0:0|0:0,0:0:0:0:
293,260,13388,2,0,L|253:258,1,40
168,292,13550,5,8,0:0:0:0:
162,252,13631,1,0,0:0:0:0:
156,212,13712,1,0,0:0:0:0:
151,172,13793,1,0,0:0:0:0:
149,132,13874,6,0,L|120:103,3,40,6|0|0|0,0:0|0:0|0:0|0:0,0:0:0:0:
232,100,14199,2,0,L|231:61,1,40,8|0,0:0|0:0,0:0:0:0:
321,128,14361,2,0,L|339:92,1,40
291,198,14523,5,2,0:0:0:0:
291,213,14604,1,0,0:0:0:0:
291,229,14685,1,0,0:0:0:0:
292,245,14766,1,0,0:0:0:0:
293,260,14847,2,0,L|331:270,1,40,8|0,0:0|0:0,0:0:0:0:
281,335,15010,2,0,L|242:345,1,40
365,345,15172,6,0,P|375:360|387:377,1,40,2|0,0:0|0:0,0:0:0:0:
422,269,15334,2,0,P|439:277|457:285,1,40
430,183,15496,2,0,P|448:181|469:178,1,40,8|0,0:0|0:0,0:0:0:0:
395,102,15658,2,0,P|410:90|426:79,1,40,2|0,0:0|0:0,0:0:0:0:
367,24,15820,6,0,P|327:25|288:17,1,80,2|0,0:0|0:0,0:0:0:0:
155,63,16064,2,0,P|194:60|232:72,1,80
239,147,16307,1,0,0:0:0:0:
39,202,16469,6,0,L|1:188,2,40,6|0|2,0:0|0:0|0:0,0:0:0:0:
77,298,16712,2,0,P|114:311|152:323,1,80,2|0,0:0|0:0,0:0:0:0:
253,363,16956,2,0,L|301:361,1,40,2|0,0:0|0:0,0:0:0:0:
397,315,17118,2,0,L|358:314,1,40,2|2,0:0|0:0,0:0:0:0:
286,281,17280,2,0,L|325:211,1,80,2|8,0:0|0:0,0:0:0:0:
431,173,17523,2,0,L|468:187,2,40
398,128,17766,5,2,0:0:0:0:
360,145,17847,1,2,0:0:0:0:
323,123,17929,1,2,0:0:0:0:
288,141,18010,2,0,L|211:165,1,80
95,142,18253,2,0,L|56:135,1,40,2|0,0:0|0:0,0:0:0:0:
96,229,18415,2,0,L|57:228,1,40,2|0,0:0|0:0,0:0:0:0:
120,300,18577,2,0,L|81:306,1,40,2|0,0:0|0:0,0:0:0:0:
157,372,18739,2,0,L|119:384,3,40,10|0|2|0,0:0|0:0|0:0|0:0,0:0:0:0:
198,356,19064,5,6,0:0:0:0:
209,317,19145,1,0,0:0:0:0:
237,288,19226,1,2,0:0:0:0:
276,282,19307,1,0,0:0:0:0:
314,292,19388,2,0,P|322:329|293:354,1,80,8|2,0:0|0:0,0:0:0:0:
209,317,19631,5,0,0:0:0:0:
237,288,19712,1,2,0:0:0:0:
276,282,19793,1,0,0:0:0:0:
314,292,19874,2,0,P|322:329|293:354,1,80,2|8,0:0|0:0,0:0:0:0:
209,317,20118,5,0,0:0:0:0:
237,288,20199,1,2,0:0:0:0:
276,282,20280,1,0,0:0:0:0:
314,292,20361,2,0,P|322:329|293:354,1,80,2|2,0:0|0:0,0:0:0:0:
209,317,20604,5,0,0:0:0:0:
237,288,20685,1,8,0:0:0:0:
276,282,20766,1,0,0:0:0:0:
314,292,20847,2,0,P|322:329|293:354,1,80,2|2,0:0|0:0,0:0:0:0:
209,317,21091,5,0,0:0:0:0:
237,288,21172,1,0,0:0:0:0:
276,282,21253,1,0,0:0:0:0:
314,291,21334,2,0,P|328:278|342:264,1,40,8|0,0:0|0:0,0:0:0:0:
353,177,21496,2,0,P|338:163|324:149,1,40
202,96,21658,5,6,0:0:0:0:
187,94,21739,1,0,0:0:0:0:
171,93,21820,1,0,0:0:0:0:
155,91,21901,1,0,0:0:0:0:
138,88,21983,2,0,L|133:48,1,40,8|0,0:0|0:0,0:0:0:0:
58,0,22145,2,0,L|53:39,1,40
65,120,22307,6,0,L|70:159,3,40,2|0|0|0,0:0|0:0|0:0|0:0,0:0:0:0:
24,221,22631,2,0,L|19:260,3,40,8|0|0|0,0:0|0:0|0:0|0:0,0:0:0:0:
118,221,22955,5,2,0:0:0:0:
141,226,23036,1,0,0:0:0:0:
154,246,23117,1,0,0:0:0:0:
151,270,23199,1,0,0:0:0:0:
131,283,23279,6,0,L|92:275,3,40,8|0|0|0,0:0|0:0|0:0|0:0,0:0:0:0:
195,347,23604,2,0,L|235:349,1,40,2|0,0:0|0:0,0:0:0:0:
323,292,23766,2,0,L|363:294,1,40
467,355,23928,5,8,0:0:0:0:
473,315,24009,1,0,0:0:0:0:
479,275,24090,1,0,0:0:0:0:
484,235,24171,1,0,0:0:0:0:
492,196,24252,6,0,L|496:156,3,40,6|0|0|0,0:0|0:0|0:0|0:0,0:0:0:0:
410,128,24577,2,0,L|409:89,1,40,8|0,0:0|0:0,0:0:0:0:
321,114,24739,2,0,L|308:73,1,40
261,167,24901,5,2,0:0:0:0:
265,182,24982,1,0,0:0:0:0:
267,198,25063,1,0,0:0:0:0:
270,214,25144,1,0,0:0:0:0:
273,230,25226,2,0,L|276:269,1,40,8|0,0:0|0:0,0:0:0:0:
187,327,25388,2,0,L|191:288,1,40
127,203,25550,6,0,P|125:222|123:242,1,40,2|0,0:0|0:0,0:0:0:0:
54,122,25712,2,0,P|34:119|14:118,1,40
123,41,25874,2,0,P|122:22|120:2,1,40,8|0,0:0|0:0,0:0:0:0:
196,117,26036,2,0,P|215:118|235:120,1,40
127,203,26198,6,0,P|123:242|119:282,1,80,2|0,0:0|0:0,0:0:0:0:
54,122,26442,2,0,P|50:82|46:42,1,80
196,117,26685,1,0,0:0:0:0:
323,50,26847,6,0,L|316:1,2,40,6|0|2,0:0|0:0|0:0,0:0:0:0:
427,54,27091,2,0,L|402:129,1,80,2|0,0:0|0:0,0:0:0:0:
448,226,27334,2,0,L|467:190,1,40,2|0,0:0|0:0,0:0:0:0:
459,300,27496,2,0,L|478:336,1,40,0|2,0:0|0:0,0:0:0:0:
387,270,27658,2,0,L|312:245,1,80,2|8,0:0|0:0,0:0:0:0:
262,157,27901,2,0,L|254:117,2,40,0|2|0,0:0|0:0|0:0,0:0:0:0:
244,186,28144,5,2,0:0:0:0:
214,212,28225,1,0,0:0:0:0:
184,240,28307,1,2,0:0:0:0:
153,265,28388,2,0,L|138:343,1,80
34,283,28631,2,0,L|41:244,1,40,2|0,0:0|0:0,0:0:0:0:
112,169,28793,2,0,L|113:130,1,40,2|0,0:0|0:0,0:0:0:0:
193,99,28955,2,0,L|187:60,1,40,2|0,0:0|0:0,0:0:0:0:
260,40,29118,2,0,L|248:2,3,40,10|0|2|0,0:0|0:0|0:0|0:0,0:0:0:0:
309,53,29442,5,6,0:0:0:0:
346,66,29523,1,0,0:0:0:0:
369,98,29604,1,0,0:0:0:0:
374,137,29685,1,0,0:0:0:0:
363,175,29766,2,0,L|402:178,2,40,8|0|0,0:0|0:0|0:0,0:0:0:0:
323,248,30010,2,0,L|332:286,1,40,0|2,0:0|0:0,0:0:0:0:
228,183,30172,2,0,L|237:144,1,40,0|2,0:0|0:0,0:0:0:0:
151,293,30334,2,0,L|160:331,1,40,0|8,0:0|0:0,0:0:0:0:
48,207,30496,1,0,0:0:0:0:
55,193,30577,1,0,0:0:0:0:
63,179,30658,1,0,0:0:0:0:
55,139,30739,5,6,0:0:0:0:
40,101,30820,1,0,0:0:0:0:
17,67,30901,2,0,L|-18:84,1,40
144,125,31064,2,0,L|180:142,1,40,8|0,0:0|0:0,0:0:0:0:
45,318,31226,5,0,0:0:0:0:
76,294,31307,1,0,0:0:0:0:
111,290,31388,1,2,0:0:0:0:
142,292,31469,1,0,0:0:0:0:
167,302,31550,1,0,0:0:0:0:
188,313,31631,1,2,0:0:0:0:
201,328,31712,1,8,0:0:0:0:
116,383,31874,5,2,0:0:0:0:
256,192,32037,12,0,36577,0:0:0:0:
416,95,36901,6,0,L|411:55,1,40,2|2,0:0|0:0,0:0:0:0:
318,134,37064,2,0,L|357:147,1,40,2|2,0:0|0:0,0:0:0:0:
483,178,37226,6,0,P|410:202|399:277,1,160,4|8,0:0|0:0,0:0:0:0:
399,277,37712,1,2,0:0:0:0:
290,369,37874,2,0,P|279:290|263:212,1,160,2|8,0:0|0:0,0:0:0:0:
88,135,38361,1,0,0:0:0:0:
88,135,38442,1,0,0:0:0:0:
88,135,38523,6,0,P|134:199|161:275,1,160,2|8,0:0|0:0,0:0:0:0:
1,193,39010,1,0,0:0:0:0:
1,193,39091,1,2,0:0:0:0:
1,193,39172,1,0,0:0:0:0:
203,108,39334,1,2,0:0:0:0:
50,52,39496,1,8,0:0:0:0:
65,259,39658,1,2,0:0:0:0:
187,221,39820,6,0,P|260:210|292:277,1,160,6|8,0:0|0:0,0:0:0:0:
292,277,40307,1,2,0:0:0:0:
115,340,40469,2,0,P|194:345|274:355,1,160,2|8,0:0|0:0,0:0:0:0:
274,355,40956,1,0,0:0:0:0:
363,225,41118,2,0,P|393:298|446:357,1,160,2|8,0:0|0:0,0:0:0:0:
502,170,41604,2,0,P|480:203|465:240,1,80,2|2,0:0|0:0,0:0:0:0:
399,127,41929,1,0,0:0:0:0:
281,164,42091,1,8,0:0:0:0:
281,164,42172,1,0,0:0:0:0:
281,164,42253,1,0,0:0:0:0:
169,121,42415,6,0,P|89:116|10:103,1,160,6|8,0:0|0:0,0:0:0:0:
10,103,42901,1,2,0:0:0:0:
249,65,43063,2,0,P|280:134|238:198,1,160,2|8,0:0|0:0,0:0:0:0:
47,224,43550,1,0,0:0:0:0:
47,224,43631,1,0,0:0:0:0:
47,224,43712,6,0,P|119:257|178:310,1,160,2|8,0:0|0:0,0:0:0:0:
348,366,44199,1,2,0:0:0:0:
348,366,44280,1,2,0:0:0:0:
348,366,44361,1,2,0:0:0:0:
276,291,44523,1,2,0:0:0:0:
481,357,44685,1,8,0:0:0:0:
391,269,44847,1,2,0:0:0:0:
482,209,45009,6,0,P|428:152|354:123,1,160,6|8,0:0|0:0,0:0:0:0:
354,123,45496,1,2,0:0:0:0:
495,18,45658,6,0,P|416:34|336:37,1,160,2|8,0:0|0:0,0:0:0:0:
336,37,46145,1,0,0:0:0:0:
254,130,46307,2,0,P|259:148|262:168,3,40,2|0|2|0,0:0|0:0|0:0|0:0,0:0:0:0:
180,51,46631,2,0,P|183:31|188:12,3,40,8|0|2|0,0:0|0:0|0:0|0:0,0:0:0:0:
80,112,46956,5,2,0:0:0:0:
80,127,47037,1,0,0:0:0:0:
81,142,47118,1,2,0:0:0:0:
81,157,47199,1,0,0:0:0:0:
96,185,47280,5,8,0:0:0:0:
96,208,47361,1,0,0:0:0:0:
97,231,47442,1,2,0:0:0:0:
97,254,47523,1,0,0:0:0:0:
99,277,47604,6,0,B|173:249|173:249|253:260,1,160,6|8,0:0|0:0,0:0:0:0:
503,235,48091,2,0,B|481:239|481:239|463:229,1,40,2|0,0:0|0:0,0:0:0:0:
387,184,48253,2,0,B|365:182|365:182|349:190,4,40,2|0|0|0|8,0:0|0:0|0:0|0:0|0:0,0:0:0:0:
463,99,48739,2,0,B|442:103|442:103|425:94,1,40
330,44,48901,6,0,B|251:63|251:63|172:53,1,160,2|8,0:0|0:0,0:0:0:0:
311,160,49388,1,2,0:0:0:0:
316,183,49469,1,2,0:0:0:0:
322,205,49550,1,2,0:0:0:0:
238,290,49712,1,2,0:0:0:0:
133,231,49874,1,8,0:0:0:0:
217,144,50037,1,2,0:0:0:0:
322,205,50199,6,0,B|350:281|350:281|346:359,1,160,6|8,0:0|0:0,0:0:0:0:
207,169,50686,2,0,B|205:189|205:189|204:208,1,40,2|0,0:0|0:0,0:0:0:0:
171,294,50847,2,0,B|105:260|105:260|20:273,1,160,2|8,0:0|0:0,0:0:0:0:
295,77,51334,2,0,L|299:116,1,40
322,205,51496,6,0,B|387:161|387:161|468:169,1,160,2|8,0:0|0:0,0:0:0:0:
486,342,51983,2,0,L|491:381,5,40,0|0|2|0|0|0,0:0|0:0|0:0|0:0|0:0|0:0,0:0:0:0:
444,339,52469,1,8,0:0:0:0:
404,334,52550,1,0,0:0:0:0:
364,329,52631,1,0,0:0:0:0:
324,324,52712,1,0,0:0:0:0:
284,320,52793,6,0,L|124:333,1,160,6|8,0:0|0:0,0:0:0:0:
308,225,53280,2,0,L|268:225,1,40,2|0,0:0|0:0,0:0:0:0:
151,193,53442,2,0,L|194:189,4,40,2|0|0|0|8,0:0|0:0|0:0|0:0|0:0,0:0:0:0:
385,98,53929,2,0,L|345:99,1,40
245,56,54090,6,0,L|86:77,1,160,2|8,0:0|0:0,0:0:0:0:
31,217,54577,1,2,0:0:0:0:
34,236,54658,1,2,0:0:0:0:
37,255,54739,1,2,0:0:0:0:
160,362,54901,1,2,0:0:0:0:
290,173,55063,1,8,0:0:0:0:
183,244,55226,1,2,0:0:0:0:
308,384,55388,6,0,B|384:358|384:358|463:350,1,160,6|8,0:0|0:0,0:0:0:0:
252,290,55874,2,0,B|268:277|268:277|287:275,1,40,2|0,0:0|0:0,0:0:0:0:
291,173,56037,2,0,B|367:195|367:195|448:192,1,160,2|8,0:0|0:0,0:0:0:0:
470,0,56523,2,0,P|450:5|430:8,1,40
334,23,56685,6,0,B|253:26|253:26|181:56,1,160,2|8,0:0|0:0,0:0:0:0:
193,320,57172,2,0,P|198:339|203:358,5,40,0|0|2|0|2|0,0:0|0:0|0:0|0:0|0:0|0:0,0:0:0:0:
149,319,57658,5,8,0:0:0:0:
142,279,57739,1,0,0:0:0:0:
136,239,57820,1,2,0:0:0:0:
130,199,57901,1,0,0:0:0:0:
129,157,57983,6,0,P|208:164|287:152,1,160,6|8,0:0|0:0,0:0:0:0:
149,319,58469,2,0,P|165:330|180:343,1,40,2|0,0:0|0:0,0:0:0:0:
276,377,58631,2,0,P|277:301|341:258,1,160,2|8,0:0|0:0,0:0:0:0:
490,377,59118,1,0,0:0:0:0:
461,350,59199,1,0,0:0:0:0:
472,308,59280,6,0,P|471:229|439:156,1,160,2|8,0:0|0:0,0:0:0:0:
252,31,59766,1,2,0:0:0:0:
252,31,59847,1,2,0:0:0:0:
252,31,59929,1,2,0:0:0:0:
185,102,60091,1,2,0:0:0:0:
259,229,60253,1,8,0:0:0:0:
309,146,60415,1,2,0:0:0:0:
159,268,60577,6,0,P|80:283|0:291,1,160,6|8,0:0|0:0,0:0:0:0:
203,122,61064,2,0,P|189:135|187:154,1,40,2|0,0:0|0:0,0:0:0:0:
101,186,61226,2,0,P|91:110|24:71,1,160,2|8,0:0|0:0,0:0:0:0:
7,170,61712,1,0,0:0:0:0:
172,30,61874,6,0,P|248:51|326:39,1,160,2|8,0:0|0:0,0:0:0:0:
101,186,62361,1,2,0:0:0:0:
248,162,62523,5,0,0:0:0:0:
255,165,62604,1,0,0:0:0:0:
262,168,62685,1,0,0:0:0:0:
269,171,62766,1,0,0:0:0:0:
276,174,62847,1,8,0:0:0:0:
283,178,62929,1,0,0:0:0:0:
290,181,63010,1,0,0:0:0:0:
296,186,63091,1,0,0:0:0:0:
302,190,63172,6,0,P|380:192|437:140,1,160,6|8,0:0|0:0,0:0:0:0:
459,308,63658,2,0,P|455:327|460:346,1,40,2|0,0:0|0:0,0:0:0:0:
369,287,63820,2,0,P|292:300|233:353,1,160,2|8,0:0|0:0,0:0:0:0:
14,360,64307,1,0,0:0:0:0:
43,327,64388,1,0,0:0:0:0:
21,292,64469,6,0,P|15:222|84:233,1,160,2|8,0:0|0:0,0:0:0:0:
71,14,64955,1,2,0:0:0:0:
71,14,65036,1,2,0:0:0:0:
71,14,65118,1,2,0:0:0:0:
144,144,65280,1,2,0:0:0:0:
336,19,65442,1,8,0:0:0:0:
215,44,65604,1,2,0:0:0:0:
309,146,65766,6,0,P|283:221|276:300,1,160,6|8,0:0|0:0,0:0:0:0:
423,103,66253,2,0,P|416:84|406:66,1,40,2|0,0:0|0:0,0:0:0:0:
400,181,66415,2,0,P|419:258|417:338,1,160,2|8,0:0|0:0,0:0:0:0:
232,384,66901,1,0,0:0:0:0:
101,331,67064,6,0,B|81:327|81:327|61:343,3,40,2|0|0|0,0:0|0:0|0:0|0:0,0:0:0:0:
210,256,67388,2,0,B|225:268|225:268|245:264,3,40,10|0|2|0,0:0|0:0|0:0|0:0,0:0:0:0:
201,212,67712,5,2,0:0:0:0:
209,172,67793,1,0,0:0:0:0:
217,132,67874,1,2,0:0:0:0:
230,94,67955,1,0,0:0:0:0:
256,76,68036,5,10,0:0:0:0:
272,93,68118,1,0,0:0:0:0:
263,106,68199,1,2,0:0:0:0:
261,98,68280,1,0,0:0:0:0:
266,92,68361,6,0,B|174:74|174:74|110:93,1,160,6|8,0:0|0:0,0:0:0:0:
299,181,68847,2,0,B|314:199|314:199|310:215,1,40,2|0,0:0|0:0,0:0:0:0:
250,271,69010,5,2,0:0:0:0:
233,243,69091,1,0,0:0:0:0:
211,271,69172,1,0,0:0:0:0:
194,243,69253,1,0,0:0:0:0:
173,272,69334,1,8,0:0:0:0:
20,373,69496,1,0,0:0:0:0:
20,373,69577,1,0,0:0:0:0:
20,373,69658,6,0,B|87:349|87:349|175:348,1,160,2|8,0:0|0:0,0:0:0:0:
447,336,70145,1,2,0:0:0:0:
423,316,70226,1,2,0:0:0:0:
396,329,70307,1,2,0:0:0:0:
287,379,70469,1,2,0:0:0:0:
381,214,70631,1,8,0:0:0:0:
285,271,70793,1,2,0:0:0:0:
349,109,70956,6,0,B|436:85|436:85|378:46,1,160,6|8,0:0|0:0,0:0:0:0:
123,58,71442,2,0,B|130:38|130:38|148:34,1,40,2|0,0:0|0:0,0:0:0:0:
190,90,71604,2,0,B|215:124|215:124|212:161,1,80,2|2,0:0|0:0,0:0:0:0:
78,284,71929,2,0,B|75:246|75:246|100:212,1,80,8|2,0:0|0:0,0:0:0:0:
318,215,72253,6,0,B|396:235|396:235|359:305,1,160,2|8,0:0|0:0,0:0:0:0:
174,343,72739,2,0,L|180:382,1,40,2|0,0:0|0:0,0:0:0:0:
155,308,72901,2,0,L|161:268,1,40,2|0,0:0|0:0,0:0:0:0:
127,345,73064,2,0,L|133:384,1,40,2|0,0:0|0:0,0:0:0:0:
108,310,73226,2,0,L|114:270,1,40,8|0,0:0|0:0,0:0:0:0:
76,345,73388,2,0,L|82:384,1,40
36,326,73550,6,0,B|41:273|41:273|16:210,1,120,6|0,0:0|0:0,0:0:0:0:
0,187,73874,1,8,0:0:0:0:
0,187,73956,1,0,0:0:0:0:
0,187,74037,1,2,0:0:0:0:
66,13,74199,2,0,B|84:32|84:32|77:61,1,40,2|0,0:0|0:0,0:0:0:0:
97,75,74361,2,0,B|130:59|130:59|173:61,1,80,2|8,0:0|0:0,0:0:0:0:
114,198,74685,1,0,0:0:0:0:
289,204,74847,6,0,B|302:186|302:186|334:185,1,40,2|0,0:0|0:0,0:0:0:0:
407,157,75010,2,0,B|367:99|367:99|279:109,1,160,2|2,0:0|0:0,0:0:0:0:
289,204,75415,1,2,0:0:0:0:
303,237,75496,1,2,0:0:0:0:
414,281,75658,1,2,0:0:0:0:
239,346,75820,1,8,0:0:0:0:
136,282,75983,1,2,0:0:0:0:
279,109,76145,6,0,B|264:49|264:49|206:56,1,120,6|0,0:0|0:0,0:0:0:0:
136,282,76631,1,2,0:0:0:0:
43,179,76793,6,0,B|16:146|16:146|40:117,2,80,6|0|6,0:0|0:0|0:0,0:0:0:0:
136,282,77118,2,0,B|195:268|195:268|251:286,1,120,10|0,0:0|0:0,0:0:0:0:
274,321,77442,6,0,B|333:334|333:334|389:316,1,120,2|0,0:0|0:0,0:0:0:0:
445,232,77766,2,0,B|472:221|472:221|481:226,3,40,8|0|0|0,0:0|0:0|0:0|0:0,0:0:0:0:
354,209,78091,2,0,B|327:220|327:220|317:214,3,40,2|0|2|0,0:0|0:0|0:0|0:0,0:0:0:0:
381,129,78415,5,8,0:0:0:0:
354,123,78496,1,0,0:0:0:0:
339,103,78577,1,0,0:0:0:0:
342,79,78658,1,0,0:0:0:0:
367,82,78739,6,0,B|308:112|308:112|254:108,1,120.000004577637,6|2,0:0|0:0,0:0:0:0:
175,79,78983,1,0,0:0:0:0:
175,79,79064,2,0,B|217:128|217:128|208:182,1,120.000004577637,10|2,0:0|0:0,0:0:0:0:
196,271,79388,2,0,B|168:281|168:281|120:262,2,60.0000022888184,2|0|0,0:0|0:0|0:0,0:0:0:0:
86,210,79631,2,0,B|65:222|65:222|30:212,2,60.0000022888184,2|8|0,0:0|0:0|0:0,0:0:0:0:
63,308,79874,6,0,B|153:307|153:307|214:372,1,180.000006866455,2|0,0:0|0:0,0:0:0:0:
280,335,80199,2,0,B|305:321|305:321|336:320,1,60.0000022888184,2|0,0:0|0:0,0:0:0:0:
414,323,80361,2,0,L|427:265,2,60.0000022888184,10|0|0,0:0|0:0|0:0,0:0:0:0:
504,206,80685,2,0,L|487:87,1,120.000004577637,2|0,0:0|0:0,0:0:0:0:
428,25,80929,2,0,B|389:37|389:37|370:31,2,60.0000022888184,0|8|0,0:0|0:0|0:0,0:0:0:0:
288,80,81172,1,2,0:0:0:0:
275,63,81253,1,0,0:0:0:0:
260,48,81334,6,0,B|199:49|199:49|144:26,1,120.000004577637,4|2,0:0|0:0,0:0:0:0:
109,172,81658,2,0,B|173:178|173:178|220:207,1,120.000004577637,10|2,0:0|0:0,0:0:0:0:
291,303,81983,2,0,B|314:280|314:280|354:278,2,60.0000022888184,2|0|0,0:0|0:0|0:0,0:0:0:0:
226,352,82226,2,0,B|202:329|202:329|202:302,2,60.0000022888184,2|8|0,0:0|0:0|0:0,0:0:0:0:
119,377,82469,2,0,L|131:257,1,120.000004577637,2|2,0:0|0:0,0:0:0:0:
156,32,82793,6,0,B|183:20|183:20|215:25,1,60.0000022888184,2|0,0:0|0:0,0:0:0:0:
260,93,82956,2,0,B|289:98|289:98|318:89,2,60.0000022888184,10|0|2,0:0|0:0|0:0,0:0:0:0:
512,48,83280,6,0,B|465:17|465:17|401:25,1,120.000004577637,2|0,0:0|0:0,0:0:0:0:
458,171,83523,2,0,B|467:142|467:142|494:130,2,60.0000022888184,2|8|0,0:0|0:0|0:0,0:0:0:0:
425,275,83766,1,2,0:0:0:0:
397,278,83847,1,2,0:0:0:0:
371,281,83929,6,0,B|316:256|316:256|257:266,1,120.000004577637,6|2,0:0|0:0,0:0:0:0:
145,382,84173,1,0,0:0:0:0:
145,382,84254,2,0,B|182:328|182:328|179:273,1,120.000004577637,10|2,0:0|0:0,0:0:0:0:
209,197,84578,2,0,B|181:188|181:188|152:198,2,60.0000022888184,2|0|0,0:0|0:0|0:0,0:0:0:0:
94,271,84821,2,0,B|70:284|70:284|40:269,2,60.0000022888184,2|10|0,0:0|0:0|0:0,0:0:0:0:
51,123,85064,6,0,B|144:103|144:103|182:27,1,180.000006866455,2|0,0:0|0:0,0:0:0:0:
265,5,85389,2,0,B|289:20|289:20|320:20,1,60.0000022888184,2|0,0:0|0:0,0:0:0:0:
405,35,85551,2,0,B|421:59|421:59|418:90,3,60.0000022888184,10|0|2|0,0:0|0:0|0:0|0:0,0:0:0:0:
341,98,85875,2,0,L|324:216,1,120.000004577637,2|0,0:0|0:0,0:0:0:0:
256,261,86119,2,0,B|227:268|227:268|196:254,2,60.0000022888184,0|10|0,0:0|0:0|0:0,0:0:0:0:
359,291,86361,6,0,B|418:281|418:281|441:227,1,120.000004577637,2|4,0:0|0:0,0:0:0:0:
428,202,86604,1,0,0:0:0:0:
411,186,86685,1,0,0:0:0:0:
246,69,86848,2,0,B|189:36|189:36|136:49,1,120.000004577637,10|0,0:0|0:0,0:0:0:0:
46,196,87173,2,0,B|23:217|23:217|21:245,2,60.0000022888184,2|0|0,0:0|0:0|0:0,0:0:0:0:
36,321,87416,2,0,B|63:321|63:321|86:345,2,60.0000022888184,2|8|0,0:0|0:0|0:0,0:0:0:0:
149,280,87659,2,0,L|136:160,1,120.000004577637,2|2,0:0|0:0,0:0:0:0:
300,79,87983,6,0,B|318:115|318:115|312:133,1,60.0000022888184,2|0,0:0|0:0,0:0:0:0:
249,191,88146,2,0,B|247:221|247:221|260:247,2,60.0000022888184,10|0|2,0:0|0:0|0:0,0:0:0:0:
267,326,88470,6,0,B|324:327|324:327|377:360,1,120.000004577637,2|2,0:0|0:0,0:0:0:0:
452,310,88713,6,0,B|481:307|481:307|506:288,2,60.0000022888184,2|10|0,0:0|0:0|0:0,0:0:0:0:
420,221,88956,1,2,0:0:0:0:
403,175,89037,1,0,0:0:0:0:
390,138,89118,6,0,B|404:119|404:119|440:113,3,60.0000022888184,6|0|2|0,0:0|0:0|0:0|0:0,0:0:0:0:
276,187,89442,2,0,B|262:210|262:210|228:210,3,60.0000022888184,10|0|2|0,0:0|0:0|0:0|0:0,0:0:0:0:
279,157,89766,5,2,0:0:0:0:
250,118,89847,1,2,0:0:0:0:
205,99,89929,1,0,0:0:0:0:
229,44,90010,1,2,0:0:0:0:
185,23,90091,1,8,0:0:0:0:
139,37,90172,1,0,0:0:0:0:
97,59,90252,6,0,B|78:33|78:33|88:7,3,60.0000022888184,2|0|0|0,0:0|0:0|0:0|0:0,0:0:0:0:
40,147,90577,2,0,L|53:211,1,60.0000022888184,2|0,0:0|0:0,0:0:0:0:
80,318,90739,6,0,B|97:293|97:293|124:304,3,60.0000022888184,10|0|2|0,0:0|0:0|0:0|0:0,0:0:0:0:
224,296,91063,6,0,L|283:290,2,60.0000022888184,2|0|0,0:0|0:0|0:0,0:0:0:0:
285,373,91307,2,0,L|344:379,2,60.0000022888184,2|10|0,0:0|0:0|0:0,0:0:0:0:
407,275,91550,1,2,0:0:0:0:
441,284,91631,1,0,0:0:0:0:
479,295,91712,6,0,B|486:328|486:328|465:344,3,60.0000022888184,4|0|2|0,0:0|0:0|0:0|0:0,0:0:0:0:
402,164,92036,2,0,B|399:138|399:138|420:111,3,60.0000022888184,10|0|2|0,0:0|0:0|0:0|0:0,0:0:0:0:
375,96,92361,5,2,0:0:0:0:
328,105,92442,1,0,0:0:0:0:
280,112,92523,1,0,0:0:0:0:
294,170,92604,1,2,0:0:0:0:
250,187,92685,1,8,0:0:0:0:
204,202,92766,1,0,0:0:0:0:
183,245,92847,6,0,B|152:247|152:247|136:271,3,60.0000022888184,2|0|0|0,0:0|0:0|0:0|0:0,0:0:0:0:
69,211,93171,2,0,L|53:152,1,60.0000022888184,2|0,0:0|0:0,0:0:0:0:
56,58,93334,6,0,B|39:38|39:38|5:37,3,60.0000022888184,10|0|2|0,0:0|0:0|0:0|0:0,0:0:0:0:
148,98,93658,6,0,L|163:155,2,60.0000022888184,2|0|0,0:0|0:0|0:0,0:0:0:0:
260,64,93901,2,0,L|271:5,2,60.0000022888184,2|10|0,0:0|0:0|0:0,0:0:0:0:
335,155,94144,1,2,0:0:0:0:
346,192,94225,1,0,0:0:0:0:
357,232,94307,6,0,B|327:229|327:229|307:251,3,60.0000022888184,6|0|2|0,0:0|0:0|0:0|0:0,0:0:0:0:
457,302,94631,2,0,B|487:305|487:305|510:286,3,60.0000022888184,10|0|2|0,0:0|0:0|0:0|0:0,0:0:0:0:
425,322,94956,5,2,0:0:0:0:
380,339,95037,1,0,0:0:0:0:
336,358,95118,1,0,0:0:0:0:
303,307,95199,1,2,0:0:0:0:
255,311,95280,1,10,0:0:0:0:
207,314,95361,1,0,0:0:0:0:
159,320,95442,6,0,B|134:318|134:318|104:336,3,60.0000022888184,2|0|0|0,0:0|0:0|0:0|0:0,0:0:0:0:
78,258,95767,2,0,L|88:198,1,60.0000022888184,2|0,0:0|0:0,0:0:0:0:
110,85,95929,6,0,B|119:53|119:53|100:21,3,70.000000667572,10|0|0|0,0:0|0:0|0:0|0:0,0:0:0:0:
197,171,96253,6,0,L|202:240,2,70.000000667572,2|0|0,0:0|0:0|0:0,0:0:0:0:
251,65,96497,2,0,L|310:27,2,70.000000667572,2|10|0,0:0|0:0|0:0,0:0:0:0:
328,163,96740,1,2,0:0:0:0:
370,155,96821,1,0,0:0:0:0:
406,147,96901,6,0,B|430:142|430:142|457:164,3,60.0000022888184,6|0|2|0,0:0|0:0|0:0|0:0,0:0:0:0:
362,40,97225,2,0,B|330:46|330:46|309:27,3,60.0000022888184,10|0|2|0,0:0|0:0|0:0|0:0,0:0:0:0:
402,37,97550,5,2,0:0:0:0:
419,81,97631,1,0,0:0:0:0:
437,125,97712,1,0,0:0:0:0:
495,137,97793,1,2,0:0:0:0:
478,181,97874,1,8,0:0:0:0:
460,225,97955,1,0,0:0:0:0:
448,272,98037,6,0,B|423:277|423:277|391:264,3,60.0000022888184,0|0|4|0,0:0|0:0|0:0|0:0,0:0:0:0:
460,379,98361,2,0,L|383:357,1,80,2|0,0:0|0:0,0:0:0:0:
281,356,98524,6,0,B|239:345|239:345|204:355,3,80,10|0|0|0,0:0|0:0|0:0|0:0,0:0:0:0:
235,251,98847,6,0,L|219:164,2,80,2|0|2,0:0|0:0|0:0,0:0:0:0:
125,292,99090,2,0,L|103:369,2,80,2|8|0,0:0|0:0|0:0,0:0:0:0:
54,215,99334,1,2,0:0:0:0:
55,159,99415,1,0,0:0:0:0:
57,104,99496,1,0,0:0:0:0:
256,192,99577,12,0,104361,0:0:0:0:
374,71,104685,5,0,0:0:0:0:
379,81,104766,1,0,0:0:0:0:
386,90,104847,1,0,0:0:0:0:
392,99,104929,1,0,0:0:0:0:
400,107,105010,2,0,L|397:186,1,80,12|0,0:0|0:0,0:0:0:0:
295,291,105334,1,0,0:0:0:0:
286,283,105415,1,0,0:0:0:0:
274,278,105496,2,0,L|194:268,1,80,12|0,0:0|0:0,0:0:0:0:
53,355,105820,2,0,L|132:348,1,80,12|0,0:0|0:0,0:0:0:0:
182,174,106145,5,0,0:0:0:0:
179,162,106226,1,0,0:0:0:0:
174,150,106307,2,0,L|154:70,1,80,12|0,0:0|0:0,0:0:0:0:
324,28,106631,1,0,0:0:0:0:
321,39,106712,1,0,0:0:0:0:
320,50,106793,2,0,L|307:128,1,80,12|0,0:0|0:0,0:0:0:0:
444,259,107118,2,0,L|416:183,1,80,12|0,0:0|0:0,0:0:0:0:
487,52,107442,5,0,0:0:0:0:
477,59,107523,1,0,0:0:0:0:
466,65,107604,2,0,L|396:26,1,80,12|0,0:0|0:0,0:0:0:0:
211,21,107929,1,0,0:0:0:0:
204,30,108010,1,0,0:0:0:0:
198,40,108091,2,0,L|119:57,1,80,12|0,0:0|0:0,0:0:0:0:
259,199,108415,2,0,L|187:162,1,80,12|0,0:0|0:0,0:0:0:0:
50,228,108739,5,0,0:0:0:0:
50,239,108820,1,0,0:0:0:0:
50,250,108901,2,0,L|39:329,1,80,12|0,0:0|0:0,0:0:0:0:
187,252,109226,1,0,0:0:0:0:
191,262,109307,1,0,0:0:0:0:
197,272,109388,2,0,L|250:331,1,80,12|0,0:0|0:0,0:0:0:0:
422,335,109712,2,0,L|343:352,1,80,12|0,0:0|0:0,0:0:0:0:
333,203,110037,5,0,0:0:0:0:
337,191,110118,1,0,0:0:0:0:
343,180,110199,2,0,L|422:172,1,80,12|0,0:0|0:0,0:0:0:0:
267,90,110524,1,0,0:0:0:0:
266,78,110605,1,0,0:0:0:0:
265,66,110685,2,0,L|185:58,1,80,12|0,0:0|0:0,0:0:0:0:
24,35,111010,2,0,L|100:11,1,80,12|0,0:0|0:0,0:0:0:0:
111,161,111334,5,0,0:0:0:0:
110,172,111415,1,0,0:0:0:0:
109,183,111496,2,0,L|188:176,1,80,12|0,0:0|0:0,0:0:0:0:
320,252,111820,1,0,0:0:0:0:
321,263,111901,1,0,0:0:0:0:
322,274,111982,2,0,L|242:267,1,80,12|0,0:0|0:0,0:0:0:0:
126,370,112307,2,0,L|205:357,1,80,12|0,0:0|0:0,0:0:0:0:
410,335,112631,5,0,0:0:0:0:
416,316,112712,1,0,0:0:0:0:
422,297,112793,2,0,L|404:218,1,80,12|0,0:0|0:0,0:0:0:0:
436,62,113118,1,0,0:0:0:0:
416,59,113199,1,0,0:0:0:0:
396,55,113280,2,0,L|365:128,1,80,12|0,0:0|0:0,0:0:0:0:
311,232,113604,5,0,0:0:0:0:
291,235,113685,1,0,0:0:0:0:
271,239,113766,2,0,L|240:165,1,80,12|0,0:0|0:0,0:0:0:0:
199,57,114091,1,0,0:0:0:0:
179,54,114172,1,0,0:0:0:0:
159,50,114253,2,0,L|128:123,1,80,12|0,0:0|0:0,0:0:0:0:
90,248,114577,1,0,0:0:0:0:
70,252,114658,1,0,0:0:0:0:
50,256,114739,2,0,L|40:217,1,40,10|0,0:0|0:0,0:0:0:0:
89,338,114901,2,0,L|79:376,1,40
173,301,115064,6,0,L|332:288,1,160,6|8,0:0|0:0,0:0:0:0:
473,224,115550,2,0,B|473:204|473:204|463:176,1,40,2|0,0:0|0:0,0:0:0:0:
441,145,115712,2,0,B|395:137|395:137|368:117,1,80,2|0,0:0|0:0,0:0:0:0:
341,88,115956,2,0,B|297:76|297:76|265:89,1,80,2|0,0:0|0:0,0:0:0:0:
235,109,116199,2,0,L|197:95,1,40,2|0,0:0|0:0,0:0:0:0:
120,17,116361,6,0,B|156:93|156:93|131:164,1,160,2|8,0:0|0:0,0:0:0:0:
59,279,116847,1,2,0:0:0:0:
90,270,116929,1,0,0:0:0:0:
121,275,117010,1,2,0:0:0:0:
146,293,117091,1,0,0:0:0:0:
177,297,117172,1,2,0:0:0:0:
205,282,117253,1,0,0:0:0:0:
233,266,117334,2,0,L|234:226,3,40,8|0|2|0,0:0|0:0|0:0|0:0,0:0:0:0:
282,336,117658,6,0,L|337:336,1,40,6|0,0:0|0:0,0:0:0:0:
346,307,117820,2,0,L|386:307,1,40
454,235,117983,6,0,L|399:235,1,40,8|0,0:0|0:0,0:0:0:0:
389,206,118145,2,0,L|349:205,1,40
308,129,118307,6,0,L|363:129,1,40,2|0,0:0|0:0,0:0:0:0:
372,100,118469,2,0,L|411:99,1,40
476,31,118631,6,0,L|421:31,1,40,8|0,0:0|0:0,0:0:0:0:
411,2,118793,2,0,L|371:1,1,40
286,43,118956,5,2,0:0:0:0:
254,49,119037,1,0,0:0:0:0:
222,52,119118,1,4,0:0:0:0:
190,57,119199,1,0,0:0:0:0:
194,96,119280,5,8,0:0:0:0:
162,100,119361,1,0,0:0:0:0:
139,93,119442,1,2,0:0:0:0:
131,83,119523,1,0,0:0:0:0:
133,75,119604,6,0,L|127:154,3,80,2|0|8|0,0:0|0:0|0:0|0:0,0:0:0:0:
8,0,120253,5,6,0:0:0:0:
20,29,120334,1,0,0:0:0:0:
28,59,120415,1,0,0:0:0:0:
37,89,120496,1,0,0:0:0:0:
49,117,120577,2,0,L|46:156,1,40,8|0,0:0|0:0,0:0:0:0:
20,231,120739,2,0,L|22:270,1,40
78,338,120901,5,2,0:0:0:0:
114,321,120983,1,0,0:0:0:0:
150,304,121063,1,0,0:0:0:0:
185,284,121144,1,0,0:0:0:0:
222,271,121225,2,0,L|259:285,1,40,8|0,0:0|0:0,0:0:0:0:
335,309,121388,2,0,L|372:294,1,40
478,336,121550,5,2,0:0:0:0:
449,304,121631,1,0,0:0:0:0:
445,264,121712,1,0,0:0:0:0:
461,227,121793,1,0,0:0:0:0:
484,194,121874,2,0,P|444:153|387:161,1,120,8|0,0:0|0:0,0:0:0:0:
347,170,122199,2,0,P|298:138|241:152,1,120,2|0,0:0|0:0,0:0:0:0:
215,182,122523,2,0,L|221:221,1,40,8|0,0:0|0:0,0:0:0:0:
134,246,122685,2,0,L|128:286,1,40
46,202,122847,5,6,0:0:0:0:
49,182,122929,1,4,2:0:0:0:
52,162,123010,1,2,0:0:0:0:
56,142,123091,1,0,0:0:0:0:
61,122,123172,1,8,0:0:0:0:
66,102,123253,1,0,0:0:0:0:
71,82,123334,2,0,L|110:87,1,40
217,89,123496,5,2,0:0:0:0:
247,73,123577,1,0,0:0:0:0:
276,60,123658,2,0,L|280:20,1,40
380,16,123820,5,8,0:0:0:0:
387,30,123901,1,0,0:0:0:0:
389,45,123983,1,0,0:0:0:0:
384,60,124064,1,0,0:0:0:0:
372,89,124145,5,2,0:0:0:0:
378,120,124226,1,0,0:0:0:0:
396,146,124307,1,0,0:0:0:0:
425,158,124388,1,0,0:0:0:0:
454,169,124469,6,0,L|468:217,1,40,8|0,0:0|0:0,0:0:0:0:
512,249,124631,2,0,L|474:237,1,40
394,225,124793,6,0,L|408:273,1,40,2|0,0:0|0:0,0:0:0:0:
452,305,124955,2,0,L|414:293,1,40
335,280,125118,6,0,L|349:328,1,40,8|0,0:0|0:0,0:0:0:0:
393,360,125280,2,0,L|355:348,1,40
240,355,125442,6,0,L|193:367,3,47.9999985351563,6|0|0|0,0:0|0:0|0:0|0:0,0:0:0:0:
236,321,125766,1,10,0:0:0:0:
207,295,125847,1,0,0:0:0:0:
168,289,125929,1,0,0:0:0:0:
131,299,126010,1,0,0:0:0:0:
106,328,126091,6,0,L|120:373,3,47.9999985351563,2|0|0|0,0:0|0:0|0:0|0:0,0:0:0:0:
64,318,126415,1,10,0:0:0:0:
64,279,126496,1,0,0:0:0:0:
66,240,126578,1,0,0:0:0:0:
67,202,126658,1,0,0:0:0:0:
74,164,126739,6,0,L|117:183,3,47.9999985351563,2|0|0|0,0:0|0:0|0:0|0:0,0:0:0:0:
70,122,127063,1,10,0:0:0:0:
91,89,127145,1,0,0:0:0:0:
125,73,127226,1,0,0:0:0:0:
162,66,127307,1,0,0:0:0:0:
200,91,127388,5,2,0:0:0:0:
244,109,127469,1,0,0:0:0:0:
291,99,127550,1,0,0:0:0:0:
325,65,127631,1,0,0:0:0:0:
356,28,127712,6,0,L|384:67,3,47.9999985351563,10|0|2|0,0:0|0:0|0:0|0:0,0:0:0:0:
397,150,128037,6,0,L|376:193,3,47.9999985351563,6|0|0|0,0:0|0:0|0:0|0:0,0:0:0:0:
454,229,128361,2,0,L|474:272,3,47.9999985351563,10|0|0|0,0:0|0:0|0:0|0:0,0:0:0:0:
382,293,128685,5,2,0:0:0:0:
362,294,128766,1,0,0:0:0:0:
342,293,128847,1,0,0:0:0:0:
322,294,128929,1,0,0:0:0:0:
302,292,129010,2,0,L|282:248,1,47.9999985351563,10|0,0:0|0:0,0:0:0:0:
209,325,129172,2,0,L|189:368,1,47.9999985351563
131,266,129334,6,0,B|107:264|107:264|87:278,3,47.9999985351563,2|0|0|0,0:0|0:0|0:0|0:0,0:0:0:0:
196,201,129658,2,0,L|185:154,1,47.9999985351563,10|0,0:0|0:0,0:0:0:0:
108,126,129820,2,0,L|119:79,1,47.9999985351563
196,24,129983,5,2,0:0:0:0:
212,33,130064,1,0,0:0:0:0:
230,36,130145,1,0,0:0:0:0:
248,33,130226,1,0,0:0:0:0:
265,26,130307,2,0,B|336:24|336:24|390:72,1,143.999995605469,10|0,0:0|0:0,0:0:0:0:
447,134,130631,6,0,L|494:125,2,47.9999985351563,6|0|0,0:0|0:0|0:0,0:0:0:0:
314,157,130956,2,0,L|266:148,2,47.9999985351563,10|0|0,0:0|0:0|0:0,0:0:0:0:
422,214,131280,6,0,L|469:205,2,47.9999985351563,2|0|0,0:0|0:0|0:0,0:0:0:0:
275,227,131605,2,0,L|227:218,2,47.9999985351563,10|0|0,0:0|0:0|0:0,0:0:0:0:
406,290,131929,6,0,L|453:281,2,47.9999985351563,2|0|0,0:0|0:0|0:0,0:0:0:0:
232,292,132254,2,0,L|184:283,2,47.9999985351563,10|0|0,0:0|0:0|0:0,0:0:0:0:
403,361,132577,6,0,L|450:352,2,47.9999985351563,2|0|0,0:0|0:0|0:0,0:0:0:0:
192,361,132901,2,0,L|144:352,2,47.9999985351563,10|0|0,0:0|0:0|0:0,0:0:0:0:
385,276,133226,5,6,0:0:0:0:
378,238,133307,1,0,0:0:0:0:
372,200,133388,1,0,0:0:0:0:
368,161,133469,1,0,0:0:0:0:
362,123,133550,2,0,B|311:118|311:118|288:79,1,95.9999970703126,10|0,0:0|0:0,0:0:0:0:
301,263,133874,2,0,B|191:250|191:250|134:308,1,191.999994140625,2|8,0:0|0:0,0:0:0:0:
80,94,134523,6,0,B|146:122|146:122|181:236,1,191.999994140625,6|8,0:0|0:0,0:0:0:0:
29,368,135172,1,2,0:0:0:0:
29,368,135253,1,0,0:0:0:0:
29,368,135334,1,2,0:0:0:0:
226,357,135496,1,8,0:0:0:0:
226,357,135577,1,0,0:0:0:0:
226,357,135658,1,0,0:0:0:0:
379,373,135820,5,4,0:0:0:0:
391,60,146199,5,4,0:0:0:0:
305,81,146523,1,0,0:0:0:0:
391,60,146847,1,0,0:0:0:0:
305,81,147172,1,0,0:0:0:0:
467,252,147496,5,0,0:0:0:0:
381,231,147821,1,0,0:0:0:0:
467,252,148145,1,0,0:0:0:0:
381,231,148469,1,0,0:0:0:0:
218,302,148793,5,0,0:0:0:0:
197,216,149117,1,0,0:0:0:0:
218,302,149441,1,0,0:0:0:0:
197,216,149766,1,0,0:0:0:0:
98,34,150091,5,0,0:0:0:0:
77,120,150415,1,0,0:0:0:0:
98,34,150739,1,0,0:0:0:0:
77,120,151064,1,0,0:0:0:0:
70,345,151388,6,0,L|59:281,1,64,0|2,0:0|2:0,0:0:0:0:
146,331,151712,2,0,L|135:267,1,64,0|2,0:0|2:0,0:0:0:0:
223,315,152037,2,0,L|212:251,1,64,0|2,0:0|2:0,0:0:0:0:
299,301,152361,2,0,L|288:237,1,64,0|2,0:0|2:0,0:0:0:0:
461,188,152685,6,0,L|471:124,1,64,0|2,0:0|2:0,0:0:0:0:
385,174,153009,2,0,L|395:110,1,64,0|2,0:0|2:0,0:0:0:0:
308,158,153334,2,0,L|318:94,1,64,0|2,0:0|2:0,0:0:0:0:
232,144,153658,2,0,L|242:80,1,64,0|2,0:0|2:0,0:0:0:0:
255,367,153983,5,4,0:0:0:0:
242,80,154307,1,8,0:0:0:0:
158,45,154469,2,0,L|166:5,2,40,0|0|2,0:0|0:0|0:0,0:0:0:0:
83,83,154793,2,0,L|43:91,2,40,0|0|8,0:0|0:0|0:0,0:0:0:0:
90,114,155037,1,0,0:0:0:0:
95,145,155118,1,0,0:0:0:0:
103,175,155199,1,0,0:0:0:0:
110,206,155280,1,2,0:0:0:0:
0,344,155442,5,2,0:0:0:0:
0,344,155523,1,0,0:0:0:0:
0,344,155604,1,8,0:0:0:0:
198,348,155766,1,0,0:0:0:0:
91,321,155929,6,0,L|129:311,1,40,2|0,0:0|0:0,0:0:0:0:
260,297,156091,1,0,0:0:0:0:
190,161,156253,2,0,B|180:100|180:100|136:61,1,120,8|0,0:0|0:0,0:0:0:0:
89,52,156577,5,6,0:0:0:0:
131,30,156658,1,0,0:0:0:0:
178,23,156739,1,0,0:0:0:0:
225,28,156820,1,0,0:0:0:0:
266,51,156901,2,0,L|324:37,1,60.0000022888184,10|0,0:0|0:0,0:0:0:0:
315,181,157064,5,0,0:0:0:0:
360,164,157145,1,0,0:0:0:0:
407,157,157226,2,0,L|435:209,1,60.0000022888184,2|0,0:0|0:0,0:0:0:0:
390,326,157388,5,0,0:0:0:0:
345,343,157469,1,0,0:0:0:0:
298,350,157550,2,0,L|269:297,1,60.0000022888184,10|0,0:0|0:0,0:0:0:0:
174,189,157712,5,0,0:0:0:0:
129,207,157793,1,0,0:0:0:0:
84,220,157874,6,0,P|60:204|30:204,3,60.0000022888184,2|0|2|0,0:0|0:0|0:0|0:0,0:0:0:0:
93,131,158199,2,0,P|80:105|54:90,3,60.0000022888184,10|0|2|0,0:0|0:0|0:0|0:0,0:0:0:0:
152,74,158523,2,0,P|154:44|139:19,3,60.0000022888184,2|0|2|0,0:0|0:0|0:0|0:0,0:0:0:0:
231,56,158847,2,0,P|247:33|247:3,3,60.0000022888184,10|0|2|0,0:0|0:0|0:0|0:0,0:0:0:0:
340,102,159172,6,0,L|399:93,3,60.0000022888184,2|0|0|0,0:0|0:0|0:0|0:0,0:0:0:0:
228,158,159496,2,0,L|168:149,3,60.0000022888184,10|0|0|0,0:0|0:0|0:0|0:0,0:0:0:0:
340,102,159820,2,0,L|399:93,3,60.0000022888184,2|0|0|0,0:0|0:0|0:0|0:0,0:0:0:0:
228,158,160144,2,0,L|168:149,3,60.0000022888184,10|0|0|0,0:0|0:0|0:0|0:0,0:0:0:0:
340,102,160469,6,0,L|399:94,1,60.0000022888184,2|0,0:0|0:0,0:0:0:0:
323,171,160631,2,0,L|382:179,1,60.0000022888184
293,237,160793,2,0,L|348:260,1,60.0000022888184,10|0,0:0|0:0,0:0:0:0:
240,289,160956,2,0,L|287:325,1,60.0000022888184,2|0,0:0|0:0,0:0:0:0:
171,314,161118,6,0,L|207:361,1,60.0000022888184,2|0,0:0|0:0,0:0:0:0:
125,239,161280,2,0,L|88:286,1,60.0000022888184,2|0,0:0|0:0,0:0:0:0:
169,168,161442,2,0,L|205:215,1,60.0000022888184,10|0,0:0|0:0,0:0:0:0:
123,93,161604,2,0,L|86:140,1,60.0000022888184
182,28,161766,5,6,0:0:0:0:
205,29,161847,1,0,0:0:0:0:
229,31,161929,1,2,0:0:0:0:
251,40,162010,2,0,B|280:95|280:95|267:151,1,120.000004577637,2|0,0:0|0:0,0:0:0:0:
265,175,162253,5,2,0:0:0:0:
262,198,162334,1,0,0:0:0:0:
252,220,162415,1,2,0:0:0:0:
240,241,162496,1,2,0:0:0:0:
223,257,162577,2,0,B|265:216|265:216|305:262,1,120.000004577637,2|10,0:0|0:0,0:0:0:0:
329,260,162820,1,0,0:0:0:0:
352,253,162901,6,0,B|408:220|408:220|437:173,1,120.000004577637,2|2,0:0|0:0,0:0:0:0:
446,148,163145,1,2,0:0:0:0:
450,125,163226,1,2,0:0:0:0:
450,104,163307,1,0,0:0:0:0:
449,82,163388,6,0,L|455:22,1,60.0000022888184,10|0,0:0|0:0,0:0:0:0:
373,73,163550,2,0,L|379:13,1,60.0000022888184,2|0,0:0|0:0,0:0:0:0:
306,108,163712,6,0,L|312:167,1,60.0000022888184,2|0,0:0|0:0,0:0:0:0:
230,117,163874,2,0,L|236:176,1,60.0000022888184,2|0,0:0|0:0,0:0:0:0:
168,41,164037,5,10,0:0:0:0:
144,42,164118,1,0,0:0:0:0:
120,42,164199,1,0,0:0:0:0:
96,42,164280,1,0,0:0:0:0:
72,45,164361,6,0,L|16:21,1,60.0000022888184,6|0,0:0|0:0,0:0:0:0:
55,125,164523,2,0,L|0:148,1,60.0000022888184,2|0,0:0|0:0,0:0:0:0:
61,217,164685,2,0,B|122:231|122:231|144:283,1,120.000004577637,10|2,0:0|0:0,0:0:0:0:
147,307,164929,1,0,0:0:0:0:
151,330,165010,2,0,B|120:325|120:325|96:341,2,60.0000022888184,2|0|2,0:0|0:0|0:0,0:0:0:0:
338,365,165334,5,10,0:0:0:0:
352,345,165415,1,0,0:0:0:0:
372,332,165496,1,2,0:0:0:0:
395,332,165577,1,0,0:0:0:0:
416,343,165658,2,0,L|376:229,1,120.000004577637,2|2,0:0|0:0,0:0:0:0:
362,209,165901,5,0,0:0:0:0:
358,185,165983,1,10,0:0:0:0:
364,161,166064,1,0,0:0:0:0:
375,139,166145,2,0,B|432:140|432:140|472:92,1,120.000004577637,2|2,0:0|0:0,0:0:0:0:
464,69,166388,5,0,0:0:0:0:
443,56,166469,1,2,0:0:0:0:
420,48,166550,1,0,0:0:0:0:
396,44,166631,2,0,B|361:30|361:30|356:8,3,60.0000022888184,10|0|2|2,0:0|0:0|0:0|0:0,0:0:0:0:
337,53,166956,5,6,0:0:0:0:
289,52,167037,1,4,0:0:0:0:
243,67,167118,1,0,0:0:0:0:
210,102,167199,2,0,L|152:84,1,60.0000022888184,0|10,0:0|0:0,0:0:0:0:
98,140,167361,2,0,L|40:157,1,60.0000022888184,0|2,0:0|0:0,0:0:0:0:
155,198,167523,2,0,L|212:180,1,60.0000022888184,0|2,0:0|0:0,0:0:0:0:
267,236,167685,2,0,L|324:253,1,60.0000022888184
227,309,167847,2,0,L|169:291,1,60.0000022888184,0|10,0:0|0:0,0:0:0:0:
102,336,168010,2,0,B|68:335|68:335|46:355,2,60.0000022888184,0|2|0,0:0|0:0|0:0,0:0:0:0:
170,377,168253,5,2,0:0:0:0:
193,377,168334,1,0,0:0:0:0:
216,378,168415,1,2,0:0:0:0:
239,377,168496,1,0,0:0:0:0:
262,375,168577,2,0,L|321:365,1,60.0000022888184,10|0,0:0|0:0,0:0:0:0:
349,289,168739,2,0,L|408:298,1,60.0000022888184,2|0,0:0|0:0,0:0:0:0:
481,228,168901,2,0,L|421:218,1,60.0000022888184,2|0,0:0|0:0,0:0:0:0:
394,142,169063,2,0,L|334:151,1,60.0000022888184,2|0,0:0|0:0,0:0:0:0:
246,189,169226,5,10,0:0:0:0:
199,178,169307,1,0,0:0:0:0:
153,161,169388,1,2,0:0:0:0:
107,145,169469,1,2,0:0:0:0:
60,131,169550,6,0,L|43:74,1,60.0000022888184,6|0,0:0|0:0,0:0:0:0:
64,30,169712,1,2,0:0:0:0:
111,28,169793,2,0,B|163:56|163:56|223:47,1,120.000004577637
270,36,170037,2,0,B|330:27|330:27|382:55,1,120.000004577637,2|2,0:0|0:0,0:0:0:0:
429,65,170280,1,0,0:0:0:0:
476,63,170361,2,0,B|482:37|482:37|471:5,1,60.0000022888184,2|0,0:0|0:0,0:0:0:0:
471,139,170523,2,0,B|459:171|459:171|466:197,1,60.0000022888184,10|0,0:0|0:0,0:0:0:0:
470,273,170685,2,0,B|440:272|440:272|415:289,1,60.0000022888184,2|0,0:0|0:0,0:0:0:0:
412,374,170847,6,0,B|442:373|442:373|462:352,2,60.0000022888184,2|0|2,0:0|0:0|0:0,0:0:0:0:
367,354,171091,1,0,0:0:0:0:
338,315,171172,2,0,B|306:308|306:308|281:320,1,60.0000022888184,10|0,0:0|0:0,0:0:0:0:
220,358,171334,2,0,B|195:370|195:370|163:363,1,60.0000022888184,2|0,0:0|0:0,0:0:0:0:
138,320,171496,2,0,B|106:313|106:313|81:325,1,60.0000022888184,2|0,0:0|0:0,0:0:0:0:
56,361,171658,2,0,B|31:373|31:373|0:366,1,60.0000022888184,2|0,0:0|0:0,0:0:0:0:
0,317,171820,2,0,B|19:293|19:293|20:263,3,60.0000022888184,10|0|2|2,0:0|0:0|0:0|0:0,0:0:0:0:
43,228,172145,5,6,0:0:0:0:
51,205,172226,1,0,0:0:0:0:
48,181,172307,1,2,0:0:0:0:
40,158,172388,2,0,L|159:146,1,120.000004577637,2|0,0:0|0:0,0:0:0:0:
183,145,172631,5,2,0:0:0:0:
200,128,172712,1,0,0:0:0:0:
210,106,172793,1,2,0:0:0:0:
199,82,172874,1,2,0:0:0:0:
180,65,172956,2,0,L|60:53,1,120.000004577637,2|10,0:0|0:0,0:0:0:0:
81,41,173199,5,0,0:0:0:0:
104,38,173280,1,0,0:0:0:0:
127,34,173361,1,0,0:0:0:0:
150,29,173442,2,0,L|209:23,3,60.0000022888184,2|2|2|0,0:0|0:0|0:0|0:0,0:0:0:0:
273,66,173766,6,0,B|297:81|297:81|326:67,1,60.0000022888184,10|0,0:0|0:0,0:0:0:0:
414,128,173929,2,0,B|390:113|390:113|361:127,1,60.0000022888184,2|0,0:0|0:0,0:0:0:0:
258,176,174091,2,0,B|281:190|281:190|310:176,1,60.0000022888184,2|0,0:0|0:0,0:0:0:0:
398,237,174254,2,0,B|374:222|374:222|345:236,1,60.0000022888184,2|0,0:0|0:0,0:0:0:0:
242,286,174415,2,0,B|265:300|265:300|294:286,1,60.0000022888184,10|0,0:0|0:0,0:0:0:0:
382,347,174578,2,0,B|358:332|358:332|329:346,1,60.0000022888184,2|0,0:0|0:0,0:0:0:0:
233,373,174739,5,6,0:0:0:0:
209,367,174820,1,0,0:0:0:0:
185,360,174901,1,2,0:0:0:0:
161,353,174983,1,0,0:0:0:0:
138,345,175064,2,0,L|151:286,1,60.0000022888184,10|0,0:0|0:0,0:0:0:0:
67,259,175226,2,0,L|53:200,1,60.0000022888184,2|0,0:0|0:0,0:0:0:0:
159,155,175388,6,0,L|217:141,1,60.0000022888184,2|0,0:0|0:0,0:0:0:0:
58,92,175550,2,0,L|-1:78,1,60.0000022888184,2|0,0:0|0:0,0:0:0:0:
159,26,175712,1,10,0:0:0:0:
183,24,175794,1,0,0:0:0:0:
206,21,175875,1,2,0:0:0:0:
229,18,175956,1,0,0:0:0:0:
229,41,176037,5,2,0:0:0:0:
250,52,176118,1,0,0:0:0:0:
272,45,176199,1,2,0:0:0:0:
443,13,176361,1,10,0:0:0:0:
283,124,176523,6,0,B|268:152|268:152|270:180,2,60.0000022888184,2|0|2,0:0|0:0|0:0,0:0:0:0:
197,300,176847,2,0,B|212:327|212:327|209:355,2,60.0000022888184,2|0|10,0:0|0:0|0:0,0:0:0:0:
355,381,177172,1,2,0:0:0:0:
256,192,177359,12,2,182223,0:0:0:0:
204,48,182518,6,0,B|188:37|188:37|165:44,1,40,4|0,0:0|0:0,0:0:0:0:
256,107,182680,2,0,B|272:95|272:95|295:102,1,40
181,141,182842,6,0,B|148:137|148:137|108:161,1,80,12|0,0:0|0:0,0:0:0:0:
89,192,183085,1,0,0:0:0:0:
88,207,183166,1,0,0:0:0:0:
88,222,183247,1,0,0:0:0:0:
86,237,183328,2,0,L|82:316,1,80,12|0,0:0|0:0,0:0:0:0:
248,224,183653,2,0,L|244:144,1,80,8|0,0:0|0:0,0:0:0:0:
423,340,183977,5,12,0:0:0:0:
351,212,184139,1,12,0:0:0:0:
474,243,184301,1,12,0:0:0:0:
313,302,184463,1,12,0:0:0:0:
