osu file format v14

[General]
AudioFilename: audio.mp3
AudioLeadIn: 0
PreviewTime: 78739
Countdown: 0
SampleSet: Soft
StackLeniency: 0.7
Mode: 0
LetterboxInBreaks: 0
WidescreenStoryboard: 1

[Editor]
DistanceSpacing: 0.7
BeatDivisor: 4
GridSize: 32
TimelineZoom: 2

[Metadata]
Title:Shoujo Kisoukyoku ~ Speed Battle
TitleUnicode:少女綺走曲 ~ Speed Battle
Artist:Xi
ArtistUnicode:Xi
Creator:Leader
Version:Extra Stage
Source:東方永夜抄 ~ Imperishable Night.
Tags:OWC 2020 RO32 NM2 Shurelia PaRaDoGi Respirte 神速裁判 ~ Rapidity is a justice AQUAELIE 少女綺想曲 ~ Dream Battle 東方Project Touhou th08 博麗 霊夢 Hakurei Reimu Theme ZUN Metal Instrumental Video Game
BeatmapID:2670759
BeatmapSetID:1286282

[Difficulty]
HPDrainRate:6.5
CircleSize:4.2
OverallDifficulty:9
ApproachRate:9.6
SliderMultiplier:1.8
SliderTickRate:1

[Events]
//Background and Video events
0,0,"reimubg1.jpg",0,0
//Break Periods
2,99615,103485
2,136020,144999
//Storyboard Layer 0 (Background)
//Storyboard Layer 1 (Fail)
//Storyboard Layer 2 (Pass)
//Storyboard Layer 3 (Foreground)
//Storyboard Layer 4 (Overlay)
//Storyboard Sound Samples

[TimingPoints]
902,324.324324324324,4,2,1,50,1,0
902,-133.333333333333,4,2,1,50,0,0
6091,-133.333333333333,4,3,1,50,0,0
10956,-200,4,2,1,70,0,0
11280,-100,4,3,1,70,0,0
34631,-100,4,3,1,70,0,0
34956,-100,4,3,1,50,0,0
35280,-100,4,3,1,40,0,0
35604,-100,4,3,1,30,0,0
35929,-100,4,3,1,20,0,0
36253,-100,4,3,1,10,0,0
36577,-100,4,3,1,5,0,0
36901,-100,4,3,1,40,0,0
37064,-100,4,3,1,50,0,0
37226,-100,4,3,1,60,0,0
78415,-200,4,3,1,60,0,0
78577,-100,4,3,1,5,0,0
78739,-100,4,3,1,70,0,1
89037,-100,4,3,1,70,0,0
89118,-83.3333333333333,4,3,1,70,0,1
99496,-100,4,3,1,60,0,0
146199,-100,4,3,1,40,0,0
147496,-100,4,3,1,45,0,0
148793,-100,4,3,1,50,0,0
150091,-100,4,3,1,55,0,0
151388,-100,4,3,1,60,0,0
152685,-100,4,3,1,65,0,0
153983,-100,4,3,1,70,0,0
156415,-100,4,3,1,5,0,0
156577,-66.6666666666667,4,3,1,70,0,1
166874,-100,4,3,1,70,0,0
166956,-66.6666666666667,4,3,1,70,0,1
177359,324.324324324324,4,3,1,70,1,0
177359,-100,4,3,1,70,0,0
180926,-100,4,3,1,60,0,0
181250,-100,4,3,1,50,0,0
181575,-100,4,3,1,40,0,0
181899,-100,4,3,1,30,0,0
182223,-100,4,3,1,20,0,0
182518,324.324324324324,4,3,1,60,1,0
184463,-1000,4,3,1,60,0,0
184788,-1000,4,3,1,5,0,0

[Colours]
Combo1 : 113,15,32
Combo2 : 159,134,133
Combo3 : 130,133,134
Combo4 : 124,124,132

[HitObjects]
220,231,902,6,0,L|211:164,1,67.5000025749208,2|0,0:0|0:0,0:0:0:0:
292,295,1226,2,0,L|280:369,1,67.5000025749208,2|0,0:0|0:0,0:0:0:0:
385,267,1550,2,0,P|442:269|497:250,2,101.250003862381,2|2|2,0:0|0:0|0:0,0:0:0:0:
135,58,2361,5,2,0:0:0:0:
135,58,2523,2,0,L|127:131,1,67.5000025749208,2|0,0:0|0:0,0:0:0:0:
66,206,2847,2,0,P|114:210|175:223,2,101.250003862381,2|0|2,0:0|0:0|0:0,0:0:0:0:
106,303,3496,5,2,0:0:0:0:
405,49,3820,2,0,L|415:118,1,67.5000025749208,2|0,0:0|0:0,0:0:0:0:
380,197,4145,2,0,P|431:199|498:171,2,101.250003862381,2|2|2,0:0|0:0|0:0,0:0:0:0:
67,67,4956,5,2,0:0:0:0:
67,67,5118,2,0,P|73:100|76:144,1,67.5000025749208,2|0,0:0|0:0,0:0:0:0:
71,222,5442,1,2,0:0:0:0:
276,86,5685,1,2,0:0:0:0:
355,356,5929,1,2,0:0:0:0:
423,298,6091,6,0,L|418:229,1,67.5000025749208,6|0,0:0|0:0,0:0:0:0:
333,40,6415,2,0,L|338:109,1,67.5000025749208,8|0,0:0|0:0,0:0:0:0:
269,338,6739,2,0,L|264:269,1,67.5000025749208,2|0,0:0|0:0,0:0:0:0:
179,80,7063,2,0,L|184:149,1,67.5000025749208,8|0,0:0|0:0,0:0:0:0:
44,197,7388,5,2,0:0:0:0:
48,201,7550,1,0,0:0:0:0:
140,263,7712,1,8,0:0:0:0:
144,267,7874,1,0,0:0:0:0:
231,331,8037,5,2,0:0:0:0:
233,350,8118,1,0,0:0:0:0:
349,230,8280,1,0,0:0:0:0:
345,252,8361,2,0,L|332:341,1,67.5000025749208,8|0,0:0|0:0,0:0:0:0:
405,88,8685,6,0,L|362:81,3,33.7500012874604,6|0|0|0,0:0|0:0|0:0|0:0,0:0:0:0:
325,154,9010,2,0,L|291:159,3,33.7500012874604,8|0|0|0,0:0|0:0|0:0|0:0,0:0:0:0:
281,69,9334,2,0,L|238:62,3,33.7500012874604,2|0|0|0,0:0|0:0|0:0|0:0,0:0:0:0:
201,135,9659,2,0,L|167:140,3,33.7500012874604,8|0|0|0,0:0|0:0|0:0|0:0,0:0:0:0:
66,44,9983,5,2,0:0:0:0:
66,37,10064,1,0,0:0:0:0:
67,30,10145,1,0,0:0:0:0:
68,23,10226,1,0,0:0:0:0:
70,16,10307,5,8,0:0:0:0:
85,50,10388,1,0,0:0:0:0:
91,83,10469,1,0,0:0:0:0:
89,116,10550,1,0,0:0:0:0:
78,147,10631,6,0,L|39:153,1,33.7500012874604,2|0,0:0|0:0,0:0:0:0:
31,234,10793,2,0,L|64:239,1,33.7500012874604
80,321,10956,6,0,L|30:332,1,45,4|4,0:0|0:0,0:0:0:0:
151,273,11280,5,6,0:0:0:0:
195,248,11361,1,0,0:0:0:0:
246,242,11442,1,0,0:0:0:0:
295,255,11523,1,0,0:0:0:0:
334,287,11604,5,8,0:0:0:0:
358,332,11685,1,0,0:0:0:0:
402,358,11766,1,0,0:0:0:0:
452,357,11847,1,0,0:0:0:0:
492,328,11928,5,2,0:0:0:0:
510,280,12009,1,0,0:0:0:0:
497,231,12090,1,0,0:0:0:0:
467,190,12172,1,0,0:0:0:0:
416,180,12253,5,8,0:0:0:0:
369,196,12334,1,0,0:0:0:0:
336,233,12415,1,0,0:0:0:0:
334,287,12496,1,0,0:0:0:0:
358,332,12577,5,2,0:0:0:0:
309,321,12658,1,0,0:0:0:0:
261,332,12739,1,0,0:0:0:0:
222,363,12820,1,0,0:0:0:0:
172,365,12901,5,8,0:0:0:0:
135,331,12982,1,0,0:0:0:0:
120,286,13063,1,0,0:0:0:0:
120,236,13144,1,0,0:0:0:0:
144,192,13226,5,2,0:0:0:0:
174,156,13307,1,0,0:0:0:0:
184,103,13388,1,0,0:0:0:0:
163,58,13469,1,0,0:0:0:0:
122,30,13550,5,8,0:0:0:0:
73,37,13631,1,0,0:0:0:0:
35,68,13712,1,0,0:0:0:0:
19,114,13793,1,0,0:0:0:0:
31,161,13874,5,6,0:0:0:0:
61,200,13955,1,0,0:0:0:0:
106,208,14036,1,0,0:0:0:0:
151,189,14118,1,0,0:0:0:0:
199,184,14199,5,8,0:0:0:0:
247,191,14280,1,0,0:0:0:0:
284,223,14361,1,0,0:0:0:0:
296,271,14442,1,0,0:0:0:0:
310,318,14523,5,2,0:0:0:0:
351,344,14604,1,0,0:0:0:0:
400,343,14685,1,0,0:0:0:0:
444,321,14766,1,0,0:0:0:0:
465,276,14847,5,8,0:0:0:0:
464,226,14928,1,0,0:0:0:0:
433,188,15009,1,0,0:0:0:0:
385,175,15091,1,0,0:0:0:0:
339,196,15172,5,2,0:0:0:0:
316,148,15253,1,0,0:0:0:0:
308,98,15334,1,0,0:0:0:0:
311,47,15415,1,0,0:0:0:0:
323,0,15496,5,8,0:0:0:0:
271,19,15577,1,0,0:0:0:0:
221,34,15658,1,2,0:0:0:0:
168,28,15739,1,0,0:0:0:0:
118,13,15820,5,2,0:0:0:0:
102,62,15901,1,0,0:0:0:0:
98,113,15983,1,0,0:0:0:0:
111,162,16063,1,0,0:0:0:0:
151,193,16145,5,8,0:0:0:0:
160,195,16226,1,0,0:0:0:0:
169,198,16307,1,0,0:0:0:0:
178,200,16388,1,2,0:0:0:0:
187,202,16469,5,6,0:0:0:0:
199,239,16550,1,0,0:0:0:0:
209,279,16631,1,2,0:0:0:0:
210,319,16712,1,2,0:0:0:0:
203,362,16793,2,0,L|153:369,1,45,8|0,0:0|0:0,0:0:0:0:
301,328,16956,5,2,0:0:0:0:
338,303,17037,1,0,0:0:0:0:
374,286,17118,1,2,0:0:0:0:
414,276,17199,1,2,0:0:0:0:
454,275,17280,2,0,L|458:216,1,45,2|0,0:0|0:0,0:0:0:0:
454,72,17442,5,8,0:0:0:0:
453,81,17523,1,0,0:0:0:0:
452,90,17604,1,0,0:0:0:0:
451,99,17685,1,0,0:0:0:0:
450,108,17766,5,2,0:0:0:0:
405,121,17847,1,2,0:0:0:0:
361,116,17928,1,2,0:0:0:0:
321,96,18009,1,0,0:0:0:0:
290,63,18091,6,0,L|285:7,1,45,8|0,0:0|0:0,0:0:0:0:
236,132,18253,2,0,L|231:176,1,45,2|0,0:0|0:0,0:0:0:0:
162,72,18415,5,2,0:0:0:0:
225,268,18577,1,2,0:0:0:0:
324,208,18739,5,10,0:0:0:0:
140,153,18901,1,2,0:0:0:0:
19,288,19064,5,6,0:0:0:0:
53,289,19145,1,0,0:0:0:0:
91,291,19226,1,2,0:0:0:0:
129,295,19307,1,0,0:0:0:0:
166,296,19388,2,0,L|176:368,1,45,8|0,0:0|0:0,0:0:0:0:
361,116,19550,5,2,0:0:0:0:
327,117,19631,1,0,0:0:0:0:
289,119,19712,1,2,0:0:0:0:
251,123,19793,1,0,0:0:0:0:
214,124,19874,2,0,L|204:196,1,45,2|0,0:0|0:0,0:0:0:0:
173,341,20037,5,8,0:0:0:0:
215,355,20118,1,0,0:0:0:0:
260,355,20199,1,2,0:0:0:0:
302,341,20280,1,0,0:0:0:0:
338,314,20361,2,0,L|341:243,1,45,2|0,0:0|0:0,0:0:0:0:
484,152,20523,5,2,0:0:0:0:
441,166,20604,1,0,0:0:0:0:
396,166,20685,1,8,0:0:0:0:
354,152,20766,1,0,0:0:0:0:
318,125,20847,2,0,L|315:53,1,45,2|0,0:0|0:0,0:0:0:0:
430,358,21010,5,2,0:0:0:0:
436,358,21091,1,0,0:0:0:0:
442,359,21172,1,0,0:0:0:0:
449,360,21253,1,0,0:0:0:0:
455,360,21334,1,8,0:0:0:0:
461,361,21415,1,0,0:0:0:0:
468,362,21496,1,0,0:0:0:0:
474,363,21577,1,0,0:0:0:0:
481,365,21658,5,6,0:0:0:0:
501,321,21739,1,0,0:0:0:0:
510,272,21820,1,0,0:0:0:0:
509,223,21901,1,0,0:0:0:0:
495,176,21982,5,8,0:0:0:0:
458,144,22064,1,0,0:0:0:0:
409,139,22145,1,0,0:0:0:0:
366,161,22226,1,0,0:0:0:0:
341,203,22307,5,2,0:0:0:0:
318,246,22388,1,0,0:0:0:0:
276,271,22469,1,0,0:0:0:0:
226,283,22550,1,0,0:0:0:0:
178,271,22631,5,8,0:0:0:0:
137,243,22712,1,0,0:0:0:0:
109,203,22793,1,0,0:0:0:0:
96,155,22874,1,0,0:0:0:0:
101,106,22955,5,2,0:0:0:0:
123,62,23036,1,0,0:0:0:0:
158,28,23117,1,0,0:0:0:0:
204,9,23198,1,0,0:0:0:0:
253,0,23279,5,8,0:0:0:0:
239,47,23360,1,0,0:0:0:0:
231,95,23441,1,0,0:0:0:0:
238,143,23522,1,0,0:0:0:0:
256,189,23604,5,2,0:0:0:0:
296,160,23685,1,0,0:0:0:0:
344,153,23766,1,0,0:0:0:0:
391,167,23847,1,0,0:0:0:0:
427,200,23928,5,8,0:0:0:0:
446,245,24009,1,0,0:0:0:0:
442,294,24090,1,0,0:0:0:0:
418,337,24171,1,0,0:0:0:0:
377,363,24253,5,6,0:0:0:0:
329,350,24334,1,0,0:0:0:0:
279,347,24415,1,0,0:0:0:0:
230,358,24496,1,0,0:0:0:0:
182,371,24577,5,8,0:0:0:0:
132,371,24658,1,0,0:0:0:0:
88,347,24739,1,0,0:0:0:0:
52,312,24820,1,0,0:0:0:0:
44,263,24901,5,2,0:0:0:0:
51,213,24983,1,0,0:0:0:0:
92,184,25064,1,0,0:0:0:0:
141,179,25145,1,0,0:0:0:0:
185,207,25226,5,8,0:0:0:0:
222,238,25307,1,0,0:0:0:0:
270,249,25388,1,0,0:0:0:0:
316,231,25469,1,0,0:0:0:0:
354,200,25550,5,2,0:0:0:0:
402,192,25631,1,0,0:0:0:0:
448,210,25712,1,0,0:0:0:0:
480,247,25793,1,0,0:0:0:0:
488,295,25874,5,8,0:0:0:0:
468,344,25955,1,0,0:0:0:0:
429,374,26036,1,0,0:0:0:0:
378,377,26117,1,0,0:0:0:0:
333,353,26199,5,2,0:0:0:0:
305,311,26280,1,0,0:0:0:0:
307,266,26361,1,0,0:0:0:0:
333,219,26442,1,0,0:0:0:0:
380,205,26523,5,8,0:0:0:0:
382,218,26604,1,0,0:0:0:0:
384,231,26685,1,0,0:0:0:0:
387,244,26766,1,0,0:0:0:0:
390,257,26847,5,6,0:0:0:0:
348,261,26928,1,0,0:0:0:0:
307,266,27009,1,2,0:0:0:0:
267,271,27090,1,2,0:0:0:0:
226,277,27172,2,0,L|216:211,1,45,8|0,0:0|0:0,0:0:0:0:
66,85,27334,5,2,0:0:0:0:
108,89,27415,1,0,0:0:0:0:
149,94,27496,1,0,0:0:0:0:
189,99,27577,1,2,0:0:0:0:
230,105,27659,2,0,L|239:38,1,45,2|0,0:0|0:0,0:0:0:0:
101,225,27820,5,8,0:0:0:0:
125,266,27901,1,0,0:0:0:0:
166,294,27982,1,2,0:0:0:0:
214,302,28063,1,0,0:0:0:0:
262,287,28144,5,2,0:0:0:0:
202,188,28307,1,2,0:0:0:0:
318,188,28469,5,10,0:0:0:0:
258,361,28631,1,2,0:0:0:0:
417,110,28793,5,2,0:0:0:0:
262,287,28956,1,2,0:0:0:0:
235,60,29118,5,10,0:0:0:0:
262,275,29280,1,2,0:0:0:0:
344,50,29442,5,6,0:0:0:0:
331,97,29523,1,0,0:0:0:0:
299,137,29604,1,0,0:0:0:0:
252,158,29685,1,0,0:0:0:0:
202,156,29766,1,8,0:0:0:0:
157,133,29847,1,0,0:0:0:0:
106,131,29928,1,0,0:0:0:0:
60,151,30009,1,0,0:0:0:0:
26,189,30091,6,0,L|31:246,1,45,2|0,0:0|0:0,0:0:0:0:
110,260,30253,2,0,L|105:319,1,45,2|0,0:0|0:0,0:0:0:0:
36,361,30415,1,8,0:0:0:0:
318,181,30577,5,0,0:0:0:0:
318,181,30658,1,0,0:0:0:0:
318,181,30739,2,0,L|329:297,1,90,6|0,0:0|0:0,0:0:0:0:
435,195,31064,1,8,0:0:0:0:
216,236,31226,5,0,0:0:0:0:
216,236,31307,1,0,0:0:0:0:
216,236,31388,2,0,P|168:224|114:203,1,90,2|0,0:0|0:0,0:0:0:0:
106,194,31631,1,2,0:0:0:0:
83,177,31712,1,8,0:0:0:0:
324,55,31874,6,0,L|330:105,1,45,2|0,0:0|0:0,0:0:0:0:
256,192,32037,12,0,36577,0:0:0:0:
33,299,36901,5,2,0:0:0:0:
33,299,36983,1,2,0:0:0:0:
33,299,37064,1,2,0:0:0:0:
33,299,37145,1,2,0:0:0:0:
33,299,37226,2,0,P|107:309|202:257,1,180,4|8,0:0|0:0,0:0:0:0:
100,211,37712,1,2,0:0:0:0:
227,351,37874,2,0,L|446:367,1,180,2|8,0:0|0:0,0:0:0:0:
406,364,38280,1,0,0:0:0:0:
406,364,38361,1,0,0:0:0:0:
370,270,38523,6,0,P|351:187|380:87,1,180,2|8,0:0|0:0,0:0:0:0:
461,191,39010,1,0,0:0:0:0:
461,191,39091,1,2,0:0:0:0:
461,191,39172,1,0,0:0:0:0:
256,150,39334,1,2,0:0:0:0:
451,91,39496,1,8,0:0:0:0:
451,91,39658,1,2,0:0:0:0:
299,325,39820,6,0,P|232:336|140:263,1,180,6|8,0:0|0:0,0:0:0:0:
118,96,40307,1,2,0:0:0:0:
243,235,40469,1,2,0:0:0:0:
298,44,40631,1,0,0:0:0:0:
238,152,40793,1,8,0:0:0:0:
238,152,40874,1,0,0:0:0:0:
238,152,40956,1,0,0:0:0:0:
118,96,41118,6,0,P|126:139|139:277,1,180,2|8,0:0|0:0,0:0:0:0:
238,152,41604,1,2,0:0:0:0:
39,210,41766,1,2,0:0:0:0:
39,210,41847,1,0,0:0:0:0:
39,210,41929,1,0,0:0:0:0:
250,266,42091,5,8,0:0:0:0:
250,266,42172,1,0,0:0:0:0:
250,266,42253,1,0,0:0:0:0:
250,266,42334,1,0,0:0:0:0:
250,266,42415,2,0,B|311:273|311:273|357:302|357:302|426:309,1,180,6|8,0:0|0:0,0:0:0:0:
417,211,42901,1,2,0:0:0:0:
290,373,43064,1,2,0:0:0:0:
207,191,43226,1,0,0:0:0:0:
338,31,43388,1,8,0:0:0:0:
338,31,43469,1,0,0:0:0:0:
338,31,43550,1,0,0:0:0:0:
152,283,43712,6,0,P|120:229|141:109,1,180,2|8,0:0|0:0,0:0:0:0:
213,197,44199,1,2,0:0:0:0:
213,197,44280,1,2,0:0:0:0:
213,197,44361,1,2,0:0:0:0:
254,282,44523,1,2,0:0:0:0:
307,200,44685,1,8,0:0:0:0:
68,281,44847,1,2,0:0:0:0:
272,356,45010,6,0,L|486:368,1,180,6|8,0:0|0:0,0:0:0:0:
235,232,45496,1,2,0:0:0:0:
235,232,45658,2,0,L|449:244,1,180,2|8,0:0|0:0,0:0:0:0:
233,124,46145,1,0,0:0:0:0:
127,366,46307,5,2,0:0:0:0:
119,365,46388,1,0,0:0:0:0:
110,364,46469,1,2,0:0:0:0:
101,363,46550,1,0,0:0:0:0:
92,363,46631,5,8,0:0:0:0:
111,354,46712,1,0,0:0:0:0:
133,349,46793,1,2,0:0:0:0:
155,346,46874,1,0,0:0:0:0:
177,345,46956,5,2,0:0:0:0:
200,347,47036,1,0,0:0:0:0:
222,351,47117,1,2,0:0:0:0:
244,357,47198,1,0,0:0:0:0:
264,365,47279,5,8,0:0:0:0:
285,371,47361,1,0,0:0:0:0:
307,373,47442,1,2,0:0:0:0:
329,373,47523,1,0,0:0:0:0:
351,372,47604,6,0,L|361:183,1,180,6|8,0:0|0:0,0:0:0:0:
455,82,48091,1,2,0:0:0:0:
379,44,48253,1,2,0:0:0:0:
291,52,48415,1,0,0:0:0:0:
196,83,48577,1,8,0:0:0:0:
191,61,48658,1,0,0:0:0:0:
186,39,48739,1,0,0:0:0:0:
46,237,48901,6,0,P|111:243|213:173,1,180,2|8,0:0|0:0,0:0:0:0:
103,152,49388,1,2,0:0:0:0:
103,152,49469,1,2,0:0:0:0:
103,152,49550,1,2,0:0:0:0:
276,261,49712,1,2,0:0:0:0:
276,261,49874,1,8,0:0:0:0:
46,337,50037,1,2,0:0:0:0:
365,339,50199,6,0,P|377:265|347:147,1,180,6|8,0:0|0:0,0:0:0:0:
276,261,50685,1,2,0:0:0:0:
459,195,50847,1,2,0:0:0:0:
459,195,50929,1,0,0:0:0:0:
459,195,51010,1,0,0:0:0:0:
314,58,51172,1,8,0:0:0:0:
314,58,51253,1,0,0:0:0:0:
314,58,51334,1,0,0:0:0:0:
457,77,51496,5,2,0:0:0:0:
456,68,51577,1,0,0:0:0:0:
455,59,51658,1,0,0:0:0:0:
454,50,51739,1,0,0:0:0:0:
453,42,51820,5,8,0:0:0:0:
446,68,51901,1,0,0:0:0:0:
443,95,51982,1,0,0:0:0:0:
444,122,52063,1,0,0:0:0:0:
450,149,52145,5,2,0:0:0:0:
454,175,52226,1,0,0:0:0:0:
457,202,52307,1,0,0:0:0:0:
456,229,52388,1,0,0:0:0:0:
453,256,52469,6,0,L|397:266,1,45,8|0,0:0|0:0,0:0:0:0:
383,344,52631,2,0,L|338:335,1,45
248,286,52793,6,0,L|238:181,1,90,6|0,0:0|0:0,0:0:0:0:
331,250,53118,1,8,0:0:0:0:
149,224,53280,1,2,0:0:0:0:
325,155,53442,2,0,L|335:50,1,90,2|0,0:0|0:0,0:0:0:0:
414,205,53766,1,8,0:0:0:0:
418,229,53847,1,0,0:0:0:0:
423,253,53929,1,0,0:0:0:0:
226,216,54091,6,0,P|205:165|230:27,1,180,2|8,0:0|0:0,0:0:0:0:
469,44,54577,1,2,0:0:0:0:
469,44,54658,1,2,0:0:0:0:
469,44,54739,1,2,0:0:0:0:
287,127,54901,1,2,0:0:0:0:
490,294,55064,1,8,0:0:0:0:
382,161,55226,1,2,0:0:0:0:
261,343,55388,6,0,P|179:351|81:284,1,180,6|8,0:0|0:0,0:0:0:0:
167,77,55874,1,2,0:0:0:0:
167,77,56037,2,0,P|185:155|201:264,1,180,2|8,0:0|0:0,0:0:0:0:
211,369,56523,1,0,0:0:0:0:
446,347,56685,5,2,0:0:0:0:
454,347,56766,1,0,0:0:0:0:
463,348,56847,1,0,0:0:0:0:
472,349,56928,1,0,0:0:0:0:
482,351,57010,5,8,0:0:0:0:
492,321,57091,1,0,0:0:0:0:
498,290,57172,1,0,0:0:0:0:
499,259,57253,1,0,0:0:0:0:
495,227,57334,5,2,0:0:0:0:
451,231,57415,1,0,0:0:0:0:
406,235,57496,1,2,0:0:0:0:
361,238,57577,1,0,0:0:0:0:
316,242,57658,5,8,0:0:0:0:
271,245,57739,1,0,0:0:0:0:
226,249,57820,1,2,0:0:0:0:
181,252,57901,1,0,0:0:0:0:
137,256,57983,6,0,L|128:163,1,90,6|0,0:0|0:0,0:0:0:0:
117,61,58307,1,8,0:0:0:0:
117,61,58388,1,0,0:0:0:0:
117,61,58469,1,2,0:0:0:0:
230,135,58631,1,2,0:0:0:0:
24,215,58793,1,0,0:0:0:0:
257,257,58956,1,8,0:0:0:0:
188,27,59118,1,0,0:0:0:0:
227,338,59280,6,0,P|301:326|333:220,1,180,2|8,0:0|0:0,0:0:0:0:
88,141,59766,1,2,0:0:0:0:
88,141,59847,1,2,0:0:0:0:
88,141,59929,1,2,0:0:0:0:
257,257,60091,1,2,0:0:0:0:
39,232,60253,1,8,0:0:0:0:
326,180,60415,1,2,0:0:0:0:
176,366,60577,6,0,P|173:302|159:175,1,180,6|8,0:0|0:0,0:0:0:0:
149,55,61064,1,2,0:0:0:0:
66,280,61226,1,2,0:0:0:0:
66,280,61388,1,0,0:0:0:0:
328,218,61550,1,8,0:0:0:0:
249,179,61712,1,0,0:0:0:0:
403,313,61874,6,0,P|420:260|404:113,1,180,2|8,0:0|0:0,0:0:0:0:
168,35,62361,1,2,0:0:0:0:
168,35,62442,1,0,0:0:0:0:
168,35,62523,2,0,L|177:134,1,90
251,309,62847,1,8,0:0:0:0:
251,309,62929,1,0,0:0:0:0:
251,309,63010,1,0,0:0:0:0:
251,309,63091,1,0,0:0:0:0:
251,309,63172,6,0,P|305:307|345:173,1,180,6|8,0:0|0:0,0:0:0:0:
289,36,63658,1,2,0:0:0:0:
289,36,63820,2,0,P|282:113|276:247,1,180,2|8,0:0|0:0,0:0:0:0:
276,215,64226,1,0,0:0:0:0:
276,215,64307,1,0,0:0:0:0:
202,306,64469,6,0,B|141:315|141:315|96:352|96:352|32:358,1,180,2|8,0:0|0:0,0:0:0:0:
52,191,64956,1,2,0:0:0:0:
56,210,65037,1,2,0:0:0:0:
60,229,65118,1,2,0:0:0:0:
199,42,65280,1,2,0:0:0:0:
165,190,65442,1,8,0:0:0:0:
165,190,65604,1,2,0:0:0:0:
211,333,65766,6,0,L|398:348,1,180,6|8,0:0|0:0,0:0:0:0:
440,68,66253,1,2,0:0:0:0:
440,68,66415,2,0,P|355:83|314:201,1,180,2|8,0:0|0:0,0:0:0:0:
318,357,66901,1,0,0:0:0:0:
211,197,67064,5,2,0:0:0:0:
172,187,67145,1,0,0:0:0:0:
132,194,67226,1,0,0:0:0:0:
99,216,67307,1,0,0:0:0:0:
78,251,67388,5,10,0:0:0:0:
73,291,67469,1,0,0:0:0:0:
85,329,67550,1,2,0:0:0:0:
111,359,67631,1,0,0:0:0:0:
148,376,67712,5,2,0:0:0:0:
188,376,67793,1,0,0:0:0:0:
225,359,67874,1,2,0:0:0:0:
251,329,67955,1,0,0:0:0:0:
263,298,68037,5,10,0:0:0:0:
265,307,68118,1,0,0:0:0:0:
267,315,68199,1,2,0:0:0:0:
268,324,68280,1,0,0:0:0:0:
270,335,68361,6,0,L|477:353,1,180,6|8,0:0|0:0,0:0:0:0:
457,230,68847,1,2,0:0:0:0:
457,230,69010,2,0,L|386:224,1,45,2|0,0:0|0:0,0:0:0:0:
334,215,69172,2,0,L|263:209,1,45
376,94,69334,1,8,0:0:0:0:
401,97,69415,1,0,0:0:0:0:
429,101,69496,1,2,0:0:0:0:
290,212,69658,6,0,P|203:212|123:131,1,180,2|8,0:0|0:0,0:0:0:0:
244,122,70145,1,2,0:0:0:0:
244,122,70226,1,2,0:0:0:0:
244,122,70307,1,2,0:0:0:0:
312,293,70469,1,2,0:0:0:0:
176,53,70631,1,8,0:0:0:0:
187,290,70793,1,2,0:0:0:0:
306,53,70956,6,0,P|364:46|442:153,1,180,6|8,0:0|0:0,0:0:0:0:
403,320,71442,1,2,0:0:0:0:
351,138,71604,1,2,0:0:0:0:
351,138,71685,1,0,0:0:0:0:
351,138,71766,1,2,0:0:0:0:
492,285,71929,1,8,0:0:0:0:
421,225,72091,1,2,0:0:0:0:
263,354,72253,6,0,L|47:365,1,180,2|8,0:0|0:0,0:0:0:0:
0,139,72739,1,2,0:0:0:0:
52,225,72901,1,2,0:0:0:0:
52,225,72983,1,0,0:0:0:0:
52,225,73064,1,2,0:0:0:0:
111,150,73226,2,0,L|119:101,1,45,8|0,0:0|0:0,0:0:0:0:
157,223,73388,2,0,L|164:267,1,45
227,171,73550,6,0,P|310:167|385:224,1,180,6|8,0:0|0:0,0:0:0:0:
289,261,74037,1,2,0:0:0:0:
463,121,74199,1,2,0:0:0:0:
388,339,74361,1,2,0:0:0:0:
292,88,74523,1,8,0:0:0:0:
292,88,74604,1,0,0:0:0:0:
292,88,74685,1,0,0:0:0:0:
467,244,74847,6,0,P|394:245|281:262,1,180,2|8,0:0|0:0,0:0:0:0:
117,209,75334,1,2,0:0:0:0:
117,209,75415,1,2,0:0:0:0:
117,209,75496,1,2,0:0:0:0:
205,240,75658,1,2,0:0:0:0:
20,256,75820,1,8,0:0:0:0:
302,211,75983,1,2,0:0:0:0:
112,30,76145,6,0,P|120:105|115:227,1,180,6|8,0:0|0:0,0:0:0:0:
109,341,76631,1,2,0:0:0:0:
109,341,76793,2,0,L|174:354,1,45,6|0,0:0|0:0,0:0:0:0:
250,324,76956,2,0,L|294:315,1,45,6|0,0:0|0:0,0:0:0:0:
391,358,77118,2,0,L|405:262,1,90,10|0,0:0|0:0,0:0:0:0:
486,130,77442,5,2,0:0:0:0:
442,119,77523,1,0,0:0:0:0:
397,122,77604,1,0,0:0:0:0:
356,139,77685,1,0,0:0:0:0:
322,169,77766,1,8,0:0:0:0:
280,184,77847,1,0,0:0:0:0:
235,185,77928,1,0,0:0:0:0:
193,172,78009,1,0,0:0:0:0:
157,145,78091,6,0,L|152:89,1,45,2|0,0:0|0:0,0:0:0:0:
255,27,78253,2,0,L|259:71,1,45,2|0,0:0|0:0,0:0:0:0:
344,267,78415,6,0,L|340:320,1,45,8|0,0:0|0:0,0:0:0:0:
447,213,78739,5,6,0:0:0:0:
404,181,78820,1,0,0:0:0:0:
354,166,78901,1,2,0:0:0:0:
301,174,78982,1,0,0:0:0:0:
258,204,79063,1,10,0:0:0:0:
229,250,79144,1,0,0:0:0:0:
222,302,79225,1,2,0:0:0:0:
199,349,79307,1,0,0:0:0:0:
158,371,79388,6,0,L|101:380,1,45,2|0,0:0|0:0,0:0:0:0:
4,250,79550,1,0,0:0:0:0:
25,256,79631,2,0,L|83:265,1,45,2|8,0:0|0:0,0:0:0:0:
176,136,79793,1,0,0:0:0:0:
155,141,79874,2,0,L|98:151,1,45,2|0,0:0|0:0,0:0:0:0:
324,257,80037,5,0,0:0:0:0:
315,308,80118,1,0,0:0:0:0:
332,359,80199,1,2,0:0:0:0:
376,383,80280,1,0,0:0:0:0:
427,380,80361,1,10,0:0:0:0:
468,352,80442,1,0,0:0:0:0:
491,305,80523,1,0,0:0:0:0:
483,255,80604,1,0,0:0:0:0:
452,216,80685,6,0,L|393:208,1,45,2|0,0:0|0:0,0:0:0:0:
308,117,80847,1,0,0:0:0:0:
308,117,80929,1,0,0:0:0:0:
308,117,81010,2,0,L|364:108,1,45,8|0,0:0|0:0,0:0:0:0:
460,15,81172,2,0,L|403:6,1,45,2|0,0:0|0:0,0:0:0:0:
117,53,81334,5,4,0:0:0:0:
100,103,81415,1,0,0:0:0:0:
103,156,81496,1,2,0:0:0:0:
124,203,81577,1,0,0:0:0:0:
159,242,81658,1,10,0:0:0:0:
207,266,81739,1,0,0:0:0:0:
260,273,81820,1,2,0:0:0:0:
311,261,81901,1,0,0:0:0:0:
354,231,81983,6,0,L|363:154,1,45,2|0,0:0|0:0,0:0:0:0:
431,294,82145,1,0,0:0:0:0:
433,313,82226,2,0,L|437:361,1,45,2|8,0:0|0:0,0:0:0:0:
499,235,82388,1,0,0:0:0:0:
501,212,82469,2,0,L|506:163,1,45,2|0,0:0|0:0,0:0:0:0:
430,18,82631,5,2,0:0:0:0:
428,26,82712,1,0,0:0:0:0:
427,36,82793,1,2,0:0:0:0:
426,46,82874,1,0,0:0:0:0:
425,55,82956,1,10,0:0:0:0:
375,63,83037,1,0,0:0:0:0:
327,68,83118,1,2,0:0:0:0:
278,74,83199,1,0,0:0:0:0:
230,79,83280,6,0,L|236:145,1,45,2|0,0:0|0:0,0:0:0:0:
312,165,83442,1,0,0:0:0:0:
310,184,83523,1,2,0:0:0:0:
307,204,83604,2,0,L|300:268,1,45,8|0,0:0|0:0,0:0:0:0:
276,325,83766,2,0,L|282:391,1,45,2|2,0:0|0:0,0:0:0:0:
195,307,83929,5,6,0:0:0:0:
143,319,84010,1,0,0:0:0:0:
92,313,84091,1,2,0:0:0:0:
47,283,84172,1,0,0:0:0:0:
21,238,84253,1,10,0:0:0:0:
16,186,84334,1,0,0:0:0:0:
31,138,84415,1,2,0:0:0:0:
67,99,84496,1,0,0:0:0:0:
116,80,84577,6,0,L|125:5,1,45,2|0,0:0|0:0,0:0:0:0:
198,158,84739,1,0,0:0:0:0:
200,178,84820,2,0,L|205:226,1,45,2|10,0:0|0:0,0:0:0:0:
288,101,84983,1,0,0:0:0:0:
290,81,85064,2,0,L|295:32,1,45,2|2,0:0|0:0,0:0:0:0:
388,127,85226,5,0,0:0:0:0:
431,156,85307,1,0,0:0:0:0:
459,200,85388,1,2,0:0:0:0:
469,252,85469,1,0,0:0:0:0:
455,302,85550,1,10,0:0:0:0:
424,344,85631,1,0,0:0:0:0:
379,371,85712,1,2,0:0:0:0:
328,379,85793,1,0,0:0:0:0:
281,361,85874,6,0,L|276:299,1,45,2|0,0:0|0:0,0:0:0:0:
175,148,86037,1,0,0:0:0:0:
176,168,86118,1,0,0:0:0:0:
178,189,86199,2,0,L|182:251,1,45,10|0,0:0|0:0,0:0:0:0:
111,364,86361,2,0,L|106:301,1,45,2|0,0:0|0:0,0:0:0:0:
54,106,86523,5,4,0:0:0:0:
53,98,86604,1,0,0:0:0:0:
52,88,86685,1,0,0:0:0:0:
51,78,86766,1,0,0:0:0:0:
50,69,86847,1,10,0:0:0:0:
94,92,86929,1,0,0:0:0:0:
141,104,87010,1,0,0:0:0:0:
189,95,87091,1,0,0:0:0:0:
236,81,87172,6,0,L|231:141,1,45,2|0,0:0|0:0,0:0:0:0:
334,158,87334,1,0,0:0:0:0:
332,180,87415,2,0,L|327:240,1,45,2|8,0:0|0:0,0:0:0:0:
433,245,87577,1,0,0:0:0:0:
431,267,87658,2,0,L|426:327,1,45,2|0,0:0|0:0,0:0:0:0:
490,371,87820,5,2,0:0:0:0:
220,288,87983,1,2,0:0:0:0:
448,159,88145,1,10,0:0:0:0:
452,163,88307,1,2,0:0:0:0:
351,56,88469,1,2,0:0:0:0:
306,52,88550,1,0,0:0:0:0:
268,74,88631,1,2,0:0:0:0:
249,114,88712,1,2,0:0:0:0:
239,157,88793,6,0,L|243:203,1,45,10|0,0:0|0:0,0:0:0:0:
311,269,88956,2,0,L|307:313,1,45,2|0,0:0|0:0,0:0:0:0:
232,364,89118,5,6,0:0:0:0:
179,372,89199,1,0,0:0:0:0:
126,363,89280,1,2,0:0:0:0:
79,335,89361,1,0,0:0:0:0:
46,294,89442,1,10,0:0:0:0:
28,243,89523,1,0,0:0:0:0:
29,189,89604,1,2,0:0:0:0:
48,139,89685,1,0,0:0:0:0:
84,99,89766,6,0,P|118:90|160:85,1,53.9999983520508,2|2,0:0|0:0,0:0:0:0:
237,6,89929,1,0,0:0:0:0:
240,24,90010,2,0,L|248:89,1,53.9999983520508,2|8,0:0|0:0,0:0:0:0:
334,178,90172,1,0,0:0:0:0:
337,160,90253,2,0,L|345:95,1,53.9999983520508,2|0,0:0|0:0,0:0:0:0:
226,266,90415,5,0,0:0:0:0:
274,291,90496,1,0,0:0:0:0:
328,296,90577,1,2,0:0:0:0:
379,280,90658,1,0,0:0:0:0:
421,247,90739,1,10,0:0:0:0:
447,200,90820,1,0,0:0:0:0:
454,147,90901,1,2,0:0:0:0:
440,95,90982,1,0,0:0:0:0:
408,52,91064,6,0,L|348:43,1,53.9999983520508,2|0,0:0|0:0,0:0:0:0:
251,125,91226,1,0,0:0:0:0:
251,125,91307,1,2,0:0:0:0:
251,125,91388,2,0,L|242:182,1,53.9999983520508,10|0,0:0|0:0,0:0:0:0:
328,296,91550,2,0,L|401:312,1,53.9999983520508,2|0,0:0|0:0,0:0:0:0:
211,345,91712,5,4,0:0:0:0:
160,362,91793,1,0,0:0:0:0:
107,356,91874,1,2,0:0:0:0:
62,328,91955,1,0,0:0:0:0:
34,282,92036,1,10,0:0:0:0:
28,229,92117,1,0,0:0:0:0:
47,179,92198,1,2,0:0:0:0:
86,142,92279,1,0,0:0:0:0:
137,126,92361,6,0,L|142:57,1,53.9999983520508,2|0,0:0|0:0,0:0:0:0:
246,192,92523,1,0,0:0:0:0:
249,227,92604,2,0,L|253:296,1,53.9999983520508,2|8,0:0|0:0,0:0:0:0:
345,137,92766,1,0,0:0:0:0:
346,102,92847,2,0,L|350:32,1,53.9999983520508,2|0,0:0|0:0,0:0:0:0:
470,336,93010,5,0,0:0:0:0:
416,326,93091,1,0,0:0:0:0:
363,326,93172,1,2,0:0:0:0:
310,336,93253,1,0,0:0:0:0:
259,354,93334,1,10,0:0:0:0:
205,363,93415,1,0,0:0:0:0:
152,363,93496,1,2,0:0:0:0:
99,353,93577,1,0,0:0:0:0:
48,334,93658,6,0,L|43:274,1,53.9999983520508,2|0,0:0|0:0,0:0:0:0:
135,235,93820,1,0,0:0:0:0:
136,216,93901,1,2,0:0:0:0:
137,199,93983,2,0,L|141:145,1,53.9999983520508,10|0,0:0|0:0,0:0:0:0:
35,69,94145,2,0,L|30:9,1,53.9999983520508,2|0,0:0|0:0,0:0:0:0:
208,46,94307,5,6,0:0:0:0:
258,24,94388,1,0,0:0:0:0:
311,20,94469,1,2,0:0:0:0:
364,33,94550,1,0,0:0:0:0:
409,62,94631,1,10,0:0:0:0:
442,105,94712,1,0,0:0:0:0:
460,155,94793,1,2,0:0:0:0:
461,209,94874,1,0,0:0:0:0:
458,262,94956,6,0,L|452:342,1,53.9999983520508,2|0,0:0|0:0,0:0:0:0:
325,183,95118,1,0,0:0:0:0:
328,206,95199,2,0,L|333:286,1,53.9999983520508,2|10,0:0|0:0,0:0:0:0:
216,253,95361,1,0,0:0:0:0:
215,276,95442,2,0,L|209:356,1,53.9999983520508,2|0,0:0|0:0,0:0:0:0:
83,239,95604,5,0,0:0:0:0:
60,190,95685,1,0,0:0:0:0:
58,136,95766,1,2,0:0:0:0:
76,86,95847,1,0,0:0:0:0:
112,46,95928,1,10,0:0:0:0:
160,22,96009,1,0,0:0:0:0:
214,19,96090,1,0,0:0:0:0:
265,36,96171,1,0,0:0:0:0:
305,71,96253,6,0,L|300:134,1,53.9999983520508,2|0,0:0|0:0,0:0:0:0:
223,198,96415,1,0,0:0:0:0:
223,198,96496,1,2,0:0:0:0:
223,198,96577,2,0,L|228:261,1,53.9999983520508,10|0,0:0|0:0,0:0:0:0:
309,321,96739,2,0,L|304:384,1,53.9999983520508,2|0,0:0|0:0,0:0:0:0:
203,344,96901,5,6,0:0:0:0:
150,353,96982,1,0,0:0:0:0:
98,340,97063,1,2,0:0:0:0:
55,307,97144,1,0,0:0:0:0:
30,260,97225,1,10,0:0:0:0:
27,206,97306,1,0,0:0:0:0:
45,156,97387,1,2,0:0:0:0:
82,118,97468,1,0,0:0:0:0:
132,98,97550,6,0,L|137:155,1,53.9999983520508,2|0,0:0|0:0,0:0:0:0:
241,220,97712,1,0,0:0:0:0:
242,196,97793,2,0,L|246:126,1,53.9999983520508,2|8,0:0|0:0,0:0:0:0:
344,58,97956,1,0,0:0:0:0:
347,75,98037,2,0,L|353:128,1,53.9999983520508
445,212,98199,5,4,0:0:0:0:
192,305,98361,1,2,0:0:0:0:
192,305,98442,1,0,0:0:0:0:
192,305,98523,1,10,0:0:0:0:
325,203,98685,1,0,0:0:0:0:
325,203,98766,1,0,0:0:0:0:
325,203,98847,1,2,0:0:0:0:
118,64,99010,1,2,0:0:0:0:
118,64,99091,1,2,0:0:0:0:
118,64,99172,1,8,0:0:0:0:
273,271,99334,6,0,P|295:279|325:286,1,53.9999983520508,2|0,0:0|0:0,0:0:0:0:
27,338,104685,5,0,0:0:0:0:
71,330,104766,1,0,0:0:0:0:
116,329,104847,1,0,0:0:0:0:
160,335,104928,1,0,0:0:0:0:
204,348,105010,2,0,L|209:261,1,45,12|0,0:0|0:0,0:0:0:0:
238,219,105172,1,0,0:0:0:0:
283,227,105253,1,0,0:0:0:0:
328,228,105334,1,0,0:0:0:0:
372,222,105415,1,0,0:0:0:0:
416,209,105497,2,0,L|421:295,1,45,12|0,0:0|0:0,0:0:0:0:
469,145,105658,1,0,0:0:0:0:
470,127,105739,1,0,0:0:0:0:
472,106,105820,2,0,L|475:52,1,45,12|0,0:0|0:0,0:0:0:0:
390,20,105983,5,0,0:0:0:0:
346,9,106064,1,0,0:0:0:0:
305,25,106145,1,0,0:0:0:0:
280,61,106226,1,0,0:0:0:0:
280,106,106307,2,0,L|289:176,1,45,12|0,0:0|0:0,0:0:0:0:
305,231,106469,1,0,0:0:0:0:
315,274,106550,1,0,0:0:0:0:
299,315,106631,1,0,0:0:0:0:
263,340,106712,1,0,0:0:0:0:
218,340,106793,2,0,L|148:331,1,45,12|0,0:0|0:0,0:0:0:0:
106,265,106956,1,0,0:0:0:0:
125,262,107037,1,0,0:0:0:0:
142,261,107118,2,0,L|211:252,1,45,12|0,0:0|0:0,0:0:0:0:
267,201,107280,5,0,0:0:0:0:
279,157,107361,1,0,0:0:0:0:
281,113,107442,1,0,0:0:0:0:
273,68,107523,1,0,0:0:0:0:
255,28,107604,2,0,L|186:16,1,45,12|0,0:0|0:0,0:0:0:0:
22,156,107766,1,0,0:0:0:0:
66,168,107847,1,0,0:0:0:0:
110,170,107928,1,0,0:0:0:0:
155,162,108009,1,0,0:0:0:0:
195,144,108090,2,0,L|207:75,1,45,12|0,0:0|0:0,0:0:0:0:
136,16,108253,1,0,0:0:0:0:
122,24,108334,1,0,0:0:0:0:
108,35,108415,2,0,L|120:104,1,45,12|0,0:0|0:0,0:0:0:0:
287,121,108577,5,0,0:0:0:0:
329,135,108658,1,0,0:0:0:0:
374,137,108739,1,0,0:0:0:0:
418,127,108820,1,0,0:0:0:0:
457,105,108901,2,0,L|460:46,1,45,12|0,0:0|0:0,0:0:0:0:
470,196,109064,1,0,0:0:0:0:
484,238,109145,1,0,0:0:0:0:
486,283,109226,1,0,0:0:0:0:
476,327,109307,1,0,0:0:0:0:
454,366,109388,2,0,L|395:369,1,45,12|0,0:0|0:0,0:0:0:0:
287,295,109550,1,0,0:0:0:0:
308,293,109631,1,0,0:0:0:0:
324,293,109712,2,0,L|383:290,1,45,12|0,0:0|0:0,0:0:0:0:
344,177,109874,5,0,0:0:0:0:
300,166,109955,1,0,0:0:0:0:
256,170,110036,1,0,0:0:0:0:
216,191,110117,1,0,0:0:0:0:
185,224,110199,2,0,L|178:159,1,45,12|0,0:0|0:0,0:0:0:0:
40,49,110361,1,0,0:0:0:0:
84,38,110442,1,0,0:0:0:0:
128,42,110523,1,0,0:0:0:0:
168,63,110604,1,0,0:0:0:0:
199,96,110686,2,0,L|206:31,1,45,12|0,0:0|0:0,0:0:0:0:
300,166,110847,1,0,0:0:0:0:
302,181,110929,1,0,0:0:0:0:
304,196,111010,2,0,L|311:261,1,45,12|0,0:0|0:0,0:0:0:0:
423,37,111172,5,0,0:0:0:0:
443,76,111253,1,0,0:0:0:0:
452,120,111334,1,0,0:0:0:0:
447,165,111415,1,0,0:0:0:0:
429,206,111496,2,0,L|384:213,1,45,12|0,0:0|0:0,0:0:0:0:
321,127,111658,1,0,0:0:0:0:
300,166,111739,1,0,0:0:0:0:
291,210,111820,1,0,0:0:0:0:
296,255,111901,1,0,0:0:0:0:
314,296,111982,2,0,L|359:302,1,45,12|0,0:0|0:0,0:0:0:0:
389,374,112145,1,0,0:0:0:0:
405,371,112226,1,0,0:0:0:0:
420,367,112307,2,0,L|472:360,1,45,12|0,0:0|0:0,0:0:0:0:
466,237,112469,5,0,0:0:0:0:
464,214,112550,1,0,0:0:0:0:
462,192,112631,1,0,0:0:0:0:
461,169,112712,1,0,0:0:0:0:
460,151,112793,2,0,L|456:102,1,45,12|0,0:0|0:0,0:0:0:0:
354,33,112956,5,0,0:0:0:0:
356,56,113037,1,0,0:0:0:0:
358,78,113118,1,0,0:0:0:0:
359,101,113199,1,0,0:0:0:0:
360,119,113280,2,0,L|364:168,1,45,12|0,0:0|0:0,0:0:0:0:
270,272,113442,5,0,0:0:0:0:
268,249,113523,1,0,0:0:0:0:
266,227,113604,1,0,0:0:0:0:
265,204,113685,1,0,0:0:0:0:
264,186,113766,2,0,L|260:137,1,45,12|0,0:0|0:0,0:0:0:0:
158,68,113929,5,0,0:0:0:0:
160,91,114010,1,0,0:0:0:0:
162,113,114091,1,0,0:0:0:0:
163,136,114172,1,0,0:0:0:0:
164,154,114253,2,0,L|168:203,1,45,12|0,0:0|0:0,0:0:0:0:
210,335,114415,2,0,B|256:347|256:347|301:334,1,90
476,153,114739,5,10,0:0:0:0:
478,159,114901,1,0,0:0:0:0:
478,159,115064,2,0,B|426:165|426:165|369:198|369:198|291:205,1,180,6|8,0:0|0:0,0:0:0:0:
119,44,115550,1,2,0:0:0:0:
119,44,115712,2,0,P|129:97|129:160,1,90,2|0,0:0|0:0,0:0:0:0:
128,176,115956,2,0,L|218:194,1,90,2|0,0:0|0:0,0:0:0:0:
243,199,116199,1,2,0:0:0:0:
308,318,116361,2,0,P|364:338|463:254,1,180,2|8,0:0|0:0,0:0:0:0:
458,60,116847,5,2,0:0:0:0:
417,41,116928,1,0,0:0:0:0:
374,48,117009,1,2,0:0:0:0:
343,80,117090,1,0,0:0:0:0:
335,123,117171,1,2,0:0:0:0:
315,163,117253,1,0,0:0:0:0:
282,193,117334,1,8,0:0:0:0:
240,209,117415,1,0,0:0:0:0:
195,208,117496,1,2,0:0:0:0:
154,192,117577,1,0,0:0:0:0:
110,186,117658,1,6,0:0:0:0:
69,204,117739,1,0,0:0:0:0:
42,239,117820,1,0,0:0:0:0:
37,284,117901,1,0,0:0:0:0:
55,324,117982,1,8,0:0:0:0:
91,350,118063,1,0,0:0:0:0:
136,355,118144,1,0,0:0:0:0:
178,339,118226,1,0,0:0:0:0:
222,333,118307,1,2,0:0:0:0:
267,336,118388,1,0,0:0:0:0:
310,350,118469,1,0,0:0:0:0:
349,371,118550,1,0,0:0:0:0:
393,376,118631,1,8,0:0:0:0:
436,365,118712,1,0,0:0:0:0:
472,338,118793,1,0,0:0:0:0:
495,299,118874,1,0,0:0:0:0:
502,255,118955,1,2,0:0:0:0:
492,212,119036,1,0,0:0:0:0:
483,171,119118,6,0,L|407:155,1,45,4|0,0:0|0:0,0:0:0:0:
355,263,119280,2,0,L|310:272,1,45,8|0,0:0|0:0,0:0:0:0:
344,67,119442,2,0,L|268:51,1,45,2|0,0:0|0:0,0:0:0:0:
187,189,119604,2,0,L|142:198,3,45,2|0|0|0,0:0|0:0|0:0|0:0,0:0:0:0:
127,232,119929,2,0,L|82:222,3,45,8|0|0|0,0:0|0:0|0:0|0:0,0:0:0:0:
100,136,120253,5,6,0:0:0:0:
99,127,120334,1,0,0:0:0:0:
98,118,120415,1,0,0:0:0:0:
97,109,120496,1,0,0:0:0:0:
96,100,120577,1,8,0:0:0:0:
129,86,120658,1,0,0:0:0:0:
164,79,120739,1,0,0:0:0:0:
200,81,120820,1,0,0:0:0:0:
235,90,120901,1,2,0:0:0:0:
266,107,120983,1,0,0:0:0:0:
300,120,121064,1,0,0:0:0:0:
335,124,121145,1,0,0:0:0:0:
371,119,121226,1,8,0:0:0:0:
403,104,121307,1,0,0:0:0:0:
431,80,121388,1,0,0:0:0:0:
420,115,121469,1,0,0:0:0:0:
415,150,121550,1,2,0:0:0:0:
414,186,121631,1,0,0:0:0:0:
418,222,121712,1,0,0:0:0:0:
427,257,121793,1,0,0:0:0:0:
440,290,121874,1,8,0:0:0:0:
437,325,121955,1,0,0:0:0:0:
418,356,122036,1,0,0:0:0:0:
387,374,122117,1,0,0:0:0:0:
352,375,122198,1,2,0:0:0:0:
319,361,122279,1,0,0:0:0:0:
286,347,122361,1,0,0:0:0:0:
250,340,122442,1,0,0:0:0:0:
215,339,122523,1,8,0:0:0:0:
179,344,122604,1,0,0:0:0:0:
145,355,122685,1,0,0:0:0:0:
113,371,122766,1,0,0:0:0:0:
67,376,122847,6,0,L|59:314,1,45,6|4,0:0|2:0,0:0:0:0:
127,257,123010,2,0,L|135:195,1,45,2|0,0:0|0:0,0:0:0:0:
76,89,123172,5,8,0:0:0:0:
109,102,123253,1,0,0:0:0:0:
144,107,123334,1,0,0:0:0:0:
180,105,123415,1,0,0:0:0:0:
214,94,123496,1,2,0:0:0:0:
245,75,123577,1,0,0:0:0:0:
279,62,123658,1,0,0:0:0:0:
314,62,123739,1,0,0:0:0:0:
348,75,123820,1,8,0:0:0:0:
374,100,123901,1,0,0:0:0:0:
390,132,123982,1,0,0:0:0:0:
393,167,124063,1,0,0:0:0:0:
384,202,124145,1,2,0:0:0:0:
363,231,124226,1,0,0:0:0:0:
332,249,124307,1,0,0:0:0:0:
290,241,124388,1,0,0:0:0:0:
256,229,124469,1,8,0:0:0:0:
221,237,124550,1,0,0:0:0:0:
195,261,124631,1,0,0:0:0:0:
186,295,124712,1,0,0:0:0:0:
196,330,124793,1,2,0:0:0:0:
223,353,124874,1,0,0:0:0:0:
258,360,124955,1,0,0:0:0:0:
291,347,125037,1,0,0:0:0:0:
326,338,125118,2,0,P|362:341|389:344,3,45,8|0|0|0,0:0|0:0|0:0|0:0,0:0:0:0:
446,368,125442,5,6,0:0:0:0:
460,325,125523,1,0,0:0:0:0:
464,280,125604,1,0,0:0:0:0:
457,236,125685,1,0,0:0:0:0:
440,194,125766,1,10,0:0:0:0:
424,151,125847,1,0,0:0:0:0:
420,107,125928,1,0,0:0:0:0:
427,62,126010,1,0,0:0:0:0:
437,18,126091,1,2,0:0:0:0:
394,31,126172,1,0,0:0:0:0:
352,49,126253,1,0,0:0:0:0:
307,52,126334,1,0,0:0:0:0:
265,34,126415,1,10,0:0:0:0:
223,17,126496,1,0,0:0:0:0:
178,9,126577,1,0,0:0:0:0:
133,15,126658,1,0,0:0:0:0:
91,33,126739,1,2,0:0:0:0:
58,63,126820,1,0,0:0:0:0:
43,105,126901,1,0,0:0:0:0:
52,148,126982,1,0,0:0:0:0:
80,182,127063,1,10,0:0:0:0:
122,197,127144,1,0,0:0:0:0:
166,188,127226,1,0,0:0:0:0:
210,192,127307,1,0,0:0:0:0:
247,217,127388,1,2,0:0:0:0:
266,257,127469,1,0,0:0:0:0:
264,305,127550,1,0,0:0:0:0:
238,341,127631,1,0,0:0:0:0:
203,358,127712,2,0,L|153:353,3,45,10|0|2|0,0:0|0:0|0:0|0:0,0:0:0:0:
313,358,128037,5,6,0:0:0:0:
355,344,128118,1,0,0:0:0:0:
400,342,128199,1,0,0:0:0:0:
444,352,128280,1,0,0:0:0:0:
484,372,128361,1,10,0:0:0:0:
474,329,128442,1,0,0:0:0:0:
470,284,128523,1,0,0:0:0:0:
474,239,128604,1,0,0:0:0:0:
485,195,128685,1,2,0:0:0:0:
494,151,128766,1,0,0:0:0:0:
493,106,128847,1,0,0:0:0:0:
484,63,128928,1,0,0:0:0:0:
466,21,129009,1,10,0:0:0:0:
423,35,129091,1,0,0:0:0:0:
378,39,129172,1,0,0:0:0:0:
333,33,129253,1,0,0:0:0:0:
291,17,129334,1,2,0:0:0:0:
250,1,129415,1,0,0:0:0:0:
206,1,129496,1,0,0:0:0:0:
165,20,129577,1,0,0:0:0:0:
137,54,129658,1,10,0:0:0:0:
125,97,129739,1,0,0:0:0:0:
132,141,129820,1,0,0:0:0:0:
156,178,129901,1,0,0:0:0:0:
194,202,129983,1,2,0:0:0:0:
237,190,130064,1,0,0:0:0:0:
280,200,130145,1,0,0:0:0:0:
313,230,130226,1,0,0:0:0:0:
327,272,130307,1,10,0:0:0:0:
319,316,130388,1,0,0:0:0:0:
290,350,130469,1,0,0:0:0:0:
248,366,130550,1,0,0:0:0:0:
204,360,130631,6,0,L|156:350,3,45,6|0|0|0,0:0|0:0|0:0|0:0,0:0:0:0:
69,254,130956,2,0,L|117:243,3,45,10|0|0|0,0:0|0:0|0:0|0:0,0:0:0:0:
212,132,131280,2,0,L|163:121,3,45,2|0|0|0,0:0|0:0|0:0|0:0,0:0:0:0:
83,26,131605,2,0,L|131:15,3,45,10|0|0|0,0:0|0:0|0:0|0:0,0:0:0:0:
272,50,131929,5,2,0:0:0:0:
315,61,132010,1,0,0:0:0:0:
360,61,132091,1,0,0:0:0:0:
403,48,132172,1,0,0:0:0:0:
441,24,132253,1,10,0:0:0:0:
462,64,132334,1,0,0:0:0:0:
473,107,132415,1,0,0:0:0:0:
471,152,132496,1,0,0:0:0:0:
458,195,132577,1,2,0:0:0:0:
446,238,132658,1,0,0:0:0:0:
444,283,132739,1,0,0:0:0:0:
451,328,132820,1,0,0:0:0:0:
468,369,132901,2,0,L|523:373,3,45,10|0|0|0,0:0|0:0|0:0|0:0,0:0:0:0:
360,320,133226,5,6,0:0:0:0:
309,302,133307,1,0,0:0:0:0:
255,301,133388,1,0,0:0:0:0:
203,314,133469,1,0,0:0:0:0:
157,342,133550,1,10,0:0:0:0:
109,366,133631,1,0,0:0:0:0:
57,357,133712,1,0,0:0:0:0:
20,319,133793,1,0,0:0:0:0:
12,266,133874,6,0,L|5:142,1,90,2|0,0:0|0:0,0:0:0:0:
128,201,134118,1,0,0:0:0:0:
126,175,134199,2,0,L|118:50,1,90,8|0,0:0|0:0,0:0:0:0:
256,191,134523,5,6,0:0:0:0:
202,50,134685,1,0,0:0:0:0:
320,289,134847,5,8,0:0:0:0:
314,51,135010,1,2,0:0:0:0:
200,295,135172,5,2,0:0:0:0:
177,298,135253,1,0,0:0:0:0:
155,301,135334,1,2,0:0:0:0:
133,304,135415,1,0,0:0:0:0:
110,307,135496,1,8,0:0:0:0:
412,197,135658,5,0,0:0:0:0:
412,197,135739,1,0,0:0:0:0:
412,197,135820,1,4,0:0:0:0:
189,256,146199,5,4,0:0:0:0:
189,125,146523,1,0,0:0:0:0:
319,125,146847,1,0,0:0:0:0:
319,256,147172,1,0,0:0:0:0:
135,190,147496,5,0,0:0:0:0:
256,70,147820,1,0,0:0:0:0:
374,189,148144,1,0,0:0:0:0:
255,309,148469,1,0,0:0:0:0:
132,315,148793,5,0,0:0:0:0:
132,68,149118,1,0,0:0:0:0:
379,68,149442,1,0,0:0:0:0:
379,315,149766,1,0,0:0:0:0:
80,191,150091,5,0,0:0:0:0:
256,16,150416,1,0,0:0:0:0:
431,192,150740,1,0,0:0:0:0:
256,367,151064,1,0,0:0:0:0:
184,309,151388,6,0,L|92:322,1,90,0|2,0:0|2:0,0:0:0:0:
328,309,151712,2,0,L|420:322,1,90,0|2,0:0|2:0,0:0:0:0:
125,230,152037,2,0,L|33:243,1,90,0|2,0:0|2:0,0:0:0:0:
387,230,152361,2,0,L|479:243,1,90,0|2,0:0|2:0,0:0:0:0:
257,195,152685,5,0,0:0:0:0:
257,195,152847,1,2,2:0:0:0:
304,102,153010,1,0,0:0:0:0:
304,102,153172,1,2,2:0:0:0:
208,102,153334,1,0,0:0:0:0:
208,102,153496,1,2,2:0:0:0:
373,191,153658,1,0,0:0:0:0:
373,191,153820,1,2,2:0:0:0:
138,192,153983,5,4,0:0:0:0:
138,192,154307,2,0,P|146:239|152:301,1,90,8|0,0:0|0:0,0:0:0:0:
154,309,154550,1,0,0:0:0:0:
156,343,154631,2,0,L|258:359,1,90,2|0,0:0|0:0,0:0:0:0:
432,304,154956,1,8,0:0:0:0:
427,331,155037,1,0,0:0:0:0:
295,211,155199,1,0,0:0:0:0:
300,238,155280,1,2,0:0:0:0:
408,91,155442,5,2,0:0:0:0:
408,91,155523,1,0,0:0:0:0:
408,91,155604,1,8,0:0:0:0:
191,249,155766,1,0,0:0:0:0:
469,189,155929,1,2,0:0:0:0:
469,189,156010,1,0,0:0:0:0:
469,189,156091,1,0,0:0:0:0:
315,360,156253,6,0,L|322:264,1,90,8|0,0:0|0:0,0:0:0:0:
187,336,156577,5,6,0:0:0:0:
137,326,156658,1,0,0:0:0:0:
94,301,156739,1,0,0:0:0:0:
61,264,156820,1,0,0:0:0:0:
41,218,156901,1,10,0:0:0:0:
41,168,156982,1,0,0:0:0:0:
50,119,157063,1,0,0:0:0:0:
77,77,157144,1,0,0:0:0:0:
118,47,157225,1,2,0:0:0:0:
165,31,157306,1,0,0:0:0:0:
215,31,157387,1,0,0:0:0:0:
263,47,157468,1,0,0:0:0:0:
310,63,157550,1,10,0:0:0:0:
360,68,157631,1,0,0:0:0:0:
409,60,157712,1,0,0:0:0:0:
455,42,157793,1,0,0:0:0:0:
497,36,157874,6,0,L|489:120,1,67.5000025749208,2|0,0:0|0:0,0:0:0:0:
430,233,158037,2,0,L|422:149,1,67.5000025749208,2|0,0:0|0:0,0:0:0:0:
367,22,158199,6,0,L|359:106,1,67.5000025749208,10|0,0:0|0:0,0:0:0:0:
300,219,158362,2,0,L|292:135,1,67.5000025749208,2|0,0:0|0:0,0:0:0:0:
227,21,158523,6,0,L|219:105,1,67.5000025749208,2|0,0:0|0:0,0:0:0:0:
160,218,158686,2,0,L|152:134,1,67.5000025749208,2|0,0:0|0:0,0:0:0:0:
97,7,158848,6,0,L|89:91,1,67.5000025749208,10|0,0:0|0:0,0:0:0:0:
30,204,159011,2,0,L|22:120,1,67.5000025749208,2|0,0:0|0:0,0:0:0:0:
9,314,159172,5,2,0:0:0:0:
60,298,159253,1,0,0:0:0:0:
114,295,159334,1,0,0:0:0:0:
166,306,159415,1,0,0:0:0:0:
215,330,159496,1,10,0:0:0:0:
261,351,159577,1,0,0:0:0:0:
312,366,159658,1,0,0:0:0:0:
366,369,159739,1,0,0:0:0:0:
418,358,159820,1,2,0:0:0:0:
467,334,159901,1,0,0:0:0:0:
497,291,159982,1,0,0:0:0:0:
507,238,160064,1,0,0:0:0:0:
505,184,160145,1,10,0:0:0:0:
498,130,160226,1,0,0:0:0:0:
473,82,160307,1,0,0:0:0:0:
434,46,160388,1,0,0:0:0:0:
384,25,160469,1,2,0:0:0:0:
331,22,160550,1,0,0:0:0:0:
279,37,160631,1,0,0:0:0:0:
236,69,160712,1,0,0:0:0:0:
206,114,160793,6,0,L|214:197,1,67.5000025749208,10|0,0:0|0:0,0:0:0:0:
320,366,160956,2,0,L|327:283,1,67.5000025749208,2|0,0:0|0:0,0:0:0:0:
353,207,161118,2,0,P|307:215|275:223,1,67.5000025749208,2|0,0:0|0:0,0:0:0:0:
160,298,161280,2,0,P|192:305|226:310,1,67.5000025749208,2|0,0:0|0:0,0:0:0:0:
462,129,161442,1,10,0:0:0:0:
461,142,161523,1,0,0:0:0:0:
460,155,161604,1,0,0:0:0:0:
459,169,161685,1,0,0:0:0:0:
458,183,161766,5,6,0:0:0:0:
407,203,161847,1,0,0:0:0:0:
353,207,161928,1,2,0:0:0:0:
300,198,162009,1,2,0:0:0:0:
251,176,162091,2,0,L|247:105,1,67.5000025749208,10|0,0:0|0:0,0:0:0:0:
237,27,162253,5,2,0:0:0:0:
185,9,162334,1,0,0:0:0:0:
131,5,162415,1,2,0:0:0:0:
78,14,162496,1,2,0:0:0:0:
29,36,162578,2,0,L|24:107,1,67.5000025749208,2|0,0:0|0:0,0:0:0:0:
69,213,162739,1,10,0:0:0:0:
86,218,162820,1,0,0:0:0:0:
102,223,162902,2,0,L|107:294,1,67.5000025749208,2|0,0:0|0:0,0:0:0:0:
198,256,163064,5,2,0:0:0:0:
249,240,163145,1,2,0:0:0:0:
302,246,163226,1,2,0:0:0:0:
348,273,163307,1,0,0:0:0:0:
396,297,163388,1,10,0:0:0:0:
448,290,163469,1,0,0:0:0:0:
488,254,163550,1,2,0:0:0:0:
500,203,163631,1,0,0:0:0:0:
480,153,163712,1,2,0:0:0:0:
436,124,163793,1,0,0:0:0:0:
386,118,163874,1,2,0:0:0:0:
342,142,163955,1,0,0:0:0:0:
319,184,164037,6,0,L|315:274,1,67.5000025749208,10|0,0:0|0:0,0:0:0:0:
229,328,164199,2,0,L|225:238,1,67.5000025749208,2|0,0:0|0:0,0:0:0:0:
105,145,164361,5,6,0:0:0:0:
128,193,164442,1,0,0:0:0:0:
142,245,164523,1,2,0:0:0:0:
145,299,164604,1,0,0:0:0:0:
138,352,164685,2,0,L|42:367,1,67.5000025749208,10|0,0:0|0:0,0:0:0:0:
325,353,164847,5,2,0:0:0:0:
358,356,164928,1,0,0:0:0:0:
392,359,165009,1,2,0:0:0:0:
425,362,165090,1,0,0:0:0:0:
459,365,165172,2,0,L|462:286,1,67.5000025749208,2|0,0:0|0:0,0:0:0:0:
389,248,165334,5,10,0:0:0:0:
366,200,165415,1,0,0:0:0:0:
352,148,165496,1,2,0:0:0:0:
349,94,165577,1,0,0:0:0:0:
356,41,165658,2,0,L|452:26,1,67.5000025749208,2|0,0:0|0:0,0:0:0:0:
252,156,165820,5,2,0:0:0:0:
219,159,165901,1,0,0:0:0:0:
185,162,165982,1,10,0:0:0:0:
152,165,166063,1,0,0:0:0:0:
118,168,166145,2,0,L|114:89,1,67.5000025749208,2|0,0:0|0:0,0:0:0:0:
72,338,166307,5,2,0:0:0:0:
124,314,166388,1,0,0:0:0:0:
182,311,166469,1,2,0:0:0:0:
238,329,166550,1,0,0:0:0:0:
280,361,166631,5,10,0:0:0:0:
293,362,166712,1,0,0:0:0:0:
306,363,166793,1,2,0:0:0:0:
320,364,166874,1,2,0:0:0:0:
337,366,166956,5,6,0:0:0:0:
357,316,167037,1,4,0:0:0:0:
363,262,167118,1,0,0:0:0:0:
354,209,167199,1,0,0:0:0:0:
334,159,167280,1,10,0:0:0:0:
330,106,167361,1,0,0:0:0:0:
340,53,167442,1,2,0:0:0:0:
290,73,167523,1,0,0:0:0:0:
237,78,167604,1,2,0:0:0:0:
184,67,167685,1,0,0:0:0:0:
137,41,167766,1,0,0:0:0:0:
85,32,167847,1,0,0:0:0:0:
38,56,167928,1,10,0:0:0:0:
14,103,168009,1,0,0:0:0:0:
23,155,168090,1,2,0:0:0:0:
62,192,168172,1,0,0:0:0:0:
114,185,168253,1,2,0:0:0:0:
161,210,168334,1,0,0:0:0:0:
182,259,168415,1,2,0:0:0:0:
170,311,168496,1,0,0:0:0:0:
129,344,168577,1,10,0:0:0:0:
76,346,168658,1,0,0:0:0:0:
31,321,168739,1,2,0:0:0:0:
10,273,168820,1,0,0:0:0:0:
21,224,168901,1,2,0:0:0:0:
62,192,168982,1,0,0:0:0:0:
114,185,169063,1,2,0:0:0:0:
161,210,169144,1,0,0:0:0:0:
199,233,169226,1,10,0:0:0:0:
253,237,169307,1,0,0:0:0:0:
297,206,169388,1,2,0:0:0:0:
308,153,169469,1,2,0:0:0:0:
292,101,169550,6,0,L|200:89,1,67.5000025749208,6|0,0:0|0:0,0:0:0:0:
79,310,169712,1,2,0:0:0:0:
89,330,169793,1,0,0:0:0:0:
99,348,169874,2,0,L|165:356,1,67.5000025749208,10|0,0:0|0:0,0:0:0:0:
245,325,170037,5,2,0:0:0:0:
292,309,170118,1,0,0:0:0:0:
343,310,170199,1,2,0:0:0:0:
390,328,170280,1,0,0:0:0:0:
432,356,170361,1,2,0:0:0:0:
417,308,170442,1,0,0:0:0:0:
411,257,170523,1,10,0:0:0:0:
411,206,170604,1,0,0:0:0:0:
420,157,170685,1,2,0:0:0:0:
434,108,170766,1,0,0:0:0:0:
433,57,170847,1,2,0:0:0:0:
402,17,170928,1,0,0:0:0:0:
355,2,171009,1,2,0:0:0:0:
308,25,171090,1,0,0:0:0:0:
284,68,171171,1,10,0:0:0:0:
260,113,171253,1,0,0:0:0:0:
222,144,171334,1,2,0:0:0:0:
173,158,171415,1,0,0:0:0:0:
125,141,171496,6,0,L|115:59,1,67.5000025749208,2|0,0:0|0:0,0:0:0:0:
192,228,171658,2,0,L|274:218,1,67.5000025749208,2|0,0:0|0:0,0:0:0:0:
150,312,171820,2,0,L|160:394,1,67.5000025749208,10|0,0:0|0:0,0:0:0:0:
82,241,171982,2,0,L|0:251,1,67.5000025749208,2|2,0:0|0:0,0:0:0:0:
71,48,172145,5,6,0:0:0:0:
128,28,172226,1,0,0:0:0:0:
188,32,172307,1,2,0:0:0:0:
243,58,172388,1,2,0:0:0:0:
283,102,172469,2,0,L|292:188,1,67.5000025749208,10|0,0:0|0:0,0:0:0:0:
449,253,172631,1,2,0:0:0:0:
392,233,172712,1,0,0:0:0:0:
332,237,172793,1,2,0:0:0:0:
277,263,172874,1,2,0:0:0:0:
237,307,172955,2,0,L|228:393,1,67.5000025749208,2|0,0:0|0:0,0:0:0:0:
53,331,173118,5,10,0:0:0:0:
72,332,173199,1,0,0:0:0:0:
91,334,173280,1,0,0:0:0:0:
110,336,173361,1,0,0:0:0:0:
130,339,173442,5,2,0:0:0:0:
148,296,173523,1,2,0:0:0:0:
154,249,173604,1,2,0:0:0:0:
147,203,173685,1,0,0:0:0:0:
128,160,173766,1,10,0:0:0:0:
122,113,173847,1,0,0:0:0:0:
135,68,173928,1,2,0:0:0:0:
166,32,174009,1,0,0:0:0:0:
208,12,174090,1,2,0:0:0:0:
255,10,174171,1,0,0:0:0:0:
299,28,174252,1,2,0:0:0:0:
332,61,174333,1,0,0:0:0:0:
347,106,174415,6,0,L|268:119,1,67.5000025749208,10|0,0:0|0:0,0:0:0:0:
147,203,174577,2,0,L|226:216,1,67.5000025749208,2|0,0:0|0:0,0:0:0:0:
358,267,174739,5,6,0:0:0:0:
325,301,174820,1,0,0:0:0:0:
284,324,174901,1,2,0:0:0:0:
239,337,174982,1,0,0:0:0:0:
192,337,175063,1,10,0:0:0:0:
146,325,175144,1,0,0:0:0:0:
105,302,175225,1,2,0:0:0:0:
72,269,175306,1,0,0:0:0:0:
48,228,175387,1,2,0:0:0:0:
35,183,175468,1,0,0:0:0:0:
34,136,175549,1,2,0:0:0:0:
46,90,175630,1,0,0:0:0:0:
69,49,175711,1,10,0:0:0:0:
102,16,175793,1,0,0:0:0:0:
147,3,175874,1,2,0:0:0:0:
193,0,175955,1,0,0:0:0:0:
235,20,176036,1,2,0:0:0:0:
267,54,176117,1,0,0:0:0:0:
282,99,176198,1,2,0:0:0:0:
279,145,176280,1,0,0:0:0:0:
266,188,176361,6,0,L|197:197,1,67.5000025749208,10|0,0:0|0:0,0:0:0:0:
190,283,176523,1,2,0:0:0:0:
204,302,176604,1,0,0:0:0:0:
219,320,176685,2,0,L|288:328,1,67.5000025749208,2|0,0:0|0:0,0:0:0:0:
380,247,176847,5,2,0:0:0:0:
380,247,176929,1,0,0:0:0:0:
380,247,177010,1,10,0:0:0:0:
80,361,177172,1,2,0:0:0:0:
256,192,177359,12,2,182224,0:0:0:0:
24,199,182518,5,4,0:0:0:0:
69,191,182599,1,0,0:0:0:0:
114,190,182680,1,0,0:0:0:0:
158,196,182761,1,0,0:0:0:0:
202,209,182842,2,0,L|207:122,1,45,12|0,0:0|0:0,0:0:0:0:
266,68,183005,5,0,0:0:0:0:
311,76,183086,1,0,0:0:0:0:
356,77,183167,1,0,0:0:0:0:
400,71,183248,1,0,0:0:0:0:
444,58,183328,2,0,L|449:144,1,45,12|0,0:0|0:0,0:0:0:0:
454,223,183490,1,0,0:0:0:0:
462,339,183653,5,8,0:0:0:0:
363,309,183815,1,0,0:0:0:0:
363,309,183896,1,0,0:0:0:0:
363,309,183977,1,12,0:0:0:0:
251,322,184139,1,12,0:0:0:0:
161,384,184301,1,12,0:0:0:0:
42,80,184463,6,0,L|45:98,1,18,12|0,0:0|0:0,0:0:0:0:
