osu file format v14

[General]
AudioFilename: audio.mp3
AudioLeadIn: 0
PreviewTime: 296668
Countdown: 0
SampleSet: Soft
StackLeniency: 0.7
Mode: 0
LetterboxInBreaks: 0
WidescreenStoryboard: 0

[Editor]
DistanceSpacing: 1
BeatDivisor: 4
GridSize: 16
TimelineZoom: 3.199999

[Metadata]
Title:Rokujuu-nen Me no Shinsoku Saiban ~ Rapidity is a justice
TitleUnicode:六十年目の神速裁判 ~ Rapidity is a justice
Artist:Xi
ArtistUnicode:Xi
Creator:tokiko
Version:Extra Stage
Source:東方花映塚 ~ Phantasmagoria of Flower View.
Tags:東方Project touhou 9 th9 AQUAELIE 六十年目の東方裁判 judgement in the sixtieth year fate of sixty years reitaisai 6 shiki eiki yamaxanadu 花映塚 Kaeidzuka U2 例大祭 zun team shanghai alice metal instrumental
BeatmapID:1282380
BeatmapSetID:607089

[Difficulty]
HPDrainRate:6
CircleSize:4.6
OverallDifficulty:9
ApproachRate:9.6
SliderMultiplier:2.05
SliderTickRate:1

[Events]
//Background and Video events
0,0,"bg.jpg",0,0
//Break Periods
2,83022,96775
2,257791,264159
//Storyboard Layer 0 (Background)
//Storyboard Layer 1 (Fail)
//Storyboard Layer 2 (Pass)
//Storyboard Layer 3 (Foreground)
//Storyboard Layer 4 (Overlay)
//Storyboard Sound Samples

[TimingPoints]
1925,324.324324324324,4,2,1,80,1,0
2573,-100,4,2,1,60,0,0
12627,-100,4,2,1,60,0,0
13276,-100,4,2,1,60,0,0
13600,-100,4,2,1,60,0,0
13924,-100,4,2,1,60,0,0
14249,-100,4,2,1,60,0,0
14573,-100,4,2,1,60,0,0
14897,-100,4,2,1,60,0,0
15222,-100,4,2,1,60,0,0
15870,-100,4,2,1,60,0,0
16195,-100,4,2,1,60,0,0
16519,-100,4,2,1,60,0,0
16843,-100,4,2,1,60,0,0
17168,-100,4,2,1,60,0,0
17492,-100,4,2,1,60,0,0
17816,-100,4,2,1,60,0,0
18465,-100,4,2,1,60,0,0
18789,-100,4,2,1,60,0,0
19114,-100,4,2,1,60,0,0
19438,-100,4,2,1,60,0,0
19762,-100,4,2,1,60,0,0
20087,-100,4,2,1,60,0,0
20411,-100,4,2,1,60,0,0
21060,-100,4,2,1,60,0,0
21384,-100,4,2,1,60,0,0
21708,-100,4,2,1,60,0,0
22357,-100,4,2,1,60,0,0
22519,-100,4,2,1,60,0,0
23006,-100,4,2,1,60,0,0
23330,-100,4,2,1,60,0,0
23654,-100,4,2,1,60,0,0
23979,-100,4,2,1,60,0,0
24303,-100,4,2,1,60,0,0
24627,-100,4,2,1,60,0,0
24952,-100,4,2,1,60,0,0
25276,-100,4,2,1,60,0,0
25600,-100,4,2,1,60,0,0
25924,-100,4,2,1,60,0,0
26249,-100,4,2,1,60,0,0
26573,-100,4,2,1,60,0,0
26897,-100,4,2,1,60,0,0
27222,-100,4,2,1,60,0,0
27546,-100,4,2,1,60,0,0
27870,-100,4,2,1,60,0,0
28195,-100,4,2,1,60,0,0
28519,-100,4,2,1,60,0,0
28843,-100,4,2,1,60,0,0
29168,-100,4,2,1,60,0,0
29492,-100,4,2,1,60,0,0
29816,-100,4,2,1,60,0,0
30141,-100,4,2,1,60,0,0
30465,-100,4,2,1,60,0,0
30789,-100,4,2,1,60,0,0
31114,-100,4,2,1,60,0,0
31438,-100,4,2,1,60,0,0
31762,-100,4,2,1,60,0,0
32087,-100,4,2,1,60,0,0
32249,-100,4,2,1,60,0,0
32735,-100,4,2,1,60,0,0
32897,-100,4,2,1,60,0,0
33060,-166.666666666667,4,2,1,60,0,0
34276,-166.666666666667,4,2,1,5,0,0
34357,-166.666666666667,4,2,1,60,0,0
35573,-166.666666666667,4,2,1,5,0,0
35654,-181.818181818182,4,2,1,60,0,0
36870,-181.818181818182,4,2,1,5,0,0
36952,-212.765957446809,4,2,1,60,0,0
38168,-212.765957446809,4,2,1,5,0,0
38249,-454.545454545455,4,2,1,60,0,0
39465,-454.545454545455,4,2,1,5,0,0
39546,-454.545454545455,4,2,1,60,0,0
40114,-454.545454545455,4,2,1,5,0,0
40195,-454.545454545455,4,2,1,60,0,0
40762,-454.545454545455,4,2,1,5,0,0
40843,-7000,4,2,1,60,0,0
42060,-7000,4,2,1,5,0,0
42141,-7000,4,2,1,60,0,0
43357,-7000,4,2,1,5,0,0
43438,307.692307692308,4,1,1,60,1,0
43438,-100,4,1,1,60,0,0
43591,-100,4,2,2,60,0,0
44207,-153.846153846154,4,2,2,60,0,0
44438,-100,4,2,2,5,0,0
44514,-100,4,2,2,60,0,0
45591,-153.846153846153,4,2,2,60,0,0
45822,-153.846153846153,4,2,2,5,0,0
45899,-100,4,1,1,60,0,0
46053,-100,4,2,2,60,0,0
46668,-153.846153846153,4,2,2,60,0,0
46899,-100,4,2,2,5,0,0
46976,-100,4,2,2,60,0,0
48053,-80,4,2,1,70,0,0
48284,-80,4,2,1,5,0,0
48361,-66.6666666666667,4,1,1,60,0,0
48514,-100,4,2,2,60,0,0
49130,-153.846153846153,4,2,2,60,0,0
49361,-100,4,2,2,5,0,0
49438,-100,4,2,2,60,0,0
50514,-153.846153846153,4,2,2,60,0,0
50822,-100,4,1,1,60,0,0
50976,-100,4,2,2,60,0,0
51591,-153.846153846153,4,2,2,60,0,0
51822,-153.846153846153,4,2,2,5,0,0
51899,-100,4,2,2,60,0,0
52976,-200,4,2,2,60,0,0
53207,-200,4,1,2,5,0,0
53284,-100,4,1,1,60,0,0
55438,-133.333333333333,4,1,1,60,0,0
55668,-133.333333333333,4,1,1,5,0,0
55745,-100,4,1,1,60,0,0
57899,-133.333333333333,4,1,1,60,0,0
58130,-133.333333333333,4,1,1,5,0,0
58207,-100,4,1,1,60,0,0
60361,-133.333333333333,4,1,1,60,0,0
60591,-133.333333333333,4,1,1,5,0,0
60668,-100,4,1,1,60,0,0
62976,-100,4,2,1,60,0,0
72976,-100,4,1,1,60,0,0
81591,-133.333333333333,4,2,55,60,0,0
81899,-100,4,2,55,60,0,0
82284,-100,4,2,1,60,0,0
97284,-133.333333333333,4,2,1,60,0,0
97514,-133.333333333333,4,2,1,5,0,0
97591,-200,4,2,1,60,0,0
97899,-100,4,2,1,60,0,0
98207,-200,4,2,1,60,0,0
98514,-100,4,2,1,60,0,0
98822,-200,4,2,1,60,0,0
99130,-100,4,2,1,60,0,0
99591,-100,4,2,1,60,0,0
100053,-100,4,2,1,60,0,0
100361,-100,4,2,1,60,0,0
101284,-200,4,2,1,60,0,0
101591,-100,4,2,1,60,0,0
101899,-200,4,2,1,60,0,0
102207,-100,4,2,1,60,0,0
102514,-200,4,2,1,60,0,0
102822,-100,4,2,1,60,0,0
103130,-200,4,2,1,60,0,0
103438,-100,4,2,1,60,0,0
103745,-200,4,2,1,60,0,0
104053,-100,4,2,1,60,0,0
104361,-200,4,2,1,60,0,0
104668,-133.333333333333,4,2,1,60,0,0
104976,-200,4,2,1,60,0,0
105284,-100,4,2,1,60,0,0
105591,-200,4,2,1,60,0,0
105899,-100,4,2,1,60,0,0
106207,-200,4,2,1,60,0,0
106514,-100,4,2,1,60,0,0
106976,-100,4,2,1,60,0,0
107438,-100,4,2,1,60,0,0
107745,-100,4,2,1,60,0,0
108053,-166.666666666667,4,2,1,60,0,0
108284,-100,4,2,1,5,0,0
108361,-333.333333333333,4,2,1,60,0,0
108591,-100,4,2,1,5,0,0
108668,-666.666666666658,4,2,1,60,0,0
112361,-100,4,1,1,60,0,0
122207,-100,4,2,1,80,0,1
132053,-100,4,1,1,60,0,0
134207,-133.333333333333,4,1,1,60,0,0
134438,-133.333333333333,4,1,1,5,0,0
134514,-100,4,1,1,60,0,0
136668,-133.333333333333,4,1,1,60,0,0
136899,-133.333333333333,4,1,1,5,0,0
136976,-100,4,1,1,60,0,0
139130,-133.333333333333,4,1,1,60,0,0
139361,-133.333333333333,4,1,1,5,0,0
139438,-100,4,1,1,60,0,0
141745,-100,4,2,1,60,0,0
151745,-100,4,1,1,60,0,0
160361,-133.333333333333,4,2,55,60,0,0
160668,-100,4,2,55,60,0,0
161053,-100,4,2,1,60,0,0
161591,-100,4,1,1,60,0,0
180976,-133.333333333333,4,1,1,60,0,0
181207,-133.333333333333,4,1,1,5,0,0
181284,-100,4,1,1,60,0,0
191130,-100,4,2,1,80,0,1
198514,-100,4,2,1,60,0,0
202207,-133.333333333333,4,2,1,60,0,0
202438,-133.333333333333,4,1,1,5,0,0
202514,-100,4,2,1,60,0,0
202822,-400,4,2,1,60,0,0
203361,-400,4,2,1,5,0,0
203438,-100,4,2,1,60,0,0
207130,-133.333333333333,4,2,1,60,0,0
207361,-133.333333333333,4,2,1,5,0,0
207438,-100,4,2,1,60,0,0
207745,-399.999999999997,4,2,1,60,0,0
208284,-399.999999999997,4,2,1,5,0,0
208361,-100,4,1,1,60,0,0
218207,-133.333333333333,4,2,1,60,0,0
219668,-133.333333333333,4,2,1,60,0,0
220361,-200,4,2,1,60,0,0
220668,-133.333333333333,4,2,1,60,0,0
221514,-200,4,2,1,60,0,0
221899,-133.333333333333,4,2,1,60,0,0
224591,-133.333333333333,4,2,1,60,0,0
225284,-200,4,2,1,60,0,0
225591,-133.333333333333,4,2,1,60,0,0
226438,-200,4,2,1,60,0,0
226822,-200,4,2,1,60,0,0
227438,-133.333333333333,4,2,1,60,0,0
228053,-100,4,1,1,60,0,0
230207,-133.333333333333,4,1,1,60,0,0
230438,-133.333333333333,4,1,1,5,0,0
230514,-100,4,1,1,60,0,0
232668,-133.333333333333,4,1,1,60,0,0
232899,-133.333333333333,4,1,1,5,0,0
232976,-100,4,1,1,60,0,0
235130,-133.333333333333,4,1,1,60,0,0
235361,-133.333333333333,4,1,1,5,0,0
235438,-100,4,1,1,60,0,0
237745,-100,4,2,1,60,0,0
247745,-100,4,1,1,60,0,0
256361,-133.333333333333,4,2,55,60,0,0
256591,-133.333333333333,4,2,55,5,0,0
256668,-100,4,2,55,60,0,0
257053,-100,4,2,1,60,0,0
264668,-133.333333333333,4,2,1,60,0,0
264899,-133.333333333333,4,2,1,5,0,0
264976,-200,4,2,1,60,0,0
265284,-100,4,2,1,60,0,0
265591,-200,4,2,1,60,0,0
265899,-100,4,2,1,60,0,0
266207,-200,4,2,1,60,0,0
266514,-100,4,2,1,60,0,0
268053,-166.666666666667,4,2,1,60,0,0
268284,-133.333333333333,4,2,1,5,0,0
268361,-333.333333333333,4,2,1,60,0,0
268591,-133.333333333333,4,2,1,5,0,0
268668,-5000,4,2,1,60,0,0
272361,-100,4,2,1,60,0,0
285438,-100,4,2,55,60,0,0
285822,-100,4,2,1,60,0,0
286822,-666.666666666667,4,2,1,60,0,0
287130,-100,4,1,1,60,0,0
296976,-100,4,2,1,80,0,1
306822,-100,4,1,1,60,0,0
316668,-100,4,2,1,80,0,1
324053,-100,4,2,1,60,0,0
326207,-100,4,2,1,5,0,0

[Colours]
Combo1 : 225,146,125
Combo2 : 173,225,125
Combo3 : 225,125,133
Combo4 : 125,225,192

[HitObjects]
96,136,1925,5,0,0:0:0:0:
76,56,2087,1,0,0:0:0:0:
251,160,2249,1,0,0:0:0:0:
308,52,2573,5,0,0:0:0:0:
312,48,2897,1,0,0:0:0:0:
251,160,3222,5,0,0:0:0:0:
247,156,3546,1,0,0:0:0:0:
316,256,3870,5,0,0:0:0:0:
320,252,4195,1,0,0:0:0:0:
224,228,4519,5,0,0:0:0:0:
236,148,4681,1,0,0:0:0:0:
296,344,4843,1,0,0:0:0:0:
116,300,5168,5,0,0:0:0:0:
122,297,5492,1,0,0:0:0:0:
164,204,5816,5,0,0:0:0:0:
158,201,6141,1,0,0:0:0:0:
96,120,6465,5,0,0:0:0:0:
102,117,6789,1,0,0:0:0:0:
92,16,7114,5,0,0:0:0:0:
12,32,7276,1,0,0:0:0:0:
184,141,7438,1,0,0:0:0:0:
256,68,7762,5,0,0:0:0:0:
252,56,8087,1,0,0:0:0:0:
184,141,8411,5,0,0:0:0:0:
180,153,8735,1,0,0:0:0:0:
236,240,9060,5,0,0:0:0:0:
232,228,9384,1,0,0:0:0:0:
160,300,9708,5,0,0:0:0:0:
232,336,9870,1,0,0:0:0:0:
200,132,10033,1,0,0:0:0:0:
100,160,10357,5,0,0:0:0:0:
92,168,10681,1,0,0:0:0:0:
160,260,11006,5,0,0:0:0:0:
243,256,11168,1,0,0:0:0:0:
326,250,11330,1,0,0:0:0:0:
240,275,11492,5,0,0:0:0:0:
321,268,11654,1,0,0:0:0:0:
404,259,11816,1,0,0:0:0:0:
392,176,11979,1,0,0:0:0:0:
312,186,12141,1,0,0:0:0:0:
472,192,12303,6,0,P|488:152|488:88,2,102.5,4|0|2,0:0|0:0|0:0,0:0:0:0:
296,88,12952,2,0,P|356:96|428:84,1,102.5
264,16,13276,2,0,P|212:12|162:20,1,102.5,2|0,0:0|0:0,3:0:0:0:
60,136,13600,6,0,P|68:186|53:235,1,102.5
196,288,13924,2,0,P|181:239|189:189,1,102.5,2|0,0:0|0:0,0:0:0:0:
332,132,14249,6,0,P|280:136|220:124,1,102.5
368,60,14573,2,0,P|420:56|480:68,1,102.5,2|0,0:0|0:0,0:0:0:0:
368,244,14897,6,0,L|376:356,2,102.5,4|0|2,0:0|0:0|0:0,0:0:0:0:
256,72,15546,2,0,L|360:68,1,102.5
240,164,15870,2,0,L|136:160,1,102.5,2|0,0:0|0:0,0:0:0:0:
17,82,16195,6,0,L|9:194,1,102.5
145,262,16519,2,0,L|137:159,1,102.5,2|0,0:0|0:0,0:0:0:0:
260,248,16843,6,0,L|368:232,1,102.5
408,84,17168,2,0,L|509:99,1,102.5,2|0,0:0|0:0,0:0:0:0:
432,288,17492,6,0,B|380:292|380:292|328:280,2,102.5,4|0|2,0:0|0:0|0:0,0:0:0:0:
300,132,18141,2,0,B|244:124|244:124|180:132,1,102.5
328,48,18465,2,0,B|384:56|384:56|448:48,1,102.5,2|0,0:0|0:0,0:0:0:0:
484,192,18789,6,0,B|492:248|492:248|476:300,1,102.5
328,252,19114,2,0,B|314:208|314:208|322:152,1,102.5,2|0,0:0|0:0,0:0:0:0:
224,272,19438,6,0,B|172:276|172:276|108:268,1,102.5
248,356,19762,2,0,B|300:352|300:352|364:360,1,102.5,2|0,0:0|0:0,0:0:0:0:
480,200,20087,6,0,P|488:152|484:92,2,102.5,4|0|2,0:0|0:0|0:0,0:0:0:0:
308,312,20735,2,0,P|256:308|208:288,1,102.5
336,200,21060,2,0,P|388:204|435:224,1,102.5,2|0,0:0|0:0,0:0:0:0:
228,200,21384,5,0,0:0:0:0:
260,104,21546,1,0,0:0:0:0:
161,125,21708,1,2,0:0:0:0:
221,195,21870,5,0,0:0:0:0:
280,89,22033,1,0,0:0:0:0:
159,91,22195,1,0,0:0:0:0:
348,192,22357,5,2,0:0:0:0:
448,180,22519,1,0,0:0:0:0:
340,208,22681,5,0,0:0:0:0:
320,288,22843,1,0,0:0:0:0:
292,364,23006,5,2,0:0:0:0:
300,298,23330,1,0,0:0:0:0:
258,367,23654,1,2,0:0:0:0:
279,304,23979,1,0,0:0:0:0:
224,364,24303,1,2,0:0:0:0:
257,307,24627,1,0,0:0:0:0:
192,355,24952,1,2,0:0:0:0:
235,305,25276,5,0,0:0:0:0:
196,232,25438,1,0,0:0:0:0:
220,152,25600,5,2,0:0:0:0:
348,252,25924,1,0,0:0:0:0:
228,145,26249,1,2,0:0:0:0:
334,268,26573,1,0,0:0:0:0:
237,141,26897,1,2,0:0:0:0:
318,282,27222,1,0,0:0:0:0:
247,138,27546,1,2,0:0:0:0:
300,292,27870,5,0,0:0:0:0:
224,324,28033,1,0,0:0:0:0:
144,300,28195,5,2,0:0:0:0:
80,168,28519,1,0,0:0:0:0:
184,316,28843,1,2,0:0:0:0:
92,123,29168,1,0,0:0:0:0:
154,293,29492,1,2,0:0:0:0:
115,83,29816,1,0,0:0:0:0:
131,263,30141,1,2,0:0:0:0:
115,83,30465,5,0,0:0:0:0:
197,70,30627,1,0,0:0:0:0:
277,58,30789,5,2,0:0:0:0:
127,59,31114,1,0,0:0:0:0:
281,82,31438,1,2,0:0:0:0:
164,188,31762,5,0,0:0:0:0:
168,208,31924,1,0,0:0:0:0:
172,228,32087,1,2,0:0:0:0:
236,260,32249,5,0,0:0:0:0:
240,280,32411,1,0,0:0:0:0:
300,336,32573,1,0,0:0:0:0:
380,340,32735,1,2,0:0:0:0:
428,276,32897,1,0,0:0:0:0:
376,204,33060,6,0,B|342:220|296:220|246:183|202:91|304:-11|404:52|416:100|416:100|444:84|496:84|520:100,1,461.249985923767,6|0,0:0|0:0,0:0:0:0:
468,172,34357,6,0,B|440:224|460:304|460:304|400:272|400:272|336:300|248:284|204:208|196:144,1,461.249985923767,6|0,0:0|0:0,0:0:0:0:
268,140,35654,6,0,B|280:188|316:224|356:212|388:196|388:196|352:156|352:156|324:96|344:32|448:32|448:100|412:128|368:116,1,422.812512903214,6|0,0:0|0:0,0:0:0:0:
268,140,36952,6,0,B|234:145|128:90|137:59|164:32|198:5|228:24|264:60|254:108|149:137|116:126,1,361.312494486809,6|0,0:0|0:0,0:0:0:0:
67,56,38249,6,0,P|31:128|71:199,1,169.125005161286,6|0,0:0|0:0,0:0:0:0:
144,240,39546,2,0,L|136:324,1,78.9250024085999,2|0,0:0|0:0,0:0:0:0:
224,352,40195,2,0,L|216:273,1,78.9250024085999,2|0,0:0|0:0,0:0:0:0:
240,200,40843,6,0,P|248:160|240:124,1,76.875,6|0,0:0|0:0,0:0:0:0:
176,84,42141,6,0,P|168:46|176:9,1,76.875,6|0,0:0|0:0,0:0:0:0:
248,48,43438,6,0,B|304:60|304:60|372:44,1,102.5,8|0,0:0|0:0,0:0:0:0:
412,4,43745,1,0,0:0:0:0:
424,84,43899,1,0,0:0:0:0:
436,164,44053,1,0,0:0:0:0:
376,268,44207,2,0,P|324:260|260:272,1,99.9374954252245
208,296,44514,1,0,0:0:0:0:
256,148,44668,5,0,0:0:0:0:
168,116,44822,1,0,0:0:0:0:
92,240,44976,1,0,0:0:0:0:
180,208,45130,1,0,0:0:0:0:
14,164,45284,5,0,0:0:0:0:
25,202,45361,1,0,0:0:0:0:
12,240,45438,1,0,0:0:0:0:
23,279,45514,1,0,0:0:0:0:
11,318,45591,2,0,P|59:326|114:314,1,99.9374954252245
185,354,45899,6,0,B|233:341|233:341|288:344,1,102.5,12|0,0:0|0:0,0:0:0:0:
365,370,46207,1,0,0:0:0:0:
388,292,46361,1,0,0:0:0:0:
409,214,46514,1,0,0:0:0:0:
341,118,46668,2,0,P|289:122|213:110,1,99.9374954252245
177,70,46976,1,0,0:0:0:0:
228,208,47130,5,0,0:0:0:0:
188,348,47284,1,0,0:0:0:0:
128,232,47438,1,0,0:0:0:0:
292,284,47591,1,0,0:0:0:0:
104,332,47745,1,0,0:0:0:0:
308,268,47899,1,0,0:0:0:0:
128,232,48053,6,0,B|76:248|24:216|24:216|68:236|116:212,1,192.1875,12|0,0:0|0:0,0:0:0:0:
75,3,48361,6,0,P|44:80|70:147,1,153.750005865097,12|0,0:0|0:0,0:0:0:0:
236,88,48668,1,0,0:0:0:0:
136,76,48822,1,0,0:0:0:0:
66,143,48976,1,0,0:0:0:0:
128,232,49130,2,0,P|180:228|228:232,1,99.9374954252245
302,250,49438,1,0,0:0:0:0:
167,323,49591,5,0,0:0:0:0:
128,232,49745,1,0,0:0:0:0:
266,139,49899,1,0,0:0:0:0:
227,231,50053,1,0,0:0:0:0:
228,68,50207,1,0,0:0:0:0:
266,57,50284,1,0,0:0:0:0:
304,70,50361,1,0,0:0:0:0:
343,59,50438,1,0,0:0:0:0:
379,76,50514,2,0,P|432:84|488:76,1,99.9374954252245
484,164,50822,6,0,B|432:172|432:172|379:164,1,102.5,12|0,0:0|0:0,0:0:0:0:
300,144,51130,1,0,0:0:0:0:
320,224,51284,1,0,0:0:0:0:
268,288,51438,1,0,0:0:0:0:
144,208,51591,2,0,P|204:200|248:208,1,99.9374954252245
320,224,51899,1,0,0:0:0:0:
188,284,52053,5,0,0:0:0:0:
108,296,52207,1,0,0:0:0:0:
52,192,52361,1,0,0:0:0:0:
144,208,52514,1,0,0:0:0:0:
216,148,52668,1,0,0:0:0:0:
211,133,52744,1,0,0:0:0:0:
207,118,52821,1,0,0:0:0:0:
203,103,52898,1,0,0:0:0:0:
212,76,52976,2,0,P|244:72|288:76,1,76.875,2|0,0:0|0:0,0:0:0:0:
352,108,53284,5,12,0:0:0:0:
382,116,53361,1,0,0:0:0:0:
414,118,53438,1,0,0:0:0:0:
446,113,53514,1,0,0:0:0:0:
476,102,53591,2,0,P|468:68|476:36,2,51.25,8|0|0,0:0|0:0|0:0,0:0:0:0:
412,216,53822,1,0,0:0:0:0:
411,216,53899,2,0,P|416:247|408:280,2,51.25,8|0|0,0:0|0:0|0:0,0:0:0:0:
352,108,54130,1,0,0:0:0:0:
352,108,54207,2,0,P|344:77|348:44,1,51.25,8|0,0:0|0:0,0:0:0:0:
276,172,54361,1,0,0:0:0:0:
276,172,54438,1,0,0:0:0:0:
276,172,54514,6,0,P|280:203|272:232,1,51.25,8|0,0:0|0:0,0:0:0:0:
216,364,54668,1,0,0:0:0:0:
216,364,54745,1,0,0:0:0:0:
216,364,54822,2,0,P|212:333|220:300,1,51.25,8|0,0:0|0:0,0:0:0:0:
96,269,54976,1,0,0:0:0:0:
88,272,55053,1,0,0:0:0:0:
81,276,55130,1,8,0:0:0:0:
60,243,55207,1,0,0:0:0:0:
53,206,55284,1,0,0:0:0:0:
60,168,55361,1,0,0:0:0:0:
73,131,55438,2,0,P|76:80|56:12,1,115.312504398823,10|0,0:0|0:0,0:0:0:0:
160,48,55745,5,12,0:0:0:0:
191,54,55822,1,0,0:0:0:0:
223,55,55899,1,0,0:0:0:0:
255,53,55976,1,0,0:0:0:0:
286,44,56053,2,0,P|320:40|356:44,2,51.25,8|0|0,0:0|0:0|0:0,0:0:0:0:
400,108,56284,1,0,0:0:0:0:
404,115,56361,2,0,P|373:112|341:116,2,51.25,8|0|0,0:0|0:0|0:0,0:0:0:0:
292,180,56591,1,0,0:0:0:0:
288,188,56668,2,0,P|320:185|348:187,1,51.25,8|0,0:0|0:0,0:0:0:0:
447,260,56822,1,0,0:0:0:0:
446,268,56899,1,0,0:0:0:0:
446,276,56976,6,0,P|415:266|388:262,1,51.25,8|0,0:0|0:0,0:0:0:0:
291,268,57130,2,0,P|267:277|245:289,1,51.25
305,146,57284,2,0,P|336:136|363:132,1,51.25,8|0,0:0|0:0,0:0:0:0:
459,138,57438,2,0,P|483:146|505:159,1,51.25
238,34,57591,6,0,P|213:40|189:49,1,51.25,8|0,0:0|0:0,0:0:0:0:
375,18,57745,2,0,P|351:7|327:-1,1,51.25
234,118,57899,2,0,P|174:126|114:114,1,115.312504398823,12|0,0:0|0:0,0:0:0:0:
12,107,58207,5,12,0:0:0:0:
18,131,58284,1,0,0:0:0:0:
18,157,58361,1,0,0:0:0:0:
13,182,58438,1,0,0:0:0:0:
4,204,58514,2,0,P|3:229|11:253,2,51.25,8|0|0,0:0|0:0|0:0,0:0:0:0:
104,288,58745,1,0,0:0:0:0:
104,288,58822,2,0,P|104:313|96:337,2,51.25,8|0|0,0:0|0:0|0:0,0:0:0:0:
216,224,59053,1,0,0:0:0:0:
216,224,59130,2,0,P|215:198|223:174,1,51.25,8|0,0:0|0:0,0:0:0:0:
298,302,59284,1,0,0:0:0:0:
298,302,59361,1,0,0:0:0:0:
298,302,59438,6,0,P|272:305|247:302,1,51.25,8|0,0:0|0:0,0:0:0:0:
375,225,59591,1,0,0:0:0:0:
375,225,59668,1,0,0:0:0:0:
375,225,59745,2,0,P|401:222|426:225,1,51.25,8|0,0:0|0:0,0:0:0:0:
334,114,59899,1,0,0:0:0:0:
334,114,59976,1,0,0:0:0:0:
334,114,60053,1,8,0:0:0:0:
306,125,60130,1,0,0:0:0:0:
275,131,60207,1,0,0:0:0:0:
244,131,60284,1,0,0:0:0:0:
214,122,60361,2,0,P|228:64|204:12,1,115.312504398823,8|0,0:0|0:0,0:0:0:0:
120,76,60668,5,12,0:0:0:0:
95,81,60745,1,0,0:0:0:0:
69,83,60822,1,0,0:0:0:0:
43,82,60899,1,0,0:0:0:0:
20,73,60976,2,0,P|24:104|16:132,2,51.25,8|0|0,0:0|0:0|0:0,0:0:0:0:
120,156,61207,1,0,0:0:0:0:
112,161,61284,2,0,P|108:192|116:220,2,51.25,8|0|0,0:0|0:0|0:0,0:0:0:0:
12,244,61514,1,0,0:0:0:0:
20,249,61591,2,0,P|24:280|16:308,1,51.25,8|0,0:0|0:0,0:0:0:0:
148,324,61745,2,2,P|144:355|152:383,1,51.25,10|2,0:0|0:0,0:0:0:0:
252,296,61899,5,0,0:0:0:0:
252,296,61976,1,8,0:0:0:0:
252,296,62053,2,0,P|256:265|248:237,1,51.25,8|0,0:0|0:0,0:0:0:0:
413,334,62207,1,8,0:0:0:0:
413,334,62284,1,8,0:0:0:0:
413,334,62361,2,8,P|444:338|472:330,1,51.25
376,127,62514,6,8,P|351:146|337:171,1,51.25
512,199,62668,2,8,P|484:184|455:182,1,51.25
342,259,62822,1,12,0:0:0:0:
272,52,62976,5,2,1:2:0:0:
220,46,63053,1,2,1:2:0:0:
169,40,63129,1,2,1:2:0:0:
140,128,63284,1,0,1:0:0:0:
200,200,63438,1,10,0:0:0:0:
216,196,63514,1,2,0:0:0:0:
232,192,63591,1,2,1:2:0:0:
352,108,63745,1,10,0:0:0:0:
272,52,63899,1,2,1:2:0:0:
320,220,64053,1,10,0:0:0:0:
336,216,64130,1,2,0:0:0:0:
352,212,64207,1,2,1:2:0:0:
480,100,64361,6,0,P|464:48|476:0,1,102.5,8|0,0:0|1:0,0:0:0:0:
332,248,64668,1,10,0:0:0:0:
316,244,64745,1,2,0:0:0:0:
300,240,64822,1,2,1:2:0:0:
208,196,64976,2,0,L|144:192,1,51.25,10|2,0:0|0:0,0:0:0:0:
296,113,65130,1,2,1:2:0:0:
216,304,65284,2,0,L|152:312,2,51.25,10|0|0,0:0|0:0|1:0,0:0:0:0:
400,352,65591,6,0,P|438:319|440:270,1,102.5,14|0,0:0|1:0,0:0:0:0:
388,32,65899,1,2,1:2:0:0:
372,36,65976,1,2,0:0:0:0:
356,40,66053,1,10,0:0:0:0:
258,8,66207,2,8,P|224:45|174:53,1,102.5,8|0,0:0|1:0,0:0:0:0:
0,135,66514,1,10,0:0:0:0:
16,139,66591,1,2,0:0:0:0:
32,143,66668,1,2,1:2:0:0:
84,231,66822,6,8,P|117:268|167:276,1,102.5,8|0,0:0|1:0,0:0:0:0:
289,206,67130,1,10,0:0:0:0:
305,202,67207,1,2,0:0:0:0:
321,198,67284,1,2,1:2:0:0:
389,242,67438,1,10,0:0:0:0:
405,238,67514,1,2,0:0:0:0:
421,233,67591,1,2,1:2:0:0:
437,228,67668,1,2,0:0:0:0:
453,222,67745,2,0,L|509:206,1,51.25,10|8,0:0|0:0,0:0:0:0:
417,330,67899,2,0,L|466:344,1,51.25,2|0,1:2|0:0,0:0:0:0:
300,380,68053,6,0,P|248:380|200:363,1,102.5,14|0,0:0|1:0,0:0:0:0:
49,261,68361,1,10,0:0:0:0:
65,257,68438,1,2,0:0:0:0:
81,253,68514,1,0,1:0:0:0:
242,257,68668,2,0,L|190:271,1,51.25,8|0,0:0|0:0,0:0:0:0:
164,177,68822,6,0,P|165:126|188:81,1,102.5,0|10,1:0|0:0,0:0:0:0:
259,66,69053,1,2,0:0:0:0:
307,119,69130,2,0,L|293:169,1,51.25,0|0,1:0|0:0,0:0:0:0:
360,64,69284,2,0,P|416:56|480:68,1,102.5,8|0,0:0|1:0,0:0:0:0:
396,196,69591,1,10,0:0:0:0:
404,180,69668,1,2,0:0:0:0:
412,164,69745,1,2,1:2:0:0:
456,288,69899,2,0,P|396:300|332:280,1,102.5,8|0,0:0|1:0,0:0:0:0:
276,228,70207,1,10,0:0:0:0:
264,216,70284,1,2,0:0:0:0:
252,204,70361,1,2,1:2:0:0:
244,328,70514,6,0,P|188:320|120:328,1,102.5,12|0,0:0|0:0,0:0:0:0:
52,272,70822,1,10,0:0:0:0:
64,264,70899,1,2,0:0:0:0:
76,256,70976,1,2,1:2:0:0:
132,168,71130,1,10,0:0:0:0:
212,232,71284,1,2,1:2:0:0:
48,176,71438,1,10,0:0:0:0:
40,164,71514,1,2,0:0:0:0:
32,152,71591,1,2,1:2:0:0:
108,0,71745,6,0,P|116:52|96:96,1,102.5,8|0,0:0|1:0,0:0:0:0:
192,52,72053,1,10,0:0:0:0:
208,48,72130,1,2,0:0:0:0:
224,44,72207,1,2,1:2:0:0:
280,104,72361,5,10,0:0:0:0:
315,110,72438,1,2,0:0:0:0:
351,111,72514,1,10,0:0:0:0:
386,107,72591,1,2,0:0:0:0:
421,98,72668,2,0,P|444:92|472:76,3,51.25,8|0|8|0,0:0|0:0|1:2|0:0,0:0:0:0:
496,151,72976,6,0,L|504:256,1,102.5,6|0,0:0|0:0,0:0:0:0:
308,316,73284,2,0,L|298:207,1,102.5,2|0,0:0|0:0,0:0:0:0:
388,301,73591,2,0,P|431:329|481:328,1,102.5,2|0,0:0|0:0,0:0:0:0:
280,347,73822,2,0,P|239:317|189:319,1,102.5,2|0,0:0|0:0,0:0:0:0:
129,363,74053,1,2,0:0:0:0:
0,281,74207,5,0,0:0:0:0:
138,176,74361,2,0,L|142:120,1,51.25,2|0,0:0|0:0,0:0:0:0:
74,99,74514,2,0,L|70:43,2,51.25,2|0|0,0:0|0:0|0:0,0:0:0:0:
207,222,74822,2,0,P|256:230|300:205,1,102.5,2|0,0:0|0:0,0:0:0:0:
503,220,75053,2,0,P|453:210|408:233,1,102.5,2|0,0:0|0:0,0:0:0:0:
386,302,75284,1,2,0:0:0:0:
317,183,75438,6,0,L|302:77,1,102.5,6|0,0:0|0:0,0:0:0:0:
132,32,75745,2,0,L|147:136,1,102.5,2|0,0:0|0:0,0:0:0:0:
176,279,76053,2,0,P|124:256|55:278,1,102.5,2|0,0:0|0:0,0:0:0:0:
267,250,76284,2,0,P|315:265|364:251,1,102.5,2|0,0:0|0:0,0:0:0:0:
228,186,76514,2,0,P|254:257|234:330,1,153.75,2|0,0:0|0:0,0:0:0:0:
167,374,76822,5,0,0:0:0:0:
338,340,76976,1,0,0:0:0:0:
509,306,77130,1,0,0:0:0:0:
458,130,77284,2,0,L|466:78,1,51.25,2|2,2:2|0:2,0:2:0:0:
364,145,77438,2,0,L|372:93,1,51.25,2|2,2:2|0:2,0:2:0:0:
386,223,77591,2,0,L|378:273,1,51.25,2|2,2:2|0:2,0:2:0:0:
475,258,77745,2,0,L|467:308,1,51.25,2|2,2:2|0:2,0:2:0:0:
288,188,77899,6,0,L|272:294,1,102.5,6|0,0:2|0:0,0:0:0:0:
110,235,78207,2,0,L|134:132,1,102.5,2|0,0:0|0:0,0:0:0:0:
272,289,78514,2,0,P|212:301|156:289,1,102.5,0|2,0:0|0:0,0:0:0:0:
6,345,78745,2,0,P|56:332|107:339,1,102.5,2|0,0:0|0:0,0:0:0:0:
180,368,78976,1,2,0:0:0:0:
136,216,79130,5,0,0:0:0:0:
272,289,79284,2,0,L|328:285,1,51.25
393,231,79438,1,0,0:0:0:0:
353,136,79591,1,0,0:0:0:0:
480,368,79745,1,2,0:2:0:0:
380,352,79899,1,2,0:2:0:0:
506,272,80053,1,0,0:0:0:0:
506,272,80130,1,0,0:0:0:0:
506,272,80207,1,0,0:0:0:0:
296,60,80361,6,0,P|242:72|186:118,1,102.5,4|0,0:0|0:0,0:0:0:0:
364,188,80668,1,0,0:0:0:0:
376,180,80745,1,0,0:0:0:0:
388,172,80822,1,0,0:0:0:0:
164,160,80976,1,2,0:2:0:0:
264,216,81130,1,2,0:2:0:0:
322,107,81284,1,0,0:0:0:0:
306,100,81361,1,0,0:0:0:0:
291,93,81438,1,0,0:0:0:0:
72,116,81591,6,0,L|80:256,1,115.312504398823
97,309,81899,1,6,0:0:0:0:
171,313,81976,1,2,0:0:0:0:
203,242,82053,1,2,0:0:0:0:
144,191,82130,1,2,0:0:0:0:
78,231,82207,1,2,0:0:0:0:
70,201,82284,1,2,0:0:0:0:
69,170,82361,1,2,0:0:0:0:
77,141,82438,1,2,0:0:0:0:
132,88,82514,1,2,0:0:0:0:
136,73,82591,1,2,0:0:0:0:
136,57,82668,1,2,0:0:0:0:
132,40,82745,1,2,0:0:0:0:
124,28,82822,5,6,0:0:0:0:
60,32,97284,6,0,P|72:72|52:144,1,115.312504398823,4|0,0:0|0:0,0:0:0:0:
40,156,97591,6,0,P|72:160|108:152,1,51.25,2|0,0:0|0:0,0:0:0:0:
284,76,97899,2,0,P|233:67|183:75,1,102.5,2|0,0:0|0:0,0:0:0:0:
232,188,98207,2,0,P|264:192|288:188,1,51.25,2|0,0:0|0:0,0:0:0:0:
476,108,98514,2,0,P|425:99|375:107,1,102.5,2|0,0:0|0:0,0:0:0:0:
416,296,98822,6,0,L|420:232,1,51.25,2|0,0:0|0:0,0:0:0:0:
228,85,99130,2,0,L|231:187,2,102.5,2|0|2,0:0|0:0|0:0,0:0:0:0:
310,228,99591,5,0,0:0:0:0:
392,236,99745,1,2,0:0:0:0:
464,196,99899,1,0,0:0:0:0:
496,120,100053,6,0,P|504:60|492:12,1,102.5,2|0,0:0|0:0,0:0:0:0:
336,144,100361,1,2,0:0:0:0:
396,64,100514,1,0,0:0:0:0:
292,52,100668,1,2,0:0:0:0:
236,140,100822,1,0,0:0:0:0:
285,232,100976,1,2,0:0:0:0:
390,236,101130,1,0,0:0:0:0:
464,160,101284,6,0,L|395:153,1,51.25,2|0,0:0|0:0,0:0:0:0:
112,76,101591,2,0,L|226:61,1,102.5,2|0,0:0|0:0,0:0:0:0:
285,232,101899,6,0,L|216:240,1,51.25,2|0,0:0|0:0,0:0:0:0:
398,307,102207,2,0,L|499:320,1,102.5,2|0,0:0|0:0,0:0:0:0:
433,184,102514,6,0,L|364:164,1,51.25,2|0,0:0|0:0,0:0:0:0:
136,50,102822,2,0,L|251:57,1,102.5,2|0,0:0|0:0,0:0:0:0:
276,236,103130,6,0,L|212:232,1,51.25,2|0,0:0|0:0,0:0:0:0:
373,331,103438,2,0,L|470:364,1,102.5,2|0,0:0|0:0,0:0:0:0:
431,218,103745,6,0,L|368:184,1,51.25,2|0,0:0|0:0,0:0:0:0:
165,30,104053,2,0,L|277:59,1,102.5,2|0,0:0|0:0,0:0:0:0:
267,239,104361,6,0,L|200:220,1,51.25,2|0,0:0|0:0,0:0:0:0:
72,176,104668,2,0,P|80:236|60:288,1,115.312504398823,4|0,0:0|0:0,0:0:0:0:
48,304,104976,6,0,P|80:308|112:304,1,51.25,2|0,0:0|0:0,0:0:0:0:
368,240,105284,2,0,P|317:247|267:239,1,102.5,2|0,0:0|0:0,0:0:0:0:
156,136,105591,6,0,P|190:142|223:137,1,51.25,2|0,0:0|0:0,0:0:0:0:
476,72,105899,2,0,P|425:79|375:71,1,102.5,2|0,0:0|0:0,0:0:0:0:
156,136,106207,6,0,P|190:142|223:137,1,51.25,2|0,0:0|0:0,0:0:0:0:
368,240,106514,2,0,P|317:247|267:239,2,102.5,2|0|2,0:0|0:0|0:0,0:0:0:0:
436,164,106976,1,0,0:0:0:0:
472,260,107130,1,2,0:0:0:0:
404,336,107284,1,0,0:0:0:0:
266,238,107438,6,0,P|316:232|367:240,1,102.5,2|0,0:0|0:0,0:0:0:0:
220,312,107745,1,2,0:0:0:0:
136,316,107899,1,0,0:0:0:0:
72,263,108053,6,0,P|88:221|91:175,1,92.2499971847535,2|0,0:0|0:0,0:0:0:0:
118,160,108361,6,0,P|110:138|98:118,1,46.1249985923767,2|0,0:0|0:0,0:0:0:0:
8,92,108668,6,2,P|124:158|124:11,1,307.5,6|0,0:0|0:0,0:1:0:0:
95,91,111899,1,0,0:0:0:0:
95,91,111976,1,0,0:0:0:0:
95,91,112053,2,0,L|83:65,1,23.0624992961884
149,30,112361,5,2,0:0:0:0:
200,40,112438,1,0,0:0:0:0:
249,44,112514,1,8,0:0:0:0:
300,40,112591,1,0,0:0:0:0:
348,25,112668,1,0,0:0:0:0:
400,19,112745,1,0,0:0:0:0:
451,24,112822,1,8,0:0:0:0:
486,59,112899,1,0,0:0:0:0:
491,109,112976,1,0,0:0:0:0:
465,152,113053,1,0,0:0:0:0:
418,170,113130,1,8,0:0:0:0:
370,154,113207,1,0,0:0:0:0:
341,113,113284,1,0,0:0:0:0:
341,113,113361,1,0,0:0:0:0:
341,113,113438,1,8,0:0:0:0:
341,113,113514,1,0,0:0:0:0:
317,158,113591,5,0,0:0:0:0:
270,179,113668,1,0,0:0:0:0:
222,167,113745,1,8,0:0:0:0:
191,128,113822,1,0,0:0:0:0:
190,78,113899,1,0,0:0:0:0:
221,38,113976,1,0,0:0:0:0:
270,24,114053,1,8,0:0:0:0:
320,34,114130,1,0,0:0:0:0:
371,34,114207,1,0,0:0:0:0:
421,24,114284,1,0,0:0:0:0:
428,24,114361,1,8,0:0:0:0:
434,21,114438,1,0,0:0:0:0:
438,16,114514,1,0,0:0:0:0:
418,62,114591,1,0,0:0:0:0:
428,111,114668,1,8,0:0:0:0:
464,147,114745,1,0,0:0:0:0:
512,155,114822,6,0,L|508:211,1,51.25,4|0,0:2|0:0,0:0:0:0:
428,272,114976,2,0,L|424:220,1,51.25,8|0,0:0|0:0,0:0:0:0:
360,160,115130,1,0,0:0:0:0:
352,156,115207,1,0,0:0:0:0:
344,152,115284,2,0,L|340:208,1,51.25,8|0,0:0|0:0,0:0:0:0:
276,262,115438,1,0,0:0:0:0:
268,265,115514,1,0,0:0:0:0:
260,269,115591,2,0,L|256:217,1,51.25,8|0,0:0|0:0,0:0:0:0:
200,132,115745,1,0,0:0:0:0:
192,128,115822,1,0,0:0:0:0:
184,124,115899,2,0,L|180:180,1,51.25,8|0,0:0|0:0,0:0:0:0:
116,234,116053,5,0,0:0:0:0:
108,237,116130,1,0,0:0:0:0:
100,241,116207,2,0,L|96:189,1,51.25,8|0,0:0|0:0,0:0:0:0:
176,300,116361,2,0,L|185:249,1,51.25
252,364,116514,2,0,L|274:317,1,51.25,8|0,0:0|0:0,0:0:0:0:
284,188,116668,1,0,0:0:0:0:
304,233,116745,1,0,0:0:0:0:
350,250,116822,1,8,0:0:0:0:
395,227,116899,1,0,0:0:0:0:
409,179,116976,2,0,P|404:152|408:120,1,51.25
480,24,117130,2,0,P|485:51|481:83,1,51.25,8|0,0:0|0:0,0:0:0:0:
284,188,117284,5,0,0:2:0:0:
235,200,117361,1,0,0:0:0:0:
190,178,117438,1,8,0:0:0:0:
170,132,117514,1,0,0:0:0:0:
184,84,117591,1,0,0:0:0:0:
227,57,117668,1,0,0:0:0:0:
276,64,117745,1,8,0:0:0:0:
231,41,117822,1,0,0:0:0:0:
181,32,117899,1,0,0:0:0:0:
130,37,117976,1,0,0:0:0:0:
83,57,118053,1,8,0:0:0:0:
43,90,118130,1,0,0:0:0:0:
15,132,118207,1,0,0:0:0:0:
63,147,118284,1,0,0:0:0:0:
82,192,118361,1,8,0:0:0:0:
58,236,118438,1,0,0:0:0:0:
10,246,118514,5,0,0:0:0:0:
53,272,118591,1,0,0:0:0:0:
104,270,118668,1,8,0:0:0:0:
145,242,118745,1,0,0:0:0:0:
165,195,118822,1,0,0:0:0:0:
156,145,118899,1,0,0:0:0:0:
121,109,118976,1,8,0:0:0:0:
157,73,119053,1,0,0:0:0:0:
207,61,119130,1,0,0:0:0:0:
255,76,119207,1,0,0:0:0:0:
289,114,119284,1,8,0:0:0:0:
299,164,119361,1,0,0:0:0:0:
282,212,119438,1,0,0:0:0:0:
313,251,119514,1,0,0:0:0:0:
361,261,119591,1,8,0:0:0:0:
406,237,119668,1,0,0:0:0:0:
424,191,119745,5,0,0:0:0:0:
422,186,119822,1,0,0:0:0:0:
420,181,119899,1,8,0:0:0:0:
419,176,119976,1,0,0:0:0:0:
418,171,120053,1,0,0:0:0:0:
417,166,120130,1,0,0:0:0:0:
416,161,120207,1,8,0:0:0:0:
416,156,120284,1,0,0:0:0:0:
415,151,120361,1,0,0:0:0:0:
415,146,120438,1,0,0:0:0:0:
415,141,120514,1,8,0:0:0:0:
415,136,120591,1,0,0:0:0:0:
416,131,120668,1,0,0:0:0:0:
416,126,120745,1,0,0:0:0:0:
417,121,120822,1,8,0:0:0:0:
418,116,120899,1,0,0:0:0:0:
421,112,120976,5,0,0:0:0:0:
403,134,121053,1,0,0:0:0:0:
379,148,121130,1,8,0:0:0:0:
352,152,121207,1,0,0:0:0:0:
325,144,121284,1,0,0:0:0:0:
302,127,121361,1,0,0:0:0:0:
288,103,121438,1,8,0:0:0:0:
285,75,121514,1,0,0:0:0:0:
292,48,121591,1,0,0:0:0:0:
310,26,121668,1,0,0:0:0:0:
334,12,121745,1,8,0:0:0:0:
362,9,121822,1,0,0:0:0:0:
392,20,121899,5,8,0:0:0:0:
365,87,121976,1,8,0:0:0:0:
302,127,122053,1,8,0:0:0:0:
228,125,122130,1,8,0:0:0:0:
177,72,122207,6,0,L|184:17,1,51.25,14|0,0:0|0:0,0:0:0:0:
96,133,122361,1,2,0:0:0:0:
96,133,122438,1,2,0:0:0:0:
96,133,122514,2,0,L|89:78,1,51.25,14|0,0:0|0:0,0:0:0:0:
157,219,122668,1,2,0:0:0:0:
157,219,122745,1,2,0:0:0:0:
157,219,122822,2,0,L|164:169,1,51.25,14|0,0:0|0:0,0:0:0:0:
228,295,122976,1,2,0:0:0:0:
228,295,123053,2,0,L|352:287,1,102.5,10|2,0:0|0:0,0:0:0:0:
398,317,123284,2,0,L|405:371,1,51.25,10|0,0:0|0:0,0:0:0:0:
499,274,123438,5,12,0:0:0:0:
499,274,123514,1,2,0:0:0:0:
499,274,123591,2,0,L|504:217,1,51.25,10|0,0:0|0:0,0:0:0:0:
456,161,123745,2,0,L|461:104,1,51.25,10|0,0:0|0:0,0:0:0:0:
428,41,123899,1,2,0:0:0:0:
420,45,123976,1,2,0:0:0:0:
412,49,124053,2,0,L|286:37,1,102.5,8|0,0:0|0:0,0:0:0:0:
252,92,124284,1,2,0:0:0:0:
252,92,124361,2,0,L|236:25,1,51.25,6|0,0:0|0:0,0:0:0:0:
180,105,124514,1,0,1:0:0:0:
207,176,124591,1,0,1:0:0:0:
207,176,124668,6,0,P|252:203|307:196,1,102.5,12|0,1:0|0:0,0:0:0:0:
453,261,124899,1,2,0:0:0:0:
453,261,124976,2,0,P|408:288|353:281,1,102.5,10|0,0:0|0:0,0:0:0:0:
232,348,125207,1,2,0:0:0:0:
232,348,125284,2,0,P|277:375|332:368,1,102.5,10|0,0:0|0:0,0:0:0:0:
277,280,125514,2,0,P|232:253|177:260,1,102.5,10|0,0:0|0:0,0:0:0:0:
134,317,125745,2,0,P|138:347|130:373,1,51.25,8|0,0:0|0:0,0:0:0:0:
78,267,125899,5,2,0:0:0:0:
26,269,125976,1,2,0:0:0:0:
0,224,126053,2,0,P|-5:193|3:168,1,51.25,10|0,0:0|0:0,0:0:0:0:
192,77,126207,1,2,0:0:0:0:
140,75,126284,1,2,0:0:0:0:
114,119,126361,2,0,P|109:150|117:175,1,51.25,10|0,0:0|0:0,0:0:0:0:
361,204,126514,1,2,0:0:0:0:
309,206,126591,1,2,0:0:0:0:
283,161,126668,2,0,P|278:130|286:105,1,51.25,10|0,0:0|0:0,0:0:0:0:
503,27,126822,5,6,1:0:0:0:
453,19,126899,1,2,0:0:0:0:
405,37,126976,2,0,P|397:65|397:93,1,51.25,2|0,0:0|0:0,0:0:0:0:
468,244,127131,5,14,1:0:0:0:
464,252,127208,1,2,0:0:0:0:
460,260,127285,1,2,0:0:0:0:
457,268,127361,1,2,0:0:0:0:
453,276,127438,2,0,L|525:272,1,51.25,2|0,0:0|0:0,0:0:0:0:
326,348,127591,5,14,1:0:0:0:
322,356,127668,1,2,0:0:0:0:
318,364,127745,1,2,0:0:0:0:
315,372,127822,1,2,0:0:0:0:
311,380,127899,2,0,L|383:376,1,51.25,2|0,0:0|0:0,0:0:0:0:
303,200,128053,5,14,1:0:0:0:
303,200,128130,1,2,0:0:0:0:
303,200,128207,2,0,L|231:196,1,51.25,2|0,0:0|0:0,0:0:0:0:
47,102,128360,5,14,1:0:0:0:
30,139,128437,1,2,0:0:0:0:
22,179,128514,1,2,0:0:0:0:
33,218,128591,1,2,0:0:0:0:
62,247,128668,2,0,L|41:298,1,51.25,2|0,0:0|0:0,0:0:0:0:
216,198,128822,5,14,1:0:0:0:
199,161,128899,1,2,0:0:0:0:
191,121,128976,1,2,0:0:0:0:
202,82,129053,1,2,0:0:0:0:
231,53,129130,2,0,L|210:2,1,51.25,2|0,0:0|0:0,0:0:0:0:
352,201,129284,5,14,1:0:0:0:
323,236,129361,1,0,0:0:0:0:
334,285,129438,1,12,0:0:0:0:
371,318,129514,1,0,0:0:0:0:
421,308,129591,6,0,L|477:324,1,51.25,14|0,1:0|0:0,0:0:0:0:
251,340,129899,1,8,0:0:0:0:
420,113,130053,1,2,0:0:0:0:
400,148,130130,1,2,0:0:0:0:
428,172,130207,1,2,0:0:0:0:
475,155,130284,1,2,0:0:0:0:
500,112,130361,1,2,0:0:0:0:
490,63,130438,1,2,0:0:0:0:
450,32,130514,1,2,0:0:0:0:
400,36,130591,1,2,0:0:0:0:
364,15,130668,1,2,0:0:0:0:
364,15,130745,1,2,0:0:0:0:
364,15,130822,6,0,L|352:74,1,51.25,10|0,1:0|0:0,0:0:0:0:
98,144,130976,1,2,0:0:0:0:
98,144,131053,2,0,L|113:81,1,51.25,10|0,1:0|0:0,0:0:0:0:
330,211,131207,1,2,0:0:0:0:
330,211,131284,2,0,L|314:273,1,51.25,10|0,1:0|0:0,0:0:0:0:
160,304,131438,1,8,1:0:0:0:
160,304,131514,1,8,1:0:0:0:
256,368,131745,1,12,1:0:0:0:
192,96,132053,5,12,0:0:0:0:
217,95,132130,1,0,0:0:0:0:
243,94,132207,1,0,0:0:0:0:
268,93,132284,1,0,0:0:0:0:
295,92,132361,2,0,P|300:120|297:144,2,51.25,8|0|0,0:0|0:0|0:0,0:0:0:0:
400,208,132591,1,0,0:0:0:0:
400,208,132668,2,0,P|394:179|398:156,2,51.25,8|0|0,0:0|0:0|0:0,0:0:0:0:
496,96,132899,1,0,0:0:0:0:
496,96,132976,2,0,P|501:124|498:148,1,51.25,8|0,0:0|0:0,0:0:0:0:
433,307,133130,5,0,0:0:0:0:
417,311,133207,1,0,0:0:0:0:
401,315,133284,2,0,P|373:316|345:311,1,51.25,8|0,0:0|0:0,0:0:0:0:
231,354,133438,1,0,0:0:0:0:
231,354,133514,1,0,0:0:0:0:
231,354,133591,2,0,P|218:329|210:301,1,51.25,8|0,0:0|0:0,0:0:0:0:
324,200,133745,1,0,0:0:0:0:
355,179,133822,1,0,0:0:0:0:
370,220,133899,1,8,0:0:0:0:
365,246,133976,1,0,0:0:0:0:
360,272,134053,1,0,0:0:0:0:
357,297,134130,1,0,0:0:0:0:
351,323,134207,2,0,P|296:330|232:320,1,115.312504398823,8|0,0:0|0:0,0:0:0:0:
160,252,134514,5,12,0:0:0:0:
134,251,134591,1,0,0:0:0:0:
108,250,134668,1,0,0:0:0:0:
83,249,134745,1,0,0:0:0:0:
57,248,134822,2,0,P|61:224|57:192,2,51.25,8|0|0,0:0|0:0|0:0,0:0:0:0:
138,146,135053,1,0,0:0:0:0:
130,142,135130,2,0,P|127:116|131:91,2,51.25,8|0|0,0:0|0:0|0:0,0:0:0:0:
33,55,135361,1,0,0:0:0:0:
41,51,135438,2,0,P|43:25|39:0,1,51.25,8|0,0:0|0:0,0:0:0:0:
154,55,135591,1,0,0:0:0:0:
168,60,135668,1,0,0:0:0:0:
184,64,135745,6,0,P|211:62|241:57,1,51.25,8|0,0:0|0:0,0:0:0:0:
338,61,135899,2,0,P|364:52|391:39,1,51.25
469,170,136053,2,0,P|442:168|412:163,1,51.25,8|0,0:0|0:0,0:0:0:0:
315,167,136207,2,0,P|289:158|262:145,1,51.25
443,287,136361,6,0,P|468:293|492:302,1,51.25,8|0,0:0|0:0,0:0:0:0:
305,295,136515,2,0,P|329:284|353:276,1,51.25
230,343,136668,2,0,P|186:335|122:283,1,115.312504398823,12|0,0:0|0:0,0:0:0:0:
36,296,136976,5,12,0:0:0:0:
37,270,137053,1,0,0:0:0:0:
39,244,137130,1,0,0:0:0:0:
41,219,137207,1,0,0:0:0:0:
44,192,137284,2,0,P|43:167|36:136,2,51.25,8|0|0,0:0|0:0|0:0,0:0:0:0:
162,240,137514,1,0,0:0:0:0:
162,240,137591,2,0,P|156:265|155:290,2,51.25,8|0|0,0:0|0:0|0:0,0:0:0:0:
277,180,137822,1,0,0:0:0:0:
277,180,137899,2,0,P|276:155|269:124,1,51.25,8|0,0:0|0:0,0:0:0:0:
332,244,138053,1,0,0:0:0:0:
324,260,138130,1,0,0:0:0:0:
317,275,138207,6,0,P|291:278|266:276,1,51.25,8|0,0:0|0:0,0:0:0:0:
160,220,138361,1,0,0:0:0:0:
160,220,138438,1,0,0:0:0:0:
160,220,138514,2,0,P|185:216|210:218,1,51.25,8|0,0:0|0:0,0:0:0:0:
225,346,138668,1,0,0:0:0:0:
184,313,138745,1,0,0:0:0:0:
231,290,138822,1,8,0:0:0:0:
256,285,138899,1,0,0:0:0:0:
281,279,138976,1,0,0:0:0:0:
305,272,139053,1,0,0:0:0:0:
330,268,139130,2,0,P|356:216|408:176,1,115.312504398823,8|0,0:0|0:0,0:0:0:0:
360,84,139438,5,12,0:0:0:0:
334,81,139514,1,0,0:0:0:0:
309,78,139591,1,0,0:0:0:0:
283,76,139668,1,0,0:0:0:0:
258,73,139745,2,0,P|228:72|192:68,2,51.25,8|0|0,0:0|0:0|0:0,0:0:0:0:
148,140,139976,1,0,0:0:0:0:
156,148,140053,2,0,P|186:147|222:143,2,51.25,8|0|0,0:0|0:0|0:0,0:0:0:0:
264,216,140284,1,0,0:0:0:0:
256,224,140361,2,0,P|226:223|190:219,1,51.25,8|0,0:0|0:0,0:0:0:0:
100,296,140514,1,0,0:0:0:0:
108,304,140591,1,0,0:0:0:0:
116,312,140668,6,0,P|146:311|182:307,1,51.25,8|0,0:0|0:0,0:0:0:0:
236,344,140822,2,0,P|264:335|298:322,1,51.25
327,264,140976,2,0,P|353:263|379:261,1,51.25,8|0,0:0|0:0,0:0:0:0:
447,295,141130,2,0,P|472:288|496:279,1,51.25,8|0,0:0|0:0,0:0:0:0:
292,116,141284,6,0,P|277:142|263:175,1,51.25,8|0,0:0|0:0,0:0:0:0:
440,212,141438,2,0,P|429:188|417:166,1,51.25,8|0,0:0|0:0,0:0:0:0:
328,12,141591,1,8,0:0:0:0:
188,80,141745,5,2,1:2:0:0:
178,131,141822,1,2,1:2:0:0:
168,182,141899,1,0,1:0:0:0:
292,116,142053,1,2,1:2:0:0:
80,92,142207,1,10,0:0:0:0:
80,92,142284,1,2,0:0:0:0:
80,92,142361,1,2,1:2:0:0:
272,208,142514,1,10,0:0:0:0:
292,116,142668,1,2,1:2:0:0:
373,64,142822,1,10,0:0:0:0:
373,64,142899,1,2,0:0:0:0:
373,64,142976,1,2,1:2:0:0:
444,316,143130,6,0,L|328:312,1,102.5,10|0,0:0|1:0,0:0:0:0:
456,208,143438,1,10,0:0:0:0:
456,208,143514,1,2,0:0:0:0:
456,208,143591,1,2,1:2:0:0:
268,344,143745,2,0,L|200:340,1,51.25,10|2,0:0|0:0,0:0:0:0:
272,208,143899,1,2,1:2:0:0:
352,320,144053,2,0,L|420:316,2,51.25,10|0|0,0:0|0:0|1:0,0:0:0:0:
104,260,144361,6,0,L|-8:256,1,102.5,14|0,0:0|1:0,0:0:0:0:
120,356,144668,1,10,0:0:0:0:
120,356,144745,1,2,0:0:0:0:
120,356,144822,1,2,1:2:0:0:
16,180,144976,2,0,L|128:176,1,102.5,8|0,0:0|1:0,0:0:0:0:
4,280,145284,1,10,0:0:0:0:
4,280,145361,1,2,0:0:0:0:
4,280,145438,1,2,1:2:0:0:
148,100,145591,6,0,L|36:96,1,102.5,8|0,0:0|1:0,0:0:0:0:
164,196,145899,1,10,0:0:0:0:
164,196,145976,1,2,0:0:0:0:
164,196,146053,1,2,1:2:0:0:
260,232,146207,1,10,0:0:0:0:
260,232,146284,1,2,0:0:0:0:
260,232,146361,1,2,1:2:0:0:
260,232,146438,1,2,0:0:0:0:
260,232,146514,2,0,L|320:228,1,51.25,10|0,0:0|0:0,0:0:0:0:
437,276,146668,2,0,L|488:272,1,51.25,2|0,1:2|0:0,0:0:0:0:
366,347,146822,6,0,L|260:360,1,102.5,14|0,0:0|1:0,0:0:0:0:
168,380,147130,1,10,0:0:0:0:
168,380,147207,1,2,0:0:0:0:
168,380,147284,1,2,1:2:0:0:
176,224,147438,2,0,L|186:274,1,51.25,8|0,0:0|0:0,0:0:0:0:
103,315,147591,2,0,L|79:200,1,102.5,2|10,1:2|0:0,0:0:0:0:
122,154,147822,1,2,0:0:0:0:
59,118,147899,2,0,L|2:130,1,51.25,10|0,1:2|0:0,0:0:0:0:
176,48,148053,6,0,L|275:24,1,102.5,10|0,0:0|1:0,0:0:0:0:
372,0,148361,1,10,0:0:0:0:
372,0,148438,1,2,0:0:0:0:
372,0,148514,1,2,1:2:0:0:
512,192,148668,2,0,L|407:166,1,102.5,10|0,0:0|0:0,0:0:0:0:
324,132,148976,1,10,0:0:0:0:
324,132,149053,1,2,0:0:0:0:
324,132,149130,1,2,1:2:0:0:
96,176,149284,6,0,L|109:291,1,102.5,14|0,0:0|1:0,0:0:0:0:
198,330,149591,1,10,0:0:0:0:
198,330,149668,1,2,0:0:0:0:
198,330,149745,1,2,1:2:0:0:
377,215,149899,1,10,0:0:0:0:
281,249,150053,1,2,1:2:0:0:
206,197,150207,1,10,0:0:0:0:
206,197,150284,1,2,0:0:0:0:
206,197,150361,1,2,1:2:0:0:
238,55,150514,6,0,L|359:40,1,102.5,10|0,0:0|1:0,0:0:0:0:
436,79,150822,1,10,0:0:0:0:
436,79,150899,1,2,0:0:0:0:
436,79,150976,1,2,1:2:0:0:
352,198,151130,1,10,0:0:0:0:
349,223,151207,1,2,0:0:0:0:
346,249,151284,1,10,1:2:0:0:
343,273,151361,1,2,0:0:0:0:
339,299,151438,2,0,L|332:361,3,51.25,10|2|2|2,0:0|0:0|1:2|0:0,0:0:0:0:
270,257,151745,6,0,L|149:251,1,102.5,2|0,0:0|0:0,0:0:0:0:
67,125,152053,2,0,L|178:130,1,102.5,2|0,0:0|0:0,0:0:0:0:
422,206,152361,2,0,P|410:156|415:105,1,102.5,2|0,0:0|0:0,0:0:0:0:
320,0,152591,2,0,P|331:60|319:120,1,102.5,2|0,0:0|0:0,0:0:0:0:
275,159,152822,1,2,0:0:0:0:
323,293,152976,5,0,0:0:0:0:
230,372,153130,2,0,L|174:368,1,51.25,2|0,0:0|0:0,0:0:0:0:
131,313,153284,2,0,L|79:316,2,51.25,2|0|0,0:0|0:0|0:0,0:0:0:0:
304,176,153591,2,0,P|356:180|424:172,1,102.5,2|0,0:0|0:0,0:0:0:0:
512,272,153822,2,0,P|460:268|410:273,1,102.5,2|0,0:0|0:0,0:0:0:0:
384,352,154053,1,2,0:0:0:0:
286,261,154207,6,0,L|166:257,1,102.5,6|0,0:2|0:0,0:0:0:0:
0,337,154514,2,0,L|102:340,1,102.5,2|0,0:0|0:0,0:0:0:0:
122,203,154822,2,0,P|134:156|110:91,1,102.5,2|0,0:0|0:0,0:0:0:0:
245,214,155053,2,0,P|232:260|257:326,1,102.5,2|0,0:0|0:0,0:0:0:0:
342,187,155284,6,0,P|294:130|221:140,1,153.75,2|0,0:0|0:0,0:0:0:0:
180,79,155591,1,0,0:0:0:0:
358,174,155745,1,0,0:0:0:0:
304,55,155899,1,0,0:0:0:0:
232,243,156053,2,0,L|164:239,1,51.25,2|2,2:2|2:2,2:2:0:0:
124,285,156207,2,0,L|59:263,1,51.25,2|2,2:2|2:2,2:2:0:0:
335,148,156361,2,0,L|403:144,1,51.25,2|2,2:2|2:2,2:2:0:0:
443,190,156515,2,0,L|508:168,1,51.25,2|2,2:2|2:2,2:2:0:0:
258,108,156668,6,0,L|145:124,1,102.5,6|0,0:2|0:0,0:0:0:0:
372,35,156976,2,0,L|477:19,1,102.5,2|0,0:0|0:0,0:0:0:0:
276,92,157284,2,0,P|284:148|268:208,1,102.5,2|0,0:0|0:0,0:0:0:0:
387,268,157514,2,0,P|377:217|385:167,1,102.5,2|0,0:0|0:0,0:0:0:0:
430,111,157745,1,2,0:0:0:0:
461,301,157899,5,0,0:0:0:0:
304,368,158053,2,0,L|248:364,1,51.25
184,328,158207,1,0,0:0:0:0:
204,229,158361,1,0,0:0:0:0:
43,147,158514,1,2,0:2:0:0:
83,241,158668,1,2,0:2:0:0:
0,279,158822,1,0,0:0:0:0:
0,279,158899,1,0,0:0:0:0:
0,279,158976,1,0,0:0:0:0:
152,72,159130,6,0,P|192:36|260:32,1,102.5,6|0,2:0|0:0,0:0:0:0:
328,76,159438,1,0,0:0:0:0:
332,90,159514,1,0,0:0:0:0:
338,104,159591,1,0,0:0:0:0:
163,167,159745,1,0,0:0:0:0:
313,204,159899,1,0,0:0:0:0:
151,323,160053,1,0,0:0:0:0:
146,338,160130,1,0,0:0:0:0:
141,353,160207,1,0,0:0:0:0:
224,292,160361,6,0,L|340:288,1,115.312504398823
399,240,160668,1,2,0:0:0:0:
438,174,160745,1,2,0:0:0:0:
389,112,160822,1,2,0:0:0:0:
316,140,160899,1,2,0:0:0:0:
321,218,160976,1,2,0:0:0:0:
293,231,161053,1,2,0:0:0:0:
265,244,161130,1,2,0:0:0:0:
237,257,161207,1,2,0:0:0:0:
217,334,161284,1,2,0:0:0:0:
203,340,161361,1,2,0:0:0:0:
189,347,161438,1,2,0:0:0:0:
175,353,161514,1,2,0:0:0:0:
92,340,161591,5,4,0:0:0:0:
116,295,161668,1,0,0:0:0:0:
123,245,161745,1,8,0:0:0:0:
111,195,161822,1,0,0:0:0:0:
82,153,161899,2,0,L|16:140,1,51.25
53,29,162053,2,0,L|104:20,3,51.25,8|0|0|0,0:0|0:0|0:0|0:0,0:0:0:0:
132,96,162361,2,0,L|198:82,1,51.25,8|0,0:0|0:0,0:0:0:0:
232,148,162514,2,0,L|298:134,1,51.25
348,184,162668,2,0,L|414:170,1,51.25,8|0,0:0|0:0,0:0:0:0:
433,55,162822,5,0,0:0:0:0:
393,83,162899,1,0,0:0:0:0:
397,132,162976,1,8,0:0:0:0:
441,154,163053,1,0,0:0:0:0:
482,127,163130,2,0,L|493:187,1,51.25
474,247,163284,2,0,L|484:297,1,51.25,8|0,0:0|0:0,0:0:0:0:
214,268,163438,2,0,L|205:217,1,51.25
232,148,163591,2,0,L|222:97,1,51.25,8|0,0:0|0:0,0:0:0:0:
172,40,163745,1,0,0:0:0:0:
147,45,163822,1,0,0:0:0:0:
121,47,163899,1,8,0:0:0:0:
95,46,163976,1,0,0:0:0:0:
70,42,164053,6,0,P|45:38|16:28,1,51.25,4|0,0:0|0:0,0:0:0:0:
68,120,164207,1,8,0:0:0:0:
68,120,164284,1,0,0:0:0:0:
68,120,164361,2,0,L|80:180,1,51.25
190,214,164514,2,0,L|178:274,1,51.25,8|0,0:0|0:0,0:0:0:0:
160,344,164668,1,0,0:0:0:0:
316,156,164822,1,8,0:0:0:0:
176,120,164976,1,0,0:0:0:0:
332,308,165130,1,8,0:0:0:0:
460,244,165284,5,0,0:0:0:0:
431,201,165361,1,0,0:0:0:0:
418,152,165438,1,8,0:0:0:0:
423,101,165514,1,0,0:0:0:0:
444,55,165591,2,0,L|500:40,1,51.25
316,156,165745,2,0,L|260:140,1,51.25,8|0,0:0|0:0,0:0:0:0:
176,120,165899,1,0,0:0:0:0:
280,272,166053,1,8,0:0:0:0:
316,156,166207,1,0,0:0:0:0:
160,256,166361,1,8,0:0:0:0:
400,344,166514,5,4,0:2:0:0:
418,296,166591,1,0,0:0:0:0:
423,245,166668,1,8,0:0:0:0:
414,195,166745,1,0,0:0:0:0:
392,149,166822,2,0,L|404:96,1,51.25
316,156,166976,1,8,0:0:0:0:
316,156,167053,1,0,0:0:0:0:
316,156,167130,2,0,L|304:106,1,51.25
260,208,167284,2,0,L|192:192,1,51.25,8|0,0:0|0:0,0:0:0:0:
160,256,167438,2,0,L|96:227,1,51.25
46,272,167591,2,0,L|-11:231,1,51.25,8|0,0:0|2:0,2:0:0:0:
96,60,167745,5,4,0:0:0:0:
138,84,167822,1,0,0:0:0:0:
143,133,167899,1,8,0:0:0:0:
106,165,167976,1,0,0:0:0:0:
58,154,168053,2,0,L|-3:146,1,51.25
233,25,168207,2,0,L|294:29,1,51.25,8|0,0:0|0:0,0:0:0:0:
352,56,168361,1,0,0:0:0:0:
345,80,168438,1,0,0:0:0:0:
343,106,168514,1,8,0:0:0:0:
348,131,168591,1,0,0:0:0:0:
404,176,168668,1,0,0:0:0:0:
410,200,168745,1,0,0:0:0:0:
412,226,168822,1,8,0:0:0:0:
407,251,168899,1,0,0:0:0:0:
361,280,168976,5,4,0:2:0:0:
396,316,169053,1,0,0:0:0:0:
446,323,169130,1,8,0:0:0:0:
489,298,169207,1,0,0:0:0:0:
508,252,169284,1,0,0:0:0:0:
494,203,169361,1,0,0:0:0:0:
454,174,169438,1,8,0:0:0:0:
404,176,169514,1,0,0:0:0:0:
348,164,169591,2,0,L|340:112,3,51.25,0|0|8|0,0:0|0:0|0:0|0:0,0:0:0:0:
276,196,169899,2,0,L|268:246,3,51.25,0|0|8|0,0:0|0:0|0:0|0:0,0:0:0:0:
220,144,170207,6,0,L|212:92,1,51.25
308,24,170361,2,0,L|300:74,1,51.25,8|0,0:0|0:0,0:0:0:0:
276,196,170514,1,0,0:0:0:0:
272,221,170591,1,0,0:0:0:0:
268,246,170668,1,8,0:0:0:0:
262,271,170745,1,0,0:0:0:0:
258,297,170822,2,0,L|250:347,3,51.25,0|0|8|0,0:0|0:0|0:0|0:0,0:0:0:0:
181,355,171130,1,6,0:0:0:0:
163,287,171207,1,2,0:0:0:0:
146,218,171284,1,2,0:0:0:0:
133,151,171361,1,2,0:0:0:0:
120,83,171438,5,0,0:0:0:0:
144,89,171514,1,0,0:0:0:0:
170,91,171591,1,8,0:0:0:0:
195,91,171668,1,0,0:0:0:0:
221,87,171745,2,0,P|249:83|277:71,2,51.25,0|0|8,0:0|0:0|0:0,0:0:0:0:
364,148,171976,2,0,P|338:144|314:135,2,51.25
220,212,172207,2,0,P|248:208|276:196,1,51.25,8|0,0:0|0:0,0:0:0:0:
384,260,172361,2,0,P|358:256|334:247,1,51.25
240,336,172514,2,0,P|268:332|296:320,1,51.25,8|0,0:0|0:0,0:0:0:0:
144,222,172668,5,0,0:0:0:0:
140,247,172745,1,0,0:0:0:0:
136,272,172822,1,8,0:0:0:0:
132,297,172899,1,0,0:0:0:0:
129,324,172976,2,0,L|121:376,1,51.25
39,294,173130,2,0,L|32:244,1,51.25,8|0,0:0|0:0,0:0:0:0:
329,205,173284,2,0,L|322:256,1,51.25
256,356,173438,2,0,L|248:305,1,51.25,8|0,0:0|0:0,0:0:0:0:
304,116,173591,1,0,0:0:0:0:
329,112,173668,1,0,0:0:0:0:
354,115,173745,1,8,0:0:0:0:
378,126,173822,1,0,0:0:0:0:
400,144,173899,5,0,0:0:0:0:
385,95,173976,1,0,0:0:0:0:
345,65,174053,1,8,0:0:0:0:
295,64,174130,1,0,0:0:0:0:
254,93,174207,1,0,0:0:0:0:
104,128,174361,1,8,0:0:0:0:
154,127,174438,1,0,0:0:0:0:
195,156,174514,1,0,0:0:0:0:
124,228,174668,1,8,0:0:0:0:
187,40,174822,1,0,0:0:0:0:
227,32,174899,1,0,0:0:0:0:
255,56,174976,1,8,0:0:0:0:
295,64,175053,1,0,0:0:0:0:
327,28,175130,5,0,0:0:0:0:
374,15,175207,1,0,0:0:0:0:
412,46,175284,1,8,0:0:0:0:
410,95,175361,1,0,0:0:0:0:
423,143,175438,1,0,0:0:0:0:
375,130,175514,1,0,0:0:0:0:
337,161,175591,1,8,0:0:0:0:
339,210,175668,1,0,0:0:0:0:
383,232,175745,1,0,0:0:0:0:
413,285,175822,1,0,0:0:0:0:
389,342,175899,1,8,0:0:0:0:
329,358,175976,1,0,0:0:0:0:
281,303,176053,1,0,0:0:0:0:
213,278,176130,1,0,0:0:0:0:
157,323,176207,1,8,0:0:0:0:
90,351,176284,1,0,0:0:0:0:
33,303,176361,5,0,0:0:0:0:
42,279,176438,1,0,0:0:0:0:
45,253,176514,1,8,0:0:0:0:
43,228,176591,1,0,0:0:0:0:
36,203,176668,2,0,L|44:148,2,51.25,0|0|8,0:0|0:0|0:0,0:0:0:0:
128,128,176899,2,0,L|120:72,2,51.25
219,37,177130,2,0,L|212:88,1,51.25,8|0,0:0|0:0,0:0:0:0:
284,116,177284,2,0,L|263:163,1,51.25
320,220,177438,2,0,L|288:260,1,51.25,8|0,0:0|0:0,0:0:0:0:
192,344,177591,5,0,0:0:0:0:
143,334,177668,1,0,0:0:0:0:
126,288,177745,1,8,0:0:0:0:
154,248,177822,1,0,0:0:0:0:
203,251,177899,2,0,L|164:216,1,51.25
184,99,178053,2,0,L|146:65,1,51.25,8|0,0:0|0:0,0:0:0:0:
293,184,178207,1,0,0:0:0:0:
366,191,178283,1,0,0:0:0:0:
413,133,178360,1,0,0:0:0:0:
390,63,178438,1,0,0:0:0:0:
319,52,178514,2,0,L|325:102,1,51.25,2|0,0:0|0:0,0:0:0:0:
495,218,178668,2,0,L|489:168,1,51.25,2|0,0:0|0:0,0:0:0:0:
365,358,178822,5,12,1:0:0:0:
365,358,178899,1,0,0:0:0:0:
365,358,178976,1,0,0:0:0:0:
365,358,179053,1,0,0:0:0:0:
365,358,179130,2,0,L|423:346,1,51.25,2|0,0:0|0:0,0:0:0:0:
247,148,179284,5,12,1:0:0:0:
247,148,179360,1,0,0:0:0:0:
247,148,179437,1,0,0:0:0:0:
247,148,179514,1,0,0:0:0:0:
247,148,179591,2,0,L|253:198,1,51.25,2|0,0:0|0:0,0:0:0:0:
127,338,179745,5,12,1:0:0:0:
127,338,179822,1,0,0:0:0:0:
127,338,179899,1,0,0:0:0:0:
127,338,179976,1,0,0:0:0:0:
127,338,180053,2,0,L|74:347,1,51.25,2|0,0:0|0:0,0:0:0:0:
111,87,180207,5,12,1:0:0:0:
111,87,180284,1,0,0:0:0:0:
111,87,180360,1,0,0:0:0:0:
111,87,180437,1,0,0:0:0:0:
111,87,180514,2,0,L|102:34,1,51.25,2|0,0:0|0:0,0:0:0:0:
168,216,180668,6,0,L|218:206,1,51.25,12|0,1:0|0:0,0:0:0:0:
83,183,180822,1,2,0:0:0:0:
83,183,180899,1,2,0:0:0:0:
83,183,180976,6,0,P|89:247|73:295,1,115.312504398823,12|0,1:0|0:0,0:0:0:0:
136,348,181284,5,4,0:0:0:0:
186,357,181361,1,0,0:0:0:0:
237,362,181438,1,8,0:0:0:0:
288,364,181514,1,0,0:0:0:0:
339,361,181591,1,0,0:0:0:0:
390,355,181668,1,0,0:0:0:0:
440,345,181745,1,8,0:0:0:0:
392,332,181822,1,0,0:0:0:0:
363,291,181899,1,0,0:0:0:0:
368,241,181976,1,0,0:0:0:0:
404,206,182053,1,8,0:0:0:0:
454,202,182130,1,0,0:0:0:0:
494,232,182207,2,0,L|512:184,3,51.25,0|0|8|0,0:0|0:0|0:0|0:0,0:0:0:0:
463,267,182514,5,0,0:0:0:0:
413,281,182591,1,0,0:0:0:0:
363,291,182668,1,8,0:0:0:0:
312,295,182745,1,0,0:0:0:0:
261,294,182822,1,0,0:0:0:0:
210,288,182899,1,0,0:0:0:0:
162,275,182976,1,8,0:0:0:0:
194,237,183053,1,0,0:0:0:0:
191,187,183130,1,0,0:0:0:0:
153,154,183207,1,0,0:0:0:0:
103,157,183284,1,8,0:0:0:0:
70,194,183361,1,0,0:0:0:0:
73,244,183438,1,0,0:0:0:0:
41,206,183514,1,0,0:0:0:0:
34,156,183591,1,8,0:0:0:0:
56,110,183668,1,0,0:0:0:0:
98,83,183745,6,0,L|160:76,1,51.25
264,12,183899,2,0,L|202:4,1,51.25,8|0,0:0|0:0,0:0:0:0:
304,100,184053,1,0,0:0:0:0:
320,96,184130,1,0,0:0:0:0:
336,92,184207,2,0,L|392:80,1,51.25,8|0,0:0|0:0,0:0:0:0:
280,196,184361,1,0,0:0:0:0:
296,192,184438,1,0,0:0:0:0:
312,188,184514,2,0,L|368:176,1,51.25,8|0,0:0|0:0,0:0:0:0:
252,284,184668,1,0,0:0:0:0:
268,280,184745,1,0,0:0:0:0:
284,276,184822,2,0,L|340:264,1,51.25,8|0,0:0|0:0,0:0:0:0:
216,368,184976,5,0,0:0:0:0:
232,364,185053,1,0,0:0:0:0:
248,360,185130,2,0,L|304:348,1,51.25,8|0,0:0|0:0,0:0:0:0:
120,316,185284,2,0,L|176:304,1,51.25
16,256,185438,2,0,L|72:244,1,51.25,8|0,0:0|0:0,0:0:0:0:
128,104,185591,1,0,0:0:0:0:
85,129,185668,1,0,0:0:0:0:
84,178,185745,1,8,0:0:0:0:
125,204,185822,1,0,0:0:0:0:
170,184,185899,2,0,L|228:176,1,51.25
68,56,186053,2,0,L|10:48,1,51.25,8|0,0:0|0:0,0:0:0:0:
222,255,186207,5,4,0:2:0:0:
270,244,186284,1,0,0:0:0:0:
297,202,186361,1,8,0:0:0:0:
285,153,186438,1,0,0:0:0:0:
243,128,186514,1,0,0:0:0:0:
194,140,186591,1,0,0:0:0:0:
170,184,186668,1,8,0:0:0:0:
152,136,186745,1,0,0:0:0:0:
160,86,186822,1,0,0:0:0:0:
191,46,186899,1,0,0:0:0:0:
238,26,186976,1,8,0:0:0:0:
288,32,187053,1,0,0:0:0:0:
329,61,187130,1,0,0:0:0:0:
380,70,187207,1,0,0:0:0:0:
431,71,187284,1,8,0:0:0:0:
482,65,187361,1,0,0:0:0:0:
452,24,187438,5,0,0:0:0:0:
401,28,187514,1,0,0:0:0:0:
365,63,187591,1,8,0:0:0:0:
359,113,187668,1,0,0:0:0:0:
385,156,187745,1,0,0:0:0:0:
432,174,187822,1,0,0:0:0:0:
480,158,187899,1,8,0:0:0:0:
449,198,187976,1,0,0:0:0:0:
407,227,188053,1,0,0:0:0:0:
357,240,188130,1,0,0:0:0:0:
306,237,188207,1,8,0:0:0:0:
259,217,188284,1,0,0:0:0:0:
221,183,188361,1,0,0:0:0:0:
262,155,188438,1,0,0:0:0:0:
269,105,188514,1,8,0:0:0:0:
238,66,188591,1,0,0:0:0:0:
188,63,188668,5,4,0:2:0:0:
183,64,188745,1,0,0:0:0:0:
178,65,188822,1,8,0:0:0:0:
173,66,188899,1,0,0:0:0:0:
168,67,188976,1,0,0:0:0:0:
163,67,189053,1,0,0:0:0:0:
158,68,189130,1,8,0:0:0:0:
153,69,189207,1,0,0:0:0:0:
148,69,189284,1,0,0:0:0:0:
143,70,189361,1,0,0:0:0:0:
138,70,189438,1,8,0:0:0:0:
133,71,189514,1,0,0:0:0:0:
128,71,189591,1,0,0:0:0:0:
122,71,189668,1,0,0:0:0:0:
117,71,189745,1,8,0:0:0:0:
112,71,189822,1,0,0:0:0:0:
108,70,189899,1,0,0:0:0:0:
130,81,189976,1,0,0:0:0:0:
149,99,190053,1,8,0:0:0:0:
161,121,190130,1,0,0:0:0:0:
167,146,190207,1,0,0:0:0:0:
165,171,190284,1,0,0:0:0:0:
156,195,190361,1,8,0:0:0:0:
141,215,190438,1,0,0:0:0:0:
120,230,190514,1,0,0:0:0:0:
96,238,190591,1,0,0:0:0:0:
70,238,190668,1,8,0:0:0:0:
45,232,190745,1,0,0:0:0:0:
24,218,190822,5,8,0:0:0:0:
84,160,190899,1,8,0:0:0:0:
167,146,190976,1,8,0:0:0:0:
237,193,191053,1,8,0:0:0:0:
245,276,191130,6,0,L|237:336,1,51.25,12|0,0:0|0:0,0:0:0:0:
324,244,191284,1,2,0:0:0:0:
324,244,191361,1,2,0:0:0:0:
324,244,191438,2,0,L|332:304,1,51.25,14|0,0:0|0:0,0:0:0:0:
408,204,191591,1,2,0:0:0:0:
408,204,191668,1,2,0:0:0:0:
408,204,191745,2,0,L|431:259,1,51.25,14|0,0:0|0:0,0:0:0:0:
484,340,191899,1,2,0:0:0:0:
484,340,191976,2,0,L|508:224,1,102.5,10|2,0:0|0:0,0:0:0:0:
406,319,192207,2,0,L|348:307,1,51.25,10|2,0:0|0:0,0:0:0:0:
408,204,192361,5,6,0:0:0:0:
408,204,192438,1,2,0:0:0:0:
408,204,192514,2,0,L|418:153,1,51.25,10|0,0:0|0:0,0:0:0:0:
484,112,192668,2,0,L|494:61,1,51.25,14|0,0:0|0:0,0:0:0:0:
438,13,192822,1,2,0:0:0:0:
438,13,192899,1,2,0:0:0:0:
438,13,192976,2,0,L|378:5,1,51.25,14|0,0:0|0:0,0:0:0:0:
317,36,193130,1,2,0:0:0:0:
317,36,193207,2,0,L|284:155,1,102.5,10|0,0:0|0:0,0:0:0:0:
275,213,193438,1,0,0:1:0:0:
336,268,193514,1,2,0:1:0:0:
336,268,193591,6,0,L|332:372,1,102.5,12|0,0:1|0:0,0:0:0:0:
208,247,193822,1,2,0:0:0:0:
208,247,193899,2,0,L|177:346,1,102.5,10|0,0:0|0:0,0:0:0:0:
95,210,194130,1,2,0:0:0:0:
95,210,194207,2,0,L|39:298,1,102.5,10|0,0:0|0:0,0:0:0:0:
76,53,194438,2,0,L|0:123,1,102.5,10|0,0:0|0:0,0:0:0:0:
112,129,194668,2,0,L|168:121,1,51.25,8|0,0:0|0:0,0:0:0:0:
272,72,194822,5,2,0:0:0:0:
272,72,194899,1,2,0:0:0:0:
272,72,194976,2,0,L|216:64,1,51.25,10|0,0:0|0:0,0:0:0:0:
300,168,195130,1,2,0:0:0:0:
300,168,195207,1,2,0:0:0:0:
300,168,195284,2,0,L|244:160,1,51.25,8|0,0:0|0:0,0:0:0:0:
328,264,195438,1,2,0:0:0:0:
328,264,195514,1,2,0:0:0:0:
328,264,195591,2,0,L|272:256,1,51.25,10|0,0:0|0:0,0:0:0:0:
194,356,195745,5,6,1:0:0:0:
245,353,195822,1,2,0:0:0:0:
296,350,195899,2,0,L|348:347,1,51.25,2|0,0:0|0:0,0:0:0:0:
447,158,196053,5,14,1:0:0:0:
445,208,196131,1,2,0:0:0:0:
445,208,196208,1,2,0:0:0:0:
445,208,196285,1,2,0:0:0:0:
445,208,196361,2,0,L|497:204,1,51.25
317,121,196514,5,14,1:0:0:0:
314,92,196591,1,2,0:0:0:0:
314,92,196668,1,2,0:0:0:0:
314,92,196745,1,2,0:0:0:0:
314,92,196822,6,0,L|338:37,1,51.25,2|0,0:0|0:0,0:0:0:0:
193,199,196976,5,14,1:0:0:0:
215,168,197053,1,2,0:0:0:0:
215,168,197130,2,0,L|224:228,1,51.25,2|0,0:0|0:0,0:0:0:0:
37,156,197284,5,14,1:0:0:0:
58,205,197360,1,2,0:0:0:0:
58,205,197437,1,2,0:0:0:0:
58,205,197514,1,2,0:0:0:0:
58,205,197591,2,0,L|-1:194,1,51.25,2|0,0:0|0:0,0:0:0:0:
205,344,197745,5,14,1:0:0:0:
192,319,197822,1,2,0:0:0:0:
192,319,197899,1,2,0:0:0:0:
192,319,197976,1,2,0:0:0:0:
192,319,198053,2,0,L|177:380,1,51.25,2|0,0:0|0:0,0:0:0:0:
248,102,198207,5,14,1:0:0:0:
248,148,198283,1,2,0:0:0:0:
248,148,198360,1,2,0:0:0:0:
248,148,198437,1,2,0:0:0:0:
248,148,198514,6,8,L|312:144,1,51.25,8|8,1:0|0:0,0:0:0:0:
316,164,198668,2,0,L|380:160,1,51.25
378,184,198822,2,0,L|442:180,1,51.25
440,204,198976,2,0,L|504:200,1,51.25
388,280,199130,6,0,L|324:276,1,51.25,8|0,1:0|0:0,0:0:0:0:
320,296,199284,2,0,L|256:292,1,51.25
258,316,199438,2,0,L|194:312,1,51.25
196,336,199591,2,0,L|132:332,1,51.25
40,220,199745,6,0,L|104:216,1,51.25,8|0,1:0|0:0,0:0:0:0:
32,232,199899,2,0,L|96:228,1,51.25
24,244,200053,2,0,L|88:240,1,51.25
16,256,200207,2,0,L|80:252,1,51.25
196,168,200361,6,0,L|132:164,1,51.25,8|0,1:0|0:0,0:0:0:0:
204,180,200514,2,0,L|140:176,1,51.25
212,192,200668,2,0,L|148:188,1,51.25
220,204,200822,2,0,L|156:200,1,51.25
292,296,200976,6,0,L|356:292,1,51.25,8|0,1:0|0:0,0:0:0:0:
288,304,201130,2,0,L|352:300,1,51.25
284,312,201284,2,0,L|348:308,1,51.25
280,319,201438,2,0,L|344:315,1,51.25
432,200,201591,6,0,L|368:196,1,51.25,8|0,1:0|0:0,0:0:0:0:
436,208,201745,2,0,L|372:204,1,51.25
440,216,201899,2,0,L|376:212,1,51.25
444,224,202053,2,0,L|380:220,1,51.25
292,104,202207,6,0,L|416:92,1,115.312504398823,8|0,1:0|0:0,0:0:0:0:
307,79,202514,1,0,0:0:0:0:
303,129,202591,1,0,0:0:0:0:
331,171,202668,1,0,0:0:0:0:
379,187,202745,1,0,0:0:0:0:
427,170,202822,6,2,P|465:190|473:233,1,89.6875,10|0,1:0|0:0,1:0:0:0:
404,376,203438,5,8,1:0:0:0:
404,376,203514,1,0,0:0:0:0:
404,376,203591,1,0,0:0:0:0:
404,376,203668,1,0,0:0:0:0:
404,376,203745,1,0,0:0:0:0:
404,376,203822,1,0,0:0:0:0:
404,376,203899,2,0,L|324:372,1,51.25
252,288,204053,5,8,1:0:0:0:
252,288,204130,1,0,0:0:0:0:
252,288,204207,1,0,0:0:0:0:
252,288,204284,1,0,0:0:0:0:
252,288,204361,1,0,0:0:0:0:
252,288,204438,1,0,0:0:0:0:
252,288,204514,2,0,L|332:284,1,51.25
448,308,204668,5,8,1:0:0:0:
448,308,204745,1,0,0:0:0:0:
448,308,204822,1,0,0:0:0:0:
448,308,204899,1,0,0:0:0:0:
448,308,204976,1,0,0:0:0:0:
448,308,205053,1,0,0:0:0:0:
448,308,205130,2,0,L|444:228,1,51.25
452,128,205284,5,8,1:0:0:0:
452,128,205361,1,0,0:0:0:0:
452,128,205438,1,0,0:0:0:0:
452,128,205514,1,0,0:0:0:0:
452,128,205591,1,0,0:0:0:0:
452,128,205668,1,0,0:0:0:0:
452,128,205745,2,0,L|372:132,1,51.25
276,132,205899,5,8,1:0:0:0:
276,132,205976,1,0,0:0:0:0:
276,132,206053,1,0,0:0:0:0:
276,132,206130,1,0,0:0:0:0:
276,132,206207,1,0,0:0:0:0:
276,132,206284,1,0,0:0:0:0:
276,132,206361,2,0,L|280:212,1,51.25
176,264,206514,5,8,1:0:0:0:
176,264,206591,1,0,0:0:0:0:
176,264,206668,1,0,0:0:0:0:
176,264,206745,1,0,0:0:0:0:
176,264,206822,1,0,0:0:0:0:
176,264,206899,1,0,0:0:0:0:
176,264,206976,2,0,L|178:212,1,51.25
62,262,207130,6,0,L|32:376,1,115.312504398823,8|0,1:0|0:0,0:0:0:0:
88,304,207438,1,0,0:0:0:0:
122,341,207514,1,0,0:0:0:0:
170,356,207591,1,0,0:0:0:0:
219,346,207668,1,0,0:0:0:0:
257,312,207745,6,2,P|278:267|265:223,1,89.6875,10|0,1:0|0:0,1:0:0:0:
320,168,208361,5,0,0:0:0:0:
339,213,208438,1,0,0:0:0:0:
387,227,208514,1,8,0:0:0:0:
428,199,208591,1,0,0:0:0:0:
432,150,208668,2,0,L|440:92,1,51.25
392,36,208822,5,8,0:0:0:0:
352,40,208899,1,0,0:0:0:0:
312,44,208976,2,0,L|256:48,1,51.25
160,128,209130,5,8,0:0:0:0:
160,128,209207,1,0,0:0:0:0:
160,128,209284,1,0,0:0:0:0:
197,161,209361,1,0,0:0:0:0:
197,210,209438,1,8,0:0:0:0:
161,244,209514,1,0,0:0:0:0:
111,240,209591,2,0,L|60:236,1,51.25
12,60,209745,5,8,0:0:0:0:
52,56,209822,1,0,0:0:0:0:
92,52,209899,2,0,L|143:47,1,51.25
356,104,210053,5,8,0:0:0:0:
316,100,210130,1,0,0:0:0:0:
276,96,210207,2,0,L|225:91,1,51.25
76,207,210361,5,8,0:0:0:0:
76,207,210438,1,0,0:0:0:0:
76,207,210514,1,0,0:0:0:0:
111,240,210591,1,0,0:0:0:0:
159,230,210668,1,8,0:0:0:0:
177,184,210745,1,0,0:0:0:0:
149,144,210822,2,0,L|156:88,1,51.25,4|0,0:0|0:0,0:0:0:0:
276,96,210976,5,8,0:0:0:0:
280,136,211053,1,0,0:0:0:0:
284,176,211130,2,0,L|290:226,1,51.25
392,308,211284,5,8,0:0:0:0:
396,268,211361,1,0,0:0:0:0:
400,228,211438,2,0,L|406:177,1,51.25,0|0,0:0|0:0,0:0:0:0:
424,104,211591,5,8,0:0:0:0:
424,104,211668,1,0,0:0:0:0:
424,104,211745,1,0,0:0:0:0:
464,129,211822,1,0,0:0:0:0:
507,105,211899,1,8,0:0:0:0:
507,56,211976,1,0,0:0:0:0:
464,33,212053,2,0,L|404:24,1,51.25
196,104,212207,5,8,0:0:0:0:
236,100,212284,1,0,0:0:0:0:
276,96,212361,2,0,L|336:87,1,51.25
156,32,212514,5,8,0:0:0:0:
116,28,212591,1,0,0:0:0:0:
76,24,212668,2,0,L|16:15,1,51.25
68,112,212822,2,0,L|8:103,1,51.25,8|0,0:0|0:0,0:0:0:0:
64,196,212976,2,0,L|4:187,1,51.25
60,284,213130,2,0,L|0:275,1,51.25,8|0,0:0|0:0,0:0:0:0:
148,340,213284,5,4,0:0:0:0:
188,365,213361,1,0,0:0:0:0:
231,341,213438,1,8,0:0:0:0:
231,292,213514,1,0,0:0:0:0:
201,252,213591,2,0,L|141:243,1,51.25
76,156,213745,5,8,0:0:0:0:
116,152,213822,1,0,0:0:0:0:
156,148,213899,2,0,L|216:139,1,51.25
276,32,214053,5,8,0:0:0:0:
276,32,214130,1,0,0:0:0:0:
276,32,214207,1,0,0:0:0:0:
262,80,214284,1,0,0:0:0:0:
287,123,214361,1,8,0:0:0:0:
335,137,214438,1,0,0:0:0:0:
378,113,214514,2,0,L|440:108,1,51.25
496,220,214668,5,8,0:0:0:0:
456,216,214745,1,0,0:0:0:0:
416,212,214822,2,0,L|354:207,1,51.25
280,308,214976,5,8,0:0:0:0:
320,304,215053,1,0,0:0:0:0:
360,300,215130,2,0,L|422:295,1,51.25
190,349,215284,5,8,0:0:0:0:
190,349,215361,1,0,0:0:0:0:
190,349,215438,1,0,0:0:0:0:
175,301,215514,1,0,0:0:0:0:
206,263,215591,1,8,0:0:0:0:
255,266,215668,1,0,0:0:0:0:
280,308,215745,2,0,L|276:360,1,51.25,4|0,0:0|0:0,0:0:0:0:
136,240,215899,5,8,0:0:0:0:
96,236,215976,1,0,0:0:0:0:
56,232,216053,2,0,L|0:228,1,51.25
100,140,216207,5,8,0:0:0:0:
140,136,216284,1,0,0:0:0:0:
180,132,216361,2,0,L|236:128,1,51.25
300,24,216514,5,8,0:0:0:0:
300,24,216591,1,0,0:0:0:0:
300,24,216668,1,0,0:0:0:0:
286,72,216745,1,0,0:0:0:0:
311,115,216822,1,8,0:0:0:0:
359,129,216899,1,0,0:0:0:0:
402,105,216976,2,0,L|464:100,1,51.25
404,224,217130,5,8,0:0:0:0:
364,220,217207,1,0,0:0:0:0:
324,216,217284,2,0,L|268:212,1,51.25,2|2,0:0|0:0,0:0:0:0:
100,249,217438,5,0,0:0:0:0:
100,249,217514,1,0,0:0:0:0:
100,249,217591,1,2,0:0:0:0:
45,194,217745,1,2,0:0:0:0:
100,140,217899,1,2,0:0:0:0:
154,194,218053,1,2,0:0:0:0:
156,344,218207,6,0,L|0:340,1,153.750005865097,6|0,0:1|0:0,0:0:0:0:
4,188,218745,1,2,0:0:0:0:
4,188,218822,1,2,0:0:0:0:
4,188,218899,1,0,0:0:0:0:
4,188,218976,1,2,0:0:0:0:
76,164,219130,1,2,0:0:0:0:
108,92,219284,1,2,0:0:0:0:
148,280,219438,6,0,L|260:276,1,76.8750029325486,2|0,0:0|0:0,0:0:0:0:
316,200,219668,1,0,0:0:0:0:
316,200,219745,2,0,L|204:196,1,76.8750029325486,2|0,0:0|0:0,0:0:0:0:
180,144,220053,2,0,L|196:96,1,38.4375014662743,2|0,0:0|0:0,0:0:0:0:
276,88,220207,2,0,L|292:40,1,38.4375014662743,2|0,0:0|0:0,0:0:0:0:
376,120,220361,2,0,L|472:116,1,76.875,2|0,0:0|0:0,0:0:0:0:
484,92,220668,6,0,P|472:168|500:252,1,153.750005865097,6|0,0:1|0:0,0:0:0:0:
493,240,221284,2,0,L|452:236,1,38.4375014662743,2|0,0:0|0:0,0:0:0:0:
364,312,221438,1,2,0:0:0:0:
364,312,221514,1,0,0:0:0:0:
364,312,221591,2,0,L|460:308,1,76.875,2|0,0:0|0:0,0:0:0:0:
476,324,221899,5,2,0:0:0:0:
421,378,222053,1,2,0:0:0:0:
385,217,222207,1,10,0:0:0:0:
440,163,222361,1,2,0:0:0:0:
366,144,222514,2,0,L|242:140,1,115.312504398823,2|0,0:0|0:0,0:0:0:0:
160,212,222822,2,0,L|285:219,1,115.312504398823,10|0,0:0|0:0,0:0:0:0:
88,272,223130,6,0,P|68:208|136:120,1,153.750005865097,6|0,0:1|0:0,0:0:0:0:
252,84,223668,1,0,0:0:0:0:
252,84,223745,1,2,0:0:0:0:
252,84,223822,1,0,0:0:0:0:
252,84,223899,1,2,0:0:0:0:
328,92,224053,1,2,0:0:0:0:
300,20,224207,1,2,0:0:0:0:
220,200,224361,6,0,L|328:204,1,76.8750029325486,2|0,0:0|0:0,0:0:0:0:
372,288,224591,1,0,0:0:0:0:
372,288,224668,2,0,L|264:292,1,76.8750029325486,2|0,0:0|0:0,0:0:0:0:
228,332,224976,2,0,L|200:300,1,38.4375014662743,2|0,0:0|0:0,0:0:0:0:
127,343,225130,2,0,L|108:304,1,38.4375014662743,2|0,0:0|0:0,0:0:0:0:
28,312,225284,2,0,L|32:224,1,76.875,2|0,0:0|0:0,0:0:0:0:
48,200,225591,6,0,P|124:208|212:192,1,153.750005865097,6|0,0:1|0:0,0:0:0:0:
199,195,226207,2,0,L|244:192,1,38.4375014662743,2|0,0:0|0:0,0:0:0:0:
328,276,226361,1,2,0:0:0:0:
328,276,226438,1,0,0:0:0:0:
328,276,226514,2,0,L|252:272,1,76.8750029325486
216,288,226822,5,2,0:0:0:0:
284,368,226976,1,2,0:0:0:0:
324,172,227130,1,10,0:0:0:0:
256,92,227284,1,2,0:0:0:0:
360,78,227438,2,2,L|408:76,3,38.4375014662743,2|2|2|2,0:1|0:1|0:1|0:1,0:1:0:0:
451,150,227745,2,2,L|411:146,3,38.4375014662743,2|2|2|2,0:1|0:1|0:1|0:1,0:1:0:0:
382,209,228053,5,12,0:0:0:0:
374,233,228130,1,0,0:0:0:0:
373,259,228207,1,0,0:0:0:0:
378,284,228284,1,0,0:0:0:0:
387,308,228361,2,0,P|393:335|389:359,2,51.25,8|0|0,0:0|0:0|0:0,0:0:0:0:
292,220,228591,1,0,0:0:0:0:
292,220,228668,2,0,P|288:194|294:169,2,51.25,8|0|0,0:0|0:0|0:0,0:0:0:0:
192,300,228899,1,0,0:0:0:0:
192,300,228976,2,0,P|197:324|194:350,1,51.25,8|0,0:0|0:0,0:0:0:0:
124,252,229130,1,0,0:0:0:0:
128,236,229207,1,0,0:0:0:0:
136,220,229284,6,0,P|141:195|138:169,1,51.25,8|0,0:0|0:0,0:0:0:0:
92,56,229438,1,0,0:0:0:0:
92,56,229514,1,0,0:0:0:0:
92,56,229591,2,0,P|86:80|89:106,1,51.25,8|0,0:0|0:0,0:0:0:0:
212,56,229745,1,0,0:0:0:0:
224,44,229822,1,0,0:0:0:0:
236,32,229899,1,8,0:0:0:0:
236,70,229976,1,0,0:0:0:0:
236,108,230053,1,0,0:0:0:0:
236,147,230130,1,0,0:0:0:0:
237,187,230207,2,0,B|300:192|300:192|352:188,1,115.312504398823,8|0,0:0|0:0,0:0:0:0:
444,144,230514,5,12,0:0:0:0:
452,168,230591,1,0,0:0:0:0:
452,193,230668,1,0,0:0:0:0:
444,218,230745,1,0,0:0:0:0:
429,238,230822,2,0,P|426:266|430:289,2,51.25,8|0|0,0:0|0:0|0:0,0:0:0:0:
324,160,231053,1,0,0:0:0:0:
317,169,231130,2,0,P|320:197|316:220,2,51.25,8|0|0,0:0|0:0|0:0,0:0:0:0:
400,68,231361,1,0,0:0:0:0:
405,78,231438,2,0,P|402:106|406:129,1,51.25,8|0,0:0|0:0,0:0:0:0:
508,48,231591,1,0,0:0:0:0:
510,37,231668,1,0,0:0:0:0:
512,26,231745,6,0,P|486:29|461:26,1,51.25,8|0,0:0|0:0,0:0:0:0:
372,80,231899,2,0,P|346:79|322:71,1,51.25
235,200,232053,2,0,P|261:203|286:200,1,51.25,8|0,0:0|0:0,0:0:0:0:
375,254,232207,2,0,P|401:253|425:245,1,51.25
257,340,232361,6,0,P|282:346|306:355,1,51.25,8|0,0:0|0:0,0:0:0:0:
126,359,232515,2,0,P|150:348|174:340,1,51.25
40,324,232668,2,0,L|32:200,1,115.312504398823,8|0,0:0|0:0,0:0:0:0:
52,132,232976,5,12,0:0:0:0:
76,137,233053,1,0,0:0:0:0:
102,139,233130,1,0,0:0:0:0:
128,138,233207,1,0,0:0:0:0:
153,134,233284,2,0,P|184:128|216:128,2,51.25,8|0|0,0:0|0:0|0:0,0:0:0:0:
265,207,233514,1,0,0:0:0:0:
265,207,233591,2,0,P|234:200|202:200,2,51.25,8|0|0,0:0|0:0|0:0,0:0:0:0:
161,281,233822,1,0,0:0:0:0:
161,281,233899,2,0,P|191:274|223:274,1,51.25,8|0,0:0|0:0,0:0:0:0:
330,337,234053,1,0,0:0:0:0:
320,348,234130,1,0,0:0:0:0:
308,360,234207,6,0,P|277:353|245:353,1,51.25,8|0,0:0|0:0,0:0:0:0:
348,260,234361,1,0,0:0:0:0:
348,260,234438,1,0,0:0:0:0:
347,260,234514,2,0,P|370:249|394:242,1,51.25,8|0,0:0|0:0,0:0:0:0:
468,348,234668,5,0,0:0:0:0:
484,340,234745,1,0,0:0:0:0:
500,332,234822,1,8,0:0:0:0:
499,301,234899,1,0,0:0:0:0:
498,270,234976,1,0,0:0:0:0:
497,239,235053,1,0,0:0:0:0:
492,207,235130,2,0,P|440:216|348:196,1,115.312504398823,8|0,0:0|0:0,0:0:0:0:
324,152,235438,5,12,0:0:0:0:
332,127,235514,1,0,0:0:0:0:
335,102,235591,1,0,0:0:0:0:
333,77,235668,1,0,0:0:0:0:
326,52,235745,2,0,P|356:48|388:48,2,51.25,8|0|0,0:0|0:0|0:0,0:0:0:0:
252,160,235976,1,0,0:0:0:0:
252,160,236053,2,0,P|227:156|202:155,2,51.25,8|0|0,0:0|0:0|0:0,0:0:0:0:
320,272,236284,1,0,0:0:0:0:
320,272,236361,2,0,P|349:267|381:267,1,51.25,8|0,0:0|0:0,0:0:0:0:
256,328,236514,1,0,0:0:0:0:
240,332,236591,1,0,0:0:0:0:
224,336,236668,6,0,P|199:337|168:332,1,51.25,8|0,0:0|0:0,0:0:0:0:
103,297,236822,2,0,P|83:281|62:257,1,51.25
29,193,236976,2,0,P|23:168|23:137,1,51.25,8|0,0:0|0:0,0:0:0:0:
32,65,237130,2,0,P|43:42|63:18,1,51.25,8|0,0:0|0:0,0:0:0:0:
247,202,237284,6,0,P|219:202|192:198,1,51.25,8|0,1:0|0:0,0:0:0:0:
267,31,237438,2,0,P|286:49|303:72,1,51.25,8|0,1:0|0:0,0:0:0:0:
156,114,237591,1,6,1:0:0:0:
376,172,237745,5,2,1:2:0:0:
427,170,237822,1,2,1:2:0:0:
478,168,237899,1,2,1:2:0:0:
420,84,238053,1,2,1:0:0:0:
404,280,238207,1,10,0:0:0:0:
408,288,238284,1,2,0:0:0:0:
412,296,238361,1,2,1:2:0:0:
504,340,238514,1,10,0:0:0:0:
483,240,238668,1,2,1:2:0:0:
316,284,238822,1,10,0:0:0:0:
308,288,238899,1,2,0:0:0:0:
300,292,238976,1,2,1:2:0:0:
200,320,239130,6,0,L|84:316,1,102.5,10|0,0:0|1:0,0:0:0:0:
12,256,239438,1,10,0:0:0:0:
9,248,239514,1,2,0:0:0:0:
7,240,239591,1,2,1:2:0:0:
76,164,239745,2,0,L|24:160,1,51.25,10|2,0:0|0:0,0:0:0:0:
156,100,239899,1,2,1:2:0:0:
60,64,240053,2,0,L|8:60,2,51.25,10|2|2,0:0|0:0|1:2,0:0:0:0:
227,68,240361,6,0,L|347:64,1,102.5,14|0,0:0|1:0,0:0:0:0:
415,8,240668,1,10,0:0:0:0:
423,4,240745,1,2,0:0:0:0:
431,0,240822,1,2,1:2:0:0:
512,221,240976,2,0,L|392:217,1,102.5,10|0,0:0|1:0,0:0:0:0:
324,161,241284,1,10,0:0:0:0:
316,157,241361,1,2,0:0:0:0:
308,153,241438,1,2,1:2:0:0:
155,336,241591,6,0,L|275:332,1,102.5,10|0,0:0|1:0,0:0:0:0:
343,276,241899,1,10,0:0:0:0:
351,272,241976,1,2,0:0:0:0:
359,268,242053,1,2,1:2:0:0:
404,176,242207,1,10,0:0:0:0:
412,172,242284,1,2,0:0:0:0:
420,168,242361,1,2,1:2:0:0:
428,164,242438,1,2,0:0:0:0:
436,161,242514,2,0,L|492:133,1,51.25,10|0,0:0|0:0,0:0:0:0:
388,96,242668,2,0,L|434:54,1,51.25,2|0,1:2|0:0,0:0:0:0:
272,32,242822,6,0,L|156:28,1,102.5,14|0,0:0|1:0,0:0:0:0:
69,1,243130,1,10,0:0:0:0:
71,10,243207,1,2,0:0:0:0:
72,20,243284,1,2,1:2:0:0:
20,156,243438,2,0,L|30:206,1,51.25,10|0,0:0|0:0,0:0:0:0:
94,245,243591,2,0,L|198:219,1,102.5,2|10,1:2|0:0,0:0:0:0:
265,230,243822,1,2,0:0:0:0:
255,158,243899,2,0,L|241:98,1,51.25,2|0,1:2|0:0,0:0:0:0:
178,246,244053,6,0,L|202:368,1,102.5,8|0,0:0|0:0,0:0:0:0:
402,270,244361,1,10,0:0:0:0:
412,266,244438,1,2,0:0:0:0:
421,261,244514,1,2,1:2:0:0:
468,353,244668,2,0,L|339:386,1,102.5,10|0,0:0|1:0,0:0:0:0:
362,186,244976,1,10,0:0:0:0:
354,182,245053,1,2,0:0:0:0:
347,177,245130,1,2,1:0:0:0:
276,102,245284,6,0,L|380:74,1,102.5,12|0,0:0|1:0,0:0:0:0:
296,240,245591,1,10,0:0:0:0:
288,244,245668,1,2,0:0:0:0:
280,248,245745,1,2,1:2:0:0:
180,220,245899,1,10,0:0:0:0:
136,128,246053,1,2,1:2:0:0:
236,140,246207,1,10,0:0:0:0:
240,148,246284,1,2,0:0:0:0:
244,156,246361,1,2,1:2:0:0:
208,316,246514,6,0,L|96:312,1,102.5,10|0,0:0|1:0,0:0:0:0:
36,236,246822,1,10,0:0:0:0:
32,228,246899,1,2,0:0:0:0:
28,220,246976,1,2,1:2:0:0:
112,164,247130,1,2,0:0:0:0:
123,138,247207,1,2,0:0:0:0:
135,114,247284,1,2,1:2:0:0:
147,90,247361,1,2,0:0:0:0:
159,66,247438,2,0,L|184:16,3,51.25,10|2|2|2,0:0|0:0|1:2|0:0,0:0:0:0:
240,72,247745,6,0,P|292:76|352:68,1,102.5,6|0,0:0|0:0,0:0:0:0:
501,18,248053,2,0,P|450:14|400:20,1,102.5,2|0,0:0|0:0,0:0:0:0:
456,221,248361,2,0,P|464:165|448:113,1,102.5,2|0,0:0|0:0,0:0:0:0:
378,186,248591,2,0,P|369:236|381:286,1,102.5,2|0,0:0|0:0,0:0:0:0:
359,360,248822,1,2,0:0:0:0:
132,280,248976,5,0,0:0:0:0:
276,260,249130,2,0,L|216:252,1,51.25,2|0,0:0|0:0,0:0:0:0:
140,196,249284,2,0,L|89:202,2,51.25,2|0|0,0:0|0:0|0:0,0:0:0:0:
180,124,249591,2,0,P|192:72|180:16,1,102.5,2|0,0:0|0:0,0:0:0:0:
340,72,249822,2,0,P|331:122|343:171,1,102.5,2|0,0:0|0:0,0:0:0:0:
410,204,250053,1,2,0:0:0:0:
200,98,250207,6,0,L|89:80,1,102.5,6|0,0:0|0:0,0:0:0:0:
254,268,250514,2,0,L|146:253,1,102.5,2|0,0:0|0:0,0:0:0:0:
418,192,250822,2,0,P|404:146|414:88,1,102.5,2|0,0:0|0:0,0:0:0:0:
492,218,251053,2,0,P|501:265|486:321,1,102.5,2|0,0:0|0:0,0:0:0:0:
428,360,251284,2,0,L|272:356,1,153.75,2|0,0:0|0:0,0:0:0:0:
204,324,251591,5,2,0:0:0:0:
280,252,251745,1,0,0:0:0:0:
288,248,251822,1,0,0:0:0:0:
296,244,251899,1,0,0:0:0:0:
96,328,252053,2,0,L|92:268,1,51.25,2|2,2:2|2:2,2:2:0:0:
180,235,252207,2,0,L|184:184,1,51.25,2|2,2:2|2:2,2:2:0:0:
380,208,252361,2,0,L|370:157,1,51.25,2|2,2:2|2:2,2:2:0:0:
275,140,252514,2,0,L|258:91,1,51.25,2|2,2:2|2:2,2:2:0:0:
204,324,252668,6,0,L|332:320,1,102.5,6|0,0:0|0:0,0:0:0:0:
482,211,252976,2,0,L|354:207,1,102.5,2|0,0:0|0:0,0:0:0:0:
167,156,253284,2,0,P|111:161|43:152,1,102.5,2|0,0:0|0:0,0:0:0:0:
1,249,253514,2,0,P|57:244|125:253,1,102.5,2|0,0:0|0:0,0:0:0:0:
113,324,253745,1,2,0:0:0:0:
291,382,253899,5,0,0:0:0:0:
379,332,254053,2,0,L|436:328,1,51.25
512,320,254207,1,0,0:0:0:0:
508,328,254284,1,0,0:0:0:0:
504,336,254361,1,0,0:0:0:0:
448,252,254514,1,2,0:2:0:0:
492,160,254668,1,2,0:2:0:0:
392,176,254822,1,0,0:0:0:0:
384,180,254899,1,0,0:0:0:0:
376,184,254976,1,0,0:0:0:0:
256,280,255130,6,0,P|200:288|140:276,1,102.5,4|0,0:0|0:0,0:0:0:0:
88,204,255438,1,0,0:0:0:0:
84,196,255514,1,0,0:0:0:0:
80,188,255591,1,0,0:0:0:0:
12,112,255745,1,2,0:2:0:0:
8,216,255899,1,2,0:2:0:0:
80,288,256053,1,0,0:0:0:0:
88,292,256130,1,0,0:0:0:0:
96,296,256207,1,0,0:0:0:0:
200,288,256361,6,0,L|332:284,1,115.312504398823
380,240,256668,1,6,0:0:0:0:
362,168,256745,1,2,0:0:0:0:
414,115,256822,1,2,0:0:0:0:
486,130,256899,1,2,0:0:0:0:
511,199,256976,1,2,0:0:0:0:
503,223,257053,1,2,0:0:0:0:
499,248,257130,1,2,0:0:0:0:
502,274,257207,1,2,0:0:0:0:
452,332,257284,1,2,0:0:0:0:
453,345,257361,1,2,0:0:0:0:
452,357,257438,1,2,0:0:0:0:
448,366,257514,1,2,0:0:0:0:
442,378,257591,5,6,0:0:0:0:
40,352,264668,6,0,P|28:296|44:232,1,115.312504398823,4|0,0:0|0:0,0:0:0:0:
68,212,264976,6,0,L|128:208,1,51.25,2|0,0:0|0:0,0:0:0:0:
284,84,265284,2,0,L|148:80,1,102.5,2|0,0:0|0:0,0:0:0:0:
288,224,265591,6,0,L|348:220,1,51.25,2|0,0:0|0:0,0:0:0:0:
504,96,265899,2,0,L|368:92,1,102.5,2|0,0:0|0:0,0:0:0:0:
397,358,266207,6,0,L|403:298,1,51.25,2|0,0:0|0:0,0:0:0:0:
308,123,266514,2,0,L|280:256,2,102.5,2|0|2,0:0|0:0|0:0,0:0:0:0:
216,60,266976,1,0,0:0:0:0:
138,108,267130,1,2,0:0:0:0:
220,151,267284,1,0,0:0:0:0:
308,123,267438,6,0,L|410:119,1,102.5,2|0,0:0|0:0,0:0:0:0:
220,151,267745,1,2,0:0:0:0:
281,220,267899,1,0,0:0:0:0:
373,212,268053,6,0,L|473:227,1,76.8750029325486,2|0,0:0|0:0,0:0:0:0:
445,300,268361,6,0,L|399:293,1,46.1249985923767,2|0,0:0|0:0,0:0:0:0:
328,320,268668,6,2,B|220:288|220:352|104:320,1,225.5,6|4,0:0|0:0,0:1:0:0:
164,236,272361,5,0,0:0:0:0:
106,320,272514,1,0,0:0:0:0:
61,228,272668,1,2,0:0:0:0:
61,228,272745,1,2,0:0:0:0:
61,228,272822,1,2,0:0:0:0:
116,144,272976,1,2,0:0:0:0:
116,144,273053,1,2,0:0:0:0:
116,144,273130,1,2,0:0:0:0:
164,236,273284,1,0,0:0:0:0:
263,264,273438,2,0,L|319:260,1,51.25,2|0,0:0|0:0,0:0:0:0:
232,172,273591,5,2,0:0:0:0:
232,172,273668,1,2,0:0:0:0:
232,172,273745,1,2,0:0:0:0:
328,356,273899,1,2,0:0:0:0:
328,356,273976,1,2,0:0:0:0:
328,356,274053,1,2,0:0:0:0:
436,284,274207,1,4,0:0:0:0:
388,188,274361,1,0,0:0:0:0:
472,120,274514,1,2,0:0:0:0:
472,120,274591,1,2,0:0:0:0:
472,120,274668,1,2,0:0:0:0:
308,248,274822,5,2,0:0:0:0:
308,248,274899,1,2,0:0:0:0:
308,248,274976,1,2,0:0:0:0:
208,188,275130,1,0,0:0:0:0:
299,140,275284,1,0,0:0:0:0:
200,296,275438,1,2,0:0:0:0:
200,296,275514,1,2,0:0:0:0:
200,296,275591,1,2,0:0:0:0:
92,264,275745,1,2,0:0:0:0:
92,264,275822,1,2,0:0:0:0:
92,264,275899,1,2,0:0:0:0:
117,84,276053,6,0,L|229:76,1,102.5,4|0,0:0|0:0,0:0:0:0:
356,168,276361,2,2,L|272:160,2,51.25
244,272,276668,2,2,L|328:264,2,51.25
360,372,276976,1,0,0:0:0:0:
492,292,277130,1,0,0:0:0:0:
392,276,277284,6,2,L|424:328,2,51.25
452,192,277591,2,2,L|425:148,2,51.25
296,288,277899,2,0,L|188:288,1,102.5,4|0,0:0|0:0,0:0:0:0:
116,236,278207,1,2,0:0:0:0:
116,236,278284,1,2,0:0:0:0:
116,236,278361,1,2,0:0:0:0:
112,332,278514,5,2,0:0:0:0:
112,332,278591,1,2,0:0:0:0:
112,332,278668,1,2,0:0:0:0:
193,288,278822,1,0,0:0:0:0:
272,240,278976,1,0,0:0:0:0:
188,200,279130,2,2,L|132:192,2,51.25
288,332,279438,2,2,L|344:324,2,51.25
272,240,279745,5,4,0:0:0:0:
372,256,279899,1,0,0:0:0:0:
432,340,280053,1,2,0:0:0:0:
432,340,280130,1,2,0:0:0:0:
432,340,280207,1,2,0:0:0:0:
500,264,280361,5,2,0:0:0:0:
500,264,280438,1,2,0:0:0:0:
500,264,280514,2,0,L|504:208,1,51.25,2|0,0:0|0:0,0:0:0:0:
456,108,280668,1,10,0:0:0:0:
504,16,280822,1,10,0:0:0:0:
356,48,280976,6,2,L|359:99,2,51.25
288,188,281284,2,2,L|291:136,2,51.25
280,292,281591,1,4,0:0:0:0:
216,156,281745,1,0,0:0:0:0:
368,200,281899,1,2,0:0:0:0:
368,200,281976,1,2,0:0:0:0:
368,200,282053,1,2,0:0:0:0:
168,284,282207,6,2,L|108:280,2,51.25
252,224,282514,1,0,0:0:0:0:
152,192,282668,1,0,0:0:0:0:
264,316,282822,2,2,L|315:312,2,51.25
416,228,283130,2,2,L|364:224,2,51.25
488,344,283438,6,0,L|500:232,1,102.5,4|0,0:0|0:0,0:0:0:0:
456,148,283745,1,2,0:0:0:0:
456,148,283822,1,2,0:0:0:0:
456,148,283899,1,2,0:0:0:0:
392,68,284053,2,2,L|448:64,2,51.25
316,136,284361,1,0,0:0:0:0:
216,112,284514,1,0,0:0:0:0:
282,32,284668,5,2,0:0:0:0:
282,32,284745,1,2,0:0:0:0:
282,32,284822,1,2,0:0:0:0:
244,212,284976,2,2,L|168:204,2,51.25
344,228,285284,1,4,0:0:0:0:
380,324,285438,5,2,0:0:0:0:
308,344,285514,1,2,0:0:0:0:
234,328,285591,1,2,0:0:0:0:
166,357,285668,1,2,0:0:0:0:
92,341,285745,1,2,0:0:0:0:
100,309,285822,1,2,0:0:0:0:
104,278,285899,1,2,0:0:0:0:
99,248,285976,1,2,0:0:0:0:
52,184,286053,1,2,0:0:0:0:
49,168,286130,1,2,0:0:0:0:
51,153,286207,1,2,0:0:0:0:
55,137,286284,1,2,0:0:0:0:
66,124,286361,1,2,0:0:0:0:
78,112,286438,2,0,P|52:99|11:98,2,51.25,0|8|0,0:0|0:0|0:0,0:0:0:0:
160,76,286668,5,0,0:0:0:0:
160,76,286745,1,0,0:0:0:0:
160,76,286822,2,2,L|186:74,1,23.0624992961884
260,80,287130,5,0,0:0:0:0:
304,104,287207,1,0,0:0:0:0:
330,148,287284,1,8,0:0:0:0:
329,198,287361,1,0,0:0:0:0:
303,241,287438,1,0,0:0:0:0:
258,265,287514,1,0,0:0:0:0:
208,263,287591,1,8,0:0:0:0:
166,235,287668,1,0,0:0:0:0:
144,189,287745,1,0,0:0:0:0:
193,200,287822,1,0,0:0:0:0:
230,235,287899,1,8,0:0:0:0:
243,284,287976,1,0,0:0:0:0:
229,332,288053,1,0,0:0:0:0:
192,367,288130,1,0,0:0:0:0:
142,377,288207,1,8,0:0:0:0:
95,359,288284,1,0,0:0:0:0:
63,320,288361,5,0,0:0:0:0:
74,297,288438,1,0,0:0:0:0:
81,272,288514,1,8,0:0:0:0:
84,247,288591,1,0,0:0:0:0:
82,221,288668,1,0,0:0:0:0:
75,197,288745,1,0,0:0:0:0:
104,168,288822,1,8,0:0:0:0:
93,145,288899,1,0,0:0:0:0:
87,120,288976,1,0,0:0:0:0:
85,95,289053,1,0,0:0:0:0:
87,69,289130,1,8,0:0:0:0:
94,44,289207,1,0,0:0:0:0:
104,24,289284,1,0,0:0:0:0:
128,32,289361,1,0,0:0:0:0:
154,36,289438,1,8,0:0:0:0:
180,34,289514,1,0,0:0:0:0:
205,30,289591,5,0,0:0:0:0:
182,74,289668,1,0,0:0:0:0:
196,123,289745,1,8,0:0:0:0:
239,149,289822,1,0,0:0:0:0:
288,140,289899,1,0,0:0:0:0:
337,131,289976,1,0,0:0:0:0:
380,157,290053,1,8,0:0:0:0:
394,205,290130,1,0,0:0:0:0:
372,251,290207,1,0,0:0:0:0:
350,296,290284,1,0,0:0:0:0:
364,345,290361,1,8,0:0:0:0:
407,371,290438,1,0,0:0:0:0:
378,329,290514,1,0,0:0:0:0:
328,318,290591,1,0,0:0:0:0:
285,343,290668,1,8,0:0:0:0:
242,367,290745,1,0,0:0:0:0:
192,357,290822,1,0,0:0:0:0:
163,315,290899,1,0,0:0:0:0:
172,264,290976,6,0,L|176:208,1,51.25,8|0,0:0|0:0,0:0:0:0:
64,136,291130,2,0,L|68:188,1,51.25
292,236,291284,2,0,L|296:180,1,51.25,8|0,0:0|0:0,0:0:0:0:
232,116,291438,1,0,0:0:0:0:
270,148,291514,1,0,0:0:0:0:
321,150,291591,1,8,0:0:0:0:
363,122,291668,1,0,0:0:0:0:
380,75,291745,2,0,L|403:29,1,51.25
300,248,291899,2,0,L|305:196,1,51.25,8|0,0:0|0:0,0:0:0:0:
216,48,292053,5,4,0:2:0:0:
207,97,292130,1,0,0:0:0:0:
172,134,292207,1,8,0:0:0:0:
124,147,292284,1,0,0:0:0:0:
76,131,292361,1,0,0:0:0:0:
44,91,292438,1,0,0:0:0:0:
39,41,292514,1,8,0:0:0:0:
13,84,292591,1,0,0:0:0:0:
18,134,292668,1,0,0:0:0:0:
54,169,292745,1,0,0:0:0:0:
104,174,292822,1,8,0:0:0:0:
146,146,292899,1,0,0:0:0:0:
162,99,292976,1,0,0:0:0:0:
210,82,293053,1,0,0:0:0:0:
261,76,293130,1,8,0:0:0:0:
312,80,293207,1,0,0:0:0:0:
361,96,293284,5,0,0:0:0:0:
312,108,293361,1,0,0:0:0:0:
285,150,293438,1,8,0:0:0:0:
293,200,293514,1,0,0:0:0:0:
333,230,293591,1,0,0:0:0:0:
383,225,293668,1,0,0:0:0:0:
416,187,293745,1,8,0:0:0:0:
368,202,293822,1,0,0:0:0:0:
343,245,293899,1,0,0:0:0:0:
354,294,293976,1,0,0:0:0:0:
394,324,294053,1,8,0:0:0:0:
444,318,294130,1,0,0:0:0:0:
477,280,294207,1,0,0:0:0:0:
461,232,294284,1,0,0:0:0:0:
455,181,294361,1,8,0:0:0:0:
460,130,294438,1,0,0:0:0:0:
475,81,294514,5,4,0:2:0:0:
470,82,294591,1,0,0:0:0:0:
465,84,294668,1,8,0:0:0:0:
460,85,294745,1,0,0:0:0:0:
455,86,294822,1,0,0:0:0:0:
450,87,294899,1,0,0:0:0:0:
445,88,294976,1,8,0:0:0:0:
440,89,295053,1,0,0:0:0:0:
435,90,295130,1,0,0:0:0:0:
430,90,295207,1,0,0:0:0:0:
425,91,295284,1,8,0:0:0:0:
420,91,295361,1,0,0:0:0:0:
415,92,295438,1,0,0:0:0:0:
410,92,295514,1,0,0:0:0:0:
405,92,295591,1,8,0:0:0:0:
400,92,295668,1,0,0:0:0:0:
395,92,295745,5,0,0:0:0:0:
408,113,295822,1,0,0:0:0:0:
414,138,295899,1,8,0:0:0:0:
413,164,295976,1,0,0:0:0:0:
404,188,296053,1,0,0:0:0:0:
389,208,296130,1,0,0:0:0:0:
368,223,296207,1,8,0:0:0:0:
344,232,296284,1,0,0:0:0:0:
319,232,296361,1,0,0:0:0:0:
294,226,296438,1,0,0:0:0:0:
272,213,296514,1,8,0:0:0:0:
255,193,296591,1,0,0:0:0:0:
245,170,296668,5,8,0:0:0:0:
328,160,296745,1,8,0:0:0:0:
384,220,296822,1,8,0:0:0:0:
364,300,296899,1,8,0:0:0:0:
285,324,296976,6,0,L|225:320,1,51.25,12|0,0:0|0:0,0:0:0:0:
184,260,297130,1,2,0:0:0:0:
184,260,297207,1,2,0:0:0:0:
184,260,297284,2,0,L|124:256,1,51.25,12|0,0:0|0:0,0:0:0:0:
100,188,297438,1,2,0:0:0:0:
100,188,297514,1,2,0:0:0:0:
100,188,297591,2,0,L|-12:154,1,102.5,12|0,0:0|0:0,0:0:0:0:
148,103,297822,1,2,0:0:0:0:
148,103,297899,2,0,L|213:124,1,51.25,14|0,0:0|0:0,0:0:0:0:
356,192,298053,2,0,L|296:188,1,51.25,10|0,0:0|0:0,0:0:0:0:
489,143,298207,5,6,0:0:0:0:
489,143,298284,1,2,0:0:0:0:
489,143,298361,2,0,L|493:203,1,51.25,10|0,0:0|0:0,0:0:0:0:
509,272,298514,2,0,L|513:332,1,51.25,14|0,0:0|0:0,0:0:0:0:
456,376,298668,5,2,0:0:0:0:
456,376,298745,1,2,0:0:0:0:
456,376,298822,2,0,L|352:356,1,102.5,10|0,0:0|0:0,0:0:0:0:
231,371,299053,1,2,0:0:0:0:
231,371,299130,2,0,L|310:388,1,51.25,14|0,0:0|0:0,0:0:0:0:
295,305,299284,1,2,1:0:0:0:
245,252,299361,1,2,1:0:0:0:
245,252,299438,6,0,P|257:196|229:140,1,102.5,14|0,1:0|0:0,0:0:0:0:
174,127,299668,1,2,0:0:0:0:
174,127,299745,2,0,P|162:71|190:15,1,102.5,10|0,0:0|0:0,0:0:0:0:
92,135,299976,1,2,0:0:0:0:
92,135,300053,2,0,P|104:191|76:247,1,102.5,10|0,0:0|0:0,0:0:0:0:
173,266,300284,2,0,P|157:314|169:363,1,102.5,10|0,0:0|0:0,0:0:0:0:
243,349,300514,2,0,L|296:355,1,51.25,10|0,0:0|0:0,0:0:0:0:
474,354,300668,5,2,0:0:0:0:
474,354,300745,1,2,0:0:0:0:
474,354,300822,2,0,L|423:358,1,51.25,10|0,0:0|0:0,0:0:0:0:
480,269,300976,1,2,0:0:0:0:
480,269,301053,1,2,0:0:0:0:
480,269,301130,2,0,L|429:273,1,51.25,10|0,0:0|0:0,0:0:0:0:
488,187,301284,1,2,0:0:0:0:
488,187,301361,1,2,0:0:0:0:
488,187,301438,2,0,L|437:191,1,51.25,10|0,0:0|0:0,0:0:0:0:
444,88,301591,5,14,1:0:0:0:
431,42,301668,1,2,0:0:0:0:
462,13,301745,2,0,L|516:5,1,51.25,2|0,0:0|0:0,0:0:0:0:
333,107,301899,5,14,1:0:0:0:
333,107,301976,1,2,0:0:0:0:
333,107,302053,1,2,0:0:0:0:
333,107,302130,1,2,0:0:0:0:
333,107,302207,2,0,L|345:57,1,51.25,2|0,0:0|0:0,0:0:0:0:
141,172,302360,5,14,1:0:0:0:
141,172,302437,1,2,0:0:0:0:
141,172,302514,1,2,0:0:0:0:
141,172,302591,1,2,0:0:0:0:
141,172,302668,2,0,L|87:164,1,51.25,2|0,0:0|0:0,0:0:0:0:
407,290,302822,5,14,1:0:0:0:
407,290,302899,1,2,0:0:0:0:
407,290,302976,2,0,L|388:343,1,51.25,2|0,0:0|0:0,0:0:0:0:
280,384,303130,5,14,1:0:0:0:
263,282,303438,1,8,0:0:0:0:
250,180,303591,1,2,0:0:0:0:
278,191,303667,1,2,0:0:0:0:
308,189,303744,1,2,0:0:0:0:
336,176,303821,1,2,0:0:0:0:
356,153,303898,1,2,0:0:0:0:
364,123,303975,1,2,0:0:0:0:
360,93,304052,1,2,0:0:0:0:
345,67,304129,1,2,0:0:0:0:
320,49,304206,1,2,0:0:0:0:
290,43,304283,1,2,0:0:0:0:
262,51,304361,6,0,L|202:47,1,51.25,14|0,0:0|0:0,0:0:0:0:
146,9,304514,2,0,L|86:5,1,51.25,8|0,1:0|0:0,0:0:0:0:
177,125,304668,1,2,0:0:0:0:
167,128,304745,1,2,0:0:0:0:
157,131,304822,2,0,L|97:127,1,51.25,10|0,1:0|0:0,0:0:0:0:
202,236,304976,1,2,0:0:0:0:
192,239,305053,1,2,0:0:0:0:
182,242,305130,2,0,L|122:238,1,51.25,10|0,1:0|0:0,0:0:0:0:
226,348,305284,1,2,0:0:0:0:
216,351,305361,1,2,0:0:0:0:
206,354,305438,2,0,L|146:350,1,51.25,10|0,1:0|0:0,0:0:0:0:
305,297,305591,6,0,L|356:300,1,51.25,8|0,1:0|0:0,0:0:0:0:
358,196,305745,1,2,0:0:0:0:
368,193,305822,1,2,0:0:0:0:
378,190,305899,2,0,L|438:194,1,51.25,10|0,1:0|0:0,0:0:0:0:
405,92,306053,1,2,0:0:0:0:
415,89,306130,1,2,0:0:0:0:
425,86,306207,2,0,L|485:89,1,51.25,10|0,1:0|0:0,0:0:0:0:
294,31,306361,2,0,L|345:34,1,51.25,8|0,1:0|0:0,0:0:0:0:
281,111,306514,1,6,0:0:0:0:
289,135,306591,1,2,0:0:0:0:
293,161,306668,1,2,0:0:0:0:
285,181,306745,1,2,0:0:0:0:
264,197,306822,5,0,0:0:0:0:
214,198,306899,1,0,0:0:0:0:
174,167,306976,1,8,0:0:0:0:
162,119,307053,1,0,0:0:0:0:
183,73,307130,1,0,0:0:0:0:
229,51,307207,1,0,0:0:0:0:
278,62,307284,1,8,0:0:0:0:
252,106,307361,1,0,0:0:0:0:
211,137,307438,1,0,0:0:0:0:
162,148,307514,1,0,0:0:0:0:
112,139,307591,1,8,0:0:0:0:
70,110,307668,1,0,0:0:0:0:
43,67,307745,1,0,0:0:0:0:
25,114,307822,1,0,0:0:0:0:
25,165,307899,1,8,0:0:0:0:
44,212,307976,1,0,0:0:0:0:
79,250,308053,5,0,0:0:0:0:
115,284,308130,1,0,0:0:0:0:
116,333,308207,1,8,0:0:0:0:
81,369,308284,1,0,0:0:0:0:
31,368,308361,1,0,0:0:0:0:
0,331,308438,1,0,0:0:0:0:
0,281,308514,1,8,0:0:0:0:
50,292,308591,1,0,0:0:0:0:
98,278,308668,1,0,0:0:0:0:
134,242,308745,1,0,0:0:0:0:
148,193,308822,1,8,0:0:0:0:
137,144,308899,1,0,0:0:0:0:
103,106,308976,1,0,0:0:0:0:
153,119,309053,1,0,0:0:0:0:
204,124,309130,1,8,0:0:0:0:
255,119,309207,1,0,0:0:0:0:
304,106,309284,5,4,0:0:0:0:
349,84,309361,1,0,0:0:0:0:
393,106,309438,1,8,0:0:0:0:
403,155,309514,1,0,0:0:0:0:
371,192,309591,1,0,0:0:0:0:
339,229,309668,1,0,0:0:0:0:
349,278,309745,1,8,0:0:0:0:
393,300,309822,1,0,0:0:0:0:
438,278,309899,1,0,0:0:0:0:
421,325,309976,1,0,0:0:0:0:
381,355,310053,1,8,0:0:0:0:
330,358,310130,1,0,0:0:0:0:
287,331,310207,1,0,0:0:0:0:
253,294,310284,1,0,0:0:0:0:
203,284,310361,1,8,0:0:0:0:
156,302,310438,1,0,0:0:0:0:
129,345,310514,1,0,0:0:0:0:
132,294,310591,1,0,0:0:0:0:
108,249,310668,6,0,L|83:195,1,51.25,8|0,0:0|0:0,0:0:0:0:
192,184,310822,2,0,L|181:125,1,51.25
292,136,310976,2,0,L|297:76,1,51.25,8|0,0:0|0:0,0:0:0:0:
392,132,311130,1,0,0:0:0:0:
405,180,311207,1,0,0:0:0:0:
392,229,311284,1,8,0:0:0:0:
354,263,311361,1,0,0:0:0:0:
304,272,311438,2,0,L|248:268,1,51.25
402,101,311591,2,0,L|458:96,1,51.25,8|0,0:0|0:0,0:0:0:0:
292,136,311745,5,4,0:2:0:0:
315,91,311822,1,0,0:0:0:0:
305,42,311899,1,8,0:0:0:0:
266,11,311976,1,0,0:0:0:0:
216,12,312053,1,0,0:0:0:0:
178,46,312130,1,0,0:0:0:0:
171,95,312207,1,8,0:0:0:0:
164,144,312284,1,0,0:0:0:0:
126,178,312361,1,0,0:0:0:0:
76,179,312438,1,0,0:0:0:0:
37,148,312514,1,8,0:0:0:0:
27,99,312591,1,0,0:0:0:0:
51,55,312668,1,0,0:0:0:0:
88,88,312745,1,0,0:0:0:0:
107,135,312822,1,8,0:0:0:0:
104,186,312899,1,0,0:0:0:0:
78,230,312976,5,0,0:0:0:0:
46,269,313053,1,0,0:0:0:0:
47,319,313130,1,8,0:0:0:0:
79,358,313207,1,0,0:0:0:0:
128,367,313284,1,0,0:0:0:0:
173,344,313361,1,0,0:0:0:0:
192,297,313438,1,8,0:0:0:0:
207,248,313514,1,0,0:0:0:0:
250,221,313591,1,0,0:0:0:0:
299,226,313668,1,0,0:0:0:0:
335,262,313745,1,8,0:0:0:0:
340,312,313822,1,0,0:0:0:0:
312,354,313899,1,0,0:0:0:0:
360,368,313976,1,0,0:0:0:0:
406,349,314053,1,8,0:0:0:0:
432,305,314130,1,0,0:0:0:0:
424,256,314207,5,4,0:2:0:0:
423,251,314284,1,0,0:0:0:0:
421,246,314361,1,8,0:0:0:0:
419,241,314438,1,0,0:0:0:0:
418,236,314514,1,0,0:0:0:0:
417,231,314591,1,0,0:0:0:0:
416,226,314668,1,8,0:0:0:0:
416,221,314745,1,0,0:0:0:0:
415,216,314822,1,0,0:0:0:0:
415,211,314899,1,0,0:0:0:0:
415,206,314976,1,8,0:0:0:0:
416,200,315053,1,0,0:0:0:0:
416,195,315130,1,0,0:0:0:0:
417,190,315207,1,0,0:0:0:0:
418,185,315284,1,8,0:0:0:0:
419,180,315361,1,0,0:0:0:0:
420,176,315438,5,0,0:0:0:0:
396,186,315514,1,0,0:0:0:0:
371,188,315591,1,8,0:0:0:0:
346,181,315668,1,0,0:0:0:0:
326,166,315745,1,0,0:0:0:0:
312,144,315822,1,0,0:0:0:0:
306,119,315899,1,8,0:0:0:0:
310,94,315976,1,0,0:0:0:0:
322,72,316053,1,0,0:0:0:0:
341,55,316130,1,0,0:0:0:0:
365,46,316207,1,8,0:0:0:0:
390,45,316284,1,0,0:0:0:0:
414,54,316361,5,8,0:0:0:0:
381,122,316438,1,8,0:0:0:0:
312,144,316514,1,8,0:0:0:0:
240,128,316591,1,8,0:0:0:0:
188,76,316668,6,0,L|127:74,1,51.25,12|0,0:0|0:0,0:0:0:0:
56,212,316822,1,2,0:0:0:0:
56,212,316899,1,2,0:0:0:0:
56,212,316976,2,0,L|117:210,1,51.25,14|0,0:0|0:0,0:0:0:0:
200,336,317130,1,2,0:0:0:0:
200,336,317207,1,2,0:0:0:0:
200,336,317284,2,0,L|83:314,1,102.5,14|0,0:0|0:0,0:0:0:0:
287,277,317514,1,2,0:0:0:0:
287,277,317591,2,0,L|340:285,1,51.25,6|0,0:0|0:0,0:0:0:0:
492,360,317745,2,0,L|429:350,1,51.25,10|0,0:0|0:0,0:0:0:0:
296,168,317899,5,6,0:0:0:0:
296,168,317976,1,2,0:0:0:0:
296,168,318053,2,0,L|356:164,1,51.25,10|0,0:0|0:0,0:0:0:0:
384,68,318207,2,0,L|444:64,1,51.25,14|0,0:0|0:0,0:0:0:0:
428,272,318361,5,2,0:0:0:0:
428,272,318438,1,2,0:0:0:0:
428,272,318514,2,0,L|321:254,1,102.5,14|0,0:0|0:0,0:0:0:0:
226,364,318745,1,2,0:0:0:0:
226,364,318822,2,0,L|294:346,1,51.25,14|0,0:0|0:0,0:0:0:0:
250,276,318976,1,2,1:0:0:0:
187,240,319053,1,2,1:0:0:0:
187,240,319130,6,0,L|227:135,1,102.5,6|0,1:0|0:0,0:0:0:0:
304,135,319361,1,2,0:0:0:0:
304,135,319438,2,0,L|340:40,1,102.5,10|0,0:0|0:0,0:0:0:0:
402,120,319668,1,2,0:0:0:0:
402,120,319745,2,0,L|438:24,1,102.5,10|0,0:0|0:0,0:0:0:0:
411,204,319976,2,0,L|374:299,1,102.5,10|0,0:0|0:0,0:0:0:0:
270,311,320207,2,0,L|294:255,1,51.25,10|0,0:0|0:0,0:0:0:0:
108,216,320361,5,2,0:0:0:0:
108,216,320438,1,2,0:0:0:0:
108,216,320514,2,0,L|128:263,1,51.25,10|0,0:0|0:0,0:0:0:0:
44,132,320668,1,2,0:0:0:0:
44,132,320745,1,2,0:0:0:0:
44,132,320822,2,0,L|23:179,1,51.25,10|0,0:0|0:0,0:0:0:0:
128,60,320976,1,2,0:0:0:0:
128,60,321053,1,2,0:0:0:0:
128,60,321130,2,0,L|148:107,1,51.25,10|0,0:0|0:0,0:0:0:0:
310,165,321284,5,14,1:0:0:0:
361,162,321361,1,2,0:0:0:0:
412,156,321438,2,0,L|418:101,1,51.25,2|0,0:0|0:0,0:0:0:0:
436,252,321591,5,14,1:0:0:0:
496,275,321668,1,2,0:0:0:0:
496,275,321745,1,2,0:0:0:0:
496,275,321822,1,2,0:0:0:0:
496,275,321899,2,0,L|502:329,1,51.25,2|0,0:0|0:0,0:0:0:0:
256,352,322053,5,14,1:0:0:0:
275,312,322130,1,2,0:0:0:0:
275,312,322207,1,2,0:0:0:0:
275,312,322284,1,2,0:0:0:0:
275,312,322361,2,0,L|329:305,1,51.25,2|0,0:0|0:0,0:0:0:0:
96,256,322514,5,14,1:0:0:0:
51,240,322591,1,2,0:0:0:0:
51,240,322668,2,0,L|45:185,1,51.25,2|0,0:0|0:0,0:0:0:0:
224,0,322822,5,14,1:0:0:0:
219,59,322899,1,2,0:0:0:0:
219,59,322976,1,2,0:0:0:0:
219,59,323053,1,2,0:0:0:0:
219,59,323130,2,0,L|164:65,1,51.25,2|0,0:0|0:0,0:0:0:0:
320,96,323284,5,14,1:0:0:0:
377,127,323361,1,2,0:0:0:0:
377,127,323438,1,2,0:0:0:0:
377,127,323515,1,2,0:0:0:0:
377,127,323592,2,0,L|383:181,1,51.25,2|0,0:0|0:0,0:0:0:0:
502,323,323745,6,0,L|496:272,1,51.25,14|0,1:0|0:0,0:0:0:0:
448,368,323899,1,0,0:0:0:0:
378,351,323975,1,0,0:0:0:0:
308,335,324052,5,12,1:0:0:0:
256,192,324130,12,0,326207,0:0:0:0:
