osu file format v14

[General]
AudioFilename: Rapidity is a justice.mp3
AudioLeadIn: 0
PreviewTime: 237891
Countdown: 0
SampleSet: Normal
StackLeniency: 0.7
Mode: 0
LetterboxInBreaks: 0
WidescreenStoryboard: 0

[Editor]
Bookmarks: 33075,43425,63117,82809,112348,132040,141886,161578,181271,198501,228040,237886,257578,272348,287117
DistanceSpacing: 0.8
BeatDivisor: 4
GridSize: 4
TimelineZoom: 4.399998

[Metadata]
Title:Rokujuu Nenme no Shinsoku Saiban ~ Rapidity is a justice
TitleUnicode:六十年目の神速裁判 ~ Rapidity is a justice
Artist:Xi
ArtistUnicode:Xi
Creator:sjoy
Version:Justice
Source:東方Project
Tags:Touhou AQUAELIE Shikieiki Yamaxanadu ZUN
BeatmapID:495776
BeatmapSetID:210764

[Difficulty]
HPDrainRate:6
CircleSize:4.5
OverallDifficulty:9
ApproachRate:9.3
SliderMultiplier:1.8
SliderTickRate:2

[Events]
//Background and Video events
0,0,"bg.jpg",0,0
//Break Periods
2,83014,96722
2,257783,264106
//Storyboard Layer 0 (Background)
//Storyboard Layer 1 (Fail)
//Storyboard Layer 2 (Pass)
//Storyboard Layer 3 (Foreground)
//Storyboard Sound Samples

[TimingPoints]
1925,324.324324324324,4,2,1,60,1,0
1925,-133.333333333333,4,2,1,60,0,0
12303,-100,4,2,1,50,0,0
33060,-100,4,2,1,40,0,0
34357,-100,4,2,1,45,0,0
35654,-100,4,2,1,50,0,0
36952,-100,4,2,1,55,0,0
38249,-100,4,2,1,60,0,0
43430,307.692307692308,4,1,3,60,1,0
48045,-66.6666666666667,4,1,3,60,0,0
48353,-100,4,1,3,60,0,0
52968,-200,4,1,3,60,0,0
53276,-100,4,1,2,80,0,0
63122,-100,4,1,2,70,0,0
72353,-133.333333333333,4,1,2,70,0,0
72660,-80,4,1,2,70,0,0
72968,-100,4,1,2,80,0,1
82814,-100,4,1,2,70,0,0
97276,-200,4,2,2,60,0,0
97583,-133.333333333333,4,2,2,60,0,0
104660,-200,4,2,2,60,0,0
104968,-133.333333333333,4,2,2,60,0,0
111583,-133.333333333333,4,2,2,10,0,0
111737,-200,4,1,1,60,0,0
112353,-100,4,1,2,70,0,0
122199,-83.3333333333333,4,1,2,80,0,1
127122,-83.3333333333333,4,1,3,60,0,1
129660,-83.3333333333333,4,1,2,80,0,1
132045,-100,4,1,2,70,0,0
140660,-100,4,1,2,60,0,0
141891,-100,4,1,2,70,0,0
161276,-100,4,1,2,80,0,0
178814,-100,4,1,2,100,0,0
181276,-100,4,1,2,70,0,0
191122,-83.3333333333333,4,1,2,70,0,1
196045,-83.3333333333333,4,1,3,60,0,1
198506,-83.3333333333333,4,1,3,40,0,0
208353,-83.3333333333333,4,1,2,70,0,0
218199,-133.333333333333,4,1,1,50,0,0
227430,-133.333333333333,4,1,2,50,0,0
228045,-100,4,1,2,80,0,0
236660,-100,4,1,2,60,0,0
237583,-66.6666666666667,4,1,2,60,0,0
237891,-100,4,1,2,70,0,0
244276,-100,4,1,2,50,0,0
244430,-100,4,1,2,70,0,0
247122,-133.333333333333,4,1,2,70,0,0
247430,-80,4,1,2,70,0,0
247737,-100,4,1,2,70,0,0
247968,-100,4,1,2,50,0,0
248122,-100,4,1,2,70,0,0
249199,-100,4,1,2,50,0,0
249430,-100,4,1,2,70,0,0
250430,-100,4,1,2,50,0,0
250583,-100,4,1,2,70,0,0
251660,-100,4,1,2,50,0,0
251814,-100,4,1,2,70,0,0
264660,-100,4,2,2,70,0,0
264968,-133.333333333333,4,2,2,60,0,0
271737,-133.333333333333,4,2,2,5,0,0
272045,-133.333333333333,4,1,1,50,0,0
272353,-100,4,1,2,80,0,0
287122,-100,4,1,2,70,0,0
296968,-83.3333333333333,4,1,2,90,0,1
301891,-83.3333333333333,4,1,3,70,0,1
303199,-83.3333333333333,4,1,2,80,0,0
306814,-100,4,1,2,90,0,0
316660,-76.9230769230769,4,1,2,80,0,1
316737,-76.9230769230769,4,1,2,100,0,1
316968,-76.9230769230769,4,1,2,80,0,1
317045,-76.9230769230769,4,1,2,100,0,1
317276,-76.9230769230769,4,1,2,80,0,1
317353,-76.9230769230769,4,1,2,100,0,1
317583,-76.9230769230769,4,1,2,80,0,1
317660,-76.9230769230769,4,1,2,100,0,1
317891,-76.9230769230769,4,1,2,80,0,1
317968,-76.9230769230769,4,1,2,100,0,1
318199,-76.9230769230769,4,1,2,80,0,1
318276,-76.9230769230769,4,1,2,100,0,1
318506,-76.9230769230769,4,1,2,80,0,1
318583,-76.9230769230769,4,1,2,100,0,1
318814,-76.9230769230769,4,1,2,80,0,1
318891,-76.9230769230769,4,1,2,100,0,1
321583,-83.3333333333333,4,1,3,70,0,1
324045,-83.3333333333333,4,1,3,70,0,0
326199,-83.3333333333333,4,2,3,5,0,0

[Colours]
Combo1 : 255,255,128
Combo2 : 140,255,100
Combo3 : 250,180,220
Combo4 : 172,251,253

[HitObjects]
75,146,1925,5,4,0:0:0:0:
148,113,2087,1,0,0:0:0:0:
210,163,2249,2,0,P|238:179|364:175,2,135.000005149842,2|2|2,0:0|0:0|0:0,0:0:0:0:
297,72,3222,2,0,P|366:60|444:78,1,135.000005149842,2|2,0:0|0:0,0:0:0:0:
429,312,3870,2,0,P|363:324|297:312,1,135.000005149842,2|2,0:0|0:0,0:0:0:0:
412,208,4519,5,2,0:0:0:0:
486,177,4681,1,0,0:0:0:0:
420,129,4843,2,0,P|379:114|274:131,2,135.000005149842,2|2|2,0:0|0:0|0:0,0:0:0:0:
255,199,5816,2,0,P|214:148|217:82,1,135.000005149842,2|2,0:0|0:0,0:0:0:0:
65,227,6465,2,0,P|106:278|104:345,1,135.000005149842,2|2,0:0|0:0,0:0:0:0:
234,292,7114,5,2,0:0:0:0:
295,343,7276,1,0,0:0:0:0:
374,328,7438,2,0,P|398:257|371:181,1,135.000005149842,2|2,0:0|0:0,0:0:0:0:
289,43,8087,1,2,0:0:0:0:
108,24,8411,2,0,P|94:100|134:171,1,135.000005149842,2|2,0:0|0:0,0:0:0:0:
234,292,9060,2,0,P|247:215|208:145,1,135.000005149842,2|2,0:0|0:0,0:0:0:0:
309,57,9708,5,2,0:0:0:0:
387,37,9870,1,0,0:0:0:0:
441,97,10033,2,0,P|467:151|462:249,1,135.000005149842,2|2,0:0|0:0,0:0:0:0:
349,333,10681,1,2,0:0:0:0:
469,224,11006,5,2,0:0:0:0:
393,147,11168,1,0,0:0:0:0:
285,147,11330,1,2,0:0:0:0:
191,200,11492,1,2,0:0:0:0:
349,333,11654,5,2,0:0:0:0:
292,241,11816,1,0,0:0:0:0:
191,200,11979,1,2,0:0:0:0:
84,215,12141,1,2,0:0:0:0:
183,305,12303,6,0,P|226:323|279:313,1,90,12|2,0:0|0:0,0:0:0:0:
358,259,12627,1,2,0:0:0:0:
463,282,12789,1,8,0:0:0:0:
428,182,12952,1,2,0:0:0:0:
481,88,13114,1,0,0:0:0:0:
331,131,13276,2,0,P|285:141|232:133,1,90,2|8,0:0|0:0,0:0:0:0:
154,74,13600,5,2,0:0:0:0:
70,142,13762,1,0,0:0:0:0:
158,207,13924,1,2,0:0:0:0:
114,305,14087,1,8,0:0:0:0:
243,271,14249,5,2,0:0:0:0:
294,365,14411,1,0,0:0:0:0:
373,291,14573,1,2,0:0:0:0:
472,332,14735,1,8,0:0:0:0:
440,182,14897,5,2,0:0:0:0:
341,216,15060,1,2,0:0:0:0:
264,140,15222,2,0,P|221:130|147:141,1,90,8|0,0:0|0:0,0:0:0:0:
291,38,15546,1,2,0:0:0:0:
398,25,15708,1,0,0:0:0:0:
479,95,15870,2,0,P|506:114|531:172,1,90,8|0,0:0|0:0,0:0:0:0:
494,266,16195,5,2,0:0:0:0:
391,231,16357,1,0,0:0:0:0:
388,122,16519,2,0,P|409:72|463:29,1,90,2|8,0:0|0:0,0:0:0:0:
291,38,16843,1,2,0:0:0:0:
180,106,17006,1,0,0:0:0:0:
274,200,17168,1,2,0:0:0:0:
84,188,17330,1,8,0:0:0:0:
242,294,17492,6,0,P|285:298|356:261,1,90,4|2,0:0|0:0,0:0:0:0:
274,200,17816,1,2,0:0:0:0:
142,256,17979,1,8,0:0:0:0:
248,135,18141,1,2,0:0:0:0:
96,116,18303,1,0,0:0:0:0:
256,62,18465,1,2,0:0:0:0:
137,3,18627,1,8,0:0:0:0:
315,8,18789,6,0,P|331:52|321:109,1,90,2|0,0:0|0:0,0:0:0:0:
370,193,19114,1,2,0:0:0:0:
475,169,19276,1,8,0:0:0:0:
410,295,19438,2,0,P|365:279|309:289,1,90,2|0,0:0|0:0,0:0:0:0:
225,240,19762,1,2,0:0:0:0:
248,135,19924,1,8,0:0:0:0:
57,183,20087,5,2,0:0:0:0:
78,329,20249,1,2,0:0:0:0:
224,351,20411,2,0,P|272:364|332:368,1,90,2|8,0:0|0:0,0:0:0:0:
408,306,20735,2,0,P|439:339|458:394,1,90,2|0,0:0|0:0,0:0:0:0:
364,182,21060,2,0,P|333:215|314:270,1,90,2|8,0:0|0:0,0:0:0:0:
476,206,21384,5,2,0:0:0:0:
455,100,21546,1,0,0:0:0:0:
292,91,21708,1,2,0:0:0:0:
313,197,21870,1,2,0:0:0:0:
179,196,22033,5,2,0:0:0:0:
73,175,22195,1,0,0:0:0:0:
64,12,22357,1,2,0:0:0:0:
170,33,22519,1,2,0:0:0:0:
313,197,22681,6,0,L|267:316,1,90,4|2,0:0|0:0,0:0:0:0:
238,381,23006,1,2,0:0:0:0:
380,340,23168,1,8,0:0:0:0:
423,240,23330,1,2,0:0:0:0:
281,281,23492,1,0,0:0:0:0:
229,188,23654,1,2,0:0:0:0:
371,147,23816,1,8,0:0:0:0:
238,115,23979,6,0,P|191:121|159:181,1,90,2|0,0:0|0:0,0:0:0:0:
132,254,24303,1,2,0:0:0:0:
184,348,24465,1,8,0:0:0:0:
230,187,24627,2,0,P|235:234|296:266,1,90,2|0,0:0|0:0,0:0:0:0:
370,293,24952,1,2,0:0:0:0:
463,240,25114,1,8,0:0:0:0:
371,147,25276,6,0,P|322:132|270:141,1,90,2|2,0:0|0:0,0:0:0:0:
161,159,25600,1,2,0:0:0:0:
53,161,25762,1,8,0:0:0:0:
114,67,25924,2,0,L|211:21,1,90,2|0,0:0|0:0,0:0:0:0:
398,67,26249,2,0,L|301:21,1,90,2|8,0:0|0:0,0:0:0:0:
256,118,26573,5,2,0:0:0:0:
256,266,26735,1,0,0:0:0:0:
133,192,26897,1,2,0:0:0:0:
379,192,27060,1,8,0:0:0:0:
256,69,27222,5,2,0:0:0:0:
256,315,27384,1,0,0:0:0:0:
182,192,27546,1,2,0:0:0:0:
330,192,27708,1,8,0:0:0:0:
403,329,27870,5,4,0:0:0:0:
508,213,28033,1,2,0:0:0:0:
430,79,28195,2,0,P|386:73|300:90,1,90,2|8,0:0|0:0,0:0:0:0:
182,192,28519,2,0,P|174:240|196:290,1,90,2|0,0:0|0:0,0:0:0:0:
67,196,28843,2,0,P|74:147|53:98,1,90,2|8,0:0|0:0,0:0:0:0:
198,87,29168,6,0,L|331:78,1,90,2|0,0:0|0:0,0:0:0:0:
314,297,29492,2,0,L|181:306,1,90,2|8,0:0|0:0,0:0:0:0:
374,141,29816,2,0,L|388:257,1,90,2|0,0:0|0:0,0:0:0:0:
138,243,30141,2,0,L|124:127,1,90,2|8,0:0|0:0,0:0:0:0:
33,39,30465,5,2,0:0:0:0:
198,87,30627,1,2,0:0:0:0:
264,246,30789,2,0,P|257:293|217:333,1,90,2|8,0:0|0:0,0:0:0:0:
49,328,31114,2,0,L|155:318,1,90,2|0,0:0|0:0,0:0:0:0:
195,170,31438,2,0,L|89:180,1,90,2|8,0:0|0:0,0:0:0:0:
289,154,31762,5,2,0:0:0:0:
379,338,31924,1,0,0:0:0:0:
428,198,32087,1,2,0:0:0:0:
237,289,32249,1,2,0:0:0:0:
124,130,32411,5,2,0:0:0:0:
308,220,32573,1,0,0:0:0:0:
264,81,32735,1,2,0:0:0:0:
173,272,32897,1,2,0:0:0:0:
370,126,33060,6,0,P|418:108|469:117,1,90,4|0,0:1|0:0,0:0:0:0:
500,229,33384,1,0,0:0:0:0:
476,315,33546,1,0,0:0:0:0:
462,212,33708,1,0,0:0:0:0:
440,316,33870,1,8,0:0:0:0:
428,198,34033,1,0,0:0:0:0:
400,318,34195,1,0,0:0:0:0:
220,344,34357,6,0,P|169:350|105:339,1,90,4|0,0:1|0:0,0:0:0:0:
58,243,34681,1,0,0:0:0:0:
165,231,34843,1,0,0:0:0:0:
63,201,35006,1,0,0:0:0:0:
184,200,35168,1,8,0:0:0:0:
68,165,35330,1,0,0:0:0:0:
206,166,35492,1,0,0:0:0:0:
326,279,35654,6,0,P|324:324|302:383,1,90,4|0,0:1|0:0,0:0:0:0:
186,294,35979,1,0,0:0:0:0:
184,200,36141,1,0,0:0:0:0:
224,311,36303,1,0,0:0:0:0:
221,199,36465,1,8,0:0:0:0:
258,325,36627,1,0,0:0:0:0:
261,197,36789,1,0,0:0:0:0:
398,337,36952,6,0,P|365:360|287:362,1,90,4|0,0:1|0:0,0:0:0:0:
186,294,37276,1,0,0:0:0:0:
55,234,37438,1,0,0:0:0:0:
182,335,37600,1,0,0:0:0:0:
35,266,37762,1,8,0:0:0:0:
177,372,37924,1,0,0:0:0:0:
14,300,38087,1,0,0:0:0:0:
171,195,38249,6,0,L|302:193,1,90,4|0,0:1|0:0,0:0:0:0:
353,92,38573,1,0,0:0:0:0:
474,150,38735,1,0,0:0:0:0:
354,220,38897,1,0,0:0:0:0:
427,333,39060,1,8,0:0:0:0:
292,335,39222,1,0,0:0:0:0:
215,223,39384,1,0,0:0:0:0:
90,325,39546,5,0,0:0:0:0:
51,205,39708,1,0,0:0:0:0:
189,288,39870,1,0,0:0:0:0:
189,152,40033,1,0,0:0:0:0:
292,245,40195,1,0,0:0:0:0:
330,106,40357,1,8,0:0:0:0:
402,193,40519,1,0,0:0:0:0:
464,53,40681,1,0,0:0:0:0:
474,269,40843,6,0,L|357:266,1,90,4|0,0:1|0:0,0:0:0:0:
241,357,41168,2,0,L|358:360,1,90
245,197,41492,2,0,L|242:314,1,90,0|8,0:0|0:0,0:0:0:0:
370,194,41816,2,0,L|373:77,1,90,0|0,0:0|0:0,0:0:0:0:
236,23,42141,5,4,0:1:0:0:
132,94,42303,1,0,0:0:0:0:
6,91,42465,1,0,0:0:0:0:
132,94,42627,1,0,0:0:0:0:
81,218,42789,1,2,0:0:0:0:
261,130,42952,1,2,0:0:0:0:
222,295,43114,1,10,0:0:0:0:
370,194,43276,1,10,0:0:0:0:
222,295,43430,6,0,P|173:315|118:309,1,90,12|0,0:0|0:0,0:0:0:0:
7,173,43737,2,0,P|49:185|80:217,1,90
45,304,44045,1,0,0:0:0:0:
276,229,44199,1,2,0:0:0:0:
276,229,44506,5,2,0:0:0:0:
358,133,44660,2,0,P|406:124|481:148,1,90
257,57,44968,2,0,P|209:66|134:42,1,90
56,119,45276,1,0,0:0:0:0:
48,163,45353,1,0,0:0:0:0:
50,207,45430,1,0,0:0:0:0:
60,250,45506,1,0,0:0:0:0:
82,288,45583,1,2,0:0:0:0:
82,288,45891,6,0,L|207:306,1,90,12|0,0:0|0:0,0:0:0:0:
365,242,46199,2,0,L|240:224,1,90,0|0,0:0|0:0,0:0:0:0:
130,208,46506,1,0,0:0:0:0:
311,342,46660,1,2,0:0:0:0:
311,342,46968,5,2,0:0:0:0:
466,285,47122,2,0,L|517:164,1,90
373,146,47430,2,0,L|376:28,1,90
257,233,47737,2,0,L|214:119,1,90
22,122,48045,6,0,P|100:157|37:215,1,202.500007724762,8|0,0:0|2:0,0:0:0:0:
38,216,48353,6,0,P|47:264|77:293,1,90,12|0,0:0|0:0,0:0:0:0:
171,229,48660,1,0,0:0:0:0:
189,349,48814,1,0,0:0:0:0:
307,346,48968,1,0,0:0:0:0:
397,173,49122,1,2,0:0:0:0:
397,173,49430,5,0,0:0:0:0:
238,202,49583,2,0,P|230:246|248:287,1,90
108,220,49891,2,0,P|116:176|98:135,1,90
42,240,50199,1,0,0:0:0:0:
68,276,50276,1,0,0:0:0:0:
111,289,50353,1,0,0:0:0:0:
153,274,50430,1,0,0:0:0:0:
175,235,50506,1,2,0:0:0:0:
175,235,50814,6,0,L|166:133,1,90,12|0,0:0|0:0,0:0:0:0:
268,149,51122,2,0,L|302:49,1,90
427,13,51430,1,0,0:0:0:0:
498,197,51583,1,2,0:0:0:0:
498,197,51891,5,2,0:0:0:0:
440,338,52045,2,0,L|316:373,1,90
259,220,52353,2,0,L|135:185,1,90,0|0,0:0|0:0,0:0:0:0:
88,335,52660,1,4,0:3:0:0:
130,349,52737,1,4,0:3:0:0:
174,351,52814,1,4,0:3:0:0:
219,349,52891,1,4,0:3:0:0:
265,337,52968,6,2,P|297:327|338:330,1,67.5,2|0,0:0|2:0,0:0:0:0:
361,336,53276,6,0,L|392:227,1,90,12|2,0:0|0:0,0:0:0:0:
385,249,53506,1,0,0:0:0:0:
385,249,53583,1,8,0:0:0:0:
194,227,53737,1,2,0:0:0:0:
194,227,53814,1,0,0:0:0:0:
194,227,53891,2,0,L|172:128,1,90,8|2,0:0|0:0,0:0:0:0:
309,120,54199,1,8,0:0:0:0:
335,116,54276,1,0,0:0:0:0:
361,121,54353,1,2,0:0:0:0:
382,136,54430,1,0,0:0:0:0:
402,152,54506,6,0,P|410:196|446:261,1,90,8|2,0:0|0:0,0:0:0:0:
481,127,54814,2,0,P|472:82|454:41,1,90,8|2,0:0|0:0,0:0:0:0:
269,56,55122,1,8,0:0:0:0:
242,60,55199,1,0,0:0:0:0:
214,60,55276,1,2,0:0:0:0:
187,55,55353,1,0,0:0:0:0:
162,44,55430,2,0,P|115:64|88:119,1,90,10|0,0:0|0:0,0:0:0:0:
28,271,55737,6,0,L|134:256,1,90,12|2,0:0|0:0,0:0:0:0:
144,257,55968,1,0,0:0:0:0:
170,254,56045,1,8,0:0:0:0:
320,297,56199,1,2,0:0:0:0:
293,304,56276,1,0,0:0:0:0:
266,310,56353,2,0,L|166:328,1,90,8|2,0:0|0:0,0:0:0:0:
264,234,56660,1,8,0:0:0:0:
405,298,56814,1,2,0:0:0:0:
421,276,56891,1,0,0:0:0:0:
424,249,56968,6,0,P|426:206|405:150,1,90,8|2,0:0|0:0,0:0:0:0:
289,50,57276,2,0,P|287:93|308:149,1,90,8|2,0:0|0:0,0:0:0:0:
229,217,57583,2,0,L|150:193,1,45,8|0,0:0|0:0,0:0:0:0:
136,116,57737,2,0,L|195:130,1,45,2|0,0:0|0:0,0:0:0:0:
71,205,57891,1,10,0:0:0:0:
52,224,57968,1,0,0:0:0:0:
40,249,58045,1,0,0:0:0:0:
37,275,58122,1,0,0:0:0:0:
45,302,58199,6,0,P|77:331|149:328,1,90,12|2,0:0|0:0,0:0:0:0:
149,329,58430,1,0,0:0:0:0:
175,323,58506,2,0,L|251:343,1,45,8|0,0:0|0:0,0:0:0:0:
317,305,58660,2,0,L|241:285,1,45,2|0,0:0|0:0,0:0:0:0:
245,216,58814,2,0,L|321:236,1,45,8|0,0:0|0:0,0:0:0:0:
373,181,58968,2,0,L|297:161,1,45,2|0,0:0|0:0,0:0:0:0:
250,115,59122,1,8,0:0:0:0:
265,92,59199,1,0,0:0:0:0:
269,65,59276,1,2,0:0:0:0:
264,38,59353,1,0,0:0:0:0:
245,17,59430,6,0,L|133:22,1,90,8|2,0:0|0:0,0:0:0:0:
336,107,59737,2,0,L|448:102,1,90,8|2,0:0|0:0,0:0:0:0:
501,238,60045,1,8,0:0:0:0:
501,283,60122,1,0,0:0:0:0:
478,322,60199,1,2,0:0:0:0:
440,347,60276,1,0,0:0:0:0:
396,358,60353,1,10,0:0:0:0:
192,340,60506,1,0,0:0:0:0:
215,325,60583,1,0,0:0:0:0:
242,323,60660,6,0,P|282:323|355:346,1,90,12|2,0:0|0:0,0:0:0:0:
117,285,60968,2,0,P|95:246|95:186,1,90,8|2,0:0|0:0,0:0:0:0:
291,235,61276,2,0,P|247:224|202:223,1,90,8|2,0:0|0:0,0:0:0:0:
163,125,61583,2,0,L|223:84,1,45,8|0,0:0|0:0,0:0:0:0:
316,110,61737,2,0,L|255:152,1,45,2|0,0:0|0:0,0:0:0:0:
267,45,61891,5,8,0:0:0:0:
291,34,61968,1,8,0:0:0:0:
315,23,62045,2,0,L|358:0,1,45,10|0,0:0|0:0,0:0:0:0:
316,110,62199,1,8,0:0:0:0:
340,99,62276,1,8,0:0:0:0:
364,88,62353,2,0,L|426:62,1,45,10|0,0:0|0:0,0:0:0:0:
350,193,62506,1,8,0:0:0:0:
376,186,62583,1,8,0:0:0:0:
401,177,62660,1,10,0:0:0:0:
426,169,62737,1,8,0:0:0:0:
451,161,62814,2,0,P|477:199|487:264,1,90,2|8,0:0|0:0,0:0:0:0:
372,322,63122,6,0,L|246:315,1,90,4|8,0:0|0:0,0:0:0:0:
150,261,63430,1,0,0:0:0:0:
176,255,63506,1,0,0:0:0:0:
202,247,63583,1,8,0:0:0:0:
376,186,63737,2,0,L|276:163,1,90,0|8,0:0|0:0,0:0:0:0:
218,54,64045,1,0,0:0:0:0:
243,47,64122,1,0,0:0:0:0:
269,42,64199,1,8,0:0:0:0:
114,127,64353,6,0,B|43:97|43:97|42:157|-5:232,1,180,2|8,0:0|0:0,0:0:0:0:
12,213,64737,1,0,0:0:0:0:
5,229,64814,1,8,0:0:0:0:
221,335,64968,2,0,P|216:290|202:248,1,90,2|8,0:0|0:0,0:0:0:0:
361,204,65276,2,0,P|365:159|380:116,1,90,2|8,0:0|0:0,0:0:0:0:
398,290,65583,6,0,P|348:307|279:300,1,90,6|8,0:0|0:0,0:0:0:0:
213,200,65891,1,0,0:0:0:0:
220,174,65968,1,0,0:0:0:0:
226,147,66045,1,8,0:0:0:0:
134,306,66199,1,2,0:0:0:0:
61,189,66353,1,8,0:0:0:0:
226,147,66506,1,0,0:0:0:0:
249,160,66583,1,0,0:0:0:0:
272,172,66660,1,8,0:0:0:0:
130,202,66814,5,2,0:0:0:0:
150,72,66968,1,8,0:0:0:0:
272,172,67122,1,0,0:0:0:0:
108,132,67276,1,8,0:0:0:0:
299,78,67430,1,0,0:0:0:0:
333,71,67506,1,0,0:0:0:0:
368,73,67583,1,8,0:0:0:0:
399,91,67660,1,0,0:0:0:0:
411,124,67737,2,0,L|389:182,1,45,2|0,0:0|0:0,0:0:0:0:
477,228,67891,2,0,L|492:185,1,45,10|0,0:0|0:0,0:0:0:0:
390,253,68045,6,4,B|333:271|333:271|275:250|216:272,1,180,4|0,0:0|0:0,0:0:0:0:
198,278,68430,1,0,0:0:0:0:
181,285,68506,1,8,0:0:0:0:
232,128,68660,2,0,P|184:114|142:120,1,90,2|8,0:0|0:0,0:0:0:0:
119,130,68891,1,2,0:0:0:0:
104,152,68968,1,0,0:0:0:0:
99,178,69045,1,0,0:0:0:0:
102,204,69122,2,0,L|120:252,1,45,10|0,0:0|0:0,0:0:0:0:
40,296,69276,6,0,L|2:191,1,90,2|8,0:0|0:0,0:0:0:0:
224,349,69583,2,0,L|286:249,1,90,2|8,0:0|0:0,0:0:0:0:
133,354,69891,1,2,0:0:0:0:
330,341,70045,1,8,0:0:0:0:
355,333,70122,1,2,0:0:0:0:
372,312,70199,1,0,0:0:0:0:
382,287,70276,1,0,0:0:0:0:
384,260,70353,2,0,L|372:211,1,45,10|0,0:0|0:0,0:0:0:0:
266,186,70506,6,0,L|149:192,1,90,2|8,0:0|0:0,0:0:0:0:
142,276,70814,1,0,0:0:0:0:
343,198,70968,1,8,0:0:0:0:
201,117,71122,2,0,P|176:76|167:8,1,90,0|8,0:0|0:0,0:0:0:0:
302,54,71430,1,0,0:0:0:0:
442,143,71583,1,8,0:0:0:0:
266,186,71737,6,0,P|196:200|99:146,1,180,2|0,0:0|0:0,0:0:0:0:
103,151,72122,1,0,0:0:0:0:
103,151,72199,1,8,0:0:0:0:
137,271,72353,6,0,P|195:281|260:270,1,101.250003862381,2|0,0:0|0:0,0:0:0:0:
317,303,72660,6,0,P|237:280|133:314,1,168.75,2|0,0:0|0:0,0:0:0:0:
5,314,72968,6,0,L|129:330,1,90,6|8,0:0|0:0,0:0:0:0:
238,368,73276,2,0,L|129:387,1,90,2|8,0:0|0:0,0:0:0:0:
126,204,73583,2,0,P|119:153|128:103,1,90,2|8,0:0|0:0,0:0:0:0:
211,156,73814,1,2,0:0:0:0:
211,156,73891,2,0,P|258:168|305:221,1,90,0|10,0:0|0:0,0:0:0:0:
439,240,74199,5,0,0:0:0:0:
494,108,74353,2,0,P|450:93|374:113,1,90,10|2,0:0|0:0,0:0:0:0:
406,97,74583,1,0,0:0:0:0:
406,97,74660,1,8,0:0:0:0:
211,156,74814,2,0,P|190:108|195:49,1,90,2|8,0:0|0:0,0:0:0:0:
105,70,75045,1,2,0:0:0:0:
105,70,75122,2,0,P|123:109|130:172,1,90,0|10,0:0|0:0,0:0:0:0:
195,279,75430,6,0,L|87:289,1,90,6|8,0:0|0:0,0:0:0:0:
314,214,75737,2,0,L|422:204,1,90,2|8,0:0|0:0,0:0:0:0:
296,127,76045,2,0,L|228:48,1,90,2|8,0:0|0:0,0:0:0:0:
319,45,76276,1,2,0:0:0:0:
319,45,76353,2,0,L|387:124,1,90,0|10,0:0|0:0,0:0:0:0:
472,91,76660,5,0,0:0:0:0:
319,45,76814,1,10,0:0:0:0:
442,162,76968,2,0,L|375:176,1,45,2|0,0:0|0:0,0:0:0:0:
291,195,77122,1,8,0:0:0:0:
493,226,77276,2,0,L|426:240,1,45,2|0,0:0|0:0,0:0:0:0:
342,259,77430,1,8,0:0:0:0:
474,304,77583,2,0,L|407:318,1,45,2|0,0:0|0:0,0:0:0:0:
323,337,77737,1,8,0:0:0:0:
346,200,77891,6,0,P|369:172|366:108,1,90,6|8,0:0|0:0,0:0:0:0:
184,156,78199,2,0,P|160:184|164:248,1,90,2|8,0:0|0:0,0:0:0:0:
66,91,78506,2,0,L|175:88,1,90,2|8,0:0|0:0,0:0:0:0:
103,157,78737,1,2,0:0:0:0:
103,157,78814,2,0,L|1:163,2,90,0|10|0,0:0|0:0|0:0,0:0:0:0:
23,262,79276,5,10,0:0:0:0:
132,349,79430,1,0,0:0:0:0:
266,259,79583,1,10,0:0:0:0:
98,277,79737,1,0,0:0:0:0:
225,341,79891,1,10,0:0:0:0:
348,254,80045,2,0,P|335:210|274:178,1,90,2|8,0:0|0:0,0:0:0:0:
348,38,80353,5,4,0:0:0:0:
463,140,80506,1,8,0:0:0:0:
301,183,80660,1,0,0:0:0:0:
275,190,80737,1,0,0:0:0:0:
249,197,80814,1,8,0:0:0:0:
296,52,80968,5,0,0:0:0:0:
411,154,81122,1,8,0:0:0:0:
249,197,81276,1,0,0:0:0:0:
223,204,81353,1,0,0:0:0:0:
197,211,81430,1,8,0:0:0:0:
2,260,81583,6,0,B|74:253|114:299|186:302,1,180,4|2,0:0|0:2,0:0:0:0:
202,295,81968,1,8,0:0:0:0:
228,293,82045,1,8,0:0:0:0:
254,298,82122,1,8,0:0:0:0:
277,311,82199,5,8,0:0:0:0:
320,298,82276,1,4,0:3:0:0:
348,263,82353,1,4,0:3:0:0:
348,217,82430,1,4,0:3:0:0:
334,174,82506,1,4,0:3:0:0:
294,152,82583,1,4,0:3:0:0:
249,160,82660,1,4,0:3:0:0:
228,293,82814,5,4,0:2:0:0:
90,125,97276,6,0,P|138:133|169:126,1,67.5,4|0,0:0|0:0,0:0:0:0:
196,129,97583,6,0,L|229:223,1,67.5000025749208,4|2,0:1|0:0,0:0:0:0:
310,231,97891,2,0,L|283:303,1,67.5000025749208,8|0,0:0|0:0,0:0:0:0:
178,285,98199,2,0,P|147:297|96:291,2,67.5000025749208,0|2|8,0:0|0:0|0:0,0:0:0:0:
237,368,98660,1,0,0:0:0:0:
413,365,98814,6,0,L|387:301,1,67.5000025749208,0|2,0:0|0:0,0:0:0:0:
479,259,99122,2,0,L|504:195,1,67.5000025749208,8|0,0:0|0:0,0:0:0:0:
437,82,99430,1,0,0:0:0:0:
370,36,99583,1,2,0:0:0:0:
289,30,99737,1,8,0:0:0:0:
215,64,99891,1,0,0:0:0:0:
163,126,100045,6,0,P|160:166|176:199,1,67.5000025749208,0|2,0:0|0:0,0:0:0:0:
332,135,100353,1,8,0:0:0:0:
384,195,100506,1,0,0:0:0:0:
386,276,100660,1,0,0:0:0:0:
338,341,100814,1,2,0:0:0:0:
263,373,100968,2,0,P|228:378|170:373,1,67.5000025749208,8|0,0:0|0:0,0:0:0:0:
300,268,101276,5,0,0:0:0:0:
267,193,101430,1,2,0:0:0:0:
157,244,101583,2,0,P|156:280|171:313,1,67.5000025749208,8|0,0:0|0:0,0:0:0:0:
194,174,101891,1,0,0:0:0:0:
161,99,102045,1,2,0:0:0:0:
51,150,102199,2,0,P|50:186|65:219,1,67.5000025749208,8|0,0:0|0:0,0:0:0:0:
121,168,102506,5,0,0:0:0:0:
206,40,102660,1,2,0:0:0:0:
88,76,102814,1,8,0:0:0:0:
239,128,102968,1,0,0:0:0:0:
413,124,103122,5,0,0:0:0:0:
282,209,103276,1,2,0:0:0:0:
329,89,103430,1,8,0:0:0:0:
366,245,103583,1,0,0:0:0:0:
214,272,103737,5,0,0:0:0:0:
134,243,103891,1,2,0:0:0:0:
0,292,104045,1,8,0:0:0:0:
80,321,104199,1,0,0:0:0:0:
80,173,104353,1,0,0:0:0:0:
0,144,104506,1,2,0:0:0:0:
190,103,104660,6,0,P|240:88|263:93,1,67.5,4|0,0:0|0:0,0:0:0:0:
268,128,104968,6,0,L|301:222,1,67.5000025749208,4|2,0:1|0:0,0:0:0:0:
381,116,105276,2,0,L|354:44,1,67.5000025749208,8|0,0:0|0:0,0:0:0:0:
368,200,105583,2,0,P|401:200|432:188,2,67.5000025749208,0|2|8,0:0|0:0|0:0,0:0:0:0:
266,266,106045,1,0,0:0:0:0:
391,309,106199,6,0,L|454:283,1,67.5000025749208,0|2,0:0|0:0,0:0:0:0:
310,370,106506,2,0,L|248:345,1,67.5000025749208,8|0,0:0|0:0,0:0:0:0:
153,318,106814,1,0,0:0:0:0:
107,251,106968,1,2,0:0:0:0:
101,170,107122,1,8,0:0:0:0:
135,96,107276,1,0,0:0:0:0:
197,44,107430,6,0,P|237:41|270:57,1,67.5000025749208,2|0,0:0|0:0,0:0:0:0:
381,153,107737,1,8,0:0:0:0:
266,266,107891,1,2,0:0:0:0:
101,170,108045,1,2,0:0:0:0:
349,234,108199,1,0,0:0:0:0:
200,102,108353,2,0,P|168:93|107:108,1,67.5000025749208,10|0,0:0|0:0,0:0:0:0:
3,283,108660,5,4,0:1:0:0:
256,192,108737,12,0,111583,0:0:0:0:
224,249,111737,5,4,0:0:0:0:
48,219,111891,1,0,0:0:0:0:
27,43,112045,2,0,P|61:36|109:44,1,67.5,12|0,0:0|2:0,0:0:0:0:
122,50,112353,6,0,P|161:68|226:80,1,90,6|8,0:0|0:0,0:0:0:0:
233,78,112583,1,0,0:0:0:0:
259,74,112660,1,0,0:0:0:0:
402,188,112814,1,10,0:0:0:0:
392,162,112891,1,0,0:0:0:0:
369,147,112968,2,0,P|321:173|252:157,1,90,0|8,0:0|0:0,0:0:0:0:
417,58,113276,1,2,0:0:0:0:
443,59,113353,1,0,0:0:0:0:
466,71,113430,1,8,0:0:0:0:
484,89,113506,1,0,0:0:0:0:
497,112,113583,6,0,L|516:226,1,90,2|8,0:0|0:0,0:0:0:0:
350,265,113891,1,0,0:0:0:0:
322,265,113968,1,0,0:0:0:0:
297,275,114045,2,0,P|261:300|200:307,1,90,10|0,0:0|0:0,0:0:0:0:
132,179,114353,1,8,0:0:0:0:
118,202,114430,1,0,0:0:0:0:
109,226,114506,2,0,P|106:271|128:333,1,90,2|8,0:0|0:0,0:0:0:0:
23,360,114814,5,4,0:0:0:0:
11,325,114891,1,0,0:0:0:0:
11,288,114968,1,8,0:0:0:0:
17,252,115045,1,0,0:0:0:0:
32,219,115122,1,0,0:0:0:0:
35,183,115199,1,0,0:0:0:0:
31,147,115276,1,8,0:0:0:0:
29,111,115353,1,0,0:0:0:0:
14,73,115430,5,0,0:0:0:0:
46,87,115506,1,0,0:0:0:0:
82,88,115583,1,8,0:0:0:0:
117,82,115660,1,0,0:0:0:0:
152,84,115737,1,0,0:0:0:0:
181,105,115814,1,0,0:0:0:0:
211,124,115891,1,8,0:0:0:0:
247,125,115968,1,0,0:0:0:0:
281,116,116045,5,0,0:0:0:0:
314,102,116122,1,0,0:0:0:0:
326,68,116199,2,0,L|275:36,1,45,10|0,0:0|0:0,0:0:0:0:
410,67,116353,2,0,L|461:99,1,45,2|0,0:0|0:0,0:0:0:0:
378,145,116506,1,8,0:0:0:0:
377,185,116583,1,0,0:0:0:0:
391,222,116660,1,2,0:0:0:0:
414,254,116737,1,0,0:0:0:0:
445,279,116814,1,10,0:0:0:0:
479,299,116891,1,0,0:0:0:0:
492,337,116968,2,0,L|463:386,1,45,2|0,0:0|0:0,0:0:0:0:
390,346,117122,2,0,L|361:297,1,45,10|0,0:0|0:0,0:0:0:0:
318,222,117276,6,0,P|234:197|150:227,1,180,6|0,0:0|0:0,0:0:0:0:
31,225,117737,2,0,P|74:242|141:230,1,90,10|0,0:0|0:0,0:0:0:0:
134,235,117968,1,0,0:0:0:0:
149,227,118045,1,8,0:0:0:0:
61,127,118199,2,0,L|38:28,1,90,2|8,0:0|0:0,0:0:0:0:
293,50,118506,6,0,P|207:80|91:46,1,180,2|0,0:0|0:0,0:0:0:0:
312,127,118968,1,10,0:0:0:0:
338,109,119045,1,0,0:0:0:0:
367,97,119122,2,0,P|415:85|475:103,1,90,0|8,0:0|0:0,0:0:0:0:
353,218,119430,1,2,0:0:0:0:
378,211,119506,1,0,0:0:0:0:
404,213,119583,1,8,0:0:0:0:
429,221,119660,1,0,0:0:0:0:
448,240,119737,5,4,0:0:0:0:
448,240,119814,1,0,0:0:0:0:
448,239,119891,2,0,L|422:287,1,45,8|0,0:0|0:0,0:0:0:0:
315,341,120045,1,2,0:2:0:0:
315,341,120122,1,0,0:0:0:0:
315,341,120199,2,0,L|342:288,1,45,8|0,0:2|0:0,0:0:0:0:
253,195,120353,1,0,0:0:0:0:
253,195,120430,1,0,0:0:0:0:
253,194,120507,2,0,L|227:242,1,45,8|0,0:0|0:0,0:0:0:0:
105,280,120661,1,2,0:2:0:0:
105,280,120738,1,0,0:0:0:0:
105,280,120815,2,0,L|132:227,1,45,8|0,0:2|0:0,0:0:0:0:
41,142,120968,5,2,0:2:0:0:
15,116,121045,1,0,0:0:0:0:
8,80,121122,1,8,0:0:0:0:
17,45,121199,1,0,0:0:0:0:
45,23,121276,1,0,0:0:0:0:
80,27,121353,1,0,0:0:0:0:
115,33,121430,1,8,0:0:0:0:
149,39,121506,1,0,0:0:0:0:
175,63,121583,1,10,0:2:0:0:
208,75,121660,1,0,0:0:0:0:
243,78,121737,1,8,0:0:0:0:
277,68,121814,1,0,0:0:0:0:
308,65,121891,5,8,0:0:0:0:
354,48,121968,1,8,0:0:0:0:
403,45,122045,1,8,0:0:0:0:
450,60,122122,1,8,0:0:0:0:
492,102,122199,6,2,L|477:221,1,107.999996704102,4|8,0:0|0:0,0:0:0:0:
296,309,122506,2,2,L|311:190,1,107.999996704102,0|8,0:0|0:0,0:0:0:0:
111,139,122814,2,2,L|96:258,1,107.999996704102,4|8,0:0|0:0,0:0:0:0:
184,228,123045,1,2,0:0:0:0:
184,228,123122,2,2,L|199:109,1,107.999996704102,0|10,0:0|0:0,0:0:0:0:
197,120,123353,1,0,0:0:0:0:
197,120,123430,1,4,0:0:0:0:
364,52,123583,6,0,L|455:82,1,53.9999983520508,10|0,0:0|0:0,0:0:0:0:
501,174,123737,2,0,L|410:204,1,53.9999983520508,10|0,0:0|0:0,0:0:0:0:
337,190,123891,1,8,0:0:0:0:
338,233,123968,1,0,0:0:0:0:
359,270,124045,2,0,P|414:270|496:311,1,107.999996704102,6|8,0:0|0:0,0:0:0:0:
393,359,124276,1,2,0:0:0:0:
393,359,124353,2,0,P|338:359|256:318,1,107.999996704102,0|10,0:0|0:0,0:0:0:0:
71,248,124660,6,0,L|47:367,1,107.999996704102,2|8,0:0|0:0,0:0:0:0:
162,123,124968,2,0,L|186:242,1,107.999996704102,2|8,0:0|0:0,0:0:0:0:
97,63,125276,2,0,P|144:36|216:48,1,107.999996704102,2|8,0:0|0:0,0:0:0:0:
276,81,125506,1,2,0:0:0:0:
276,81,125583,2,0,P|323:107|395:96,1,107.999996704102,0|10,0:0|0:0,0:0:0:0:
489,18,125891,5,2,0:0:0:0:
480,54,125968,1,0,0:0:0:0:
470,90,126045,1,8,0:0:0:0:
460,126,126122,1,0,0:0:0:0:
422,123,126199,5,0,0:0:0:0:
413,159,126276,1,0,0:0:0:0:
403,195,126353,1,8,0:0:0:0:
393,231,126430,1,0,0:0:0:0:
355,230,126506,5,0,0:0:0:0:
346,266,126583,1,0,0:0:0:0:
336,302,126660,1,8,0:0:0:0:
326,338,126737,1,0,0:0:0:0:
288,340,126814,2,0,L|233:354,1,53.9999983520508,10|0,0:0|0:0,0:0:0:0:
116,299,126968,2,0,L|58:290,1,53.9999983520508,10|0,0:0|0:0,0:0:0:0:
104,165,127122,5,14,0:0:0:0:
146,155,127199,1,0,0:0:0:0:
188,161,127276,1,0,0:0:0:0:
213,196,127353,1,0,0:0:0:0:
220,238,127430,2,0,L|197:292,1,53.9999983520508
375,266,127583,5,14,0:0:0:0:
333,256,127660,1,0,0:0:0:0:
291,262,127737,1,0,0:0:0:0:
266,297,127814,1,0,0:0:0:0:
259,339,127891,2,0,L|278:389,1,53.9999983520508
157,311,128045,5,14,0:0:0:0:
115,321,128122,1,0,0:0:0:0:
73,315,128199,2,0,L|13:327,1,53.9999983520508
41,238,128353,5,14,0:0:0:0:
56,197,128430,1,0,0:0:0:0:
74,158,128506,1,0,0:0:0:0:
90,118,128583,1,0,0:0:0:0:
105,77,128660,2,0,L|127:15,1,53.9999983520508
278,34,128814,5,14,0:0:0:0:
263,75,128891,1,0,0:0:0:0:
245,114,128968,1,0,0:0:0:0:
229,154,129045,1,0,0:0:0:0:
214,195,129122,2,0,L|190:253,1,53.9999983520508
391,215,129276,5,14,0:0:0:0:
406,174,129353,1,0,0:0:0:0:
424,135,129430,1,0,0:0:0:0:
440,95,129506,1,0,0:0:0:0:
455,54,129583,6,0,B|367:54|313:116|313:116|369:98,1,215.999993408203,14|0,0:0|0:0,0:0:0:0:
366,98,129968,1,0,0:0:0:0:
374,118,130045,1,8,0:0:0:0:
376,139,130122,1,0,0:0:0:0:
372,160,130199,1,0,0:0:0:0:
362,179,130276,1,0,0:0:0:0:
347,195,130353,1,8,0:0:0:0:
329,208,130430,1,0,0:0:0:0:
310,218,130506,1,0,0:0:0:0:
289,224,130583,1,0,0:0:0:0:
267,228,130660,1,8,0:0:0:0:
145,168,130814,5,8,0:0:0:0:
136,187,130891,1,8,0:0:0:0:
41,333,131045,1,8,0:0:0:0:
32,314,131122,1,8,0:0:0:0:
187,316,131276,1,8,0:0:0:0:
357,293,131430,1,8,0:0:0:0:
401,283,131506,1,8,0:0:0:0:
441,303,131583,2,0,L|504:303,1,53.9999983520508,8|0,0:0|0:0,0:0:0:0:
500,174,131737,2,0,L|480:67,1,107.999996704102,12|0,0:0|0:0,0:0:0:0:
329,29,132045,6,0,L|360:138,1,90,12|2,0:0|0:0,0:0:0:0:
216,135,132353,2,0,L|185:244,1,90,8|2,0:0|0:0,0:0:0:0:
50,211,132660,2,0,L|72:310,1,90,8|2,0:0|0:0,0:0:0:0:
200,315,132968,1,8,0:0:0:0:
226,319,133045,1,0,0:0:0:0:
252,314,133122,1,2,0:0:0:0:
273,299,133199,1,0,0:0:0:0:
293,283,133276,6,0,P|301:239|337:174,1,90,8|2,0:0|0:0,0:0:0:0:
324,28,133583,2,0,P|315:73|297:114,1,90,8|2,0:0|0:0,0:0:0:0:
414,207,133891,1,8,0:0:0:0:
418,180,133968,1,0,0:0:0:0:
418,152,134045,1,2,0:0:0:0:
413,125,134122,1,0,0:0:0:0:
402,100,134199,2,0,P|422:53|477:26,1,90,10|0,0:0|0:0,0:0:0:0:
295,93,134506,6,0,L|189:106,1,90,12|2,0:0|0:0,0:0:0:0:
179,105,134737,1,0,0:0:0:0:
153,108,134814,1,8,0:0:0:0:
11,44,134968,1,2,0:0:0:0:
37,41,135045,1,0,0:0:0:0:
63,37,135122,2,0,L|169:23,1,90,8|2,0:0|0:0,0:0:0:0:
295,91,135430,1,8,0:0:0:0:
171,184,135583,1,2,0:0:0:0:
155,206,135660,1,0,0:0:0:0:
152,233,135737,6,0,P|150:276|171:332,1,90,8|2,0:0|0:0,0:0:0:0:
36,263,136045,2,0,P|38:220|17:164,1,90,8|2,0:0|0:0,0:0:0:0:
109,94,136353,2,0,L|152:107,1,45,8|0,0:0|0:0,0:0:0:0:
295,91,136506,2,0,L|238:74,1,45,2|0,0:0|0:0,0:0:0:0:
378,135,136660,1,10,0:0:0:0:
394,157,136737,1,0,0:0:0:0:
406,181,136814,1,0,0:0:0:0:
408,207,136891,1,0,0:0:0:0:
403,233,136968,6,0,P|371:262|299:259,1,90,12|2,0:0|0:0,0:0:0:0:
207,301,137276,2,0,L|187:225,1,45,8|0,0:0|0:0,0:0:0:0:
100,229,137430,2,0,L|111:272,1,45,2|0,0:0|0:0,0:0:0:0:
177,171,137583,2,0,L|157:95,1,45,8|0,0:0|0:0,0:0:0:0:
67,102,137737,2,0,L|87:178,1,45,2|0,0:0|0:0,0:0:0:0:
139,46,137891,1,8,0:0:0:0:
308,82,138045,1,2,0:0:0:0:
334,84,138122,1,0,0:0:0:0:
359,94,138199,6,0,P|401:123|466:123,1,90,8|2,0:0|0:0,0:0:0:0:
359,289,138506,2,0,P|394:263|438:255,1,90,8|2,0:0|0:0,0:0:0:0:
238,267,138814,1,8,0:0:0:0:
270,235,138891,1,0,0:0:0:0:
282,192,138968,1,2,0:0:0:0:
270,149,139045,1,0,0:0:0:0:
238,117,139122,1,10,0:0:0:0:
62,192,139276,1,0,0:0:0:0:
85,207,139353,1,0,0:0:0:0:
112,209,139430,6,0,P|152:209|225:186,1,90,12|2,0:0|0:0,0:0:0:0:
25,259,139737,2,0,P|3:298|3:358,1,90,8|2,0:0|0:0,0:0:0:0:
179,305,140045,2,0,P|135:316|90:317,1,90,8|2,0:0|0:0,0:0:0:0:
90,317,140276,1,0,0:0:0:0:
90,317,140353,1,8,0:0:0:0:
245,332,140506,2,0,P|291:317|352:325,1,90,2|8,0:0|0:0,0:0:0:0:
358,324,140737,5,8,0:0:0:0:
383,331,140814,1,10,0:0:0:0:
409,332,140891,1,8,0:0:0:0:
435,326,140968,1,8,0:0:0:0:
459,314,141045,1,8,0:0:0:0:
481,299,141122,1,10,0:0:0:0:
495,276,141199,1,8,0:0:0:0:
495,248,141276,2,0,L|465:194,1,45,10|0,0:0|0:0,0:0:0:0:
376,203,141430,2,0,L|406:257,1,45,10|0,0:0|0:0,0:0:0:0:
300,242,141583,2,0,L|259:153,1,90,10|0,0:0|0:0,0:0:0:0:
355,96,141891,6,0,L|440:57,1,90,4|8,0:0|0:0,0:0:0:0:
508,194,142199,1,0,0:0:0:0:
482,188,142276,1,0,0:0:0:0:
456,180,142353,1,8,0:0:0:0:
300,242,142506,2,0,L|383:206,1,90,0|8,0:0|0:0,0:0:0:0:
452,325,142814,1,0,0:0:0:0:
426,319,142891,1,0,0:0:0:0:
400,311,142968,1,8,0:0:0:0:
196,344,143122,6,0,L|292:332,1,90,2|8,0:0|0:0,0:0:0:0:
164,264,143430,1,0,0:0:0:0:
136,264,143506,1,0,0:0:0:0:
108,264,143583,1,8,0:0:0:0:
244,149,143737,2,0,P|239:194|225:236,1,90,2|8,0:0|0:0,0:0:0:0:
120,51,144045,2,0,P|124:96|139:139,1,90,2|8,0:0|0:0,0:0:0:0:
361,57,144353,6,0,B|324:71|295:56|295:56|252:70|243:148,1,180,6|0,0:0|0:0,0:0:0:0:
243,148,144737,1,0,0:0:0:0:
243,148,144814,1,8,0:0:0:0:
349,235,144968,1,2,0:0:0:0:
490,180,145122,1,8,0:0:0:0:
368,117,145276,1,0,0:0:0:0:
341,124,145353,1,0,0:0:0:0:
314,131,145430,1,8,0:0:0:0:
130,182,145583,5,2,0:0:0:0:
150,312,145737,1,8,0:0:0:0:
272,212,145891,1,0,0:0:0:0:
108,252,146045,1,8,0:0:0:0:
299,306,146199,1,0,0:0:0:0:
333,313,146276,1,0,0:0:0:0:
368,311,146353,1,8,0:0:0:0:
399,293,146430,1,0,0:0:0:0:
411,260,146506,2,0,L|389:202,1,45,2|0,0:0|0:0,0:0:0:0:
494,243,146660,2,0,L|509:286,1,45,10|0,0:0|0:0,0:0:0:0:
442,168,146814,6,0,B|386:127|340:168|340:168|324:193|236:164,1,180,4|0,0:0|0:0,0:0:0:0:
254,168,147199,1,0,0:0:0:0:
234,156,147276,1,8,0:0:0:0:
39,198,147430,2,0,P|67:232|106:253,1,90,2|8,0:0|0:0,0:0:0:0:
183,266,147660,1,2,0:0:0:0:
183,266,147737,2,0,P|199:303|194:375,1,90,0|10,0:0|0:0,0:0:0:0:
356,270,148045,6,0,L|270:320,1,90,2|8,0:0|0:0,0:0:0:0:
322,179,148353,2,0,L|438:213,1,90,2|8,0:0|0:0,0:0:0:0:
290,85,148660,1,2,0:0:0:0:
135,109,148814,1,8,0:0:0:0:
108,104,148891,1,2,0:0:0:0:
83,92,148968,1,0,0:0:0:0:
268,16,149122,1,10,0:0:0:0:
197,152,149276,6,0,P|154:182|104:174,1,90,6|8,0:0|0:0,0:0:0:0:
6,106,149583,1,0,0:0:0:0:
34,248,149737,1,8,0:0:0:0:
154,327,149891,2,0,P|156:276|188:245,1,90,0|8,0:0|0:0,0:0:0:0:
279,297,150199,1,0,0:0:0:0:
74,353,150353,1,8,0:0:0:0:
247,213,150506,6,0,P|210:184|154:186,1,90,2|8,0:0|0:0,0:0:0:0:
355,273,150814,2,0,P|395:297|448:300,1,90,0|8,0:0|0:0,0:0:0:0:
426,160,151122,1,2,0:2:0:0:
394,145,151199,1,0,0:0:0:0:
360,139,151276,1,8,0:0:0:0:
325,143,151353,1,0,0:0:0:0:
289,147,151430,1,2,0:0:0:0:
254,150,151506,1,0,0:0:0:0:
219,142,151583,1,8,0:0:0:0:
186,129,151660,1,0,0:0:0:0:
155,111,151737,6,0,P|112:105|50:122,1,90,6|8,0:0|0:0,0:0:0:0:
182,222,152045,2,0,P|134:231|89:275,1,90,2|8,0:0|0:0,0:0:0:0:
272,270,152353,2,0,P|265:321|274:371,1,90,2|8,0:0|0:0,0:0:0:0:
186,339,152583,1,2,0:0:0:0:
186,339,152660,2,0,P|139:327|64:344,1,90,0|10,0:0|0:0,0:0:0:0:
0,354,152968,5,0,0:0:0:0:
23,235,153122,2,0,P|8:191|28:115,1,90,10|2,0:0|0:0,0:0:0:0:
12,147,153353,1,0,0:0:0:0:
12,147,153430,1,8,0:0:0:0:
148,170,153583,2,0,P|196:149|255:154,1,90,2|8,0:0|0:0,0:0:0:0:
306,177,153814,1,2,0:0:0:0:
306,177,153891,2,0,P|345:195|408:202,1,90,0|10,0:0|0:0,0:0:0:0:
288,86,154199,6,0,L|224:-7,1,90,6|8,0:0|0:0,0:0:0:0:
398,91,154506,2,0,L|497:57,1,90,2|8,0:0|0:0,0:0:0:0:
466,188,154814,2,0,L|502:285,1,90,2|8,0:0|0:0,0:0:0:0:
417,267,155045,1,2,0:0:0:0:
417,267,155122,2,0,L|306:250,1,90,0|10,0:0|0:0,0:0:0:0:
233,296,155430,5,2,0:2:0:0:
353,351,155583,1,10,0:0:0:0:
197,363,155737,1,2,0:0:0:0:
269,229,155891,1,8,0:0:0:0:
176,135,156045,1,2,0:0:0:0:
139,130,156122,1,0,0:0:0:0:
107,111,156199,1,10,0:0:0:0:
92,78,156276,1,0,0:0:0:0:
63,55,156353,1,2,0:0:0:0:
29,67,156430,1,0,0:0:0:0:
14,100,156506,1,10,0:0:0:0:
16,135,156583,1,0,0:0:0:0:
34,166,156660,6,0,P|39:208|20:252,1,90,6|8,0:0|0:0,0:0:0:0:
197,363,156968,2,0,P|173:335|177:271,1,90,2|8,0:0|0:0,0:0:0:0:
264,152,157276,2,0,P|306:164|349:211,1,90,2|8,0:0|0:0,0:0:0:0:
385,261,157506,1,2,0:0:0:0:
385,261,157583,2,0,P|337:268|283:255,2,90,0|10|2,0:0|0:0|0:2,0:0:0:0:
482,150,158045,5,10,0:0:0:0:
363,78,158199,1,0,0:0:0:0:
264,153,158353,1,10,0:0:0:0:
436,78,158506,1,0,0:0:0:0:
469,235,158660,1,10,0:0:0:0:
298,276,158814,2,0,P|256:277|202:261,1,90,2|8,0:0|0:0,0:0:0:0:
63,213,159122,5,4,0:0:0:0:
126,328,159276,1,10,0:2:0:0:
63,213,159430,2,0,L|118:162,1,45
169,99,159583,1,10,0:2:0:0:
220,220,159737,5,0,0:0:0:0:
283,335,159891,1,10,0:2:0:0:
220,220,160045,2,0,L|275:169,1,45
326,106,160198,1,10,0:2:0:0:
507,219,160353,6,0,B|471:238|391:189|359:222|359:222|415:229,1,180,4|0,0:0|0:0,0:0:0:0:
390,230,160737,1,0,0:0:0:0:
394,237,160814,1,8,0:0:0:0:
395,245,160891,1,0,0:0:0:0:
395,254,160968,1,0,0:0:0:0:
394,263,161045,1,0,0:0:0:0:
392,271,161122,1,8,0:0:0:0:
391,279,161199,1,0,0:0:0:0:
389,287,161276,2,0,L|342:296,1,45,8|0,0:0|0:0,0:0:0:0:
255,241,161430,2,0,L|302:232,1,45,8|0,0:0|0:0,0:0:0:0:
213,314,161583,6,0,P|173:242|240:156,1,180,6|0,0:0|0:0,0:0:0:0:
69,151,162045,1,8,0:0:0:0:
65,129,162122,1,0,0:0:0:0:
74,109,162199,2,0,L|142:95,1,45,2|0,0:0|0:0,0:0:0:0:
182,42,162353,2,0,L|234:41,1,45,10|0,0:0|0:0,0:0:0:0:
277,115,162506,2,0,L|329:116,1,45,2|0,0:0|0:0,0:0:0:0:
375,45,162660,2,0,L|427:44,1,45,10|0,0:0|0:0,0:0:0:0:
482,133,162814,6,0,L|501:247,1,90,2|8,0:0|0:0,0:0:0:0:
311,274,163122,1,2,0:0:0:0:
412,299,163276,1,10,0:0:0:0:
351,170,163430,1,2,0:0:0:0:
213,235,163583,1,10,0:0:0:0:
185,354,163737,2,0,P|230:362|275:359,1,90,2|8,0:0|0:0,0:0:0:0:
102,302,164045,5,6,0:0:0:0:
102,302,164122,1,0,0:0:0:0:
102,302,164199,2,0,L|71:234,1,45,8|0,0:0|0:0,0:0:0:0:
142,204,164353,1,0,0:0:0:0:
142,204,164430,1,0,0:0:0:0:
142,204,164506,2,0,L|173:136,1,45,8|0,0:0|0:0,0:0:0:0:
81,128,164660,1,0,0:0:0:0:
103,99,164737,1,0,0:0:0:0:
136,86,164814,1,8,0:0:0:0:
172,87,164891,1,0,0:0:0:0:
205,100,164968,1,0,0:0:0:0:
238,113,165045,1,0,0:0:0:0:
273,117,165122,1,8,0:0:0:0:
308,111,165199,1,0,0:0:0:0:
339,94,165276,5,2,0:2:0:0:
347,96,165353,1,0,0:0:0:0:
366,126,165430,1,8,0:0:0:0:
374,129,165506,1,0,0:0:0:0:
394,158,165583,1,0,0:0:0:0:
402,160,165660,1,0,0:0:0:0:
419,191,165737,1,8,0:0:0:0:
427,193,165814,1,0,0:0:0:0:
429,228,165891,5,0,0:0:0:0:
420,230,165968,1,0,0:0:0:0:
403,262,166045,1,8,0:0:0:0:
394,264,166122,1,0,0:0:0:0:
374,294,166199,1,0,0:0:0:0:
365,298,166276,1,0,0:0:0:0:
347,329,166353,1,8,0:0:0:0:
338,331,166430,1,0,0:0:0:0:
311,354,166506,6,0,B|260:341|201:370|114:354,1,180,6|0,0:0|0:0,0:0:0:0:
131,356,166891,1,0,0:0:0:0:
131,356,166968,1,8,0:0:0:0:
88,224,167122,2,0,L|44:160,1,45,2|0,0:0|0:0,0:0:0:0:
186,183,167276,2,0,L|187:118,1,45,10|0,0:0|0:0,0:0:0:0:
286,207,167430,2,0,L|347:194,1,45,2|0,0:0|0:0,0:0:0:0:
378,278,167583,2,0,L|416:325,1,45,10|0,0:0|0:0,0:0:0:0:
302,283,167737,6,0,P|256:300|212:286,1,90,2|8,0:0|0:0,0:0:0:0:
88,224,168045,1,2,0:0:0:0:
133,50,168199,1,8,0:0:0:0:
302,114,168353,1,2,0:0:0:0:
328,118,168430,1,0,0:0:0:0:
354,114,168506,1,8,0:0:0:0:
498,29,168660,1,2,0:0:0:0:
472,25,168737,1,0,0:0:0:0:
446,29,168814,1,8,0:0:0:0:
231,74,168968,6,0,P|237:159|338:184,1,180,6|0,0:0|0:0,0:0:0:0:
344,321,169430,1,8,0:0:0:0:
212,322,169583,1,2,0:2:0:0:
171,325,169660,1,0,0:0:0:0:
131,314,169737,1,8,0:0:0:0:
105,282,169814,1,0,0:0:0:0:
93,243,169891,1,0,0:0:0:0:
104,204,169968,1,0,0:0:0:0:
140,187,170045,1,8,0:0:0:0:
179,179,170122,1,0,0:0:0:0:
196,183,170199,5,2,0:2:0:0:
213,188,170276,1,0,0:0:0:0:
230,192,170353,1,8,0:0:0:0:
247,196,170430,1,0,0:0:0:0:
264,227,170506,5,0,0:0:0:0:
281,232,170583,1,0,0:0:0:0:
298,236,170660,1,8,0:0:0:0:
315,240,170737,1,0,0:0:0:0:
337,268,170814,5,2,0:2:0:0:
354,273,170891,1,0,0:0:0:0:
371,277,170968,1,8,0:0:0:0:
388,281,171045,1,0,0:0:0:0:
404,311,171122,5,8,0:0:0:0:
452,301,171199,1,8,0:0:0:0:
489,268,171276,1,8,0:0:0:0:
497,219,171353,1,8,0:0:0:0:
495,169,171430,6,2,B|511:86|484:54|484:54|411:75,1,180,6|0,0:0|0:0,0:0:0:0:
272,101,171891,1,8,0:0:0:0:
122,65,172045,2,0,L|53:81,1,45,2|0,0:0|0:0,0:0:0:0:
2,147,172199,2,0,L|71:163,1,45,10|0,0:0|0:0,0:0:0:0:
165,190,172353,2,0,L|96:206,1,45,2|0,0:0|0:0,0:0:0:0:
11,255,172506,2,0,L|80:271,1,45,10|0,0:0|0:0,0:0:0:0:
172,331,172660,5,2,0:0:0:0:
181,306,172737,1,0,0:0:0:0:
190,281,172814,1,8,0:0:0:0:
264,188,172968,1,2,0:0:0:0:
365,248,173122,1,8,0:0:0:0:
379,133,173276,1,2,0:0:0:0:
282,70,173430,1,10,0:0:0:0:
454,45,173583,2,0,P|482:77|491:141,1,90,2|8,0:0|0:0,0:0:0:0:
457,216,173891,5,2,0:2:0:0:
457,216,173968,1,0,0:0:0:0:
457,216,174045,2,0,L|479:261,1,45,8|0,0:0|0:0,0:0:0:0:
412,328,174199,1,0,0:0:0:0:
412,328,174276,1,0,0:0:0:0:
412,328,174353,2,0,L|390:373,1,45,8|0,0:0|0:0,0:0:0:0:
295,301,174506,1,2,0:2:0:0:
295,301,174583,1,0,0:0:0:0:
295,301,174660,2,0,L|226:300,1,45,8|0,0:0|0:0,0:0:0:0:
328,187,174814,1,0,0:0:0:0:
328,187,174891,1,0,0:0:0:0:
328,187,174968,2,0,L|345:133,1,45,8|0,0:0|0:0,0:0:0:0:
248,106,175122,5,2,0:2:0:0:
212,100,175199,1,0,0:0:0:0:
183,78,175276,1,8,0:0:0:0:
181,41,175353,1,0,0:0:0:0:
150,59,175430,1,0,0:0:0:0:
115,65,175506,1,0,0:0:0:0:
79,60,175583,1,8,0:0:0:0:
44,49,175660,1,0,0:0:0:0:
55,83,175737,5,2,0:2:0:0:
53,119,175814,1,0,0:0:0:0:
41,153,175891,1,8,0:0:0:0:
26,186,175968,1,0,0:0:0:0:
61,181,176045,1,0,0:0:0:0:
96,184,176122,1,0,0:0:0:0:
129,196,176199,1,8,0:0:0:0:
157,218,176276,1,0,0:0:0:0:
179,246,176353,6,0,B|109:312|109:312|162:300|204:354,1,180,6|0,0:0|0:0,0:0:0:0:
325,367,176814,1,8,0:0:0:0:
448,296,176968,2,0,L|418:256,1,45,2|0,0:0|0:0,0:0:0:0:
458,171,177122,2,0,L|485:207,1,45,10|0,0:0|0:0,0:0:0:0:
349,222,177276,2,0,L|322:186,1,45,2|0,0:0|0:0,0:0:0:0:
358,92,177430,2,0,L|385:128,1,45,10|0,0:0|0:0,0:0:0:0:
463,73,177583,5,0,0:0:0:0:
435,49,177660,1,0,0:0:0:0:
402,34,177737,1,8,0:0:0:0:
366,27,177814,1,0,0:0:0:0:
331,38,177891,2,0,L|255:57,1,45,2|0,0:0|0:0,0:0:0:0:
247,135,178045,2,0,L|235:196,1,45,10|0,0:0|0:0,0:0:0:0:
349,222,178199,2,0,L|383:299,1,45,2|0,0:0|0:0,0:0:0:0:
246,298,178353,1,8,0:0:0:0:
210,300,178430,1,0,0:0:0:0:
174,301,178506,2,0,P|126:294|76:265,1,90,2|8,0:0|0:0,0:0:0:0:
36,134,178814,5,12,0:0:0:0:
36,134,178891,1,0,0:0:0:0:
36,134,178968,1,0,0:0:0:0:
36,134,179045,1,0,0:0:0:0:
36,134,179122,2,0,L|64:191,1,45,8|0,0:0|0:0,0:0:0:0:
183,181,179276,5,12,0:0:0:0:
183,181,179353,1,0,0:0:0:0:
183,181,179430,1,0,0:0:0:0:
183,181,179506,1,0,0:0:0:0:
183,181,179583,2,0,L|214:235,1,45,8|0,0:0|0:0,0:0:0:0:
144,46,179737,5,12,0:0:0:0:
144,46,179814,1,0,0:0:0:0:
144,46,179891,1,0,0:0:0:0:
144,46,179968,1,0,0:0:0:0:
144,46,180045,2,0,L|174:100,1,45,8|0,0:0|0:0,0:0:0:0:
305,105,180199,5,12,0:0:0:0:
305,105,180276,1,0,0:0:0:0:
305,105,180353,1,0,0:0:0:0:
305,105,180430,1,0,0:0:0:0:
305,105,180506,2,0,L|324:149,1,45,8|0,0:0|0:0,0:0:0:0:
144,46,180660,5,8,0:0:0:0:
183,181,180814,1,8,0:0:0:0:
37,74,180968,1,8,0:0:0:0:
76,209,181122,1,8,0:0:0:0:
264,180,181276,6,0,P|301:212|368:210,1,90,6|8,0:0|0:0,0:0:0:0:
367,215,181506,1,0,0:0:0:0:
393,212,181583,1,0,0:0:0:0:
491,303,181737,1,10,0:0:0:0:
481,329,181814,1,0,0:0:0:0:
458,344,181891,2,0,P|411:333|341:334,1,90,0|8,0:0|0:0,0:0:0:0:
208,332,182199,1,2,0:0:0:0:
182,331,182276,1,0,0:0:0:0:
159,319,182353,1,8,0:0:0:0:
141,301,182430,1,0,0:0:0:0:
128,278,182506,6,0,P|133:234|109:164,1,90,2|8,0:0|0:0,0:0:0:0:
227,109,182814,1,0,0:0:0:0:
227,137,182891,1,0,0:0:0:0:
237,162,182968,2,0,P|251:207|249:263,1,90,10|0,0:0|0:0,0:0:0:0:
373,284,183276,1,8,0:0:0:0:
389,262,183353,1,0,0:0:0:0:
389,235,183430,2,0,P|392:190|370:128,1,90,2|8,0:0|0:0,0:0:0:0:
489,24,183737,5,4,0:0:0:0:
472,31,183814,1,0,0:0:0:0:
456,40,183891,1,8,0:0:0:0:
441,50,183968,1,0,0:0:0:0:
424,57,184045,1,0,0:0:0:0:
407,64,184122,1,0,0:0:0:0:
391,73,184199,1,8,0:0:0:0:
376,83,184276,1,0,0:0:0:0:
382,118,184353,5,0,0:0:0:0:
365,125,184430,1,0,0:0:0:0:
349,134,184506,1,8,0:0:0:0:
334,144,184583,1,0,0:0:0:0:
317,151,184660,1,0,0:0:0:0:
300,158,184737,1,0,0:0:0:0:
284,167,184814,1,8,0:0:0:0:
269,177,184891,1,0,0:0:0:0:
258,211,184968,5,0,0:0:0:0:
224,234,185045,1,0,0:0:0:0:
212,273,185122,2,0,L|263:305,1,45,10|0,0:0|0:0,0:0:0:0:
362,293,185276,2,0,L|311:261,1,45,2|0,0:0|0:0,0:0:0:0:
284,355,185430,1,8,0:0:0:0:
248,361,185506,1,0,0:0:0:0:
212,353,185583,1,2,0:0:0:0:
179,337,185660,1,0,0:0:0:0:
156,308,185737,1,10,0:0:0:0:
147,273,185814,1,0,0:0:0:0:
151,237,185891,2,0,L|96:248,1,45,2|0,0:0|0:0,0:0:0:0:
21,172,186045,2,0,L|76:162,1,45,10|0,0:0|0:0,0:0:0:0:
179,124,186199,5,6,0:0:0:0:
215,122,186276,1,0,0:0:0:0:
250,128,186353,1,8,0:0:0:0:
277,150,186430,1,0,0:0:0:0:
299,178,186506,2,0,L|348:211,1,45
431,245,186660,5,10,0:0:0:0:
418,206,186737,1,0,0:0:0:0:
415,165,186814,1,0,0:0:0:0:
423,125,186891,1,0,0:0:0:0:
446,91,186968,2,0,L|497:61,1,45,8|0,0:0|0:0,0:0:0:0:
353,59,187122,1,2,0:0:0:0:
317,66,187199,1,0,0:0:0:0:
280,66,187276,1,8,0:0:0:0:
245,57,187353,1,0,0:0:0:0:
216,35,187430,6,0,P|169:49|105:39,1,90,2|8,0:0|0:0,0:0:0:0:
110,43,187660,1,0,0:0:0:0:
93,36,187737,1,0,0:0:0:0:
15,122,187891,1,10,0:0:0:0:
3,157,187968,1,0,0:0:0:0:
0,193,188045,1,0,0:0:0:0:
3,229,188122,1,0,0:0:0:0:
14,264,188199,2,0,L|42:309,1,45,8|0,0:0|0:0,0:0:0:0:
130,303,188353,1,2,0:0:0:0:
151,274,188430,1,0,0:0:0:0:
157,238,188506,1,8,0:0:0:0:
156,201,188583,1,0,0:0:0:0:
145,166,188660,6,0,L|186:125,3,45,6|0|8|0,0:0|0:0|0:0|0:0,0:0:0:0:
280,183,188968,2,0,L|239:224,3,45,0|0|8|0,0:0|0:0|0:0|0:0,0:0:0:0:
351,105,189276,2,0,L|392:146,3,45,0|0|8|0,0:0|0:0|0:0|0:0,0:0:0:0:
226,80,189583,2,0,L|185:39,3,45,0|0|8|0,0:0|0:0|0:0|0:0,0:0:0:0:
305,51,189891,5,2,0:2:0:0:
338,35,189968,1,0,0:0:0:0:
374,41,190045,1,8,0:0:0:0:
404,61,190122,1,0,0:0:0:0:
415,95,190199,1,0,0:0:0:0:
412,130,190276,1,0,0:0:0:0:
389,158,190353,1,8,0:0:0:0:
373,189,190430,1,0,0:0:0:0:
369,224,190506,1,2,0:2:0:0:
378,258,190583,1,0,0:0:0:0:
398,287,190660,1,8,0:0:0:0:
428,306,190737,1,0,0:0:0:0:
406,334,190814,5,8,0:0:0:0:
364,351,190891,1,8,0:0:0:0:
319,358,190968,1,8,0:0:0:0:
273,355,191045,1,8,0:0:0:0:
228,349,191122,6,2,P|205:310|216:223,1,107.999996704102,4|8,0:0|0:0,0:0:0:0:
144,47,191430,2,2,P|126:97|129:166,1,107.999996704102,4|8,0:0|0:0,0:0:0:0:
24,330,191737,2,2,P|16:275|39:211,1,107.999996704102,4|8,0:0|0:0,0:0:0:0:
110,279,191968,1,2,0:0:0:0:
110,279,192045,2,2,P|123:333|95:398,2,107.999996704102,4|10|6,0:0|0:0|0:0,0:0:0:0:
202,225,192506,6,0,L|282:168,1,53.9999983520508,10|0,0:0|0:0,0:0:0:0:
298,287,192660,2,0,L|387:322,1,53.9999983520508,14|0,0:0|0:0,0:0:0:0:
454,326,192814,1,8,0:0:0:0:
464,283,192891,1,0,0:0:0:0:
454,240,192968,2,0,P|409:213|317:199,1,107.999996704102,2|8,0:0|0:0,0:0:0:0:
300,132,193199,1,2,0:0:0:0:
300,132,193276,2,0,P|271:94|266:30,1,107.999996704102,0|10,0:0|0:0,0:0:0:0:
141,77,193583,6,0,L|39:122,1,107.999996704102,2|8,0:0|0:0,0:0:0:0:
27,335,193891,2,0,L|143:290,1,107.999996704102,2|8,0:0|0:0,0:0:0:0:
200,179,194199,2,0,L|84:228,1,107.999996704102,2|8,0:0|0:0,0:0:0:0:
128,296,194430,1,2,0:0:0:0:
128,296,194506,2,0,L|253:243,1,107.999996704102,0|10,0:0|0:0,0:0:0:0:
381,322,194814,5,2,0:0:0:0:
424,319,194891,1,0,0:0:0:0:
463,301,194968,1,8,0:0:0:0:
492,269,195045,1,0,0:0:0:0:
503,227,195122,1,0,0:0:0:0:
459,222,195199,1,0,0:0:0:0:
421,200,195276,1,8,0:0:0:0:
392,167,195353,1,0,0:0:0:0:
381,125,195430,5,0,0:0:0:0:
423,118,195506,1,0,0:0:0:0:
463,103,195583,1,8,0:0:0:0:
492,71,195660,1,0,0:0:0:0:
493,27,195737,2,0,L|421:26,1,53.9999983520508,10|0,0:0|0:0,0:0:0:0:
300,62,195891,2,0,L|368:60,1,53.9999983520508,10|0,0:0|0:0,0:0:0:0:
239,24,196045,5,14,0:0:0:0:
231,66,196122,1,0,0:0:0:0:
245,106,196199,1,0,0:0:0:0:
280,131,196276,1,0,0:0:0:0:
323,130,196353,1,0,0:0:0:0:
186,161,196506,5,14,0:0:0:0:
194,203,196583,1,0,0:0:0:0:
180,243,196660,1,0,0:0:0:0:
145,268,196737,1,0,0:0:0:0:
102,267,196814,1,0,0:0:0:0:
258,276,196968,5,14,0:0:0:0:
250,318,197045,1,0,0:0:0:0:
264,358,197122,1,0,0:0:0:0:
364,328,197276,5,14,0:0:0:0:
356,286,197353,1,0,0:0:0:0:
370,246,197430,1,0,0:0:0:0:
406,222,197506,1,0,0:0:0:0:
449,214,197583,1,0,0:0:0:0:
291,191,197737,5,14,0:0:0:0:
283,149,197814,1,0,0:0:0:0:
297,109,197891,1,0,0:0:0:0:
333,85,197968,1,0,0:0:0:0:
376,77,198045,1,0,0:0:0:0:
260,22,198199,5,14,0:0:0:0:
236,58,198276,1,0,0:0:0:0:
197,76,198353,1,0,0:0:0:0:
155,67,198430,1,0,0:0:0:0:
119,43,198506,6,0,L|79:99,1,53.9999983520508,12|0,0:0|0:0,0:0:0:0:
112,36,198660,2,0,L|72:92,1,53.9999983520508
104,28,198814,2,0,L|64:84,1,53.9999983520508,2|0,0:0|0:0,0:0:0:0:
96,20,198968,2,0,L|56:76,1,53.9999983520508
72,196,199122,6,0,L|112:140,1,53.9999983520508,12|0,0:0|0:0,0:0:0:0:
79,203,199276,2,0,L|119:147,1,53.9999983520508
87,211,199430,2,0,L|127:155,1,53.9999983520508,2|0,0:0|0:0,0:0:0:0:
95,219,199583,2,0,L|135:163,1,53.9999983520508
259,81,199737,6,0,L|219:137,1,53.9999983520508,8|0,0:0|0:0,0:0:0:0:
252,74,199891,2,0,L|212:130,1,53.9999983520508
244,66,200045,2,0,L|204:122,1,53.9999983520508,2|0,0:0|0:0,0:0:0:0:
236,58,200199,2,0,L|196:114,1,53.9999983520508
212,234,200353,6,0,L|252:178,1,53.9999983520508,12|0,0:0|0:0,0:0:0:0:
219,241,200506,2,0,L|259:185,1,53.9999983520508
227,249,200660,2,0,L|267:193,1,53.9999983520508,2|0,0:0|0:0,0:0:0:0:
235,257,200814,2,0,L|275:201,1,53.9999983520508
352,296,200968,5,8,0:0:0:0:
352,296,201045,1,0,0:0:0:0:
352,296,201122,2,0,L|458:310,1,53.9999983520508
454,210,201276,1,2,0:0:0:0:
454,210,201353,1,0,0:0:0:0:
454,210,201430,2,0,L|560:196,1,53.9999983520508
325,163,201583,5,8,0:0:0:0:
325,163,201660,1,0,0:0:0:0:
325,163,201737,2,0,L|219:177,1,53.9999983520508
251,47,201891,1,2,0:0:0:0:
251,47,201968,1,0,0:0:0:0:
251,47,202045,2,0,L|145:33,1,53.9999983520508
82,24,202199,6,2,B|51:82|51:82|69:87|69:87|29:165,1,161.999995056153,10|0,0:0|2:0,0:0:0:0:
72,174,202506,1,0,0:0:0:0:
115,177,202583,1,0,0:0:0:0:
155,162,202660,1,0,0:0:0:0:
198,157,202737,1,0,0:0:0:0:
241,159,202814,2,2,B|307:155|371:216|371:216|340:235|306:203,1,215.999993408203,14|0,0:0|2:0,0:0:0:0:
307,204,203430,6,0,L|279:266,1,53.9999983520508,8|0,0:0|0:0,0:0:0:0:
322,217,203583,2,0,L|294:279,1,53.9999983520508
334,230,203737,2,0,L|306:292,1,53.9999983520508,2|0,0:0|0:0,0:0:0:0:
346,245,203891,2,0,L|318:307,1,53.9999983520508
448,183,204045,6,0,L|476:121,1,53.9999983520508,8|0,0:0|0:0,0:0:0:0:
433,170,204199,2,0,L|461:108,1,53.9999983520508
419,156,204353,2,0,L|447:94,1,53.9999983520508,2|0,0:0|0:0,0:0:0:0:
404,143,204506,2,0,L|432:81,1,53.9999983520508
286,132,204660,5,8,0:0:0:0:
286,132,204737,1,0,0:0:0:0:
286,132,204814,1,0,0:0:0:0:
286,132,204891,1,0,0:0:0:0:
286,132,204968,1,2,0:0:0:0:
286,132,205045,1,0,0:0:0:0:
286,132,205122,2,0,L|209:138,1,53.9999983520508
150,44,205276,5,8,0:0:0:0:
150,44,205353,1,0,0:0:0:0:
150,44,205430,1,0,0:0:0:0:
150,44,205506,1,0,0:0:0:0:
150,44,205583,1,2,0:0:0:0:
150,44,205660,1,0,0:0:0:0:
150,44,205737,2,0,L|91:95,1,53.9999983520508
83,215,205891,5,8,0:0:0:0:
83,215,205968,1,0,0:0:0:0:
83,215,206045,1,0,0:0:0:0:
83,215,206122,1,0,0:0:0:0:
83,215,206199,1,2,0:0:0:0:
83,215,206276,1,0,0:0:0:0:
83,215,206353,2,0,L|77:292,1,53.9999983520508
206,287,206506,5,8,0:0:0:0:
206,287,206583,1,0,0:0:0:0:
206,287,206660,1,0,0:0:0:0:
206,287,206737,1,0,0:0:0:0:
206,287,206814,1,2,0:0:0:0:
206,287,206891,1,0,0:0:0:0:
206,287,206968,2,0,L|256:346,1,53.9999983520508
352,372,207122,6,2,B|321:314|321:314|339:309|339:309|299:231,1,161.999995056153,10|0,0:0|2:0,0:0:0:0:
284,203,207430,1,0,0:0:0:0:
291,161,207506,1,0,0:0:0:0:
321,130,207583,1,0,0:0:0:0:
364,119,207660,1,0,0:0:0:0:
404,138,207737,2,2,B|453:182|455:271|455:271|420:262|418:218,1,215.999993408203,14|0,0:0|2:0,0:0:0:0:
419,219,208353,5,4,0:0:0:0:
390,205,208430,1,0,0:0:0:0:
373,177,208506,1,8,0:0:0:0:
370,144,208583,1,0,0:0:0:0:
382,113,208660,1,0,0:0:0:0:
403,89,208737,1,0,0:0:0:0:
434,80,208814,1,8,0:0:0:0:
466,75,208891,1,0,0:0:0:0:
494,58,208968,5,0,0:0:0:0:
491,25,209045,1,0,0:0:0:0:
461,12,209122,1,8,0:0:0:0:
428,12,209199,1,0,0:0:0:0:
396,19,209276,1,0,0:0:0:0:
364,27,209353,1,0,0:0:0:0:
331,29,209430,1,8,0:0:0:0:
299,30,209506,1,0,0:0:0:0:
266,28,209583,5,0,0:0:0:0:
233,28,209660,1,0,0:0:0:0:
204,43,209737,1,8,0:0:0:0:
188,71,209814,1,0,0:0:0:0:
180,102,209891,1,0,0:0:0:0:
181,134,209968,1,0,0:0:0:0:
192,164,210045,1,8,0:0:0:0:
212,188,210122,1,0,0:0:0:0:
242,197,210199,6,0,L|308:213,3,53.9999983520508,0|0|8|0,0:0|0:0|0:0|0:0,0:0:0:0:
181,134,210506,2,0,L|115:118,3,53.9999983520508,0|0|8|0,0:0|0:0|0:0|0:0,0:0:0:0:
58,121,210814,5,4,0:0:0:0:
60,154,210891,1,0,0:0:0:0:
76,182,210968,1,8,0:0:0:0:
101,197,211045,1,0,0:0:0:0:
132,205,211122,1,0,0:0:0:0:
157,224,211199,1,0,0:0:0:0:
173,252,211276,1,8,0:0:0:0:
177,284,211353,1,0,0:0:0:0:
161,312,211430,5,0,0:0:0:0:
137,333,211506,1,0,0:0:0:0:
105,341,211583,1,8,0:0:0:0:
73,335,211660,1,0,0:0:0:0:
43,322,211737,1,0,0:0:0:0:
24,295,211814,1,0,0:0:0:0:
16,263,211891,1,8,0:0:0:0:
25,232,211968,1,0,0:0:0:0:
51,213,212045,5,0,0:0:0:0:
80,198,212122,1,0,0:0:0:0:
112,195,212199,1,8,0:0:0:0:
139,211,212276,1,0,0:0:0:0:
165,228,212353,1,0,0:0:0:0:
196,234,212430,1,0,0:0:0:0:
227,230,212506,1,8,0:0:0:0:
256,217,212583,1,0,0:0:0:0:
281,196,212660,5,2,0:0:0:0:
254,80,212814,1,10,0:0:0:0:
281,196,212968,1,2,0:0:0:0:
165,228,213122,1,10,0:0:0:0:
303,288,213276,6,0,L|385:261,3,53.9999983520508,4|0|8|0,0:0|0:0|0:0|0:0,0:0:0:0:
424,276,213583,2,0,L|475:259,3,53.9999983520508,0|0|8|0,0:0|0:0|0:0|0:0,0:0:0:0:
468,337,213891,5,0,0:0:0:0:
437,347,213968,1,0,0:0:0:0:
404,350,214045,1,8,0:0:0:0:
371,345,214122,1,0,0:0:0:0:
339,336,214199,1,0,0:0:0:0:
312,317,214276,1,0,0:0:0:0:
292,291,214353,1,8,0:0:0:0:
284,259,214430,1,0,0:0:0:0:
287,227,214506,5,0,0:0:0:0:
312,206,214583,1,0,0:0:0:0:
344,205,214660,1,8,0:0:0:0:
373,217,214737,1,0,0:0:0:0:
404,225,214814,1,0,0:0:0:0:
436,225,214891,1,0,0:0:0:0:
464,209,214968,1,8,0:0:0:0:
479,180,215045,1,0,0:0:0:0:
468,149,215122,6,0,L|451:88,3,53.9999983520508,0|0|8|0,0:0|0:0|0:0|0:0,0:0:0:0:
436,225,215430,2,0,L|453:286,3,53.9999983520508,0|0|8|0,0:0|0:0|0:0|0:0,0:0:0:0:
485,355,215737,5,4,0:0:0:0:
450,353,215814,1,0,0:0:0:0:
423,335,215891,1,8,0:0:0:0:
414,301,215968,1,0,0:0:0:0:
381,303,216045,1,0,0:0:0:0:
349,295,216122,1,0,0:0:0:0:
327,270,216199,1,8,0:0:0:0:
321,237,216276,1,0,0:0:0:0:
290,247,216353,5,0,0:0:0:0:
258,253,216430,1,0,0:0:0:0:
226,247,216506,1,8,0:0:0:0:
198,229,216583,1,0,0:0:0:0:
166,223,216660,1,0,0:0:0:0:
134,231,216737,1,0,0:0:0:0:
107,250,216814,1,8,0:0:0:0:
94,279,216891,1,0,0:0:0:0:
94,311,216968,1,0,0:0:0:0:
114,335,217045,1,0,0:0:0:0:
140,353,217122,1,8,0:0:0:0:
172,353,217199,1,0,0:0:0:0:
202,341,217276,5,8,0:0:0:0:
251,320,217353,1,8,0:0:0:0:
304,317,217430,1,8,0:0:0:0:
357,323,217506,1,8,0:0:0:0:
406,343,217583,1,10,0:0:0:0:
497,249,217737,1,10,0:0:0:0:
440,120,217891,1,10,0:0:0:0:
349,214,218045,1,10,0:0:0:0:
497,249,218199,6,2,B|475:196|475:196|521:169|525:115,1,135.000005149842,6|2,0:0|0:0,0:0:0:0:
399,28,218814,1,0,0:0:0:0:
330,71,218968,1,0,0:0:0:0:
257,35,219122,1,2,0:0:0:0:
370,146,219276,1,0,0:0:0:0:
217,167,219430,6,2,L|248:286,1,112.500004291535,2|2,0:0|2:2,0:0:0:0:
178,291,219737,2,0,L|146:180,1,101.250003862381,2|0,0:0|0:0,0:0:0:0:
76,216,220045,2,0,L|89:273,1,33.7500012874604,0|0,0:0|2:0,0:0:0:0:
14,268,220199,2,0,L|7:236,1,33.7500012874604,0|0,0:0|2:0,0:0:0:0:
22,163,220353,2,0,L|7:98,1,67.5000025749208,2|0,0:0|2:0,0:0:0:0:
141,94,220660,6,2,P|210:63|281:73,1,135.000005149842,0|2,0:0|0:0,0:0:0:0:
249,203,221276,2,0,L|228:144,1,33.7500012874604,0|0,0:0|2:0,0:0:0:0:
328,220,221430,2,0,L|340:255,1,33.7500012874604,0|0,0:0|2:0,0:0:0:0:
378,155,221584,2,0,L|354:86,1,67.5000025749208,2|0,0:0|2:0,0:0:0:0:
356,92,221891,1,0,0:0:0:0:
436,98,222045,1,0,0:0:0:0:
483,163,222199,1,2,0:0:0:0:
475,243,222353,1,0,0:0:0:0:
408,287,222506,2,0,B|372:315|372:315|328:301|273:328,1,135.000005149842,0|2,0:0|0:0,0:0:0:0:
66,349,223122,6,2,P|49:280|62:209,1,135.000005149842,4|2,0:0|0:0,0:0:0:0:
186,147,223660,1,0,0:0:0:0:
186,147,223737,2,2,P|201:224|190:280,1,135.000005149842,4|2,0:0|0:0,0:0:0:0:
319,203,224199,2,0,L|371:168,1,33.7500012874604,0|0,0:0|2:0,0:0:0:0:
415,141,224353,6,2,L|341:52,1,112.500004291535,0|2,0:0|2:2,0:0:0:0:
403,22,224660,2,0,L|451:82,1,67.5000025749208,2|0,0:0|0:0,0:0:0:0:
440,224,224968,2,0,L|400:255,1,33.7500012874604,0|0,0:0|2:0,0:0:0:0:
319,203,225122,2,0,L|380:159,1,67.5000025749208,0|2,0:0|0:0,0:0:0:0:
260,318,225583,6,0,P|320:309|418:327,1,135.000005149842,0|2,0:0|0:0,0:0:0:0:
156,324,226122,1,0,0:0:0:0:
156,324,226199,2,0,L|122:287,1,33.7500012874604
173,238,226353,2,0,P|206:219|245:212,1,67.5000025749208,0|2,0:0|0:0,0:0:0:0:
22,279,226814,5,0,0:0:0:0:
41,206,226968,1,0,0:0:0:0:
31,133,227122,1,0,0:0:0:0:
65,69,227276,1,0,0:0:0:0:
161,48,227430,1,8,0:0:0:0:
177,50,227506,1,8,0:0:0:0:
193,54,227583,1,8,0:0:0:0:
209,58,227660,1,8,0:0:0:0:
224,63,227737,1,8,0:0:0:0:
240,67,227814,1,8,0:0:0:0:
255,72,227891,1,8,0:0:0:0:
270,78,227968,1,8,0:0:0:0:
284,82,228045,6,0,L|253:191,1,90,12|2,0:0|0:0,0:0:0:0:
260,169,228276,1,0,0:0:0:0:
260,169,228353,1,8,0:0:0:0:
407,127,228506,1,2,0:0:0:0:
407,127,228583,1,0,0:0:0:0:
407,127,228660,2,0,L|429:226,1,90,8|2,0:0|0:0,0:0:0:0:
328,268,228968,2,0,L|295:374,1,90,8|2,0:0|0:0,0:0:0:0:
220,266,229276,5,8,0:0:0:0:
146,152,229430,1,2,0:0:0:0:
96,323,229583,1,8,0:0:0:0:
26,215,229737,1,2,0:0:0:0:
194,329,229891,1,8,0:0:0:0:
221,333,229968,1,0,0:0:0:0:
247,328,230045,1,2,0:0:0:0:
270,313,230122,1,0,0:0:0:0:
282,289,230199,2,0,P|329:309|356:364,1,90,10|0,0:0|0:0,0:0:0:0:
357,177,230506,6,0,L|251:192,1,90,12|2,0:0|0:0,0:0:0:0:
241,191,230737,1,0,0:0:0:0:
215,194,230814,1,8,0:0:0:0:
273,50,230968,1,2,0:0:0:0:
420,115,231122,2,0,P|439:154|433:223,1,90,8|2,0:0|0:0,0:0:0:0:
363,40,231430,1,8,0:0:0:0:
195,9,231583,1,2,0:0:0:0:
179,31,231660,1,0,0:0:0:0:
176,58,231737,6,0,P|174:101|195:157,1,90,8|2,0:0|0:0,0:0:0:0:
55,235,232045,2,0,P|57:192|36:136,1,90,8|2,0:0|0:0,0:0:0:0:
142,173,232353,2,0,L|221:197,1,45,8|0,0:0|0:0,0:0:0:0:
216,266,232506,2,0,L|275:280,1,45,2|0,0:0|0:0,0:0:0:0:
303,351,232660,2,0,L|362:365,1,45,10|0,0:0|0:0,0:0:0:0:
431,316,232814,1,0,0:0:0:0:
442,291,232891,1,0,0:0:0:0:
450,265,232968,6,0,P|404:247|339:252,1,90,12|2,0:0|0:0,0:0:0:0:
420,58,233276,2,0,P|381:89|353:148,1,90,8|2,0:0|0:0,0:0:0:0:
190,11,233583,2,0,P|205:53|250:101,1,90,8|2,0:0|0:0,0:0:0:0:
84,26,233891,1,8,0:0:0:0:
38,150,234045,1,2,0:0:0:0:
58,169,234122,1,0,0:0:0:0:
86,175,234199,6,0,L|173:105,1,90,8|2,0:0|0:0,0:0:0:0:
121,256,234506,2,0,L|23:318,1,90,8|2,0:0|0:0,0:0:0:0:
158,202,234814,1,8,0:0:0:0:
179,230,234891,1,0,0:0:0:0:
186,265,234968,1,2,0:0:0:0:
175,299,235045,1,0,0:0:0:0:
145,319,235122,1,10,0:0:0:0:
280,248,235276,1,0,0:0:0:0:
265,225,235353,1,0,0:0:0:0:
257,198,235430,6,0,P|248:150|280:85,1,90,12|2,0:0|0:0,0:0:0:0:
402,153,235737,2,0,P|362:122|363:52,1,90,8|2,0:0|0:0,0:0:0:0:
509,61,236045,2,0,P|464:59|422:32,1,90,8|2,0:0|0:0,0:0:0:0:
259,17,236353,1,8,0:0:0:0:
352,85,236506,1,2,0:0:0:0:
174,73,236660,5,8,0:0:0:0:
150,84,236737,1,8,0:0:0:0:
125,94,236814,1,10,0:2:0:0:
102,108,236891,1,8,0:0:0:0:
102,140,236968,5,8,0:0:0:0:
126,151,237045,1,8,0:0:0:0:
150,162,237122,1,10,0:2:0:0:
174,173,237199,1,8,0:0:0:0:
174,190,237276,5,8,0:0:0:0:
150,201,237353,1,8,0:0:0:0:
126,212,237430,1,10,0:2:0:0:
103,225,237506,1,8,0:0:0:0:
103,253,237583,6,0,P|149:306|231:252,1,135.000005149842,10|10,0:0|0:2,0:0:0:0:
270,270,237814,1,0,0:0:0:0:
270,270,237891,6,0,L|359:260,1,90,4|8,0:0|0:0,0:0:0:0:
227,175,238199,1,2,0:2:0:0:
201,173,238276,1,0,0:0:0:0:
174,173,238353,1,8,0:0:0:0:
320,137,238506,2,0,L|409:127,1,90,0|8,0:0|0:0,0:0:0:0:
348,15,238814,1,0,0:0:0:0:
321,15,238891,1,0,0:0:0:0:
295,11,238968,1,8,0:0:0:0:
195,33,239122,6,0,P|135:96|180:193,1,180,2|2,0:0|0:2,0:0:0:0:
158,177,239506,1,0,0:0:0:0:
158,177,239583,1,8,0:0:0:0:
290,235,239737,2,0,P|271:195|273:151,1,90,2|8,0:0|0:0,0:0:0:0:
177,359,240045,2,0,P|197:319|197:275,1,90,2|8,0:0|0:0,0:0:0:0:
358,309,240353,6,0,P|446:306|508:243,1,180,6|2,0:0|0:2,0:0:0:0:
508,244,240737,1,0,0:0:0:0:
508,244,240814,1,8,0:0:0:0:
392,182,240968,1,2,0:0:0:0:
498,130,241122,1,8,0:0:0:0:
392,65,241276,1,0,0:0:0:0:
287,114,241430,1,8,0:0:0:0:
392,182,241583,5,2,0:0:0:0:
494,14,241737,1,8,0:0:0:0:
296,5,241891,1,2,0:2:0:0:
446,98,242045,1,8,0:0:0:0:
241,56,242199,1,0,0:0:0:0:
207,49,242276,1,0,0:0:0:0:
172,51,242353,1,8,0:0:0:0:
141,69,242430,1,0,0:0:0:0:
129,102,242506,2,0,L|151:160,1,45,2|0,0:0|0:0,0:0:0:0:
63,206,242660,2,0,L|48:163,1,45,10|0,0:0|0:0,0:0:0:0:
156,238,242814,6,4,L|190:329,1,90,4|12,0:0|0:0,0:0:0:0:
323,254,243122,1,2,0:2:0:0:
311,229,243199,1,0,0:0:0:0:
300,206,243276,2,0,L|266:114,1,90,8|2,0:0|0:0,0:0:0:0:
286,315,243583,1,8,0:0:0:0:
310,325,243660,1,2,0:0:0:0:
337,325,243737,2,0,P|376:303|395:244,1,90,0|10,0:0|0:0,0:0:0:0:
340,92,244045,6,0,L|374:194,1,90,2|8,0:0|0:0,0:0:0:0:
230,114,244353,2,0,L|189:218,1,90,10|8,0:3|0:0,0:0:0:0:
161,43,244660,2,0,L|61:68,1,90,2|8,0:0|0:0,0:0:0:0:
23,128,244891,1,2,0:0:0:0:
23,128,244968,2,0,L|57:245,1,90,0|10,0:0|0:0,0:0:0:0:
156,340,245276,5,6,0:0:0:0:
172,332,245353,1,0,0:0:0:0:
189,329,245430,1,8,0:0:0:0:
202,330,245506,1,0,0:0:0:0:
215,333,245583,2,0,L|281:333,3,45,2|0|8|0,0:2|0:0|0:0|0:0,0:0:0:0:
348,305,245891,5,0,0:0:0:0:
364,313,245968,1,0,0:0:0:0:
381,316,246045,1,8,0:0:0:0:
394,315,246122,1,0,0:0:0:0:
407,312,246199,2,0,L|473:312,3,45,2|0|8|0,0:2|0:0|0:0|0:0,0:0:0:0:
503,247,246506,6,0,P|422:202|321:220,1,180,2|2,0:0|0:2,0:0:0:0:
338,211,246891,1,0,0:0:0:0:
338,211,246968,1,8,0:0:0:0:
225,173,247122,6,0,P|234:217|221:272,1,101.250003862381,2|0,0:0|0:0,0:0:0:0:
301,303,247430,6,0,P|327:224|310:143,1,168.75,2|0,0:0|0:0,0:0:0:0:
226,82,247737,6,0,P|181:76|136:86,1,90,6|8,0:0|0:0,0:0:0:0:
321,50,248045,2,0,P|361:32|430:31,1,90,10|8,0:3|0:0,0:0:0:0:
274,167,248353,2,0,P|236:177|173:165,1,90,2|8,0:0|0:0,0:0:0:0:
226,82,248583,1,2,0:0:0:0:
226,82,248660,2,0,P|238:35|291:-12,1,90,0|10,0:0|0:0,0:0:0:0:
70,73,248968,5,2,0:0:0:0:
22,166,249122,2,0,L|34:247,1,45,10|0,0:0|0:0,0:0:0:0:
78,309,249276,2,0,L|66:390,1,45,10|0,0:3|0:0,0:0:0:0:
168,336,249430,1,8,0:0:0:0:
193,327,249506,1,0,0:0:0:0:
219,330,249583,2,0,P|267:351|326:346,1,90,2|8,0:0|0:0,0:0:0:0:
278,271,249814,1,2,0:0:0:0:
278,271,249891,2,0,P|260:232|253:169,1,90,0|10,0:0|0:0,0:0:0:0:
416,238,250199,6,0,L|295:194,1,90,6|8,0:0|0:0,0:0:0:0:
386,118,250506,2,0,L|448:48,1,90,10|8,0:3|0:0,0:0:0:0:
276,93,250814,2,0,L|165:77,1,90,2|8,0:0|0:0,0:0:0:0:
137,137,251045,1,2,0:0:0:0:
137,137,251122,2,0,L|69:216,1,90,0|10,0:0|0:0,0:0:0:0:
78,205,251353,1,0,0:0:0:0:
78,205,251430,1,0,0:2:0:0:
134,348,251583,5,10,0:0:0:0:
278,271,251737,1,10,0:3:0:0:
153,220,251891,1,8,0:0:0:0:
253,340,252045,1,2,0:0:0:0:
291,341,252122,1,0,0:0:0:0:
324,325,252199,1,8,0:2:0:0:
342,294,252276,1,0,0:0:0:0:
344,258,252353,1,2,0:0:0:0:
354,223,252430,1,0,0:0:0:0:
386,207,252506,1,8,0:2:0:0:
421,211,252583,1,0,0:0:0:0:
453,227,252660,6,0,P|452:263|493:311,1,90,6|8,0:0|0:0,0:0:0:0:
410,129,252968,2,0,P|434:101|430:37,1,90,10|8,0:3|0:0,0:0:0:0:
300,74,253276,2,0,L|191:88,1,90,2|8,0:0|0:0,0:0:0:0:
163,145,253506,1,2,0:0:0:0:
163,145,253583,2,0,L|61:155,2,90,0|10|0,0:0|0:0|0:2,0:0:0:0:
296,199,254045,5,10,0:0:0:0:
187,286,254199,1,8,0:3:0:0:
54,263,254353,1,10,0:0:0:0:
270,275,254506,1,0,0:0:0:0:
388,340,254660,1,10,0:0:0:0:
488,249,254814,2,0,P|475:205|414:173,1,90,2|8,0:0|0:0,0:0:0:0:
283,124,255122,5,0,0:0:0:0:
375,177,255276,1,8,0:0:0:0:
225,214,255430,1,2,0:2:0:0:
208,206,255506,1,0,0:0:0:0:
192,197,255583,1,8,0:0:0:0:
95,257,255737,5,0,0:0:0:0:
167,334,255891,1,8,0:0:0:0:
37,347,256045,1,2,0:2:0:0:
20,339,256122,1,0,0:0:0:0:
4,330,256199,1,8,0:0:0:0:
167,334,256353,6,0,B|232:350|286:308|286:308|303:341|352:348,1,180,4|2,0:0|0:2,0:0:0:0:
351,351,256737,1,0,0:0:0:0:
377,349,256814,1,8,0:0:0:0:
402,341,256891,1,0,0:0:0:0:
420,321,256968,1,0,0:0:0:0:
430,296,257045,1,0,0:0:0:0:
434,269,257122,1,8,0:0:0:0:
430,242,257199,1,0,0:0:0:0:
423,215,257276,2,0,L|378:210,1,45,8|0,0:0|0:0,0:0:0:0:
291,121,257430,2,0,L|336:126,1,45,8|0,0:0|0:0,0:0:0:0:
446,91,257583,5,4,0:2:0:0:
392,268,264660,6,0,P|323:294|232:288,1,135,4|0,0:2|0:0,0:0:0:0:
244,256,264968,6,0,L|211:162,1,67.5000025749208,4|2,0:1|0:0,0:0:0:0:
131,268,265276,2,0,L|158:340,1,67.5000025749208,8|0,0:0|0:0,0:0:0:0:
144,184,265583,2,0,P|111:184|80:196,2,67.5000025749208,0|2|8,0:0|0:0|0:0,0:0:0:0:
246,118,266045,1,0,0:0:0:0:
121,75,266199,6,0,L|58:101,1,67.5000025749208,0|2,0:0|0:0,0:0:0:0:
202,14,266506,2,0,L|264:39,1,67.5000025749208,8|0,0:0|0:0,0:0:0:0:
359,66,266814,1,0,0:0:0:0:
405,133,266968,1,2,0:0:0:0:
411,214,267122,1,8,0:0:0:0:
377,288,267276,1,0,0:0:0:0:
315,340,267430,6,0,P|275:343|242:327,1,67.5000025749208,2|0,0:0|0:0,0:0:0:0:
131,231,267737,1,8,0:0:0:0:
246,118,267891,1,2,0:0:0:0:
411,214,268045,1,2,0:0:0:0:
244,236,268199,1,0,0:0:0:0:
354,350,268353,2,0,P|386:359|447:344,1,67.5000025749208,10|0,0:0|0:0,0:0:0:0:
506,201,268660,5,4,0:2:0:0:
256,192,268737,12,0,271737,0:0:0:0:
314,106,272045,6,0,P|357:89|436:109,1,101.250003862381,4|0,0:2|2:0,0:0:0:0:
372,171,272353,6,0,P|333:189|268:201,1,90,6|8,0:0|0:0,0:0:0:0:
261,199,272583,1,0,0:0:0:0:
234,204,272660,1,0,0:0:0:0:
211,218,272737,1,0,0:0:0:0:
197,241,272814,1,8,0:0:0:0:
192,267,272891,1,0,0:0:0:0:
197,293,272968,2,0,P|245:319|314:303,1,90,0|10,0:0|0:2,0:0:0:0:
113,270,273276,1,0,0:0:0:0:
87,269,273353,1,0,0:0:0:0:
64,257,273430,1,8,0:0:0:0:
46,239,273506,1,0,0:0:0:0:
33,216,273583,6,0,L|14:102,1,90,0|8,0:0|0:0,0:0:0:0:
144,54,273891,1,0,0:0:0:0:
158,77,273968,1,0,0:0:0:0:
172,99,274045,1,10,0:2:0:0:
301,77,274199,2,0,L|282:37,1,45,2|0,0:0|0:0,0:0:0:0:
376,158,274353,2,0,L|357:118,1,45,10|0,0:0|0:0,0:0:0:0:
308,229,274506,2,0,L|289:189,1,45,2|0,0:0|0:0,0:0:0:0:
383,310,274660,2,0,L|364:270,1,45,10|0,0:0|0:0,0:0:0:0:
268,318,274814,6,0,P|233:334|150:320,1,90,2|10,0:0|0:2,0:0:0:0:
124,215,275122,2,0,L|143:255,1,45,2|0,0:0|0:0,0:0:0:0:
51,243,275276,2,0,L|70:283,1,45,10|0,0:0|0:0,0:0:0:0:
22,170,275430,2,0,L|3:130,1,45,2|0,0:0|0:0,0:0:0:0:
95,142,275583,2,0,L|76:102,1,45,10|0,0:0|0:0,0:0:0:0:
170,105,275737,2,0,P|216:90|276:99,1,90,2|8,0:0|0:0,0:0:0:0:
376,158,276045,5,4,0:0:0:0:
402,162,276122,1,0,0:0:0:0:
428,166,276199,1,8,0:0:0:0:
454,163,276276,1,0,0:0:0:0:
480,165,276353,1,2,0:2:0:0:
501,180,276430,1,0,0:0:0:0:
509,205,276506,1,8,0:0:0:0:
504,231,276583,1,0,0:0:0:0:
485,250,276660,5,0,0:0:0:0:
460,261,276737,1,0,0:0:0:0:
434,252,276814,1,8,0:2:0:0:
407,248,276891,1,0,0:0:0:0:
380,254,276968,1,2,0:2:0:0:
354,262,277045,1,0,0:0:0:0:
334,280,277122,1,8,0:0:0:0:
321,303,277199,1,0,0:0:0:0:
315,329,277276,6,0,L|345:372,1,45
315,240,277430,2,0,L|345:197,1,45,8|0,0:0|0:0,0:0:0:0:
234,339,277583,2,0,L|264:382,1,45,2|0,0:2|0:0,0:0:0:0:
234,230,277737,2,0,L|264:187,1,45,8|0,0:0|0:0,0:0:0:0:
154,291,277891,2,0,B|126:312|103:306|59:286|59:286|103:259|99:223,1,180,4|2,0:0|0:2,0:0:0:0:
60,102,278353,1,8,0:0:0:0:
206,182,278506,5,0,0:0:0:0:
171,73,278660,1,8,0:0:0:0:
322,145,278814,1,2,0:2:0:0:
284,41,278968,1,8,0:0:0:0:
60,102,279122,1,10,0:2:0:0:
99,223,279276,1,8,0:0:0:0:
322,145,279430,1,10,0:2:0:0:
284,41,279583,1,8,0:0:0:0:
171,73,279737,5,4,0:0:0:0:
171,73,279814,1,0,0:0:0:0:
171,73,279891,2,0,L|145:28,1,45,8|0,0:0|0:0,0:0:0:0:
246,116,280045,1,2,0:2:0:0:
246,116,280122,1,0,0:0:0:0:
246,116,280199,2,0,L|275:166,1,45,8|0,0:0|0:0,0:0:0:0:
284,41,280353,1,0,0:0:0:0:
284,41,280430,1,0,0:0:0:0:
284,41,280506,2,0,L|258:-4,1,45,8|0,0:0|0:0,0:0:0:0:
360,83,280660,1,2,0:2:0:0:
360,83,280737,1,0,0:0:0:0:
360,83,280814,2,0,L|389:133,1,45,8|0,0:0|0:0,0:0:0:0:
390,16,280968,5,0,0:2:0:0:
425,23,281045,1,0,0:0:0:0:
450,48,281122,1,8,0:0:0:0:
455,83,281199,1,0,0:0:0:0:
453,119,281276,1,2,0:2:0:0:
436,150,281353,1,0,0:0:0:0:
410,175,281430,1,8,0:0:0:0:
401,209,281506,1,0,0:0:0:0:
408,244,281583,6,0,L|361:288,1,45,2|0,0:0|0:0,0:0:0:0:
287,244,281737,2,0,L|240:288,1,45,10|0,0:0|0:0,0:0:0:0:
167,244,281891,2,0,L|120:288,1,45,2|0,0:0|0:0,0:0:0:0:
41,244,282045,2,0,L|-6:288,1,45,10|0,0:0|0:0,0:0:0:0:
7,163,282199,6,0,P|50:160|111:186,1,90,2|10,0:0|0:2,0:0:0:0:
228,204,282506,1,2,0:0:0:0:
317,38,282660,1,10,0:0:0:0:
476,123,282814,2,0,L|517:218,1,90,2|8,0:0|0:0,0:0:0:0:
271,122,283122,2,0,L|153:77,1,90,2|8,0:0|0:0,0:0:0:0:
7,163,283430,5,4,0:0:0:0:
9,198,283506,1,0,0:0:0:0:
23,230,283583,1,8,0:0:0:0:
53,249,283660,1,0,0:0:0:0:
88,253,283737,2,0,L|159:306,1,45,2|0,0:2|0:0,0:0:0:0:
121,159,283891,2,0,L|63:181,1,45,8|0,0:2|0:0,0:0:0:0:
200,213,284045,5,0,0:0:0:0:
202,248,284122,1,0,0:0:0:0:
216,280,284199,1,8,0:0:0:0:
246,299,284276,1,0,0:0:0:0:
281,303,284353,2,0,L|352:356,1,45,2|0,0:2|0:0,0:0:0:0:
314,209,284506,2,0,L|256:231,1,45,8|0,0:2|0:0,0:0:0:0:
378,142,284660,5,0,0:0:0:0:
376,107,284737,1,0,0:0:0:0:
362,75,284814,1,8,0:0:0:0:
332,56,284891,1,0,0:0:0:0:
297,52,284968,2,0,L|226:-1,1,45,2|0,0:2|0:0,0:0:0:0:
264,146,285122,2,0,L|322:124,1,45,8|0,0:2|0:0,0:0:0:0:
198,80,285276,6,0,P|148:66|83:88,1,90,4|8,0:0|0:0,0:0:0:0:
77,85,285506,1,8,0:0:0:0:
44,101,285583,1,8,0:0:0:0:
24,130,285660,1,8,0:0:0:0:
22,166,285737,1,8,0:0:0:0:
33,200,285814,1,8,0:0:0:0:
61,222,285891,1,8,0:0:0:0:
246,231,286045,5,8,0:0:0:0:
210,203,286122,1,8,0:0:0:0:
165,212,286199,1,8,0:0:0:0:
294,324,286353,1,8,0:0:0:0:
330,352,286430,1,8,0:0:0:0:
375,343,286506,1,8,0:0:0:0:
181,303,286660,1,8,0:0:0:0:
390,263,286814,2,0,P|434:284|456:339,1,90,4|0,2:2|0:0,0:0:0:0:
473,213,287122,6,0,L|491:106,1,90,6|8,0:0|0:0,0:0:0:0:
493,97,287353,1,0,0:0:0:0:
498,70,287430,1,0,0:0:0:0:
337,47,287583,2,0,L|319:154,1,90,8|0,0:0|0:0,0:0:0:0:
317,162,287814,1,0,0:0:0:0:
313,189,287891,1,10,0:2:0:0:
162,297,288045,1,0,0:0:0:0:
136,296,288122,1,0,0:0:0:0:
113,284,288199,1,8,0:0:0:0:
95,266,288276,1,0,0:0:0:0:
82,243,288353,6,0,L|63:129,1,90,2|8,0:0|0:0,0:0:0:0:
202,128,288660,1,0,0:0:0:0:
230,128,288737,1,0,0:0:0:0:
255,118,288814,2,0,P|291:93|361:97,1,90,10|0,0:0|0:0,0:0:0:0:
387,279,289122,1,10,0:2:0:0:
397,254,289199,1,0,0:0:0:0:
399,228,289276,2,0,P|402:183|380:121,1,90,2|8,0:0|0:0,0:0:0:0:
279,23,289583,5,4,0:0:0:0:
252,48,289660,1,0,0:0:0:0:
218,61,289737,1,8,0:0:0:0:
182,66,289814,1,0,0:0:0:0:
145,66,289891,1,2,0:2:0:0:
110,76,289968,1,0,0:0:0:0:
79,93,290045,1,8,0:0:0:0:
46,108,290122,1,0,0:0:0:0:
21,134,290199,5,0,0:0:0:0:
48,159,290276,1,0,0:0:0:0:
82,172,290353,1,8,0:0:0:0:
118,177,290430,1,0,0:0:0:0:
155,177,290506,1,2,0:2:0:0:
190,187,290583,1,0,0:0:0:0:
221,204,290660,1,8,0:0:0:0:
254,219,290737,1,0,0:0:0:0:
289,218,290814,5,0,0:0:0:0:
323,207,290891,1,0,0:0:0:0:
358,213,290968,2,0,L|409:245,1,45,10|0,0:0|0:0,0:0:0:0:
376,333,291122,2,0,L|325:301,1,45,2|0,0:0|0:0,0:0:0:0:
252,317,291276,1,8,0:0:0:0:
216,318,291353,1,0,0:0:0:0:
181,306,291430,2,0,P|138:301|74:314,1,90,2|10,0:0|0:2,0:0:0:0:
0,247,291737,2,0,L|29:198,1,45,2|0,0:0|0:0,0:0:0:0:
78,71,291891,2,0,L|107:120,1,45,10|0,0:0|0:0,0:0:0:0:
190,187,292045,6,0,P|231:202|311:198,1,90,6|8,0:0|0:0,0:0:0:0:
295,203,292276,1,0,0:0:0:0:
312,199,292353,1,0,0:0:0:0:
489,260,292506,2,0,P|447:275|368:271,1,90,10|0,0:0|0:0,0:0:0:0:
384,276,292737,1,0,0:0:0:0:
367,272,292814,1,10,0:2:0:0:
181,306,292968,1,2,0:0:0:0:
216,318,293045,1,0,0:0:0:0:
252,317,293122,1,8,0:0:0:0:
387,198,293276,6,0,P|370:150|312:127,1,90,2|8,0:0|0:0,0:0:0:0:
320,125,293506,1,0,0:0:0:0:
302,123,293583,1,0,0:0:0:0:
132,87,293737,2,0,P|149:39|207:16,1,90,10|0,0:0|0:0,0:0:0:0:
199,14,293968,1,0,0:0:0:0:
217,12,294045,1,10,0:2:0:0:
172,150,294199,1,2,0:0:0:0:
146,159,294276,1,0,0:0:0:0:
119,157,294353,1,8,0:0:0:0:
94,145,294430,1,0,0:0:0:0:
75,125,294506,6,0,L|37:169,1,45,6|0,0:0|0:0,0:0:0:0:
60,110,294660,2,0,L|22:154,1,45,8|0,0:0|0:0,0:0:0:0:
41,266,294814,2,0,L|79:222,1,45
56,281,294968,2,0,L|94:237,1,45,8|0,0:0|0:0,0:0:0:0:
186,222,295122,1,0,0:0:0:0:
211,212,295199,1,0,0:0:0:0:
238,213,295276,1,8,0:0:0:0:
260,227,295353,1,0,0:0:0:0:
272,250,295430,1,0,0:0:0:0:
273,276,295506,1,0,0:0:0:0:
259,299,295583,1,8,0:0:0:0:
257,325,295660,1,0,0:0:0:0:
270,348,295737,5,2,0:2:0:0:
277,352,295814,1,0,0:0:0:0:
285,355,295891,2,0,L|355:336,1,45,8|0,0:0|0:0,0:0:0:0:
367,250,296045,1,0,0:0:0:0:
374,254,296122,1,0,0:0:0:0:
381,258,296199,2,0,L|451:239,1,45,8|0,0:0|0:0,0:0:0:0:
448,143,296353,1,2,0:2:0:0:
455,147,296430,1,0,0:0:0:0:
462,151,296506,2,0,L|532:132,1,45,8|0,0:0|0:0,0:0:0:0:
341,152,296660,5,8,0:0:0:0:
305,150,296737,1,8,0:0:0:0:
269,143,296814,1,8,0:0:0:0:
236,125,296891,1,8,0:0:0:0:
215,95,296968,6,2,P|163:69|101:70,1,107.999996704102,4|8,0:0|0:0,0:0:0:0:
308,56,297276,2,2,P|360:40|423:53,1,107.999996704102,4|8,0:0|0:0,0:0:0:0:
209,225,297583,2,2,P|166:197|136:131,1,107.999996704102,4|8,0:0|0:0,0:0:0:0:
64,180,297814,1,2,0:0:0:0:
64,180,297891,2,2,P|73:235|49:299,1,107.999996704102,4|10,0:0|0:0,0:0:0:0:
58,284,298122,1,0,0:0:0:0:
58,284,298199,1,4,0:0:0:0:
181,341,298353,6,0,L|232:357,1,53.9999983520508,10|0,0:0|0:0,0:0:0:0:
293,267,298506,2,0,L|384:237,1,53.9999983520508,6|0,0:0|0:0,0:0:0:0:
289,168,298660,1,8,0:0:0:0:
245,165,298737,1,0,0:0:0:0:
215,133,298814,2,0,P|160:133|78:92,1,107.999996704102,2|8,0:0|0:0,0:0:0:0:
124,39,299045,1,2,0:0:0:0:
124,39,299122,2,0,P|179:39|261:80,1,107.999996704102,0|10,0:0|0:0,0:0:0:0:
441,136,299430,6,0,L|465:17,1,107.999996704102,2|8,0:0|0:0,0:0:0:0:
350,261,299737,2,0,L|326:142,1,107.999996704102,2|8,0:0|0:0,0:0:0:0:
415,321,300045,2,0,P|368:348|296:336,1,107.999996704102,2|8,0:0|0:0,0:0:0:0:
236,303,300276,1,2,0:0:0:0:
236,303,300353,2,0,P|189:277|117:288,1,107.999996704102,0|10,0:0|0:0,0:0:0:0:
255,218,300660,5,2,0:0:0:0:
228,183,300737,1,0,0:0:0:0:
205,145,300814,1,8,0:0:0:0:
184,107,300891,1,0,0:0:0:0:
218,80,300968,1,0,0:0:0:0:
254,56,301045,1,0,0:0:0:0:
292,35,301122,1,8,0:0:0:0:
318,69,301199,1,0,0:0:0:0:
338,107,301276,1,0,0:0:0:0:
363,142,301353,1,0,0:0:0:0:
329,169,301430,1,8,0:0:0:0:
295,195,301506,1,0,0:0:0:0:
255,218,301583,6,0,L|197:254,1,53.9999983520508,2|0,0:0|0:0,0:0:0:0:
70,248,301737,2,0,L|136:217,1,53.9999983520508,10|0,0:0|0:0,0:0:0:0:
255,218,301891,5,14,0:0:0:0:
286,248,301968,1,0,0:0:0:0:
317,277,302045,1,0,0:0:0:0:
349,248,302122,1,0,0:0:0:0:
380,218,302199,1,0,0:0:0:0:
259,134,302353,5,14,0:0:0:0:
218,146,302430,1,0,0:0:0:0:
177,158,302506,1,0,0:0:0:0:
187,201,302583,1,0,0:0:0:0:
197,242,302660,1,0,0:0:0:0:
329,169,302814,5,14,0:0:0:0:
339,127,302891,1,0,0:0:0:0:
350,86,302968,1,0,0:0:0:0:
307,73,303045,1,0,0:0:0:0:
267,61,303122,6,0,B|201:43|201:43|212:123|126:173,1,215.999993408203,14|2,0:0|0:2,0:0:0:0:
13,224,303583,1,8,0:0:0:0:
24,254,303660,1,8,0:0:0:0:
35,284,303737,1,8,0:0:0:0:
45,314,303814,1,8,0:0:0:0:
54,345,303891,1,8,0:0:0:0:
214,369,304045,1,8,0:0:0:0:
203,339,304122,1,8,0:0:0:0:
192,309,304199,1,8,0:0:0:0:
285,148,304353,6,0,B|328:272,1,107.999996704102,6|8,0:0|0:0,0:0:0:0:
328,269,304583,1,0,0:0:0:0:
336,288,304660,1,2,0:2:0:0:
451,237,304814,1,8,0:0:0:0:
441,217,304891,1,0,0:0:0:0:
433,196,304968,1,0,0:0:0:0:
471,66,305122,1,8,0:0:0:0:
481,84,305199,1,0,0:0:0:0:
493,101,305276,1,2,0:2:0:0:
360,44,305430,5,8,0:0:0:0:
340,50,305506,1,0,0:0:0:0:
320,56,305583,1,10,0:2:0:0:
150,93,305737,1,8,0:0:0:0:
314,162,305891,1,10,0:2:0:0:
218,12,306045,1,8,0:0:0:0:
212,194,306199,1,10,0:2:0:0:
161,317,306353,5,8,0:0:0:0:
108,304,306430,1,8,0:0:0:0:
74,262,306506,1,8,0:0:0:0:
63,208,306583,1,8,0:0:0:0:
67,154,306660,1,8,0:0:0:0:
100,111,306737,1,8,0:0:0:0:
150,93,306814,6,0,P|233:110|335:78,1,180,4|2,0:0|0:2,0:2:0:0:
405,245,307276,1,10,0:0:0:0:
395,219,307353,1,0,0:0:0:0:
372,204,307430,2,0,P|324:230|255:214,1,90,0|8,0:0|0:0,0:0:0:0:
74,262,307737,2,0,P|120:240|181:236,1,90,2|8,0:0|0:0,0:0:0:0:
388,323,308045,6,0,P|297:331|213:276,1,180,2|2,0:0|0:2,0:0:0:0:
405,245,308506,2,0,P|447:276|464:333,1,90,10|0,0:0|0:0,0:0:0:0:
315,208,308814,1,8,0:0:0:0:
305,183,308891,1,0,0:0:0:0:
296,158,308968,2,0,P|293:113|315:51,1,90,2|8,0:0|0:0,0:0:0:0:
184,126,309276,6,0,L|130:113,1,45,4|0,0:0|0:0,0:0:0:0:
34,165,309430,2,0,L|21:219,1,45,8|0,0:0|0:0,0:0:0:0:
96,297,309583,2,0,L|150:310,1,45,2|0,0:2|0:0,0:0:0:0:
246,258,309737,2,0,L|259:204,1,45,8|0,0:0|0:0,0:0:0:0:
422,176,309891,6,0,L|368:163,1,45,0|0,0:0|0:0,0:0:0:0:
272,215,310045,2,0,L|259:269,1,45,8|0,0:0|0:0,0:0:0:0:
334,347,310199,2,0,L|388:360,1,45,2|0,0:2|0:0,0:0:0:0:
484,308,310353,2,0,L|497:254,1,45,8|0,0:0|0:0,0:0:0:0:
495,133,310506,5,0,0:0:0:0:
486,97,310583,1,0,0:0:0:0:
457,74,310660,2,0,L|401:76,1,45,10|0,0:0|0:0,0:0:0:0:
294,21,310814,2,0,L|357:20,1,45,2|0,0:0|0:0,0:0:0:0:
326,113,310968,1,8,0:0:0:0:
325,153,311045,1,0,0:0:0:0:
339,190,311122,1,2,0:2:0:0:
364,215,311199,1,0,0:0:0:0:
398,224,311276,1,8,0:0:0:0:
433,218,311353,1,0,0:0:0:0:
468,214,311430,2,0,L|494:264,1,45,2|0,0:0|0:0,0:0:0:0:
401,342,311583,2,0,L|372:293,1,45,10|0,0:0|0:0,0:0:0:0:
281,263,311737,6,0,L|150:259,1,90,6|8,0:0|0:0,0:0:0:0:
172,260,311968,1,0,0:0:0:0:
153,260,312045,1,2,0:2:0:0:
23,104,312199,5,10,0:0:0:0:
29,120,312276,1,0,0:0:0:0:
34,137,312353,2,0,L|69:246,1,90,0|8,0:0|0:0,0:0:0:0:
208,186,312660,1,2,0:0:0:0:
202,168,312737,1,0,0:0:0:0:
196,150,312814,1,8,0:0:0:0:
412,123,312968,6,0,P|362:108|302:119,1,90,6|8,0:0|0:0,0:0:0:0:
308,118,313199,1,0,0:0:0:0:
291,125,313276,1,2,0:2:0:0:
276,273,313430,1,10,0:0:0:0:
257,272,313506,1,0,0:0:0:0:
239,269,313583,2,0,P|221:237|208:158,1,90,0|8,0:0|0:0,0:0:0:0:
412,123,313891,1,2,0:0:0:0:
406,158,313968,1,0,0:0:0:0:
412,193,314045,1,8,0:0:0:0:
437,218,314122,1,0,0:0:0:0:
470,232,314199,5,6,0:0:0:0:
470,232,314276,1,0,0:0:0:0:
470,232,314353,2,0,L|527:262,1,45,8|0,0:0|0:0,0:0:0:0:
350,228,314506,1,2,0:2:0:0:
350,228,314583,1,0,0:0:0:0:
350,228,314660,2,0,L|293:198,1,45,8|0,0:0|0:0,0:0:0:0:
411,330,314814,1,0,0:0:0:0:
411,330,314891,1,0,0:0:0:0:
411,330,314968,2,0,L|468:360,1,45,8|0,0:0|0:0,0:0:0:0:
291,326,315121,1,2,0:2:0:0:
291,326,315198,1,0,0:0:0:0:
291,326,315276,2,0,L|234:296,1,45,8|0,0:0|0:0,0:0:0:0:
101,291,315430,5,0,0:0:0:0:
93,274,315506,1,0,0:0:0:0:
85,257,315583,1,8,0:0:0:0:
79,239,315660,1,0,0:0:0:0:
113,228,315737,5,2,0:2:0:0:
106,211,315814,1,0,0:0:0:0:
101,193,315891,1,8,0:0:0:0:
95,176,315968,1,0,0:0:0:0:
129,166,316045,5,0,0:0:0:0:
122,149,316122,1,0,0:0:0:0:
116,131,316199,1,8,0:0:0:0:
110,113,316276,1,0,0:0:0:0:
136,97,316353,5,8,0:0:0:0:
174,74,316430,1,8,0:0:0:0:
218,69,316506,1,8,0:0:0:0:
262,72,316583,1,8,0:0:0:0:
298,88,316660,6,2,P|340:123|411:126,1,116.999994644165,4|8,0:0|0:0,0:0:0:0:
236,202,316968,2,2,P|183:172|84:175,1,116.999994644165,4|8,0:0|0:0,0:0:0:0:
195,327,317276,2,2,P|257:323|332:302,1,116.999994644165,4|8,0:0|0:0,0:0:0:0:
386,289,317506,1,2,0:0:0:0:
395,216,317583,2,2,P|406:168|371:100,1,116.999994644165,4|10,0:0|0:0,0:0:0:0:
361,92,317814,1,0,0:0:0:0:
342,77,317891,1,4,0:0:0:0:
144,22,318045,6,0,L|231:48,1,58.4999973220826,10|0,0:0|0:0,0:0:0:0:
106,132,318199,2,0,L|0:165,1,58.4999973220826,14|0,0:0|0:0,0:0:0:0:
185,202,318353,1,8,0:0:0:0:
216,218,318430,1,0,0:0:0:0:
250,213,318506,2,0,P|307:200|383:230,1,116.999994644165,6|8,0:0|0:0,0:0:0:0:
386,289,318737,1,2,0:0:0:0:
318,328,318814,2,0,P|263:328|194:305,1,116.999994644165,4|10,0:0|0:0,0:0:0:0:
399,364,319122,6,0,P|451:334|457:269,1,116.999994644165,6|8,0:0|0:0,0:0:0:0:
387,102,319430,2,0,P|386:160|411:221,1,116.999994644165,6|8,0:0|0:0,0:0:0:0:
219,129,319737,2,0,P|165:126|114:161,1,116.999994644165,6|8,0:0|0:0,0:0:0:0:
78,227,319968,1,2,0:0:0:0:
108,297,320045,2,0,P|155:323|234:313,1,116.999994644165,4|10,0:0|0:0,0:0:0:0:
358,210,320353,5,2,0:0:0:0:
320,181,320430,1,0,0:0:0:0:
301,138,320506,1,8,0:0:0:0:
301,91,320583,1,0,0:0:0:0:
346,86,320660,5,0,0:0:0:0:
376,47,320737,1,0,0:0:0:0:
418,29,320814,1,8,0:0:0:0:
454,35,320891,1,0,0:0:0:0:
451,81,320968,5,0,0:0:0:0:
490,111,321045,1,0,0:0:0:0:
508,153,321122,1,8,0:0:0:0:
502,189,321199,1,0,0:0:0:0:
469,223,321276,2,0,L|413:284,1,58.4999973220826,10|0,0:0|0:0,0:0:0:0:
265,325,321430,2,0,L|310:287,1,58.4999973220826,10|0,0:0|0:0,0:0:0:0:
210,234,321583,5,14,0:0:0:0:
161,218,321660,1,0,0:0:0:0:
161,168,321737,1,0,0:0:0:0:
210,152,321814,1,0,0:0:0:0:
239,192,321891,1,0,0:0:0:0:
358,210,322045,5,14,0:0:0:0:
406,193,322122,1,0,0:0:0:0:
406,143,322199,1,0,0:0:0:0:
358,127,322276,1,0,0:0:0:0:
329,168,322353,1,0,0:0:0:0:
368,259,322506,5,14,0:0:0:0:
413,268,322583,1,0,0:0:0:0:
460,256,322660,2,0,L|523:276,1,53.9999983520508
309,335,322814,5,14,0:0:0:0:
261,344,322891,1,0,0:0:0:0:
211,343,322968,1,0,0:0:0:0:
163,334,323045,1,0,0:0:0:0:
122,306,323122,2,0,L|77:256,1,53.9999983520508
239,192,323276,5,14,0:0:0:0:
287,202,323353,1,0,0:0:0:0:
336,200,323430,1,0,0:0:0:0:
385,192,323506,1,0,0:0:0:0:
425,164,323583,2,0,L|472:111,1,53.9999983520508
252,83,323737,5,14,0:0:0:0:
204,73,323814,1,0,0:0:0:0:
154,74,323891,2,0,L|80:90,1,53.9999983520508
239,193,324045,5,12,0:0:0:0:
256,192,324122,12,0,326199,0:0:0:0:
