osu file format v14

[General]
AudioFilename: Rapidity is a justice.mp3
AudioLeadIn: 0
PreviewTime: 122199
Countdown: 0
SampleSet: Soft
StackLeniency: 0.7
Mode: 0
LetterboxInBreaks: 0
WidescreenStoryboard: 0

[Editor]
DistanceSpacing: 2
BeatDivisor: 4
GridSize: 4
TimelineZoom: 1.6

[Metadata]
Title:Rokujuu Nenme no Shinsoku Saiban ~ Rapidity is a justice
TitleUnicode:六十年目の神速裁判 ~ Rapidity is a justice
Artist:Xi
ArtistUnicode:Xi
Creator:gaston_2199
Version:Flat is Justice
Source:東方Project
Tags:Touhou AQUAELIE Shikieiki Yamaxanadu ZUN U2 Lince Cosmico
BeatmapID:1027015
BeatmapSetID:481181

[Difficulty]
HPDrainRate:5
CircleSize:4
OverallDifficulty:8
ApproachRate:9.2
SliderMultiplier:1.4
SliderTickRate:1

[Events]
//Background and Video events
0,0,"shikieiki.jpg",0,0
//Break Periods
//Storyboard Layer 0 (Background)
//Storyboard Layer 1 (Fail)
//Storyboard Layer 2 (Pass)
//Storyboard Layer 3 (Foreground)
//Storyboard Sound Samples

[TimingPoints]
1925,324.324324324324,4,2,0,60,1,0
1925,-133.333333333333,4,2,0,60,0,0
12303,-100,4,2,0,50,0,0
33060,-100,4,2,0,40,0,0
34357,-100,4,2,0,45,0,0
35654,-100,4,2,0,50,0,0
36952,-100,4,2,0,55,0,0
38249,-100,4,2,0,60,0,0
40843,-100,4,2,0,65,0,0
42141,-100,4,2,0,70,0,0
43430,307.692307692308,4,1,0,60,1,0
48045,-66.6666666666667,4,1,0,60,0,0
48353,-100,4,1,0,60,0,0
52968,-200,4,1,0,60,0,0
53276,-100,4,1,0,80,0,0
63122,-83.3333333333333,4,1,0,70,0,0
72968,-66.6666666666667,4,1,0,80,0,1
81583,-100,4,1,0,80,0,1
82814,-100,4,2,0,70,0,0
97276,-200,4,2,0,60,0,0
97583,-133.333333333333,4,2,0,60,0,0
111583,-100,4,2,0,10,0,0
111737,-100,4,1,0,30,0,0
111891,-100,4,1,0,40,0,0
112045,-100,4,1,0,50,0,0
112353,-100,4,1,0,70,0,0
122199,-83.3333333333333,4,1,0,80,0,1
127122,-83.3333333333333,4,1,0,60,0,1
129660,-83.3333333333333,4,1,0,80,0,1
131737,-83.3333333333333,4,1,0,80,0,0
132045,-100,4,1,0,70,0,1
140660,-100,4,1,0,60,0,1
141891,-66.6666666666667,4,1,0,70,0,0
151737,-83.3333333333333,4,1,0,75,0,0
161276,-100,4,1,0,80,0,0
161583,-76.9230769230769,4,1,0,80,0,1
178814,-100,4,1,0,100,0,1
181276,-66.6666666666667,4,1,0,70,0,0
191122,-83.3333333333333,4,1,0,70,0,1
196045,-83.3333333333333,4,1,0,60,0,1
198506,-83.3333333333333,4,1,0,40,0,0
208353,-83.3333333333333,4,1,0,70,0,1
218199,-133.333333333333,4,1,0,50,0,0
227430,-133.333333333333,4,1,0,30,0,0
228045,-83.3333333333333,4,1,0,80,0,0
236660,-100,4,1,0,60,0,0
237583,-66.6666666666667,4,1,0,60,0,0
237891,-66.6666666666667,4,1,0,70,0,0
247737,-66.6666666666667,4,1,0,70,0,1
247968,-66.6666666666667,4,1,0,50,0,1
248122,-66.6666666666667,4,1,0,70,0,1
249199,-66.6666666666667,4,1,0,50,0,1
249430,-66.6666666666667,4,1,0,70,0,1
250430,-66.6666666666667,4,1,0,50,0,1
250583,-66.6666666666667,4,1,0,70,0,1
251660,-66.6666666666667,4,1,0,50,0,1
251814,-66.6666666666667,4,1,0,70,0,1
257583,-100,4,1,0,70,0,0
264660,-100,4,2,0,70,0,0
264968,-133.333333333333,4,2,0,60,0,0
271737,-133.333333333333,4,2,0,5,0,0
272045,-133.333333333333,4,1,0,50,0,0
272353,-66.6666666666667,4,1,0,80,0,0
285430,-66.6666666666667,4,1,0,50,0,0
287122,-66.6666666666667,4,1,0,65,0,0
296968,-83.3333333333333,4,1,0,90,0,1
301891,-83.3333333333333,4,1,0,70,0,1
303199,-83.3333333333333,4,1,0,80,0,0
306814,-66.6666666666667,4,1,0,65,0,0
316660,-76.9230769230769,4,1,0,80,0,1
321583,-83.3333333333333,4,1,0,70,0,1
324045,-83.3333333333333,4,1,0,70,0,0
326199,-83.3333333333333,4,2,0,5,0,0

[Colours]
Combo1 : 248,204,31
Combo2 : 0,64,128
Combo3 : 204,0,0
Combo4 : 3,165,226

[HitObjects]
136,56,1925,5,0,0:0:0:0:
68,136,2087,1,0,0:0:0:0:
144,208,2249,2,0,P|200:228|264:228,1,105.000004005432,0|8,0:0|0:0,0:0:0:0:
368,60,2897,1,0,0:0:0:0:
500,224,3222,2,0,P|476:280|424:316,1,105.000004005432,8|0,0:0|0:0,0:0:0:0:
315,150,3870,2,0,P|352:187|396:216,1,105.000004005432,0|8,0:0|0:0,0:0:0:0:
148,24,4519,5,0,0:0:0:0:
68,92,4681,1,0,0:0:0:0:
36,192,4843,2,0,P|28:240|40:304,1,105.000004005432,0|8,0:0|0:0,0:0:0:0:
160,124,5492,1,0,0:0:0:0:
352,36,5816,2,0,P|404:20|464:32,1,105.000004005432,8|0,0:0|0:0,0:0:0:0:
420,212,6465,2,0,L|408:92,1,105.000004005432,0|8,0:0|0:0,0:0:0:0:
328,280,7114,5,0,0:0:0:0:
236,252,7276,1,0,0:0:0:0:
228,160,7438,2,0,P|244:128|316:108,1,105.000004005432,0|8,0:0|0:0,0:0:0:0:
484,172,8087,1,0,0:0:0:0:
368,320,8411,2,0,P|316:348|252:332,1,105.000004005432,8|0,0:0|0:0,0:0:0:0:
272,176,9060,2,0,L|312:288,1,105.000004005432,0|8,0:0|0:0,0:0:0:0:
452,364,9708,5,0,0:0:0:0:
492,268,9870,1,0,0:0:0:0:
476,164,10033,2,0,P|452:116|400:84,1,105.000004005432,0|8,0:0|0:0,0:0:0:0:
307,274,10681,1,0,0:0:0:0:
196,96,11006,5,0,0:0:0:0:
108,156,11168,1,0,0:0:0:0:
280,272,11330,1,0,0:0:0:0:
288,168,11492,1,0,0:0:0:0:
80,204,11654,1,0,0:0:0:0:
128,296,11817,1,0,0:0:0:0:
244,120,11979,1,0,0:0:0:0:
244,120,12141,1,0,0:0:0:0:
120,52,12303,5,0,0:0:0:0:
4,128,12465,1,0,0:0:0:0:
112,216,12627,2,0,P|160:232|192:224,1,70,8|0,0:0|0:0,0:0:0:0:
284,132,12952,2,0,P|336:124|368:132,1,70
448,228,13276,2,0,P|488:240|516:240,1,70,8|0,0:0|0:0,0:0:0:0:
428,132,13600,5,0,0:0:0:0:
368,260,13762,1,0,0:0:0:0:
304,136,13924,1,8,0:0:0:0:
252,268,14087,1,0,0:0:0:0:
184,148,14249,1,0,0:0:0:0:
140,280,14411,1,0,0:0:0:0:
68,160,14573,1,8,0:0:0:0:
20,292,14735,1,0,0:0:0:0:
152,344,14897,6,0,P|196:356|236:356,1,70
240,348,15141,1,0,0:0:0:0:
260,344,15222,2,0,P|324:332|344:336,1,70,8|0,0:0|0:0,0:0:0:0:
408,216,15546,2,0,P|380:264|380:288,1,70
446,98,15870,2,0,P|461:130|462:165,1,70,8|0,0:0|0:0,0:0:0:0:
380,52,16195,5,0,0:0:0:0:
328,184,16357,1,0,0:0:0:0:
268,60,16519,1,8,0:0:0:0:
224,192,16681,1,0,0:0:0:0:
168,64,16843,1,0,0:0:0:0:
120,196,17006,1,0,0:0:0:0:
0,124,17168,2,0,B|0:169|0:169|22:206,1,70,8|0,0:0|0:0,0:0:0:0:
120,280,17492,5,0,0:0:0:0:
256,156,17654,1,0,0:0:0:0:
272,276,17816,2,0,P|232:256|216:232,1,70,8|0,0:0|0:0,0:0:0:0:
348,200,18141,2,0,P|384:176|400:148,1,70
256,156,18465,2,0,P|216:140|196:108,1,70,8|0,0:0|0:0,0:0:0:0:
300,24,18789,2,0,L|252:100,1,70
140,16,19114,2,0,L|184:96,1,70,8|0,0:0|0:0,0:0:0:0:
68,168,19438,2,0,L|152:144,1,70
192,276,19762,2,0,L|200:200,1,70,8|0,0:0|0:0,0:0:0:0:
216,68,20087,5,0,0:0:0:0:
308,256,20249,1,0,0:0:0:0:
228,144,20411,2,0,P|180:140|156:152,1,70,8|0,0:0|0:0,0:0:0:0:
80,264,20735,1,0,0:0:0:0:
24,140,20897,1,0,0:0:0:0:
24,140,21060,2,0,P|60:176|88:192,1,70,8|0,0:0|0:0,0:0:0:0:
204,244,21384,5,8,0:0:0:0:
344,240,21546,1,0,0:0:0:0:
452,148,21708,1,0,0:0:0:0:
496,16,21870,1,8,0:0:0:0:
356,8,22033,1,0,0:0:0:0:
476,80,22195,1,0,0:0:0:0:
476,80,22357,1,8,0:0:0:0:
360,140,22519,1,0,0:0:0:0:
232,200,22681,6,0,L|156:232,2,70,0|0|8,0:0|0:0|0:0,0:0:0:0:
408,164,23168,1,0,0:0:0:0:
468,36,23330,2,0,P|428:12|380:12,1,70
376,144,23654,2,0,L|416:72,1,70,8|0,0:0|0:0,0:0:0:0:
272,48,23979,2,0,P|220:52|128:100,1,140
32,252,24627,2,0,P|108:256|180:224,1,140,0|8,0:0|0:0,0:0:0:0:
240,112,25114,1,0,0:0:0:0:
352,28,25276,6,0,P|396:24|432:36,2,70,0|0|8,0:0|0:0|0:0,0:0:0:0:
240,112,25762,1,0,0:0:0:0:
192,244,25924,2,0,P|184:288|196:324,1,70
328,280,26249,2,0,L|244:280,1,70,8|0,0:0|0:0,0:0:0:0:
120,276,26573,2,0,P|81:224|88:140,1,140
308,140,27222,2,0,L|168:196,1,140,0|8,0:0|0:0,0:0:0:0:
108,312,27708,1,0,0:0:0:0:
56,184,27870,6,0,P|68:136|80:120,2,70,0|0|8,0:0|0:0|0:0,0:0:0:0:
172,104,28357,1,0,0:0:0:0:
304,56,28519,2,0,P|340:40|392:60,1,70
352,188,28843,2,0,L|348:104,1,70,8|0,0:0|0:0,0:0:0:0:
208,112,29168,2,0,L|264:184,1,70
128,100,29492,2,8,P|144:60|172:36,1,70,8|0,0:0|0:0,0:0:0:0:
300,12,29816,1,0,0:0:0:0:
300,12,29979,1,0,0:0:0:0:
300,152,30141,1,8,0:0:0:0:
300,152,30303,1,0,0:0:0:0:
420,76,30465,6,0,P|452:108|472:144,2,70,0|0|8,0:0|0:0|0:0,0:0:0:0:
288,28,30952,1,0,0:0:0:0:
160,80,31114,2,0,P|124:96|104:136,1,70
220,200,31438,2,0,L|168:144,1,70,8|0,0:0|0:0,0:0:0:0:
72,52,31762,5,8,0:0:0:0:
8,176,31924,1,0,0:0:0:0:
204,100,32087,1,0,0:0:0:0:
88,20,32249,1,8,0:0:0:0:
112,228,32411,1,0,0:0:0:0:
236,164,32573,1,0,0:0:0:0:
68,40,32735,1,8,0:0:0:0:
4,164,32897,1,0,0:0:0:0:
256,192,33060,12,0,34357,0:0:0:0:
256,192,34438,12,0,35654,0:0:0:0:
256,192,35735,12,0,36951,0:0:0:0:
256,192,37033,12,0,38249,0:0:0:0:
256,192,38330,12,0,40843,0:0:0:0:
256,192,40924,12,0,42141,0:0:0:0:
80,40,43430,5,0,0:0:0:0:
148,160,43583,1,0,0:0:0:0:
52,260,43737,2,0,P|96:280|140:288,1,70,8|0,0:0|0:0,0:0:0:0:
248,236,44045,1,0,0:0:0:0:
360,320,44199,6,0,B|392:288|416:276|416:276|432:240|420:188,1,140
320,116,44660,1,8,0:0:0:0:
296,256,44814,1,0,0:0:0:0:
423,209,44968,1,0,0:0:0:0:
320,116,45122,2,0,P|280:96|228:88,1,70
236,92,45353,1,0,0:0:0:0:
220,96,45430,1,0,0:0:0:0:
204,104,45506,1,0,0:0:0:0:
188,112,45583,6,0,B|156:132|164:176|164:176|172:224|144:248,1,140,0|8,0:0|0:0,0:0:0:0:
72,340,46045,1,0,0:0:0:0:
204,296,46199,1,0,0:0:0:0:
88,196,46353,1,0,0:0:0:0:
236,164,46506,1,0,0:0:0:0:
84,112,46660,6,0,B|68:84|84:64|84:64|148:44|160:-20,1,140
284,12,47122,1,8,0:0:0:0:
220,140,47276,1,0,0:0:0:0:
150,9,47430,1,0,0:0:0:0:
284,12,47583,1,0,0:0:0:0:
396,100,47737,2,0,L|464:168,1,70
500,312,48045,6,8,B|476:344|444:344|444:344|404:320|368:344|368:344|272:344,1,210.000008010865
188,264,48506,1,0,0:0:0:0:
108,148,48660,2,0,P|96:92|100:64,1,70
236,100,48968,1,0,0:0:0:0:
236,100,49122,2,0,P|280:120|388:108,1,140
472,20,49583,5,8,0:0:0:0:
488,52,49660,1,0,0:0:0:0:
496,88,49737,1,0,0:0:0:0:
496,124,49814,1,0,0:0:0:0:
488,160,49891,2,0,P|472:200|476:248,1,70
512,340,50199,1,8,0:0:0:0:
476,348,50276,1,0,0:0:0:0:
440,348,50353,1,0,0:0:0:0:
408,340,50430,1,0,0:0:0:0:
376,328,50506,6,0,P|320:304|224:304,1,140,0|8,0:0|0:0,0:0:0:0:
148,352,50968,1,0,0:0:0:0:
56,300,51122,1,0,0:0:0:0:
4,208,51276,1,0,0:0:0:0:
16,104,51430,1,0,0:0:0:0:
76,20,51583,2,0,P|144:8|224:16,1,140
352,32,52045,1,8,0:0:0:0:
268,144,52199,1,0,0:0:0:0:
214,13,52353,1,0,0:0:0:0:
352,32,52506,1,0,0:0:0:0:
460,96,52660,5,0,0:0:0:0:
460,112,52737,1,0,0:0:0:0:
460,128,52814,1,0,0:0:0:0:
460,144,52891,1,0,0:0:0:0:
460,160,52968,6,0,L|460:232,1,70,0|8,0:0|0:0,0:0:0:0:
344,308,53430,1,0,0:0:0:0:
332,168,53583,1,0,0:0:0:0:
200,212,53737,1,0,0:0:0:0:
200,212,53814,1,0,0:0:0:0:
200,212,53891,2,0,B|180:228|160:216|148:204|104:212,1,70,8|0,0:0|0:0,0:0:0:0:
44,100,54199,1,0,0:0:0:0:
64,88,54276,1,0,0:0:0:0:
88,84,54353,1,0,0:0:0:0:
204,160,54506,5,8,0:0:0:0:
236,172,54583,1,0,0:0:0:0:
272,180,54660,1,0,0:0:0:0:
308,172,54737,1,0,0:0:0:0:
336,152,54814,2,0,P|376:136|412:136,1,70
492,244,55122,1,8,0:0:0:0:
468,272,55199,1,0,0:0:0:0:
440,292,55276,1,0,0:0:0:0:
408,308,55353,1,0,0:0:0:0:
372,312,55430,6,0,B|304:312|304:312|272:268|236:268,1,140,0|8,0:0|0:0,0:0:0:0:
156,164,55891,1,0,0:0:0:0:
48,252,56045,1,0,0:0:0:0:
4,120,56199,1,0,0:0:0:0:
0,84,56276,1,0,0:0:0:0:
16,52,56353,1,8,0:0:0:0:
156,36,56506,2,0,B|208:64|224:44|240:24|300:36,1,140
420,92,56968,5,8,0:0:0:0:
444,120,57045,1,0,0:0:0:0:
452,152,57122,1,0,0:0:0:0:
448,188,57199,1,0,0:0:0:0:
436,220,57276,2,0,P|412:264|400:312,1,70
304,380,57583,1,0,0:0:0:0:
272,364,57660,1,0,0:0:0:0:
244,340,57737,1,0,0:0:0:0:
172,220,57891,6,0,P|144:184|60:132,1,140,0|4,0:0|0:0,0:0:0:0:
64,276,58353,1,0,0:0:0:0:
192,328,58506,1,0,0:0:0:0:
328,292,58660,1,0,0:0:0:0:
364,288,58737,1,0,0:0:0:0:
400,288,58814,2,0,P|444:292|484:308,1,70,8|0,0:0|0:0,0:0:0:0:
492,160,59122,1,0,0:0:0:0:
488,124,59199,1,0,0:0:0:0:
484,88,59276,6,0,P|468:44|448:16,1,70,0|4,0:0|0:0,0:0:0:0:
316,48,59583,2,0,P|280:60|232:88,2,70
428,136,60045,1,0,0:0:0:0:
416,168,60122,1,0,0:0:0:0:
392,196,60199,1,0,0:0:0:0:
364,216,60276,1,0,0:0:0:0:
328,220,60353,6,0,P|248:228|192:264,1,140,0|4,0:0|0:0,0:0:0:0:
128,380,60814,1,0,0:0:0:0:
24,288,60968,1,0,0:0:0:0:
0,148,61122,1,0,0:0:0:0:
28,128,61199,1,0,0:0:0:0:
60,112,61276,1,8,0:0:0:0:
180,40,61430,2,0,B|216:16|264:40|264:40|320:40,1,140
452,16,61891,5,8,0:0:0:0:
472,44,61968,1,0,0:0:0:0:
476,80,62045,1,0,0:0:0:0:
472,116,62122,1,0,0:0:0:0:
456,148,62199,2,0,L|468:192,1,35,8|0,0:0|0:0,0:0:0:0:
360,248,62353,2,0,L|372:288,1,35,8|0,0:0|0:0,0:0:0:0:
232,300,62506,2,0,L|232:344,1,35,8|0,0:0|0:0,0:0:0:0:
96,264,62660,2,8,L|64:288,1,35,10|0,0:0|0:0,0:0:0:0:
24,144,62814,6,0,B|8:120|28:88|28:88|88:84|112:56,1,140,0|4,0:0|0:0,0:0:0:0:
260,4,63276,1,0,0:0:0:0:
360,140,63430,1,0,0:0:0:0:
384,176,63506,1,0,0:0:0:0:
384,220,63583,1,0,0:0:0:0:
276,352,63737,1,0,0:0:0:0:
236,356,63814,1,0,0:0:0:0:
196,352,63891,1,0,0:0:0:0:
156,336,63968,1,0,0:0:0:0:
120,312,64045,2,0,P|88:280|68:232,1,83.9999974365235
152,96,64353,5,4,0:0:0:0:
304,168,64506,1,0,0:0:0:0:
344,180,64583,1,0,0:0:0:0:
384,176,64660,2,0,P|428:156|448:120,1,83.9999974365235
312,24,64968,1,0,0:0:0:0:
272,16,65045,1,0,0:0:0:0:
232,12,65122,1,0,0:0:0:0:
192,20,65199,1,0,0:0:0:0:
160,48,65276,1,0,0:0:0:0:
144,88,65353,1,0,0:0:0:0:
144,132,65430,1,0,0:0:0:0:
160,172,65506,1,0,0:0:0:0:
196,196,65583,6,0,P|236:224|248:268,1,83.9999974365235,4|0,0:0|0:0,0:0:0:0:
112,360,65891,1,0,0:0:0:0:
76,336,65968,1,0,0:0:0:0:
56,300,66045,1,0,0:0:0:0:
56,256,66122,1,0,0:0:0:0:
76,220,66199,6,0,P|92:176|96:132,1,83.9999974365235,4|0,0:0|0:0,0:0:0:0:
216,24,66506,1,0,0:0:0:0:
252,16,66583,1,0,0:0:0:0:
288,20,66660,1,0,0:0:0:0:
432,104,66814,5,4,0:0:0:0:
304,212,66968,1,0,0:0:0:0:
304,212,67045,1,0,0:0:0:0:
304,212,67122,2,0,P|248:240|208:240,1,83.9999974365235,4|0,0:0|0:0,0:0:0:0:
68,296,67430,1,4,0:0:0:0:
104,316,67506,1,0,0:0:0:0:
144,328,67583,1,0,0:0:0:0:
184,336,67660,1,0,0:0:0:0:
224,332,67737,6,0,P|292:324|328:332,1,83.9999974365235
452,368,68045,1,4,0:0:0:0:
476,332,68122,1,0,0:0:0:0:
488,292,68199,1,0,0:0:0:0:
420,140,68353,1,0,0:0:0:0:
264,200,68506,2,0,L|224:216,2,41.9999987182618
368,68,68814,1,0,0:0:0:0:
416,228,68968,1,4,0:0:0:0:
428,268,69045,1,0,0:0:0:0:
420,308,69122,1,0,0:0:0:0:
268,384,69276,6,0,P|220:348|176:336,1,83.9999974365235,4|0,0:0|0:0,0:0:0:0:
32,304,69583,2,0,P|84:264|112:256,1,83.9999974365235,4|0,0:0|0:0,0:0:0:0:
264,216,69891,2,0,P|216:188|188:180,1,83.9999974365235,4|0,0:0|0:0,0:0:0:0:
40,100,70199,1,0,0:0:0:0:
56,64,70276,1,0,0:0:0:0:
84,40,70353,1,0,0:0:0:0:
120,28,70430,1,0,0:0:0:0:
156,28,70506,6,0,P|228:32|264:28,1,83.9999974365235,4|0,0:0|0:0,0:0:0:0:
348,164,70814,1,0,0:0:0:0:
348,164,70891,1,0,0:0:0:0:
348,164,70968,1,0,0:0:0:0:
444,24,71122,1,0,0:0:0:0:
492,184,71276,1,0,0:0:0:0:
504,224,71353,1,0,0:0:0:0:
504,268,71430,2,0,P|488:328|468:356,1,83.9999974365235
340,248,71737,5,0,0:0:0:0:
304,232,71814,1,0,0:0:0:0:
280,204,71891,1,0,0:0:0:0:
320,40,72045,1,0,0:0:0:0:
320,40,72199,1,0,0:0:0:0:
176,124,72353,5,0,0:0:0:0:
156,160,72430,1,0,0:0:0:0:
152,200,72506,1,0,0:0:0:0:
168,240,72583,1,0,0:0:0:0:
204,260,72660,1,0,0:0:0:0:
244,276,72737,1,0,0:0:0:0:
280,300,72814,1,0,0:0:0:0:
312,328,72891,1,0,0:0:0:0:
348,352,72968,6,0,P|404:364|476:348,1,105.000004005432
488,148,73276,2,0,P|492:92|464:44,1,105.000004005432
284,148,73583,2,0,P|280:204|308:252,1,105.000004005432
248,336,73814,1,0,0:0:0:0:
248,336,73891,2,0,P|204:344|144:320,1,105.000004005432
100,116,74199,5,0,0:0:0:0:
28,312,74353,1,0,0:0:0:0:
200,192,74506,2,0,P|260:168|304:168,1,105.000004005432
464,300,74814,2,0,P|404:324|360:324,1,105.000004005432
277,267,75045,1,0,0:0:0:0:
277,267,75122,2,0,P|259:316|268:368,1,105.000004005432
148,192,75430,6,0,L|100:92,1,105.000004005432
184,32,75660,1,0,0:0:0:0:
184,32,75737,2,0,P|244:40|296:32,1,105.000004005432
496,64,76045,2,0,P|508:128|496:184,1,105.000004005432
484,192,76276,1,0,0:0:0:0:
460,212,76353,1,0,0:0:0:0:
260,152,76506,6,0,B|216:132|216:132|192:140|168:144|168:144|116:128|40:156,1,210.000008010865
160,336,76968,1,0,0:0:0:0:
260,152,77122,1,0,0:0:0:0:
100,292,77276,1,0,0:0:0:0:
260,152,77430,1,0,0:0:0:0:
64,228,77583,1,0,0:0:0:0:
260,152,77737,1,0,0:0:0:0:
57,149,77891,6,0,P|64:84|88:48,1,105.000004005432
192,56,78122,1,0,0:0:0:0:
192,56,78199,2,0,P|264:64|312:56,1,105.000004005432
460,128,78506,2,0,P|452:188|460:236,1,105.000004005432
420,316,78737,1,0,0:0:0:0:
420,316,78814,2,0,P|356:328|304:320,1,105.000004005432
212,140,79122,5,0,0:0:0:0:
168,344,79276,1,0,0:0:0:0:
320,200,79430,2,0,P|336:132|328:88,1,105.000004005432
140,8,79737,2,0,P|124:76|132:120,1,105.000004005432
224,300,80045,2,0,P|240:232|232:188,1,105.000004005432
88,348,80353,5,0,0:0:0:0:
132,368,80430,1,0,0:0:0:0:
180,372,80506,1,0,0:0:0:0:
327,218,80660,1,0,0:0:0:0:
283,202,80737,1,0,0:0:0:0:
235,198,80814,1,0,0:0:0:0:
368,360,80968,1,0,0:0:0:0:
412,344,81045,1,0,0:0:0:0:
444,308,81122,1,0,0:0:0:0:
380,108,81276,1,0,0:0:0:0:
336,96,81353,1,0,0:0:0:0:
288,100,81430,1,0,0:0:0:0:
512,4,81583,6,0,B|520:48|520:48|504:88|512:152,1,140,4|0,0:0|0:0,0:0:0:0:
512,164,81968,1,0,0:0:0:0:
512,184,82045,1,0,0:0:0:0:
508,204,82122,1,0,0:0:0:0:
492,236,82199,1,0,0:0:0:0:
468,260,82276,1,0,0:0:0:0:
440,280,82353,1,0,0:0:0:0:
408,292,82430,1,0,0:0:0:0:
372,296,82506,1,0,0:0:0:0:
336,292,82583,1,0,0:0:0:0:
300,284,82660,1,0,0:0:0:0:
264,280,82737,1,0,0:0:0:0:
228,284,82814,6,0,P|184:288|140:304,1,70,10|0,0:0|0:0,0:0:0:0:
68,384,83122,2,0,P|44:352|40:316,1,70
124,228,83430,2,0,P|140:184|140:136,1,70
28,108,83737,2,0,P|24:60|40:28,1,70
152,76,84045,2,0,P|200:88|296:68,1,140,10|0,0:0|0:0,0:0:0:0:
392,0,84506,2,0,P|436:24|464:64,1,70
448,164,84814,5,0,0:0:0:0:
368,260,84968,1,0,0:0:0:0:
260,324,85122,1,0,0:0:0:0:
292,200,85276,1,10,0:0:0:0:
384,112,85430,1,0,0:0:0:0:
500,64,85583,1,0,0:0:0:0:
468,188,85737,1,0,0:0:0:0:
368,264,85891,6,0,P|288:292|208:280,1,140,0|8,0:0|0:0,0:0:0:0:
144,200,86353,1,0,0:0:0:0:
72,304,86506,2,0,P|23:237|26:158,1,140,2|0,0:0|0:0,0:0:0:0:
116,96,86968,5,0,0:0:0:0:
152,92,87122,1,0,0:0:0:0:
188,92,87276,1,0,0:0:0:0:
224,88,87430,1,2,0:0:0:0:
336,168,87583,1,0,0:0:0:0:
300,176,87737,1,0,0:0:0:0:
264,184,87891,1,0,0:0:0:0:
228,192,88045,1,2,0:0:0:0:
192,200,88199,1,0,0:0:0:0:
56,216,88353,6,0,P|44:256|48:288,1,70
184,260,88660,2,0,L|108:260,1,70
152,356,88968,2,0,L|228:356,1,70,6|0,0:0|0:0,0:0:0:0:
260,288,89276,2,0,P|264:253|256:220,1,70
150,127,89583,1,0,0:0:0:0:
78,170,89737,1,0,0:0:0:0:
184,260,89891,1,6,0:0:0:0:
255,219,90045,1,0,0:0:0:0:
323,97,90199,6,0,B|280:79|280:79|226:117|182:106,1,140,10|0,0:0|0:0,0:0:0:0:
57,142,90660,1,0,0:0:0:0:
128,262,90814,2,0,L|150:178,1,70
273,253,91122,1,0,0:0:0:0:
342,374,91276,2,0,L|357:298,1,70,0|2,0:0|0:0,0:0:0:0:
385,168,91583,1,0,0:0:0:0:
321,42,91737,1,0,0:0:0:0:
224,144,91891,2,0,P|216:188|232:224,1,70
355,305,92199,5,0,0:0:0:0:
416,88,92353,1,0,0:0:0:0:
472,216,92506,1,0,0:0:0:0:
472,216,92660,2,0,P|424:232|388:232,1,70,10|0,0:0|0:0,0:0:0:0:
288,156,92968,1,0,0:0:0:0:
164,224,93122,1,0,0:0:0:0:
84,340,93276,2,0,P|136:348|228:344,1,140,10|0,0:0|0:0,0:0:0:0:
256,192,93891,12,0,97276,0:0:0:0:
404,216,97583,5,10,0:0:0:0:
312,268,97737,1,0,0:0:0:0:
208,268,97891,2,0,L|144:248,1,52.5000020027161,0|4,0:0|0:0,0:0:0:0:
116,156,98199,1,0,0:0:0:0:
216,180,98353,1,0,0:0:0:0:
320,200,98506,2,0,L|376:184,1,52.5000020027161,0|4,0:0|0:0,0:0:0:0:
296,112,98814,1,10,0:0:0:0:
244,204,98968,1,0,0:0:0:0:
328,268,99122,2,0,L|388:252,1,52.5000020027161,0|4,0:0|0:0,0:0:0:0:
424,160,99430,1,0,0:0:0:0:
476,252,99583,5,0,0:0:0:0:
416,336,99737,2,0,L|360:356,1,52.5000020027161,0|4,0:0|0:0,0:0:0:0:
260,364,100045,2,0,P|268:300|312:260,1,105.000004005432,10|0,0:0|0:0,0:0:0:0:
396,232,100506,1,0,0:0:0:0:
480,168,100660,2,0,P|494:139|498:102,1,52.5000020027161
396,108,100968,2,0,P|370:94|359:63,1,52.5000020027161
464,48,101276,5,10,0:0:0:0:
464,84,101430,1,0,0:0:0:0:
464,120,101583,1,0,0:0:0:0:
464,156,101737,1,4,0:0:0:0:
384,292,101891,1,2,0:0:0:0:
384,256,102045,1,0,0:0:0:0:
384,220,102199,1,0,0:0:0:0:
384,184,102353,1,4,0:0:0:0:
388,80,102506,6,0,L|388:16,1,52.5000020027161
304,88,102814,2,0,L|304:156,1,52.5000020027161,0|4,0:0|0:0,0:0:0:0:
216,200,103122,2,0,L|216:136,1,52.5000020027161
124,96,103430,2,0,L|124:164,1,52.5000020027161,0|4,0:0|0:0,0:0:0:0:
168,244,103737,1,10,0:0:0:0:
264,284,103891,1,0,0:0:0:0:
368,280,104045,1,0,0:0:0:0:
456,220,104199,1,0,0:0:0:0:
492,120,104353,2,0,P|448:116|416:120,1,52.5000020027161
392,212,104660,6,4,P|352:244|296:252,1,105.000004005432,4|14,0:0|0:0,0:0:0:0:
196,248,105122,1,0,0:0:0:0:
112,184,105276,1,0,0:0:0:0:
76,84,105430,1,4,0:0:0:0:
176,116,105583,1,0,0:0:0:0:
280,112,105737,1,0,0:0:0:0:
380,80,105891,6,0,L|452:92,1,52.5000020027161,0|4,0:0|0:0,0:0:0:0:
428,196,106199,2,0,P|394:168|381:147,1,52.5000020027161
296,208,106506,2,0,P|255:222|222:221,1,52.5000020027161,0|4,0:0|0:0,0:0:0:0:
140,220,106814,1,0,0:0:0:0:
56,156,106968,5,0,0:0:0:0:
8,248,107122,2,0,P|12:288|27:314,1,52.5000020027161,0|4,0:0|0:0,0:0:0:0:
100,364,107430,2,0,P|128:348|212:352,1,105.000004005432,2|0,0:0|0:0,0:0:0:0:
304,368,107891,1,4,0:0:0:0:
404,336,108045,2,0,P|434:300|434:231,1,105.000004005432
256,192,108660,12,0,111583,0:0:0:0:
424,108,111737,5,4,0:0:0:0:
328,48,111891,1,0,0:0:0:0:
216,40,112045,1,0,0:0:0:0:
113,84,112199,2,0,P|75:112|52:146,1,70,0|6,0:0|0:0,0:0:0:0:
52,160,112430,5,0,0:0:0:0:
52,192,112506,1,0,0:0:0:0:
64,220,112583,1,0,0:0:0:0:
84,244,112660,1,0,0:0:0:0:
112,260,112737,1,0,0:0:0:0:
140,272,112814,1,6,0:0:0:0:
172,268,112891,1,0,0:0:0:0:
200,252,112968,1,0,0:0:0:0:
228,240,113045,1,0,0:0:0:0:
260,240,113122,6,8,L|312:244,1,35,8|0,0:0|0:0,0:0:0:0:
428,196,113276,2,8,L|368:192,1,35,14|0,0:0|0:0,0:0:0:0:
276,120,113430,2,8,L|320:120,1,35,8|0,0:0|0:0,0:0:0:0:
348,120,113583,1,6,0:0:0:0:
384,124,113660,1,0,0:0:0:0:
416,140,113737,1,0,0:0:0:0:
444,164,113814,1,0,0:0:0:0:
456,196,113891,1,0,0:0:0:0:
460,232,113968,1,0,0:0:0:0:
444,264,114045,1,6,0:0:0:0:
420,288,114122,1,0,0:0:0:0:
384,296,114199,1,0,0:0:0:0:
352,288,114276,1,0,0:0:0:0:
324,268,114353,1,8,0:0:0:0:
296,244,114430,1,0,0:0:0:0:
264,232,114506,6,8,L|216:232,1,35,14|0,0:0|0:0,0:0:0:0:
108,160,114660,2,8,L|144:160,1,35,8|0,0:0|0:0,0:0:0:0:
260,84,114814,2,8,L|220:84,1,35,14|0,0:0|0:0,0:0:0:0:
188,84,114968,1,0,0:0:0:0:
152,92,115045,1,0,0:0:0:0:
124,112,115122,1,0,0:0:0:0:
104,140,115199,1,0,0:0:0:0:
92,172,115276,1,0,0:0:0:0:
92,208,115353,1,0,0:0:0:0:
112,236,115430,1,0,0:0:0:0:
140,252,115506,1,0,0:0:0:0:
168,272,115583,1,0,0:0:0:0:
184,304,115660,1,0,0:0:0:0:
208,332,115737,1,0,0:0:0:0:
240,348,115814,1,0,0:0:0:0:
276,352,115891,1,0,0:0:0:0:
312,344,115968,1,0,0:0:0:0:
340,324,116045,5,0,0:0:0:0:
340,296,116122,1,0,0:0:0:0:
340,268,116199,1,0,0:0:0:0:
340,240,116276,1,0,0:0:0:0:
340,212,116353,1,0,0:0:0:0:
340,184,116430,1,0,0:0:0:0:
340,156,116506,1,0,0:0:0:0:
340,128,116583,1,0,0:0:0:0:
340,100,116660,1,0,0:0:0:0:
340,72,116737,1,0,0:0:0:0:
340,44,116814,6,0,L|340:4,1,35,8|0,0:0|0:0,0:0:0:0:
244,116,116968,2,0,L|244:81,1,35,8|0,0:0|0:0,0:0:0:0:
344,180,117122,2,0,L|344:136,1,35,8|0,0:0|0:0,0:0:0:0:
244,244,117276,6,0,L|244:209,1,35,14|0,0:0|0:0,0:0:0:0:
244,172,117430,1,0,0:0:0:0:
236,140,117506,1,0,0:0:0:0:
212,116,117583,1,0,0:0:0:0:
180,100,117660,1,0,0:0:0:0:
144,96,117737,1,6,0:0:0:0:
112,108,117814,1,0,0:0:0:0:
88,132,117891,1,0,0:0:0:0:
72,164,117968,1,0,0:0:0:0:
68,200,118045,1,0,0:0:0:0:
80,232,118122,1,0,0:0:0:0:
104,256,118199,1,6,0:0:0:0:
136,272,118276,1,0,0:0:0:0:
168,280,118353,1,0,0:0:0:0:
204,284,118430,1,0,0:0:0:0:
236,292,118506,1,6,0:0:0:0:
268,308,118583,1,0,0:0:0:0:
292,332,118660,1,0,0:0:0:0:
316,360,118737,1,0,0:0:0:0:
348,368,118814,1,0,0:0:0:0:
384,368,118891,1,0,0:0:0:0:
416,360,118968,5,6,0:0:0:0:
436,332,119045,1,0,0:0:0:0:
440,296,119122,1,0,0:0:0:0:
440,264,119199,1,0,0:0:0:0:
432,232,119276,1,0,0:0:0:0:
416,204,119353,1,0,0:0:0:0:
392,180,119430,1,6,0:0:0:0:
364,168,119506,1,0,0:0:0:0:
332,160,119583,1,0,0:0:0:0:
300,156,119660,1,0,0:0:0:0:
264,172,119737,5,6,0:0:0:0:
252,208,119814,1,0,0:0:0:0:
248,248,119891,1,0,0:0:0:0:
256,284,119968,1,0,0:0:0:0:
268,320,120045,1,0,0:0:0:0:
288,352,120122,1,0,0:0:0:0:
320,372,120199,1,0,0:0:0:0:
356,380,120276,1,0,0:0:0:0:
392,372,120353,1,0,0:0:0:0:
412,340,120430,1,0,0:0:0:0:
412,304,120506,1,0,0:0:0:0:
396,268,120583,1,0,0:0:0:0:
360,256,120660,1,0,0:0:0:0:
320,260,120737,1,0,0:0:0:0:
284,272,120814,1,0,0:0:0:0:
248,264,120891,1,0,0:0:0:0:
228,232,120968,6,0,L|244:184,7,35
276,204,121583,1,0,0:0:0:0:
308,196,121660,1,0,0:0:0:0:
340,180,121737,1,0,0:0:0:0:
364,156,121814,1,0,0:0:0:0:
380,124,121891,1,6,0:0:0:0:
384,88,121968,1,0,0:0:0:0:
372,56,122045,1,0,0:0:0:0:
344,36,122122,1,0,0:0:0:0:
304,28,122199,5,4,0:0:0:0:
152,48,122353,1,4,0:0:0:0:
120,64,122430,1,4,0:0:0:0:
92,88,122506,2,0,P|64:132|52:172,1,83.9999974365235,4|0,0:0|0:0,0:0:0:0:
144,304,122814,1,4,0:0:0:0:
144,304,122891,2,0,P|188:288|248:296,1,83.9999974365235
252,316,123122,2,4,P|304:336|356:344,1,83.9999974365235,4|0,0:0|0:0,0:0:0:0:
364,324,123353,1,0,0:0:0:0:
384,292,123430,1,4,0:0:0:0:
328,136,123583,1,0,0:0:0:0:
340,172,123660,1,0,0:0:0:0:
368,200,123737,2,4,P|412:228|450:236,1,83.9999974365235,4|0,0:0|0:0,0:0:0:0:
496,132,124045,5,4,0:0:0:0:
480,100,124122,1,0,0:0:0:0:
456,72,124199,1,0,0:0:0:0:
420,56,124276,1,0,0:0:0:0:
384,52,124353,2,0,P|336:68|292:64,1,83.9999974365235,4|0,0:0|0:0,0:0:0:0:
140,112,124660,2,0,B|104:152|104:220,1,83.9999974365235,4|0,0:0|0:0,0:0:0:0:
108,224,124891,1,0,0:0:0:0:
128,256,124968,1,4,0:0:0:0:
268,164,125122,1,0,0:0:0:0:
304,148,125199,1,0,0:0:0:0:
340,140,125276,2,0,P|400:144|436:160,1,83.9999974365235,4|0,0:0|0:0,0:0:0:0:
500,300,125583,1,4,0:0:0:0:
464,308,125660,1,0,0:0:0:0:
428,312,125737,1,0,0:0:0:0:
392,304,125814,1,0,0:0:0:0:
356,292,125891,6,0,P|292:280|168:316,1,167.999994873047,4|0,0:0|0:0,0:0:0:0:
140,368,126353,1,0,0:0:0:0:
88,304,126506,1,0,0:0:0:0:
68,272,126583,1,0,0:0:0:0:
60,236,126660,1,0,0:0:0:0:
68,200,126737,1,0,0:0:0:0:
84,164,126814,2,4,P|108:116|136:80,1,83.9999974365235,4|0,0:0|0:0,0:0:0:0:
288,48,127122,5,4,0:0:0:0:
288,48,127199,1,0,0:0:0:0:
288,48,127276,1,0,0:0:0:0:
288,48,127353,1,0,0:0:0:0:
288,48,127430,2,8,L|288:100,1,41.9999987182618
360,136,127583,5,4,0:0:0:0:
360,136,127660,1,0,0:0:0:0:
360,136,127737,1,0,0:0:0:0:
360,136,127814,1,0,0:0:0:0:
360,136,127891,2,8,L|360:92,1,41.9999987182618
432,60,128045,5,4,0:0:0:0:
432,60,128122,1,0,0:0:0:0:
432,60,128199,1,0,0:0:0:0:
432,60,128276,1,0,0:0:0:0:
432,60,128353,2,8,L|432:104,1,41.9999987182618,12|8,0:0|0:0,0:0:0:0:
432,188,128506,1,0,0:0:0:0:
412,224,128583,1,0,0:0:0:0:
380,252,128660,1,0,0:0:0:0:
344,276,128737,1,0,0:0:0:0:
304,284,128814,5,12,0:0:0:0:
260,284,128891,1,0,0:0:0:0:
232,256,128968,1,0,0:0:0:0:
216,216,129045,1,0,0:0:0:0:
232,176,129122,1,0,0:0:0:0:
268,152,129199,1,0,0:0:0:0:
304,132,129276,5,12,0:0:0:0:
280,96,129353,1,0,0:0:0:0:
244,76,129430,1,0,0:0:0:0:
204,68,129506,1,0,0:0:0:0:
164,72,129583,1,4,0:0:0:0:
256,192,129660,12,4,131737,0:0:0:0:
72,236,132045,5,4,0:0:0:0:
200,292,132199,1,0,0:0:0:0:
232,300,132276,1,0,0:0:0:0:
264,296,132353,1,8,0:0:0:0:
384,228,132506,1,0,0:0:0:0:
416,220,132583,1,0,0:0:0:0:
448,220,132660,2,0,P|480:228|520:252,1,70,12|0,0:0|0:0,0:0:0:0:
396,324,132968,1,0,0:0:0:0:
364,328,133045,1,0,0:0:0:0:
332,324,133122,1,0,0:0:0:0:
192,308,133276,5,8,0:0:0:0:
160,292,133353,1,0,0:0:0:0:
132,268,133430,1,0,0:0:0:0:
112,240,133506,1,0,0:0:0:0:
100,212,133583,2,0,P|88:164|88:128,1,70,0|4,0:0|0:0,0:0:0:0:
232,160,133891,1,8,0:0:0:0:
264,160,133968,1,0,0:0:0:0:
292,152,134045,1,0,0:0:0:0:
320,136,134122,1,0,0:0:0:0:
348,120,134199,2,0,B|408:156|400:264,1,140,8|4,0:0|0:0,0:0:0:0:
288,324,134660,5,0,0:0:0:0:
256,332,134737,1,0,0:0:0:0:
224,328,134814,2,0,P|160:312|144:304,1,70,8|0,0:0|0:0,0:0:0:0:
180,172,135122,1,0,0:0:0:0:
180,172,135276,2,0,L|248:116,1,70,8|0,0:0|0:0,0:0:0:0:
296,4,135583,1,0,0:0:0:0:
424,64,135737,5,4,0:0:0:0:
444,88,135814,1,0,0:0:0:0:
456,116,135891,1,0,0:0:0:0:
464,148,135968,1,0,0:0:0:0:
464,180,136045,2,0,P|440:232|408:252,1,70,8|0,0:0|0:0,0:0:0:0:
360,116,136353,1,8,0:0:0:0:
256,20,136506,1,8,0:0:0:0:
116,16,136660,2,0,P|68:40|24:128,1,140,0|4,0:0|0:0,0:0:0:0:
144,188,137122,5,0,0:0:0:0:
156,216,137199,1,0,0:0:0:0:
160,248,137276,1,0,0:0:0:0:
44,328,137430,1,0,0:0:0:0:
72,344,137506,1,0,0:0:0:0:
104,348,137583,2,0,P|160:344|184:336,1,70,4|0,0:0|0:0,0:0:0:0:
296,280,137891,1,0,0:0:0:0:
328,272,137968,1,0,0:0:0:0:
360,268,138045,6,0,P|400:232|420:188,1,70,4|0,0:0|0:0,0:0:0:0:
492,108,138353,1,0,0:0:0:0:
364,56,138506,2,0,P|308:40|276:40,1,70
172,100,138814,1,0,0:0:0:0:
152,124,138891,1,0,0:0:0:0:
140,152,138968,1,0,0:0:0:0:
136,184,139045,1,0,0:0:0:0:
140,216,139122,2,0,P|152:264|240:328,1,140,0|4,0:0|0:0,0:0:0:0:
356,328,139583,5,0,0:0:0:0:
388,332,139660,1,0,0:0:0:0:
416,348,139737,1,0,0:0:0:0:
500,236,139891,1,0,0:0:0:0:
504,204,139968,1,0,0:0:0:0:
500,172,140045,2,0,P|488:120|468:92,1,70,4|0,0:0|0:0,0:0:0:0:
344,140,140353,1,0,0:0:0:0:
312,148,140430,1,0,0:0:0:0:
280,144,140506,1,0,0:0:0:0:
152,84,140660,6,0,L|108:96,7,35
92,112,141276,1,4,0:0:0:0:
72,136,141353,1,0,0:0:0:0:
60,164,141430,1,4,0:0:0:0:
56,196,141506,1,0,0:0:0:0:
60,228,141583,1,4,0:0:0:0:
160,324,141737,1,0,0:0:0:0:
160,324,141814,1,0,0:0:0:0:
160,324,141891,5,0,0:0:0:0:
296,164,142045,1,8,0:0:0:0:
120,48,142199,1,0,0:0:0:0:
120,48,142276,1,0,0:0:0:0:
120,48,142353,1,8,0:0:0:0:
112,256,142506,1,0,0:0:0:0:
296,164,142660,1,8,0:0:0:0:
84,168,142814,1,0,0:0:0:0:
84,168,142891,1,0,0:0:0:0:
84,168,142968,1,8,0:0:0:0:
268,68,143122,5,0,0:0:0:0:
212,272,143276,1,8,0:0:0:0:
404,188,143430,1,0,0:0:0:0:
404,188,143506,1,0,0:0:0:0:
404,188,143583,1,8,0:0:0:0:
200,136,143737,1,0,0:0:0:0:
200,136,143814,1,0,0:0:0:0:
200,136,143891,1,8,0:0:0:0:
40,272,144045,1,0,0:0:0:0:
40,272,144122,1,0,0:0:0:0:
40,272,144199,1,8,0:0:0:0:
240,332,144353,5,0,0:0:0:0:
276,328,144430,1,0,0:0:0:0:
308,312,144506,1,0,0:0:0:0:
332,288,144583,1,0,0:0:0:0:
352,260,144660,2,0,P|372:204|376:152,1,105.000004005432,0|8,0:0|0:0,0:0:0:0:
224,12,144968,5,0,0:0:0:0:
104,184,145122,1,8,0:0:0:0:
296,96,145276,1,0,0:0:0:0:
296,96,145353,1,0,0:0:0:0:
296,96,145430,1,8,0:0:0:0:
440,248,145583,1,0,0:0:0:0:
272,376,145737,1,8,0:0:0:0:
312,168,145891,1,0,0:0:0:0:
312,168,145968,1,0,0:0:0:0:
312,168,146045,1,8,0:0:0:0:
124,260,146199,5,0,0:0:0:0:
156,52,146353,1,0,0:0:0:0:
24,164,146506,1,0,0:0:0:0:
12,197,146583,1,0,0:0:0:0:
12,231,146660,1,0,0:0:0:0:
24,265,146737,1,0,0:0:0:0:
38,296,146814,6,0,P|63:327|136:352,1,105.000004005432,4|0,0:0|0:0,0:0:0:0:
332,364,147122,1,0,0:0:0:0:
332,364,147199,1,0,0:0:0:0:
332,364,147276,1,8,0:0:0:0:
284,160,147430,1,0,0:0:0:0:
92,244,147583,1,4,0:0:0:0:
208,68,147737,1,0,0:0:0:0:
208,68,147814,1,0,0:0:0:0:
208,68,147891,1,8,0:0:0:0:
204,280,148045,6,0,L|248:384,1,105.000004005432,4|0,0:0|0:0,0:0:0:0:
356,376,148353,2,0,L|312:272,1,105.000004005432,4|0,0:0|0:0,0:0:0:0:
244,84,148660,1,0,0:0:0:0:
260,51,148737,1,0,0:0:0:0:
287,31,148814,2,0,P|325:8|384:4,1,105.000004005432,8|0,0:0|0:0,0:0:0:0:
420,12,149045,1,0,0:0:0:0:
452,28,149122,1,0,0:0:0:0:
492,192,149276,5,0,0:0:0:0:
496,228,149353,1,0,0:0:0:0:
484,260,149430,1,2,0:0:0:0:
316,276,149583,1,0,0:0:0:0:
280,284,149660,1,0,0:0:0:0:
252,304,149737,1,2,0:0:0:0:
92,360,149891,1,0,0:0:0:0:
71,330,149968,1,0,0:0:0:0:
66,294,150045,2,0,P|65:233|76:176,1,105.000004005432,10|0,0:0|0:0,0:0:0:0:
204,84,150353,1,0,0:0:0:0:
368,116,150506,5,4,0:0:0:0:
380,152,150583,1,0,0:0:0:0:
380,188,150660,1,0,0:0:0:0:
372,224,150737,1,0,0:0:0:0:
356,256,150814,1,0,0:0:0:0:
332,284,150891,1,0,0:0:0:0:
304,308,150968,1,0,0:0:0:0:
268,320,151045,1,0,0:0:0:0:
232,316,151122,6,0,L|180:308,6,52.5000020027161,4|0|0|0|0|0|0,0:0|0:0|0:0|0:0|0:0|0:0|0:0,0:0:0:0:
120,192,151737,6,0,P|172:148|260:164,1,125.999996154785,4|0,0:0|0:0,0:0:0:0:
276,76,152045,2,0,P|304:108|312:160,1,83.9999974365235,4|0,0:0|0:0,0:0:0:0:
304,188,152276,1,0,0:0:0:0:
280,224,152353,2,0,P|236:240|192:232,1,83.9999974365235,4|0,0:0|0:0,0:0:0:0:
44,296,152660,2,0,P|72:344|116:364,1,83.9999974365235
264,344,152968,1,0,0:0:0:0:
304,332,153045,1,0,0:0:0:0:
336,304,153122,6,0,P|348:256|344:208,1,83.9999974365235,0|4,0:0|0:0,0:0:0:0:
256,80,153430,1,0,0:0:0:0:
96,128,153583,2,0,P|52:164|16:240,2,125.999996154785
256,80,154199,6,0,P|316:64|332:44,1,83.9999974365235
436,180,154506,2,0,P|376:168|352:136,1,83.9999974365235
228,260,154814,2,0,P|288:232|304:208,1,83.9999974365235
140,160,155122,1,0,0:0:0:0:
68,312,155276,2,0,P|108:348|232:360,1,167.999994873047
420,212,155737,5,0,0:0:0:0:
420,212,155891,1,0,0:0:0:0:
188,116,156045,1,0,0:0:0:0:
188,116,156199,1,0,0:0:0:0:
420,20,156353,1,0,0:0:0:0:
420,20,156506,1,0,0:0:0:0:
504,164,156660,6,0,P|496:216|480:252,1,83.9999974365235
352,348,156968,1,0,0:0:0:0:
316,328,157045,1,0,0:0:0:0:
292,292,157122,1,0,0:0:0:0:
340,132,157276,1,0,0:0:0:0:
176,160,157430,2,0,P|124:188|96:220,1,83.9999974365235
16,348,157737,6,0,P|64:368|192:352,1,167.999994873047
392,228,158199,1,0,0:0:0:0:
140,232,158352,1,0,0:0:0:0:
368,340,158506,1,0,0:0:0:0:
256,112,158660,1,0,0:0:0:0:
256,112,158814,1,0,0:0:0:0:
252,364,158968,1,0,0:0:0:0:
256,192,159122,12,0,161276,0:0:0:0:
356,248,161583,5,0,0:0:0:0:
376,208,161660,1,0,0:0:0:0:
380,164,161737,1,0,0:0:0:0:
368,120,161814,1,0,0:0:0:0:
332,92,161891,1,0,0:0:0:0:
288,92,161968,1,0,0:0:0:0:
248,112,162045,1,0,0:0:0:0:
204,124,162122,1,0,0:0:0:0:
160,116,162199,1,0,0:0:0:0:
124,88,162276,1,0,0:0:0:0:
108,48,162353,6,0,L|108:0,1,45.4999979171754
36,128,162506,2,0,L|36:72,1,45.4999979171754
104,212,162660,2,0,L|104:160,1,45.4999979171754
36,296,162814,2,0,L|36:240,1,45.4999979171754
36,204,162968,5,0,0:0:0:0:
44,160,163045,1,0,0:0:0:0:
76,124,163122,1,0,0:0:0:0:
120,112,163199,1,0,0:0:0:0:
164,112,163276,6,0,L|216:116,1,45.4999979171754
348,200,163430,2,0,L|288:196,1,45.4999979171754
164,292,163583,2,0,L|236:296,1,45.4999979171754
300,296,163737,2,0,B|336:288|336:288|376:300|404:292,1,90.9999958343508
484,384,164045,5,0,0:0:0:0:
500,340,164122,1,0,0:0:0:0:
504,296,164199,1,0,0:0:0:0:
504,252,164276,1,0,0:0:0:0:
488,208,164353,1,0,0:0:0:0:
460,172,164430,1,0,0:0:0:0:
428,144,164506,1,0,0:0:0:0:
384,128,164583,1,0,0:0:0:0:
340,120,164660,1,0,0:0:0:0:
296,116,164737,1,0,0:0:0:0:
252,124,164814,1,0,0:0:0:0:
208,140,164891,1,0,0:0:0:0:
168,164,164968,1,0,0:0:0:0:
140,200,165045,1,0,0:0:0:0:
116,240,165122,1,0,0:0:0:0:
100,284,165199,1,0,0:0:0:0:
92,328,165276,5,0,0:0:0:0:
136,320,165353,1,0,0:0:0:0:
176,300,165430,1,0,0:0:0:0:
204,264,165506,1,0,0:0:0:0:
216,220,165583,1,0,0:0:0:0:
236,180,165660,1,0,0:0:0:0:
276,156,165737,1,0,0:0:0:0:
320,148,165814,1,0,0:0:0:0:
364,160,165891,1,0,0:0:0:0:
400,188,165968,1,0,0:0:0:0:
416,232,166045,1,0,0:0:0:0:
412,276,166122,1,0,0:0:0:0:
380,312,166199,1,0,0:0:0:0:
336,320,166276,1,0,0:0:0:0:
292,316,166353,1,0,0:0:0:0:
252,292,166430,1,0,0:0:0:0:
212,272,166506,5,0,0:0:0:0:
212,272,166583,1,0,0:0:0:0:
212,272,166660,1,0,0:0:0:0:
212,272,166737,1,0,0:0:0:0:
212,272,166814,1,0,0:0:0:0:
212,272,166891,1,0,0:0:0:0:
212,272,166968,1,0,0:0:0:0:
212,272,167045,1,0,0:0:0:0:
212,272,167122,1,0,0:0:0:0:
212,272,167199,1,0,0:0:0:0:
212,272,167276,6,0,L|212:212,1,45.4999979171754
88,120,167430,2,0,L|88:176,1,45.4999979171754
220,268,167583,2,0,L|220:212,1,45.4999979171754
80,124,167737,2,0,L|80:176,1,45.4999979171754
80,216,167891,1,0,0:0:0:0:
88,260,167968,1,0,0:0:0:0:
112,300,168045,6,0,L|164:300,1,45.4999979171754
312,232,168199,2,0,L|244:232,1,45.4999979171754
116,308,168353,2,0,L|172:308,1,45.4999979171754
208,308,168506,1,0,0:0:0:0:
252,300,168583,1,0,0:0:0:0:
288,272,168660,1,0,0:0:0:0:
312,232,168737,1,0,0:0:0:0:
320,188,168814,1,0,0:0:0:0:
320,144,168891,1,0,0:0:0:0:
312,100,168968,6,0,L|300:56,7,45.4999979171754
260,36,169583,1,0,0:0:0:0:
228,68,169660,1,0,0:0:0:0:
200,32,169737,1,0,0:0:0:0:
176,72,169814,1,0,0:0:0:0:
148,36,169891,1,0,0:0:0:0:
120,72,169968,1,0,0:0:0:0:
92,36,170045,5,0,0:0:0:0:
68,76,170122,1,0,0:0:0:0:
48,116,170199,1,0,0:0:0:0:
40,160,170276,1,0,0:0:0:0:
44,204,170353,1,0,0:0:0:0:
56,248,170430,1,0,0:0:0:0:
88,280,170506,6,0,P|144:312|276:324,1,181.999991668702
304,248,170968,1,0,0:0:0:0:
360,320,171122,1,0,0:0:0:0:
388,284,171199,1,0,0:0:0:0:
392,240,171276,1,0,0:0:0:0:
380,196,171353,1,0,0:0:0:0:
348,164,171430,1,0,0:0:0:0:
172,120,171583,5,0,0:0:0:0:
304,248,171737,1,0,0:0:0:0:
304,248,171814,1,0,0:0:0:0:
304,248,171891,1,0,0:0:0:0:
416,104,172045,1,0,0:0:0:0:
260,12,172199,1,0,0:0:0:0:
208,188,172353,1,0,0:0:0:0:
208,188,172430,1,0,0:0:0:0:
208,188,172506,6,0,P|192:248|160:272,1,90.9999958343508
28,380,172814,1,0,0:0:0:0:
4,200,172968,2,0,P|0:144|8:100,1,90.9999958343508
156,8,173276,1,0,0:0:0:0:
188,24,173353,1,0,0:0:0:0:
224,32,173430,1,0,0:0:0:0:
260,32,173506,1,0,0:0:0:0:
296,24,173583,2,0,P|356:16|420:24,1,90.9999958343508
500,160,173891,5,0,0:0:0:0:
412,320,174045,1,0,0:0:0:0:
392,140,174199,1,0,0:0:0:0:
392,140,174276,1,0,0:0:0:0:
392,140,174353,1,0,0:0:0:0:
292,292,174506,1,0,0:0:0:0:
292,292,174583,1,0,0:0:0:0:
292,292,174660,1,0,0:0:0:0:
464,228,174814,5,0,0:0:0:0:
436,200,174891,1,0,0:0:0:0:
392,188,174968,1,0,0:0:0:0:
352,188,175045,1,0,0:0:0:0:
308,196,175122,1,0,0:0:0:0:
268,212,175199,1,0,0:0:0:0:
232,236,175276,1,0,0:0:0:0:
208,272,175353,1,0,0:0:0:0:
196,312,175430,1,0,0:0:0:0:
208,352,175506,1,0,0:0:0:0:
236,380,175583,2,0,L|348:384,1,90.9999958343508
460,256,175891,5,0,0:0:0:0:
472,216,175968,1,0,0:0:0:0:
472,176,176045,1,0,0:0:0:0:
456,136,176122,1,0,0:0:0:0:
428,104,176199,2,0,P|392:68|344:52,1,90.9999958343508
176,16,176506,5,0,0:0:0:0:
124,152,176660,1,0,0:0:0:0:
304,124,176814,1,0,0:0:0:0:
304,124,176891,1,0,0:0:0:0:
304,124,176968,1,0,0:0:0:0:
452,228,177122,5,0,0:0:0:0:
444,272,177199,1,0,0:0:0:0:
420,312,177276,1,0,0:0:0:0:
388,344,177353,1,0,0:0:0:0:
344,360,177430,1,0,0:0:0:0:
300,364,177506,1,0,0:0:0:0:
256,360,177583,6,0,P|196:352|152:328,1,90.9999958343508
208,160,177891,2,0,P|232:216|232:280,1,90.9999958343508
80,340,178199,1,0,0:0:0:0:
52,304,178276,1,0,0:0:0:0:
44,260,178353,2,0,P|44:204|56:168,1,90.9999958343508
160,56,178660,1,4,0:0:0:0:
324,40,178814,6,0,L|392:40,1,35,4|0,0:0|0:0,0:0:0:0:
436,40,178968,1,0,0:0:0:0:
436,40,179045,1,0,0:0:0:0:
436,40,179122,1,0,0:0:0:0:
436,40,179199,1,0,0:0:0:0:
432,136,179276,6,0,L|384:136,1,35,4|0,0:0|0:0,0:0:0:0:
320,136,179430,1,0,0:0:0:0:
320,136,179506,1,0,0:0:0:0:
320,136,179583,1,0,0:0:0:0:
320,136,179660,1,0,0:0:0:0:
276,232,179737,6,0,L|328:232,1,35,4|0,0:0|0:0,0:0:0:0:
392,232,179891,1,0,0:0:0:0:
392,232,179968,1,0,0:0:0:0:
392,232,180045,1,0,0:0:0:0:
392,232,180122,1,0,0:0:0:0:
416,328,180199,6,0,L|380:328,1,35,4|0,0:0|0:0,0:0:0:0:
300,328,180353,1,0,0:0:0:0:
300,328,180430,1,0,0:0:0:0:
300,328,180506,1,0,0:0:0:0:
188,320,180660,5,0,0:0:0:0:
92,260,180814,1,0,0:0:0:0:
32,164,180968,1,0,0:0:0:0:
16,52,181122,1,2,0:0:0:0:
216,8,181276,5,0,0:0:0:0:
256,4,181353,1,0,0:0:0:0:
300,4,181430,1,0,0:0:0:0:
340,16,181506,1,0,0:0:0:0:
376,36,181583,1,0,0:0:0:0:
400,72,181660,1,0,0:0:0:0:
412,112,181737,5,6,0:0:0:0:
412,156,181814,1,0,0:0:0:0:
404,196,181891,1,0,0:0:0:0:
384,232,181968,1,0,0:0:0:0:
352,260,182045,1,0,0:0:0:0:
316,280,182122,1,0,0:0:0:0:
276,284,182199,5,6,0:0:0:0:
256,248,182276,1,0,0:0:0:0:
260,208,182353,1,0,0:0:0:0:
288,176,182430,1,0,0:0:0:0:
324,152,182506,5,6,0:0:0:0:
300,116,182583,1,0,0:0:0:0:
260,100,182660,1,0,0:0:0:0:
220,104,182737,1,0,0:0:0:0:
184,124,182814,1,0,0:0:0:0:
160,156,182891,1,0,0:0:0:0:
148,196,182968,5,6,0:0:0:0:
108,192,183045,1,0,0:0:0:0:
72,172,183122,1,0,0:0:0:0:
48,136,183199,1,0,0:0:0:0:
44,96,183276,1,0,0:0:0:0:
52,56,183353,1,0,0:0:0:0:
76,20,183430,5,6,0:0:0:0:
112,36,183506,1,0,0:0:0:0:
132,72,183583,1,0,0:0:0:0:
136,112,183660,1,0,0:0:0:0:
128,152,183737,5,6,0:0:0:0:
124,160,183814,1,0,0:0:0:0:
120,168,183891,1,0,0:0:0:0:
116,176,183968,1,0,0:0:0:0:
112,184,184045,1,0,0:0:0:0:
108,192,184122,1,0,0:0:0:0:
104,200,184199,1,0,0:0:0:0:
100,208,184276,1,0,0:0:0:0:
96,216,184353,1,0,0:0:0:0:
92,224,184430,1,0,0:0:0:0:
88,232,184506,1,0,0:0:0:0:
84,240,184583,1,0,0:0:0:0:
80,248,184660,1,0,0:0:0:0:
76,256,184737,1,0,0:0:0:0:
72,264,184814,1,0,0:0:0:0:
68,272,184891,1,0,0:0:0:0:
64,280,184968,5,8,0:0:0:0:
68,300,185045,1,0,0:0:0:0:
80,316,185122,1,0,0:0:0:0:
96,328,185199,1,0,0:0:0:0:
116,336,185276,1,8,0:0:0:0:
136,340,185353,1,0,0:0:0:0:
156,340,185430,1,0,0:0:0:0:
188,332,185506,1,0,0:0:0:0:
220,324,185583,1,8,0:0:0:0:
252,320,185660,1,0,0:0:0:0:
284,320,185737,6,0,L|344:320,1,52.5000020027161,14|0,0:0|0:0,0:0:0:0:
408,240,185891,2,0,L|336:240,1,52.5000020027161,14|0,0:0|0:0,0:0:0:0:
280,164,186045,2,0,L|336:164,1,52.5000020027161,14|0,0:0|0:0,0:0:0:0:
440,164,186199,5,6,0:0:0:0:
480,156,186276,1,0,0:0:0:0:
504,124,186353,1,0,0:0:0:0:
512,84,186430,1,0,0:0:0:0:
500,44,186506,1,0,0:0:0:0:
464,24,186583,1,0,0:0:0:0:
424,8,186660,5,6,0:0:0:0:
396,40,186737,1,0,0:0:0:0:
388,80,186814,1,0,0:0:0:0:
400,120,186891,1,0,0:0:0:0:
404,160,186968,1,0,0:0:0:0:
396,200,187045,1,0,0:0:0:0:
372,236,187122,5,6,0:0:0:0:
336,216,187199,1,0,0:0:0:0:
296,208,187276,1,0,0:0:0:0:
256,212,187353,1,0,0:0:0:0:
220,232,187430,5,6,0:0:0:0:
252,260,187506,1,0,0:0:0:0:
292,276,187583,1,0,0:0:0:0:
332,280,187660,1,0,0:0:0:0:
372,272,187737,1,0,0:0:0:0:
412,256,187814,1,0,0:0:0:0:
444,228,187891,5,6,0:0:0:0:
468,264,187968,1,0,0:0:0:0:
472,304,188045,1,0,0:0:0:0:
456,344,188122,1,0,0:0:0:0:
424,368,188199,1,0,0:0:0:0:
384,376,188276,1,0,0:0:0:0:
344,372,188353,5,6,0:0:0:0:
316,340,188430,1,0,0:0:0:0:
280,320,188506,1,0,0:0:0:0:
240,312,188583,1,0,0:0:0:0:
200,328,188660,5,6,0:0:0:0:
160,312,188737,1,0,0:0:0:0:
132,280,188814,1,0,0:0:0:0:
116,240,188891,1,0,0:0:0:0:
108,200,188968,1,0,0:0:0:0:
108,156,189045,1,0,0:0:0:0:
116,116,189122,1,0,0:0:0:0:
136,80,189199,1,0,0:0:0:0:
168,52,189276,1,0,0:0:0:0:
208,40,189353,1,0,0:0:0:0:
248,36,189430,1,0,0:0:0:0:
288,40,189506,1,0,0:0:0:0:
328,56,189583,1,0,0:0:0:0:
364,80,189660,1,0,0:0:0:0:
392,112,189737,1,0,0:0:0:0:
412,148,189814,1,0,0:0:0:0:
420,188,189891,5,14,0:0:0:0:
408,208,189968,1,0,0:0:0:0:
396,224,190045,1,0,0:0:0:0:
384,240,190122,1,0,0:0:0:0:
372,256,190199,1,0,0:0:0:0:
360,272,190276,1,0,0:0:0:0:
348,288,190353,1,0,0:0:0:0:
336,304,190430,1,0,0:0:0:0:
324,320,190506,5,14,0:0:0:0:
304,320,190583,1,0,0:0:0:0:
284,320,190660,1,0,0:0:0:0:
264,320,190737,1,0,0:0:0:0:
224,320,190814,5,0,0:0:0:0:
188,296,190891,1,0,0:0:0:0:
164,264,190968,1,0,0:0:0:0:
152,224,191045,1,0,0:0:0:0:
152,192,191122,5,12,0:0:0:0:
219,38,191276,1,0,0:0:0:0:
355,136,191430,1,0,0:0:0:0:
188,117,191583,1,0,0:0:0:0:
272,262,191737,1,12,0:0:0:0:
272,262,191814,1,0,0:0:0:0:
272,262,191891,1,0,0:0:0:0:
367,123,192045,2,0,P|336:168|335:213,1,83.9999974365235
475,286,192353,1,10,0:0:0:0:
319,347,192506,5,0,0:0:0:0:
282,356,192583,1,0,0:0:0:0:
244,352,192660,2,0,P|189:345|157:328,1,83.9999974365235
133,166,192968,2,0,P|110:211|100:276,1,83.9999974365235,12|0,0:0|0:0,0:0:0:0:
163,332,193199,1,0,0:0:0:0:
163,332,193276,2,0,L|256:300,1,83.9999974365235
402,282,193583,5,6,0:0:0:0:
438,270,193660,1,0,0:0:0:0:
463,242,193737,1,0,0:0:0:0:
381,95,193891,1,2,0:0:0:0:
346,79,193968,1,0,0:0:0:0:
308,72,194045,1,0,0:0:0:0:
153,6,194199,1,0,0:0:0:0:
253,140,194353,1,0,0:0:0:0:
232,305,194506,5,0,0:0:0:0:
205,332,194583,1,0,0:0:0:0:
171,349,194660,1,0,0:0:0:0:
133,352,194737,1,0,0:0:0:0:
95,345,194814,2,0,P|39:322|18:297,1,83.9999974365235,12|0,0:0|0:0,0:0:0:0:
66,154,195122,1,0,0:0:0:0:
84,120,195199,1,0,0:0:0:0:
113,95,195276,1,0,0:0:0:0:
269,32,195430,2,0,P|330:62|354:98,1,83.9999974365235,12|0,0:0|0:0,0:0:0:0:
369,238,195737,5,0,0:0:0:0:
254,361,195891,1,0,0:0:0:0:
88,330,196045,5,0,0:0:0:0:
88,330,196122,1,0,0:0:0:0:
88,330,196199,1,0,0:0:0:0:
88,330,196276,1,0,0:0:0:0:
88,330,196353,1,0,0:0:0:0:
88,330,196430,1,0,0:0:0:0:
88,330,196506,6,0,L|139:331,1,41.9999987182618,6|0,0:0|0:0,0:0:0:0:
172,256,196660,1,0,0:0:0:0:
172,256,196737,1,0,0:0:0:0:
172,256,196814,1,0,0:0:0:0:
172,256,196891,1,0,0:0:0:0:
172,256,196968,6,0,L|128:257,1,41.9999987182618,6|0,0:0|0:0,0:0:0:0:
84,184,197122,1,0,0:0:0:0:
84,184,197199,1,0,0:0:0:0:
84,184,197276,6,0,L|132:184,1,41.9999987182618,6|0,0:0|0:0,0:0:0:0:
212,184,197430,1,0,0:0:0:0:
244,184,197506,1,0,0:0:0:0:
276,180,197583,1,0,0:0:0:0:
304,160,197660,1,0,0:0:0:0:
320,132,197737,6,0,L|332:84,1,41.9999987182618,6|0,0:0|0:0,0:0:0:0:
376,20,197891,1,0,0:0:0:0:
408,12,197968,1,0,0:0:0:0:
440,12,198045,1,0,0:0:0:0:
472,20,198122,1,0,0:0:0:0:
504,36,198199,6,0,L|528:76,1,41.9999987182618,6|0,0:0|0:0,0:0:0:0:
444,144,198506,5,8,0:0:0:0:
436,168,198583,1,0,0:0:0:0:
412,176,198660,1,0,0:0:0:0:
408,200,198737,1,0,0:0:0:0:
384,204,198814,1,0,0:0:0:0:
380,228,198891,1,0,0:0:0:0:
356,232,198968,1,0,0:0:0:0:
352,256,199045,1,0,0:0:0:0:
316,248,199122,5,8,0:0:0:0:
280,244,199199,1,0,0:0:0:0:
244,244,199276,1,0,0:0:0:0:
208,248,199353,1,0,0:0:0:0:
172,256,199430,1,0,0:0:0:0:
136,272,199506,1,0,0:0:0:0:
104,296,199583,1,0,0:0:0:0:
84,328,199660,1,0,0:0:0:0:
64,360,199737,5,8,0:0:0:0:
40,332,199814,1,0,0:0:0:0:
32,296,199891,1,0,0:0:0:0:
32,260,199968,1,0,0:0:0:0:
40,224,200045,1,0,0:0:0:0:
52,188,200122,1,0,0:0:0:0:
72,156,200199,1,0,0:0:0:0:
96,128,200276,1,0,0:0:0:0:
128,104,200353,5,8,0:0:0:0:
152,132,200430,1,0,0:0:0:0:
180,156,200506,1,0,0:0:0:0:
212,176,200583,1,0,0:0:0:0:
248,184,200660,1,0,0:0:0:0:
284,176,200737,1,0,0:0:0:0:
312,152,200814,1,0,0:0:0:0:
332,120,200891,1,0,0:0:0:0:
344,84,200968,5,8,0:0:0:0:
380,80,201045,1,0,0:0:0:0:
416,92,201122,1,0,0:0:0:0:
444,116,201199,1,0,0:0:0:0:
460,152,201276,1,0,0:0:0:0:
468,188,201353,1,0,0:0:0:0:
468,224,201430,1,0,0:0:0:0:
460,260,201506,1,0,0:0:0:0:
440,292,201583,5,8,0:0:0:0:
416,264,201660,1,0,0:0:0:0:
404,228,201737,1,0,0:0:0:0:
400,192,201814,1,0,0:0:0:0:
412,156,201891,1,0,0:0:0:0:
420,120,201968,1,0,0:0:0:0:
416,84,202045,1,0,0:0:0:0:
392,56,202122,1,0,0:0:0:0:
360,36,202199,6,0,P|304:52|204:36,1,139.999995727539,10|0,0:0|0:0,0:0:0:0:
180,28,202545,1,0,0:0:0:0:
144,20,202622,1,0,0:0:0:0:
108,24,202699,1,0,0:0:0:0:
72,40,202776,2,6,P|44:80|40:220,1,188.999994232178,2|0,0:0|0:0,0:0:0:0:
300,372,203430,5,8,0:0:0:0:
332,352,203506,1,0,0:0:0:0:
356,320,203583,1,0,0:0:0:0:
372,284,203660,1,0,0:0:0:0:
376,248,203737,1,0,0:0:0:0:
376,212,203814,1,0,0:0:0:0:
368,176,203891,1,0,0:0:0:0:
348,144,203968,1,0,0:0:0:0:
320,120,204045,5,8,0:0:0:0:
300,152,204122,1,0,0:0:0:0:
288,188,204199,1,0,0:0:0:0:
288,224,204276,1,0,0:0:0:0:
292,260,204353,1,0,0:0:0:0:
304,296,204430,1,0,0:0:0:0:
304,332,204506,1,0,0:0:0:0:
284,364,204583,1,0,0:0:0:0:
252,384,204660,5,8,0:0:0:0:
220,364,204737,1,0,0:0:0:0:
188,344,204814,1,0,0:0:0:0:
152,336,204891,1,0,0:0:0:0:
116,336,204968,1,0,0:0:0:0:
80,324,205045,1,0,0:0:0:0:
48,304,205122,1,0,0:0:0:0:
24,272,205199,1,0,0:0:0:0:
8,240,205276,5,8,0:0:0:0:
44,232,205353,1,0,0:0:0:0:
80,232,205430,1,0,0:0:0:0:
116,240,205506,1,0,0:0:0:0:
152,252,205583,1,0,0:0:0:0:
188,264,205660,1,0,0:0:0:0:
224,276,205737,1,0,0:0:0:0:
260,280,205814,1,0,0:0:0:0:
296,276,205891,5,8,0:0:0:0:
316,244,205968,1,0,0:0:0:0:
320,208,206045,1,0,0:0:0:0:
316,172,206122,1,0,0:0:0:0:
300,140,206199,1,0,0:0:0:0:
272,112,206276,1,0,0:0:0:0:
240,92,206353,1,0,0:0:0:0:
204,84,206430,1,0,0:0:0:0:
168,88,206506,5,8,0:0:0:0:
200,68,206583,1,0,0:0:0:0:
236,56,206660,1,0,0:0:0:0:
272,56,206737,1,0,0:0:0:0:
308,60,206814,1,0,0:0:0:0:
344,68,206891,1,0,0:0:0:0:
376,92,206968,1,0,0:0:0:0:
396,124,207045,1,0,0:0:0:0:
408,160,207122,6,0,P|392:220|328:296,1,139.999995727539,10|0,0:0|0:0,0:0:0:0:
304,288,207468,1,0,0:0:0:0:
268,292,207545,1,0,0:0:0:0:
236,308,207622,1,0,0:0:0:0:
208,336,207699,2,0,P|152:320|80:208,1,188.999994232178,2|0,0:0|0:0,0:0:0:0:
192,48,208353,5,14,0:0:0:0:
228,40,208430,1,0,0:0:0:0:
264,40,208506,1,0,0:0:0:0:
300,44,208583,1,0,0:0:0:0:
336,60,208660,1,12,0:0:0:0:
364,84,208737,1,0,0:0:0:0:
384,116,208814,1,0,0:0:0:0:
392,152,208891,1,0,0:0:0:0:
388,188,208968,5,14,0:0:0:0:
420,168,209045,1,0,0:0:0:0:
436,132,209122,1,0,0:0:0:0:
436,96,209199,1,0,0:0:0:0:
420,60,209276,1,12,0:0:0:0:
392,36,209353,1,0,0:0:0:0:
356,24,209430,1,0,0:0:0:0:
320,20,209506,1,0,0:0:0:0:
284,28,209583,5,14,0:0:0:0:
272,64,209660,1,0,0:0:0:0:
252,96,209737,1,0,0:0:0:0:
224,124,209814,1,0,0:0:0:0:
192,140,209891,1,12,0:0:0:0:
156,148,209968,1,0,0:0:0:0:
120,148,210045,1,0,0:0:0:0:
84,140,210122,1,0,0:0:0:0:
48,124,210199,5,14,0:0:0:0:
28,156,210276,1,0,0:0:0:0:
28,192,210353,1,0,0:0:0:0:
36,228,210430,1,0,0:0:0:0:
52,260,210506,1,12,0:0:0:0:
76,288,210583,1,0,0:0:0:0:
108,308,210660,1,0,0:0:0:0:
144,320,210737,1,0,0:0:0:0:
180,324,210814,5,14,0:0:0:0:
204,296,210891,1,0,0:0:0:0:
232,272,210968,1,0,0:0:0:0:
268,260,211045,1,0,0:0:0:0:
304,252,211122,1,12,0:0:0:0:
340,252,211199,1,0,0:0:0:0:
376,268,211276,1,0,0:0:0:0:
408,288,211353,1,0,0:0:0:0:
432,320,211430,5,14,0:0:0:0:
460,296,211506,1,0,0:0:0:0:
472,260,211583,1,0,0:0:0:0:
472,224,211660,1,0,0:0:0:0:
468,188,211737,1,12,0:0:0:0:
456,152,211814,1,0,0:0:0:0:
440,120,211891,1,0,0:0:0:0:
416,92,211968,1,0,0:0:0:0:
384,72,212045,5,14,0:0:0:0:
380,108,212122,1,0,0:0:0:0:
388,144,212199,1,0,0:0:0:0:
400,180,212276,1,0,0:0:0:0:
408,216,212353,1,12,0:0:0:0:
408,252,212430,1,0,0:0:0:0:
400,288,212506,1,0,0:0:0:0:
380,320,212583,1,0,0:0:0:0:
352,348,212660,5,14,0:0:0:0:
284,320,212814,1,6,0:0:0:0:
212,316,212968,1,6,0:0:0:0:
140,336,213122,1,6,0:0:0:0:
76,376,213276,5,14,0:0:0:0:
56,344,213353,1,0,0:0:0:0:
48,308,213430,1,0,0:0:0:0:
44,272,213506,1,0,0:0:0:0:
48,236,213583,1,12,0:0:0:0:
56,200,213660,1,0,0:0:0:0:
68,164,213737,1,0,0:0:0:0:
88,132,213814,1,0,0:0:0:0:
116,104,213891,5,14,0:0:0:0:
144,132,213968,1,0,0:0:0:0:
152,168,214045,1,0,0:0:0:0:
152,204,214122,1,0,0:0:0:0:
144,240,214199,1,12,0:0:0:0:
144,276,214276,1,0,0:0:0:0:
152,312,214353,1,0,0:0:0:0:
172,344,214430,1,0,0:0:0:0:
200,368,214506,5,14,0:0:0:0:
228,340,214583,1,0,0:0:0:0:
244,308,214660,1,0,0:0:0:0:
252,272,214737,1,0,0:0:0:0:
252,236,214814,1,12,0:0:0:0:
244,200,214891,1,0,0:0:0:0:
236,164,214968,1,0,0:0:0:0:
236,128,215045,1,0,0:0:0:0:
248,92,215122,5,14,0:0:0:0:
284,96,215199,1,0,0:0:0:0:
308,124,215276,1,0,0:0:0:0:
320,160,215353,1,0,0:0:0:0:
312,196,215430,1,12,0:0:0:0:
288,224,215506,1,0,0:0:0:0:
256,244,215583,1,0,0:0:0:0:
220,252,215660,1,0,0:0:0:0:
184,252,215737,5,14,0:0:0:0:
196,288,215814,1,0,0:0:0:0:
220,320,215891,1,0,0:0:0:0:
252,344,215968,1,0,0:0:0:0:
288,360,216045,1,12,0:0:0:0:
324,364,216122,1,0,0:0:0:0:
360,360,216199,1,0,0:0:0:0:
392,340,216276,1,0,0:0:0:0:
412,308,216353,5,14,0:0:0:0:
396,272,216430,1,0,0:0:0:0:
384,236,216506,1,0,0:0:0:0:
376,200,216583,1,0,0:0:0:0:
380,164,216660,1,12,0:0:0:0:
396,128,216737,1,0,0:0:0:0:
424,104,216814,1,0,0:0:0:0:
456,84,216891,1,0,0:0:0:0:
492,68,216968,5,14,0:0:0:0:
456,52,217045,1,0,0:0:0:0:
420,48,217122,1,0,0:0:0:0:
384,48,217199,1,0,0:0:0:0:
348,52,217276,1,12,0:0:0:0:
312,64,217353,1,0,0:0:0:0:
280,84,217430,1,0,0:0:0:0:
252,112,217506,1,0,0:0:0:0:
232,144,217583,5,14,0:0:0:0:
224,216,217737,1,6,0:0:0:0:
256,284,217891,1,6,0:0:0:0:
324,312,218045,1,6,0:0:0:0:
400,296,218199,6,2,P|436:272|464:152,1,157.500006008148
368,196,218814,1,2,0:0:0:0:
348,92,218968,2,2,L|272:88,1,52.5000020027161
192,104,219276,1,0,0:0:0:0:
100,176,219430,6,0,P|116:232|164:264,1,105.000004005432
292,104,220045,2,0,L|192:176,1,105.000004005432
48,304,220660,2,0,P|88:336|248:344,1,210.000008010865
312,268,221583,1,0,0:0:0:0:
332,164,221891,1,0,0:0:0:0:
308,60,222199,2,0,P|275:19|212:0,1,105.000004005432
226,1,222814,1,0,0:0:0:0:
44,104,223122,6,0,B|4:192|4:192|4:308,1,210.000008010865
96,356,224045,1,0,0:0:0:0:
200,356,224353,1,0,0:0:0:0:
304,360,224660,1,0,0:0:0:0:
408,356,224968,2,0,B|456:332|456:332|480:268,1,105.000004005432
456,76,225583,6,0,B|392:72|340:40|340:40|292:44|248:80,1,210.000008010865
192,152,226506,1,0,0:0:0:0:
196,256,226814,1,0,0:0:0:0:
272,328,227122,1,0,0:0:0:0:
376,328,227430,5,8,0:0:0:0:
384,324,227506,1,8,0:0:0:0:
392,320,227583,1,8,0:0:0:0:
400,316,227660,1,8,0:0:0:0:
408,312,227737,1,8,0:0:0:0:
416,308,227814,1,8,0:0:0:0:
424,304,227891,1,8,0:0:0:0:
432,300,227968,1,8,0:0:0:0:
440,296,228045,6,0,B|476:268|476:268|492:208,1,83.9999974365235,4|0,0:0|0:0,0:0:0:0:
488,208,228276,1,0,0:0:0:0:
488,188,228353,1,0,0:0:0:0:
372,64,228506,1,4,0:0:0:0:
352,56,228583,1,0,0:0:0:0:
332,52,228660,2,0,L|248:48,1,83.9999974365235,4|4,0:0|0:0,0:0:0:0:
140,180,228968,1,0,0:0:0:0:
140,180,229045,1,0,0:0:0:0:
140,180,229122,6,4,B|184:204|184:204|224:204,1,83.9999974365235
368,124,229430,1,0,0:0:0:0:
496,228,229583,2,0,B|516:268|516:268|504:316,1,83.9999974365235
344,356,229891,1,0,0:0:0:0:
308,344,229968,1,0,0:0:0:0:
272,336,230045,1,0,0:0:0:0:
236,336,230122,1,0,0:0:0:0:
200,352,230199,6,0,P|164:328|132:196,1,167.999994873047
212,68,230660,1,0,0:0:0:0:
292,216,230814,1,0,0:0:0:0:
127,214,230968,1,0,0:0:0:0:
212,68,231122,2,0,P|268:48|312:48,1,83.9999974365235
456,88,231430,1,0,0:0:0:0:
456,88,231506,1,0,0:0:0:0:
456,88,231583,1,0,0:0:0:0:
320,192,231737,6,0,P|276:220|220:220,1,83.9999974365235
212,68,232045,2,0,L|264:164,1,83.9999974365235
320,280,232353,1,0,0:0:0:0:
160,232,232506,1,0,0:0:0:0:
320,192,232660,6,0,P|396:172|488:212,1,167.999994873047
392,344,233122,1,0,0:0:0:0:
247,255,233276,2,0,L|252:168,1,83.9999974365235
116,80,233583,1,0,0:0:0:0:
116,80,233660,1,0,0:0:0:0:
116,80,233737,1,0,0:0:0:0:
166,239,233891,2,0,P|222:255|254:255,1,83.9999974365235
408,204,234199,5,0,0:0:0:0:
304,72,234353,1,0,0:0:0:0:
332,240,234506,1,0,0:0:0:0:
360,136,234660,1,0,0:0:0:0:
196,176,234814,1,0,0:0:0:0:
160,188,234891,1,0,0:0:0:0:
124,196,234968,1,0,0:0:0:0:
88,196,235045,1,0,0:0:0:0:
52,184,235122,6,0,P|16:144|20:28,1,167.999994873047
180,76,235583,1,0,0:0:0:0:
52,184,235737,1,0,0:0:0:0:
92,20,235891,1,0,0:0:0:0:
172,168,236045,2,0,P|224:184|264:176,1,83.9999974365235
388,80,236353,1,0,0:0:0:0:
388,80,236430,1,0,0:0:0:0:
388,80,236506,1,0,0:0:0:0:
468,196,236660,5,0,0:0:0:0:
480,224,236737,1,0,0:0:0:0:
484,256,236814,1,0,0:0:0:0:
480,288,236891,1,0,0:0:0:0:
468,316,236968,2,0,L|436:356,3,35
384,268,237276,6,0,L|320:260,1,35
276,332,237430,2,0,L|228:328,1,35
176,260,237583,6,0,B|136:252|96:260|96:260|44:228|60:136,1,210.000008010865
192,8,238045,1,0,0:0:0:0:
324,144,238199,1,0,0:0:0:0:
324,144,238276,1,0,0:0:0:0:
324,144,238353,1,0,0:0:0:0:
136,140,238506,1,0,0:0:0:0:
276,12,238660,1,0,0:0:0:0:
224,196,238814,1,0,0:0:0:0:
224,196,238891,1,0,0:0:0:0:
224,196,238968,1,0,0:0:0:0:
40,296,239122,6,0,L|120:188,1,105.000004005432
296,124,239430,1,0,0:0:0:0:
296,124,239506,1,0,0:0:0:0:
296,124,239583,1,0,0:0:0:0:
368,324,239737,2,0,B|328:356|328:356|256:336,1,105.000004005432
140,180,240045,1,0,0:0:0:0:
140,180,240122,1,0,0:0:0:0:
140,180,240199,1,0,0:0:0:0:
304,52,240353,6,0,P|376:24|428:44,1,105.000004005432
504,212,240660,1,0,0:0:0:0:
504,212,240737,1,0,0:0:0:0:
504,212,240814,1,0,0:0:0:0:
352,356,240968,5,0,0:0:0:0:
400,152,241122,1,0,0:0:0:0:
484,344,241276,1,0,0:0:0:0:
484,344,241353,1,0,0:0:0:0:
484,344,241430,1,0,0:0:0:0:
296,252,241583,6,0,P|236:228|192:228,1,105.000004005432
28,356,241891,1,0,0:0:0:0:
28,356,241968,1,0,0:0:0:0:
28,356,242045,1,0,0:0:0:0:
80,152,242199,1,0,0:0:0:0:
96,112,242276,1,0,0:0:0:0:
124,80,242353,1,0,0:0:0:0:
156,56,242430,1,0,0:0:0:0:
196,44,242506,1,0,0:0:0:0:
236,40,242583,1,0,0:0:0:0:
276,48,242660,1,0,0:0:0:0:
316,56,242737,1,0,0:0:0:0:
356,40,242814,6,0,P|436:32|480:52,1,105.000004005432
328,208,243122,1,0,0:0:0:0:
328,208,243199,1,0,0:0:0:0:
328,208,243276,2,0,P|268:188|240:144,1,105.000004005432
76,28,243583,1,0,0:0:0:0:
92,236,243737,2,0,P|140:280|184:296,1,105.000004005432
380,352,244045,6,0,P|416:304|420:248,1,105.000004005432
352,192,244276,1,0,0:0:0:0:
352,192,244353,2,0,P|304:208|252:192,1,105.000004005432
88,64,244660,1,0,0:0:0:0:
88,64,244737,1,0,0:0:0:0:
88,64,244814,1,0,0:0:0:0:
120,272,244968,1,0,0:0:0:0:
144,300,245045,1,0,0:0:0:0:
176,320,245122,1,0,0:0:0:0:
212,328,245199,1,0,0:0:0:0:
248,328,245276,6,0,P|300:316|364:336,1,105.000004005432
508,188,245583,1,0,0:0:0:0:
508,188,245660,1,0,0:0:0:0:
508,188,245737,1,0,0:0:0:0:
300,160,245891,1,0,0:0:0:0:
452,308,246045,1,0,0:0:0:0:
416,100,246199,1,0,0:0:0:0:
416,100,246276,1,0,0:0:0:0:
416,100,246353,1,0,0:0:0:0:
320,284,246506,6,0,P|268:300|212:288,1,105.000004005432
64,148,246814,1,0,0:0:0:0:
64,148,246891,1,0,0:0:0:0:
64,148,246968,1,0,0:0:0:0:
219,291,247122,1,0,0:0:0:0:
256,308,247199,1,0,0:0:0:0:
296,312,247276,1,0,0:0:0:0:
336,300,247353,1,0,0:0:0:0:
364,268,247430,1,0,0:0:0:0:
368,228,247506,1,0,0:0:0:0:
360,188,247583,1,0,0:0:0:0:
336,152,247660,1,0,0:0:0:0:
300,128,247737,6,0,P|252:100|196:88,1,105.000004005432
4,156,248045,2,0,P|64:200|116:208,1,105.000004005432
272,316,248353,2,0,P|328:284|392:300,1,105.000004005432
440,360,248583,1,0,0:0:0:0:
440,360,248660,2,0,P|468:304|464:248,1,105.000004005432
360,80,248968,5,0,0:0:0:0:
360,80,249122,1,0,0:0:0:0:
152,108,249276,2,0,L|92:100,2,52.5000020027161
344,192,249583,2,0,P|392:248|388:312,1,105.000004005432
316,348,249814,1,0,0:0:0:0:
316,348,249891,2,0,L|196:340,1,105.000004005432
16,260,250199,6,0,P|44:204|4:144,1,105.000004005432
96,80,250430,1,0,0:0:0:0:
96,80,250506,2,0,P|160:88|212:80,1,105.000004005432
396,8,250814,2,0,P|416:64|392:128,1,105.000004005432
312,156,251045,2,0,P|360:200|464:192,1,157.500006008148
264,100,251430,6,0,P|208:80|140:100,1,105.000004005432
52,264,251737,1,0,0:0:0:0:
52,264,251814,1,0,0:0:0:0:
52,264,251891,1,0,0:0:0:0:
248,344,252045,1,0,0:0:0:0:
292,356,252122,1,0,0:0:0:0:
340,356,252199,1,0,0:0:0:0:
384,344,252276,1,0,0:0:0:0:
420,312,252353,1,0,0:0:0:0:
436,268,252430,1,0,0:0:0:0:
420,224,252506,1,0,0:0:0:0:
424,176,252583,1,0,0:0:0:0:
444,132,252660,6,0,P|460:76|440:24,1,105.000004005432
364,80,252968,2,0,P|296:112|248:108,1,105.000004005432
184,56,253199,1,0,0:0:0:0:
184,56,253276,2,0,P|168:120|192:176,1,105.000004005432
280,328,253583,2,0,P|228:372|184:376,1,105.000004005432
40,248,253891,1,0,0:0:0:0:
236,220,254045,5,0,0:0:0:0:
236,220,254122,1,0,0:0:0:0:
236,220,254199,1,0,0:0:0:0:
100,364,254353,1,0,0:0:0:0:
156,172,254506,1,0,0:0:0:0:
276,332,254660,1,0,0:0:0:0:
372,156,254814,1,0,0:0:0:0:
180,96,254968,1,0,0:0:0:0:
292,260,255122,6,0,L|412:300,1,105.000004005432
492,120,255430,1,0,0:0:0:0:
492,120,255506,1,0,0:0:0:0:
492,120,255583,1,0,0:0:0:0:
300,168,255737,2,0,L|168:204,1,105.000004005432
48,64,256045,1,0,0:0:0:0:
48,64,256122,1,0,0:0:0:0:
48,64,256199,1,0,0:0:0:0:
240,16,256353,5,0,0:0:0:0:
432,128,256660,1,0,0:0:0:0:
432,172,256737,1,0,0:0:0:0:
432,216,256814,1,0,0:0:0:0:
432,260,256891,1,0,0:0:0:0:
400,232,256968,5,0,0:0:0:0:
360,224,257045,1,0,0:0:0:0:
320,228,257122,1,0,0:0:0:0:
288,252,257199,1,0,0:0:0:0:
256,224,257276,5,0,0:0:0:0:
248,184,257353,1,0,0:0:0:0:
252,144,257430,1,0,0:0:0:0:
272,108,257506,1,0,0:0:0:0:
304,80,257583,6,0,P|344:56|392:56,1,70
480,136,257891,2,0,P|448:160|416:168,1,70
280,144,258199,1,0,0:0:0:0:
280,144,258353,1,0,0:0:0:0:
160,216,258506,2,0,P|120:264|116:284,1,70
224,360,258814,6,0,P|268:336|364:364,1,140
472,280,259276,1,0,0:0:0:0:
472,280,259430,2,0,P|488:240|480:192,1,70
408,100,259737,1,0,0:0:0:0:
288,28,259891,1,0,0:0:0:0:
148,24,260045,5,0,0:0:0:0:
232,136,260199,1,0,0:0:0:0:
360,188,260353,1,0,0:0:0:0:
496,164,260506,1,0,0:0:0:0:
388,76,260660,2,0,P|332:48|240:32,1,140
124,84,261122,1,0,0:0:0:0:
124,84,261276,6,0,P|92:160|116:236,1,140
204,312,261737,1,0,0:0:0:0:
336,264,261891,1,0,0:0:0:0:
336,228,262045,1,0,0:0:0:0:
336,192,262199,1,0,0:0:0:0:
336,156,262353,1,0,0:0:0:0:
212,88,262506,5,0,0:0:0:0:
212,124,262660,1,0,0:0:0:0:
212,160,262814,1,0,0:0:0:0:
212,196,262968,1,0,0:0:0:0:
272,320,263122,6,0,P|316:344|340:340,1,70
440,252,263430,2,0,L|480:184,1,70
336,212,263737,2,0,P|296:220|256:216,1,70
300,80,264045,2,0,L|296:164,1,70
284,292,264353,1,0,0:0:0:0:
284,292,264506,1,0,0:0:0:0:
148,332,264660,2,0,P|88:344|56:336,1,70
28,252,264968,6,0,P|8:192|8:140,1,105.000004005432
96,96,265430,1,0,0:0:0:0:
184,40,265583,2,0,L|256:24,1,52.5000020027161
324,88,265891,2,0,L|272:104,1,52.5000020027161
172,128,266199,1,0,0:0:0:0:
172,128,266353,1,0,0:0:0:0:
92,196,266506,2,0,P|72:240|72:260,1,52.5000020027161
156,308,266814,2,0,L|224:316,1,52.5000020027161
312,304,267122,1,0,0:0:0:0:
400,248,267276,1,0,0:0:0:0:
428,148,267430,5,0,0:0:0:0:
332,192,267583,1,0,0:0:0:0:
276,280,267737,1,0,0:0:0:0:
240,380,267891,1,0,0:0:0:0:
240,380,268045,2,0,P|164:364|136:340,1,105.000004005432
256,192,268660,12,8,271737,0:0:0:0:
124,80,272045,5,0,0:0:0:0:
124,80,272353,5,0,0:0:0:0:
124,80,272430,1,0,0:0:0:0:
124,80,272506,1,0,0:0:0:0:
32,268,272660,1,0,0:0:0:0:
224,356,272814,1,0,0:0:0:0:
273,373,272891,1,0,0:0:0:0:
325,375,272968,1,0,0:0:0:0:
376,363,273044,1,0,0:0:0:0:
421,337,273121,1,0,0:0:0:0:
500,140,273276,1,0,0:0:0:0:
340,4,273430,1,0,0:0:0:0:
240,188,273583,5,0,0:0:0:0:
240,188,273660,1,0,0:0:0:0:
240,188,273737,1,0,0:0:0:0:
76,316,273891,1,0,0:0:0:0:
164,124,274045,1,0,0:0:0:0:
164,124,274122,1,0,0:0:0:0:
164,124,274199,1,0,0:0:0:0:
156,336,274353,5,0,0:0:0:0:
164,124,274506,1,0,0:0:0:0:
24,280,274660,1,0,0:0:0:0:
276,200,274814,1,0,0:0:0:0:
68,184,274968,1,0,0:0:0:0:
192,348,275122,1,0,0:0:0:0:
212,140,275276,1,0,0:0:0:0:
152,252,275430,2,0,L|196:356,1,105.000004005432
212,140,275737,2,0,L|160:36,1,105.000004005432
376,76,276045,5,0,0:0:0:0:
232,228,276199,1,0,0:0:0:0:
276,24,276353,1,0,0:0:0:0:
276,24,276430,1,0,0:0:0:0:
276,24,276506,1,0,0:0:0:0:
116,160,276660,1,0,0:0:0:0:
116,160,276737,1,0,0:0:0:0:
116,160,276814,1,0,0:0:0:0:
328,160,276968,5,0,0:0:0:0:
172,48,277122,1,0,0:0:0:0:
220,252,277276,1,0,0:0:0:0:
424,200,277430,1,0,0:0:0:0:
268,60,277583,1,0,0:0:0:0:
332,260,277737,1,0,0:0:0:0:
128,208,277891,6,0,P|64:200|16:212,1,105.000004005432
212,108,278199,1,0,0:0:0:0:
212,108,278276,1,0,0:0:0:0:
212,108,278353,1,0,0:0:0:0:
284,304,278506,1,0,0:0:0:0:
76,284,278660,1,0,0:0:0:0:
76,284,278737,1,0,0:0:0:0:
76,284,278814,1,0,0:0:0:0:
44,80,278968,1,0,0:0:0:0:
172,244,279122,5,0,0:0:0:0:
220,40,279276,1,0,0:0:0:0:
368,192,279430,1,0,0:0:0:0:
164,144,279583,1,0,0:0:0:0:
24,300,279737,6,0,P|72:332|128:332,1,105.000004005432
300,224,280045,1,0,0:0:0:0:
300,224,280122,1,0,0:0:0:0:
300,224,280199,1,0,0:0:0:0:
132,96,280353,1,0,0:0:0:0:
212,288,280506,1,0,0:0:0:0:
332,116,280660,1,0,0:0:0:0:
332,116,280737,1,0,0:0:0:0:
332,116,280814,1,0,0:0:0:0:
144,208,280968,5,0,0:0:0:0:
144,208,281045,1,0,0:0:0:0:
144,208,281122,1,0,0:0:0:0:
276,44,281276,1,0,0:0:0:0:
436,184,281430,1,0,0:0:0:0:
228,164,281583,1,0,0:0:0:0:
392,296,281737,6,0,L|496:368,1,105.000004005432
268,328,282045,2,0,L|176:264,1,105.000004005432
32,120,282353,1,0,0:0:0:0:
236,84,282506,1,0,0:0:0:0:
88,232,282660,1,0,0:0:0:0:
164,36,282814,2,0,P|216:0|280:12,1,105.000004005432
436,112,283122,2,0,P|380:148|332:140,1,105.000004005432
136,108,283430,6,0,P|68:96|16:116,1,105.000004005432
196,240,283737,1,0,0:0:0:0:
196,240,283814,1,0,0:0:0:0:
196,240,283891,1,0,0:0:0:0:
220,32,284045,1,0,0:0:0:0:
80,188,284199,1,0,0:0:0:0:
288,148,284353,1,0,0:0:0:0:
288,148,284430,1,0,0:0:0:0:
288,148,284506,1,0,0:0:0:0:
120,24,284660,5,0,0:0:0:0:
152,232,284814,1,0,0:0:0:0:
344,100,284968,1,0,0:0:0:0:
344,100,285045,1,0,0:0:0:0:
344,100,285122,1,0,0:0:0:0:
136,92,285276,1,0,0:0:0:0:
228,292,285430,5,0,0:0:0:0:
268,316,285506,1,0,0:0:0:0:
316,328,285583,1,0,0:0:0:0:
364,324,285660,1,0,0:0:0:0:
408,304,285737,1,0,0:0:0:0:
436,264,285814,1,0,0:0:0:0:
444,216,285891,1,0,0:0:0:0:
428,172,285968,1,0,0:0:0:0:
400,136,286045,1,0,0:0:0:0:
352,132,286122,5,0,0:0:0:0:
312,156,286199,1,0,0:0:0:0:
264,164,286276,1,0,0:0:0:0:
216,156,286353,1,0,0:0:0:0:
176,128,286430,1,0,0:0:0:0:
132,108,286506,1,0,0:0:0:0:
84,116,286583,1,0,0:0:0:0:
44,144,286660,1,0,0:0:0:0:
24,188,286737,1,0,0:0:0:0:
24,236,286814,6,0,L|32:288,3,52.5000020027161
68,320,287122,1,0,0:0:0:0:
108,344,287199,1,0,0:0:0:0:
152,356,287276,1,0,0:0:0:0:
200,360,287353,1,0,0:0:0:0:
248,360,287430,1,0,0:0:0:0:
292,352,287506,1,0,0:0:0:0:
336,336,287583,1,0,0:0:0:0:
372,304,287660,1,0,0:0:0:0:
396,264,287737,1,0,0:0:0:0:
416,220,287814,1,0,0:0:0:0:
428,176,287891,1,0,0:0:0:0:
428,128,287968,1,0,0:0:0:0:
412,84,288045,1,0,0:0:0:0:
380,48,288122,1,0,0:0:0:0:
336,28,288199,1,0,0:0:0:0:
288,16,288276,1,0,0:0:0:0:
240,20,288353,5,0,0:0:0:0:
232,68,288430,1,0,0:0:0:0:
236,116,288506,1,0,0:0:0:0:
252,160,288583,1,0,0:0:0:0:
272,204,288660,1,0,0:0:0:0:
304,240,288737,1,0,0:0:0:0:
348,260,288814,5,0,0:0:0:0:
324,300,288891,1,0,0:0:0:0:
284,328,288968,1,0,0:0:0:0:
240,340,289045,1,0,0:0:0:0:
192,340,289122,1,0,0:0:0:0:
148,328,289199,1,0,0:0:0:0:
108,300,289276,5,0,0:0:0:0:
148,276,289353,1,0,0:0:0:0:
196,268,289430,1,0,0:0:0:0:
244,268,289506,1,0,0:0:0:0:
292,280,289583,5,0,0:0:0:0:
264,244,289660,1,0,0:0:0:0:
224,220,289737,1,0,0:0:0:0:
180,208,289814,1,0,0:0:0:0:
132,208,289891,1,0,0:0:0:0:
84,212,289968,1,0,0:0:0:0:
40,200,290045,1,0,0:0:0:0:
16,160,290122,1,0,0:0:0:0:
12,112,290199,1,0,0:0:0:0:
28,68,290276,1,0,0:0:0:0:
60,36,290353,1,0,0:0:0:0:
108,24,290430,1,0,0:0:0:0:
156,28,290506,1,0,0:0:0:0:
200,48,290583,1,0,0:0:0:0:
244,60,290660,1,0,0:0:0:0:
292,64,290737,1,0,0:0:0:0:
336,52,290814,1,0,0:0:0:0:
384,44,290891,1,0,0:0:0:0:
432,56,290968,1,0,0:0:0:0:
468,88,291045,1,0,0:0:0:0:
488,132,291122,1,0,0:0:0:0:
484,180,291199,1,0,0:0:0:0:
468,224,291276,1,0,0:0:0:0:
440,264,291353,1,0,0:0:0:0:
400,288,291430,1,0,0:0:0:0:
352,292,291506,1,0,0:0:0:0:
304,284,291583,1,0,0:0:0:0:
260,268,291660,1,0,0:0:0:0:
224,240,291737,5,0,0:0:0:0:
224,288,291814,1,0,0:0:0:0:
248,328,291891,1,0,0:0:0:0:
288,352,291968,1,0,0:0:0:0:
332,364,292045,1,0,0:0:0:0:
332,316,292122,1,0,0:0:0:0:
324,268,292199,1,0,0:0:0:0:
304,224,292276,1,0,0:0:0:0:
272,192,292353,1,0,0:0:0:0:
228,176,292430,1,0,0:0:0:0:
180,172,292506,5,0,0:0:0:0:
212,136,292583,1,0,0:0:0:0:
252,112,292660,1,0,0:0:0:0:
296,100,292737,1,0,0:0:0:0:
344,100,292814,1,0,0:0:0:0:
392,108,292891,1,0,0:0:0:0:
436,128,292968,5,0,0:0:0:0:
420,172,293045,1,0,0:0:0:0:
416,220,293122,1,0,0:0:0:0:
424,268,293199,1,0,0:0:0:0:
444,308,293276,5,0,0:0:0:0:
400,328,293353,1,0,0:0:0:0:
352,328,293430,1,0,0:0:0:0:
308,316,293506,1,0,0:0:0:0:
276,284,293583,1,0,0:0:0:0:
256,240,293660,1,0,0:0:0:0:
248,192,293737,5,0,0:0:0:0:
288,212,293814,1,0,0:0:0:0:
312,252,293891,1,0,0:0:0:0:
316,300,293968,1,0,0:0:0:0:
300,344,294045,1,0,0:0:0:0:
264,372,294122,1,0,0:0:0:0:
216,384,294199,5,0,0:0:0:0:
192,344,294276,1,0,0:0:0:0:
156,312,294353,1,0,0:0:0:0:
112,296,294430,1,0,0:0:0:0:
64,292,294506,2,0,L|12:296,15,52.5000020027161
12,276,295737,5,0,0:0:0:0:
12,256,295814,1,0,0:0:0:0:
12,236,295891,1,0,0:0:0:0:
12,216,295968,1,0,0:0:0:0:
12,196,296045,1,0,0:0:0:0:
12,176,296122,1,0,0:0:0:0:
12,156,296199,1,0,0:0:0:0:
12,136,296276,1,0,0:0:0:0:
12,116,296353,5,0,0:0:0:0:
36,80,296430,1,0,0:0:0:0:
72,60,296506,1,0,0:0:0:0:
112,48,296583,1,0,0:0:0:0:
152,52,296660,5,0,0:0:0:0:
184,80,296737,1,0,0:0:0:0:
224,92,296814,1,0,0:0:0:0:
268,92,296891,1,0,0:0:0:0:
308,76,296968,6,0,P|352:52|400:48,1,83.9999974365235
352,212,297276,2,0,P|304:228|260:228,1,83.9999974365235
208,176,297506,1,0,0:0:0:0:
208,176,297583,2,0,P|192:228|200:272,1,83.9999974365235
320,368,297891,2,0,P|376:340|412:344,1,83.9999974365235
496,204,298199,1,0,0:0:0:0:
388,76,298353,5,0,0:0:0:0:
292,212,298506,2,0,L|368:168,1,83.9999974365235
444,24,298814,2,0,P|404:4|344:8,1,83.9999974365235
308,64,299045,1,0,0:0:0:0:
308,64,299122,2,0,L|216:80,1,83.9999974365235
88,180,299430,6,0,P|72:224|88:272,1,83.9999974365235
192,384,299737,2,0,P|208:344|200:304,1,83.9999974365235
88,180,300045,2,0,P|80:128|92:80,1,83.9999974365235
156,48,300276,1,0,0:0:0:0:
156,48,300353,2,0,P|200:56|248:48,1,83.9999974365235
400,8,300660,5,0,0:0:0:0:
400,8,300737,1,0,0:0:0:0:
400,8,300814,1,0,0:0:0:0:
296,140,300968,1,0,0:0:0:0:
296,140,301045,1,0,0:0:0:0:
296,140,301122,1,0,0:0:0:0:
156,48,301276,1,0,0:0:0:0:
140,216,301430,1,0,0:0:0:0:
232,76,301583,1,0,0:0:0:0:
100,132,301737,1,0,0:0:0:0:
200,264,301891,5,0,0:0:0:0:
232,284,301968,1,0,0:0:0:0:
268,292,302045,1,0,0:0:0:0:
304,292,302122,1,0,0:0:0:0:
336,276,302199,1,0,0:0:0:0:
364,248,302276,1,0,0:0:0:0:
376,212,302353,5,0,0:0:0:0:
404,240,302430,1,0,0:0:0:0:
412,276,302506,1,0,0:0:0:0:
404,312,302583,1,0,0:0:0:0:
388,344,302660,1,0,0:0:0:0:
356,368,302737,1,0,0:0:0:0:
320,380,302814,5,0,0:0:0:0:
304,348,302891,1,0,0:0:0:0:
300,312,302968,1,0,0:0:0:0:
304,276,303045,1,0,0:0:0:0:
316,240,303122,6,0,P|340:152|304:76,1,167.999994873047
248,164,303583,2,0,P|300:172|416:152,1,167.999994873047
504,8,304045,1,0,0:0:0:0:
504,8,304199,1,0,0:0:0:0:
340,48,304353,1,0,0:0:0:0:
256,192,304430,12,0,306506,0:0:0:0:
104,60,306814,5,0,0:0:0:0:
72,92,306891,1,0,0:0:0:0:
52,136,306968,1,0,0:0:0:0:
44,184,307045,1,0,0:0:0:0:
44,232,307122,1,0,0:0:0:0:
56,276,307199,1,0,0:0:0:0:
84,312,307276,5,0,0:0:0:0:
124,288,307353,1,0,0:0:0:0:
168,276,307430,1,0,0:0:0:0:
216,276,307506,1,0,0:0:0:0:
264,284,307583,1,0,0:0:0:0:
308,300,307660,1,0,0:0:0:0:
340,332,307737,5,0,0:0:0:0:
372,296,307814,1,0,0:0:0:0:
392,252,307891,1,0,0:0:0:0:
396,204,307968,1,0,0:0:0:0:
380,160,308045,5,0,0:0:0:0:
348,192,308122,1,0,0:0:0:0:
328,236,308199,1,0,0:0:0:0:
324,284,308276,1,0,0:0:0:0:
336,332,308353,1,0,0:0:0:0:
368,368,308430,1,0,0:0:0:0:
408,384,308506,5,0,0:0:0:0:
408,336,308583,1,0,0:0:0:0:
384,296,308660,1,0,0:0:0:0:
348,264,308737,1,0,0:0:0:0:
304,248,308814,1,0,0:0:0:0:
256,244,308891,1,0,0:0:0:0:
212,256,308968,5,0,0:0:0:0:
184,220,309045,1,0,0:0:0:0:
176,172,309122,1,0,0:0:0:0:
192,128,309199,1,0,0:0:0:0:
224,92,309276,5,0,0:0:0:0:
188,64,309353,1,0,0:0:0:0:
140,56,309430,1,0,0:0:0:0:
92,60,309506,1,0,0:0:0:0:
48,72,309583,1,0,0:0:0:0:
16,108,309660,1,0,0:0:0:0:
4,152,309737,1,0,0:0:0:0:
4,200,309814,1,0,0:0:0:0:
16,248,309891,1,0,0:0:0:0:
44,284,309968,1,0,0:0:0:0:
88,304,310045,1,0,0:0:0:0:
136,308,310122,1,0,0:0:0:0:
180,296,310199,1,0,0:0:0:0:
224,284,310276,1,0,0:0:0:0:
272,284,310353,1,0,0:0:0:0:
316,304,310430,1,0,0:0:0:0:
356,324,310506,1,0,0:0:0:0:
404,328,310583,1,0,0:0:0:0:
444,304,310660,1,0,0:0:0:0:
468,264,310737,1,0,0:0:0:0:
472,216,310814,1,0,0:0:0:0:
456,172,310891,1,0,0:0:0:0:
424,136,310968,1,0,0:0:0:0:
384,112,311045,1,0,0:0:0:0:
340,96,311122,1,0,0:0:0:0:
292,92,311199,1,0,0:0:0:0:
244,96,311276,1,0,0:0:0:0:
200,116,311353,1,0,0:0:0:0:
176,156,311430,6,0,L|176:216,1,52.5000020027161
244,288,311583,2,0,L|244:236,1,52.5000020027161
248,128,311737,5,0,0:0:0:0:
236,84,311814,1,0,0:0:0:0:
204,48,311891,1,0,0:0:0:0:
160,32,311968,1,0,0:0:0:0:
112,32,312045,1,0,0:0:0:0:
68,52,312122,1,0,0:0:0:0:
48,92,312199,5,0,0:0:0:0:
92,108,312276,1,0,0:0:0:0:
140,108,312353,1,0,0:0:0:0:
188,104,312430,1,0,0:0:0:0:
232,88,312506,1,0,0:0:0:0:
268,56,312583,1,0,0:0:0:0:
288,12,312660,5,0,0:0:0:0:
336,16,312737,1,0,0:0:0:0:
376,44,312814,1,0,0:0:0:0:
400,84,312891,1,0,0:0:0:0:
396,132,312968,5,0,0:0:0:0:
348,124,313045,1,0,0:0:0:0:
300,124,313122,1,0,0:0:0:0:
252,132,313199,1,0,0:0:0:0:
212,156,313276,1,0,0:0:0:0:
184,192,313353,1,0,0:0:0:0:
164,236,313430,5,0,0:0:0:0:
140,196,313506,1,0,0:0:0:0:
136,148,313583,1,0,0:0:0:0:
148,104,313660,1,0,0:0:0:0:
176,68,313737,1,0,0:0:0:0:
220,48,313814,1,0,0:0:0:0:
268,40,313891,5,0,0:0:0:0:
268,88,313968,1,0,0:0:0:0:
252,132,314045,1,0,0:0:0:0:
228,172,314122,1,0,0:0:0:0:
192,200,314199,2,0,L|136:232,15,52.5000020027161
160,244,315430,5,0,0:0:0:0:
172,260,315506,1,0,0:0:0:0:
188,276,315583,1,0,0:0:0:0:
200,292,315660,1,0,0:0:0:0:
216,308,315737,1,0,0:0:0:0:
232,324,315814,1,0,0:0:0:0:
248,340,315891,1,0,0:0:0:0:
264,356,315968,1,0,0:0:0:0:
280,372,316045,1,0,0:0:0:0:
328,376,316122,1,0,0:0:0:0:
376,368,316199,1,0,0:0:0:0:
412,340,316276,1,0,0:0:0:0:
432,296,316353,5,0,0:0:0:0:
428,248,316430,1,0,0:0:0:0:
424,200,316506,1,0,0:0:0:0:
416,152,316583,1,0,0:0:0:0:
404,112,316660,6,0,P|368:52|320:32,1,90.9999958343508
272,88,316891,1,0,0:0:0:0:
272,88,316968,2,0,L|168:96,1,90.9999958343508
104,48,317199,1,0,0:0:0:0:
104,48,317276,2,0,P|100:136|156:180,1,136.499993751526
208,212,317583,2,0,L|304:220,1,90.9999958343508
472,164,317891,5,0,0:0:0:0:
308,88,318045,2,0,L|244:24,2,90.9999958343508
420,232,318506,2,0,P|432:282|420:324,1,90.9999958343508
344,280,318737,1,0,0:0:0:0:
344,280,318814,2,0,P|296:276|248:280,1,90.9999958343508
192,348,319045,1,0,0:0:0:0:
192,348,319122,6,0,P|160:300|160:248,1,90.9999958343508
192,88,319430,2,0,P|220:136|220:188,1,90.9999958343508
192,348,319737,2,0,P|244:360|296:352,1,90.9999958343508
360,304,319968,1,0,0:0:0:0:
360,304,320045,2,0,L|392:212,1,90.9999958343508
320,48,320353,5,0,0:0:0:0:
320,48,320430,1,0,0:0:0:0:
320,48,320506,1,0,0:0:0:0:
208,192,320660,1,0,0:0:0:0:
208,192,320737,1,0,0:0:0:0:
208,192,320814,1,0,0:0:0:0:
384,144,320968,1,0,0:0:0:0:
384,144,321045,1,0,0:0:0:0:
384,144,321122,1,0,0:0:0:0:
208,100,321276,5,0,0:0:0:0:
164,92,321353,1,0,0:0:0:0:
120,96,321430,1,0,0:0:0:0:
76,112,321506,1,0,0:0:0:0:
44,140,321583,6,0,L|44:192,1,41.9999987182618
44,182,321737,1,0,0:0:0:0:
44,182,321814,1,0,0:0:0:0:
44,182,321891,1,0,0:0:0:0:
44,182,321968,1,0,0:0:0:0:
128,256,322045,6,0,L|128:208,1,41.9999987182618
128,214,322199,1,0,0:0:0:0:
128,214,322276,1,0,0:0:0:0:
128,214,322353,1,0,0:0:0:0:
128,214,322430,1,0,0:0:0:0:
212,140,322506,6,0,L|212:196,1,41.9999987182618
212,182,322660,1,0,0:0:0:0:
212,182,322737,1,0,0:0:0:0:
300,256,322814,6,0,L|300:188,1,41.9999987182618
300,214,322968,1,0,0:0:0:0:
300,214,323045,1,0,0:0:0:0:
300,214,323122,1,0,0:0:0:0:
300,214,323199,1,0,0:0:0:0:
392,140,323276,6,0,L|392:196,1,41.9999987182618
392,268,323430,1,0,0:0:0:0:
380,304,323506,1,0,0:0:0:0:
356,332,323583,1,0,0:0:0:0:
324,352,323660,1,0,0:0:0:0:
288,356,323737,5,0,0:0:0:0:
268,324,323814,1,0,0:0:0:0:
260,288,323891,1,0,0:0:0:0:
268,252,323968,1,0,0:0:0:0:
288,220,324045,1,0,0:0:0:0:
256,192,324122,12,0,326199,0:0:0:0:
