osu file format v14

[General]
AudioFilename: audio.mp3
AudioLeadIn: 0
PreviewTime: -1
Countdown: 1
SampleSet: Normal
StackLeniency: 0.7
Mode: 0
LetterboxInBreaks: 0
WidescreenStoryboard: 0

[Editor]
DistanceSpacing: 1.1
BeatDivisor: 4
GridSize: 8
TimelineZoom: 4.299998

[Metadata]
Title:Blue Zenith
TitleUnicode:Blue Zenith
Artist:Xi
ArtistUnicode:Xi
Creator:Alex3i2
Version:Blue stars
Source:
Tags:Blue Zenith Xi
BeatmapID:1878723
BeatmapSetID:899398

[Difficulty]
HPDrainRate:5
CircleSize:4
OverallDifficulty:9
ApproachRate:9.5
SliderMultiplier:1.4
SliderTickRate:1

[Events]
//Background and Video events
0,0,"descărcare.jpg",0,0
//Break Periods
//Storyboard Layer 0 (Background)
//Storyboard Layer 1 (Fail)
//Storyboard Layer 2 (Pass)
//Storyboard Layer 3 (Foreground)
//Storyboard Sound Samples

[TimingPoints]
2246,300,4,1,0,100,1,0
86246,900.0900090009,4,1,0,100,1,0
87446,300,4,1,0,100,1,0
115046,-100,4,1,0,100,0,0
153446,-83.3333333333333,4,1,0,100,0,1
158246,-76.9230769230769,4,1,0,100,0,1
182246,-66.6666666666667,4,1,0,100,0,0
184646,-100,4,1,0,100,0,0
223046,-66.6666666666667,4,1,0,100,0,1

[HitObjects]
160,192,74246,5,0,0:0:0:0:
304,192,74846,1,0,0:0:0:0:
352,160,76046,1,0,0:0:0:0:
352,62,76246,1,0,0:0:0:0:
436,111,76446,1,0,0:0:0:0:
432,208,76646,2,0,P|432:280|296:336,1,210
344,256,77246,2,0,P|248:256|192:256,1,140
304,192,78446,5,0,0:0:0:0:
160,192,79046,1,0,0:0:0:0:
240,80,79646,1,0,0:0:0:0:
160,224,80846,1,0,0:0:0:0:
160,322,81046,1,0,0:0:0:0:
76,273,81246,1,0,0:0:0:0:
79,175,81445,2,0,P|95:76|188:40,1,210
168,128,82046,6,0,P|264:128|308:128,1,140
352,328,82946,5,0,0:0:0:0:
232,232,83246,1,0,0:0:0:0:
352,144,83546,1,0,0:0:0:0:
128,40,83846,1,0,0:0:0:0:
72,296,85046,5,0,0:0:0:0:
200,152,85646,1,0,0:0:0:0:
304,288,86246,2,0,L|440:328,1,140
432,160,87446,5,0,0:0:0:0:
304,56,87746,1,0,0:0:0:0:
144,152,88046,1,0,0:0:0:0:
80,80,88246,1,0,0:0:0:0:
191,73,88446,1,0,0:0:0:0:
46,171,88646,2,0,P|82:264|182:267,1,210
311,228,89246,2,0,P|311:132|311:88,2,140
402,162,90146,5,0,0:0:0:0:
264,56,90446,1,0,0:0:0:0:
192,240,90746,1,0,0:0:0:0:
76,104,91046,2,0,B|28:328,1,210
152,168,91646,6,0,P|215:209|296:216,1,140
397,225,92246,1,0,0:0:0:0:
440,96,92546,1,0,0:0:0:0:
264,104,92846,1,0,0:0:0:0:
184,304,93146,1,0,0:0:0:0:
48,120,93446,5,0,0:0:0:0:
65,119,93521,1,0,0:0:0:0:
82,116,93596,1,0,0:0:0:0:
99,110,93671,1,0,0:0:0:0:
114,102,93746,1,0,0:0:0:0:
129,92,93821,1,0,0:0:0:0:
142,81,93896,1,0,0:0:0:0:
153,67,93971,1,0,0:0:0:0:
162,52,94046,1,0,0:0:0:0:
232,144,94196,5,0,0:0:0:0:
328,80,94346,1,0,0:0:0:0:
322,216,94496,5,0,0:0:0:0:
313,231,94571,1,0,0:0:0:0:
302,245,94646,1,0,0:0:0:0:
289,256,94721,1,0,0:0:0:0:
274,266,94796,1,0,0:0:0:0:
259,274,94871,1,0,0:0:0:0:
242,280,94946,1,0,0:0:0:0:
225,283,95021,1,0,0:0:0:0:
208,284,95096,1,0,0:0:0:0:
416,288,95246,5,0,0:0:0:0:
464,192,95446,1,0,0:0:0:0:
392,112,95646,1,0,0:0:0:0:
464,32,95846,1,0,0:0:0:0:
328,208,96446,2,0,L|128:328,1,210
192,208,97046,2,0,P|208:120|176:64,1,140
112,32,97646,5,0,0:0:0:0:
48,120,97946,5,0,0:0:0:0:
144,248,98096,1,0,0:0:0:0:
220,84,98246,5,0,0:0:0:0:
227,99,98321,1,0,0:0:0:0:
236,113,98396,1,0,0:0:0:0:
249,127,98471,1,0,0:0:0:0:
262,137,98546,1,0,0:0:0:0:
277,147,98621,1,0,0:0:0:0:
292,155,98696,1,0,0:0:0:0:
309,159,98771,1,0,0:0:0:0:
327,162,98846,1,0,0:0:0:0:
368,33,98996,5,0,0:0:0:0:
485,121,99146,1,0,0:0:0:0:
449,252,99296,5,0,0:0:0:0:
440,267,99371,1,0,0:0:0:0:
429,281,99446,1,0,0:0:0:0:
416,292,99521,1,0,0:0:0:0:
401,302,99596,1,0,0:0:0:0:
386,310,99671,1,0,0:0:0:0:
369,316,99746,1,0,0:0:0:0:
352,319,99821,1,0,0:0:0:0:
335,320,99896,1,0,0:0:0:0:
126,331,100046,5,0,0:0:0:0:
217,251,100246,1,0,0:0:0:0:
96,190,100446,1,0,0:0:0:0:
219,117,100646,1,0,0:0:0:0:
447,89,101246,2,0,P|375:161|256:189,1,210
122,201,101846,1,0,0:0:0:0:
376,337,102146,5,0,0:0:0:0:
254,122,102446,1,0,0:0:0:0:
88,320,102746,1,0,0:0:0:0:
32,32,103046,1,0,0:0:0:0:
352,152,104246,5,0,0:0:0:0:
64,256,104846,1,0,0:0:0:0:
376,336,105446,1,0,0:0:0:0:
232,152,106346,2,0,L|176:152,4,35
264,232,106946,5,0,0:0:0:0:
464,192,107246,1,0,0:0:0:0:
392,112,107446,1,0,0:0:0:0:
464,32,107646,1,0,0:0:0:0:
208,56,107846,1,0,0:0:0:0:
112,104,108446,2,0,L|40:312,1,210
256,216,109046,5,0,0:0:0:0:
232,56,109346,1,0,0:0:0:0:
88,160,109646,1,0,0:0:0:0:
160,336,109946,5,0,0:0:0:0:
392,152,110246,1,0,0:0:0:0:
176,104,110846,1,0,0:0:0:0:
400,152,111446,1,0,0:0:0:0:
416,272,111596,2,0,L|448:224,12,35
232,216,112646,6,0,L|216:312,8,70
170,112,114146,2,0,L|36:154,3,140
34,200,115121,1,0,0:0:0:0:
48,239,115196,1,0,0:0:0:0:
77,267,115271,1,0,0:0:0:0:
116,279,115346,1,0,0:0:0:0:
157,273,115421,1,0,0:0:0:0:
190,249,115496,1,0,0:0:0:0:
209,213,115571,1,0,0:0:0:0:
209,172,115646,1,0,0:0:0:0:
191,135,115721,1,0,0:0:0:0:
176,104,115796,1,0,0:0:0:0:
209,112,115871,1,0,0:0:0:0:
244,109,115946,1,0,0:0:0:0:
276,96,116021,1,0,0:0:0:0:
302,73,116096,1,0,0:0:0:0:
336,64,116171,1,0,0:0:0:0:
376,72,116246,6,0,L|400:112,3,35
336,160,116546,6,0,L|360:200,3,35
432,184,116846,6,0,L|456:224,3,35
376,272,117146,6,0,L|400:312,3,35
408,336,117446,5,0,0:0:0:0:
380,357,117521,1,0,0:0:0:0:
348,371,117596,1,0,0:0:0:0:
314,375,117671,1,0,0:0:0:0:
279,370,117746,1,0,0:0:0:0:
248,355,117821,1,0,0:0:0:0:
221,332,117896,1,0,0:0:0:0:
208,304,117971,1,0,0:0:0:0:
208,269,118046,1,0,0:0:0:0:
208,234,118121,1,0,0:0:0:0:
208,200,118196,1,0,0:0:0:0:
205,165,118271,1,0,0:0:0:0:
188,135,118346,1,0,0:0:0:0:
160,114,118421,1,0,0:0:0:0:
126,108,118496,1,0,0:0:0:0:
88,112,118571,1,0,0:0:0:0:
56,128,118646,6,0,L|16:168,3,35
104,184,118946,6,0,L|128:224,3,35
48,248,119246,6,0,L|16:296,3,35
120,304,119546,6,0,L|144:344,3,35
168,352,119846,5,0,0:0:0:0:
201,360,119921,1,0,0:0:0:0:
236,355,119996,1,0,0:0:0:0:
265,337,120071,1,0,0:0:0:0:
286,308,120146,1,0,0:0:0:0:
294,275,120221,1,0,0:0:0:0:
288,240,120296,1,0,0:0:0:0:
328,256,120371,1,0,0:0:0:0:
361,264,120446,1,0,0:0:0:0:
396,259,120521,1,0,0:0:0:0:
425,241,120596,1,0,0:0:0:0:
446,212,120671,1,0,0:0:0:0:
454,179,120746,1,0,0:0:0:0:
448,144,120821,1,0,0:0:0:0:
432,112,120896,1,0,0:0:0:0:
400,96,120971,1,0,0:0:0:0:
359,106,121046,6,0,L|319:146,3,35
280,56,121346,6,0,L|232:88,3,35
248,160,121646,6,0,L|216:184,3,35
168,104,121946,6,0,L|120:136,3,35
104,144,122246,5,0,0:0:0:0:
84,172,122321,1,0,0:0:0:0:
76,206,122396,1,0,0:0:0:0:
82,240,122471,1,0,0:0:0:0:
100,270,122546,1,0,0:0:0:0:
129,290,122621,1,0,0:0:0:0:
160,304,122696,1,0,0:0:0:0:
173,287,122771,1,0,0:0:0:0:
186,270,122846,1,0,0:0:0:0:
200,254,122921,1,0,0:0:0:0:
213,237,122996,1,0,0:0:0:0:
227,221,123071,1,0,0:0:0:0:
240,204,123146,1,0,0:0:0:0:
252,188,123221,1,0,0:0:0:0:
272,160,123296,1,0,0:0:0:0:
301,140,123371,1,0,0:0:0:0:
335,130,123446,5,0,0:0:0:0:
369,131,123521,1,0,0:0:0:0:
402,143,123596,1,0,0:0:0:0:
424,168,123671,1,0,0:0:0:0:
448,191,123746,1,0,0:0:0:0:
458,225,123821,1,0,0:0:0:0:
449,258,123896,1,0,0:0:0:0:
424,282,123971,1,0,0:0:0:0:
390,290,124046,1,0,0:0:0:0:
352,288,124121,1,0,0:0:0:0:
322,268,124196,1,0,0:0:0:0:
290,256,124271,1,0,0:0:0:0:
255,251,124346,1,0,0:0:0:0:
220,255,124421,1,0,0:0:0:0:
187,265,124496,1,0,0:0:0:0:
157,283,124571,1,0,0:0:0:0:
129,299,124646,6,0,L|89:323,3,35
72,208,124946,6,0,L|96:248,3,35
152,180,125246,6,0,L|192:156,3,35
89,120,125546,6,0,L|65:80,3,35
60,56,125846,5,0,0:0:0:0:
87,35,125921,1,0,0:0:0:0:
120,21,125996,1,0,0:0:0:0:
154,16,126071,1,0,0:0:0:0:
189,19,126146,1,0,0:0:0:0:
222,30,126221,1,0,0:0:0:0:
252,40,126296,1,0,0:0:0:0:
280,60,126371,1,0,0:0:0:0:
305,84,126446,1,0,0:0:0:0:
311,118,126521,1,0,0:0:0:0:
300,150,126596,1,0,0:0:0:0:
274,174,126671,1,0,0:0:0:0:
241,182,126746,1,0,0:0:0:0:
207,172,126821,1,0,0:0:0:0:
183,148,126896,1,0,0:0:0:0:
172,116,126971,1,0,0:0:0:0:
157,86,127046,6,0,L|136:37,3,35
84,112,127346,6,0,L|108:152,3,35
69,219,127646,6,0,L|48:192,3,35
24,284,127946,6,0,L|56:317,3,35,0|0|0|0,3:0|3:0|3:0|3:0,3:0:0:0:
124,352,128246,6,0,L|172:330,3,35,0|0|0|0,3:0|0:0|3:0|0:0,0:0:0:0:
216,280,128546,6,0,L|186:260,3,35
292,196,128846,6,0,L|264:217,3,35
360,160,129146,6,0,L|327:126,3,35,0|0|0|0,3:0|3:0|3:0|3:0,3:0:0:0:
392,184,129446,5,0,0:0:0:0:
419,205,129521,1,0,0:0:0:0:
445,229,129596,1,0,0:0:0:0:
467,256,129671,1,0,0:0:0:0:
488,288,129746,1,0,0:0:0:0:
456,272,129821,1,0,0:0:0:0:
422,263,129896,1,0,0:0:0:0:
388,264,129971,1,0,0:0:0:0:
354,272,130046,1,0,0:0:0:0:
323,288,130121,1,0,0:0:0:0:
297,312,130196,1,0,0:0:0:0:
272,284,130271,1,0,0:0:0:0:
252,254,130346,1,0,0:0:0:0:
229,228,130421,1,0,0:0:0:0:
201,207,130496,5,0,0:0:0:0:
171,190,130571,1,0,0:0:0:0:
138,178,130646,1,0,0:0:0:0:
104,171,130721,1,0,0:0:0:0:
69,170,130796,1,0,0:0:0:0:
28,172,130871,1,0,0:0:0:0:
56,151,130946,1,0,0:0:0:0:
80,126,131021,1,0,0:0:0:0:
99,97,131096,1,0,0:0:0:0:
112,64,131171,1,0,0:0:0:0:
119,30,131246,1,0,0:0:0:0:
264,88,131396,5,0,0:0:0:0:
360,36,131546,1,0,0:0:0:0:
368,172,131696,1,0,0:0:0:0:
461,242,131846,2,0,L|525:230,2,35
376,312,132146,1,0,0:0:0:0:
277,232,132296,2,0,L|149:305,1,140
171,179,132746,1,0,0:0:0:0:
90,27,132896,1,0,0:0:0:0:
64,216,133046,5,0,0:0:0:0:
71,250,133121,1,0,0:0:0:0:
88,280,133196,1,0,0:0:0:0:
113,304,133271,1,0,0:0:0:0:
145,319,133346,1,0,0:0:0:0:
179,324,133421,1,0,0:0:0:0:
214,319,133496,1,0,0:0:0:0:
236,300,133571,1,0,0:0:0:0:
247,276,133646,1,0,0:0:0:0:
255,252,133721,1,0,0:0:0:0:
262,227,133796,1,0,0:0:0:0:
265,201,133871,1,0,0:0:0:0:
266,175,133946,1,0,0:0:0:0:
264,149,134021,1,0,0:0:0:0:
264,128,134096,1,0,0:0:0:0:
264,108,134171,1,0,0:0:0:0:
264,88,134246,6,0,L|240:48,3,35
128,124,134546,6,0,L|152:164,3,35
174,58,134846,6,0,L|156:28,3,35
64,192,135146,6,0,L|88:232,3,35
98,256,135446,5,0,0:0:0:0:
117,286,135521,1,0,0:0:0:0:
135,315,135596,1,0,0:0:0:0:
156,340,135671,1,0,0:0:0:0:
183,306,135746,1,0,0:0:0:0:
213,287,135821,1,0,0:0:0:0:
244,273,135896,1,0,0:0:0:0:
279,265,135971,1,0,0:0:0:0:
313,267,136046,1,0,0:0:0:0:
346,280,136121,1,0,0:0:0:0:
375,300,136196,1,0,0:0:0:0:
399,325,136271,1,0,0:0:0:0:
412,284,136346,1,0,0:0:0:0:
414,249,136421,1,0,0:0:0:0:
428,217,136496,1,0,0:0:0:0:
451,190,136571,1,0,0:0:0:0:
468,160,136646,6,0,L|488:124,3,35
392,96,136946,6,0,L|368:136,3,35
268,104,137246,6,0,L|296:83,3,35
192,48,137546,6,0,L|152:72,3,35
120,88,137846,5,0,0:0:0:0:
92,108,137921,1,0,0:0:0:0:
75,139,137996,1,0,0:0:0:0:
73,173,138071,1,0,0:0:0:0:
85,206,138146,1,0,0:0:0:0:
109,230,138221,1,0,0:0:0:0:
142,243,138296,1,0,0:0:0:0:
176,240,138371,1,0,0:0:0:0:
207,223,138446,1,0,0:0:0:0:
232,196,138521,1,0,0:0:0:0:
256,168,138596,1,0,0:0:0:0:
264,135,138671,1,0,0:0:0:0:
249,104,138746,1,0,0:0:0:0:
217,93,138821,1,0,0:0:0:0:
185,106,138896,1,0,0:0:0:0:
171,137,138971,1,0,0:0:0:0:
175,165,139046,6,0,L|199:205,3,35
264,135,139346,6,0,L|304:111,3,35
204,64,139646,6,0,L|180:24,3,35
112,96,139946,6,0,L|72:120,3,35
44,140,140246,5,0,0:0:0:0:
20,166,140321,1,0,0:0:0:0:
10,199,140396,1,0,0:0:0:0:
12,233,140471,1,0,0:0:0:0:
29,264,140546,1,0,0:0:0:0:
56,286,140621,1,0,0:0:0:0:
89,295,140696,1,0,0:0:0:0:
124,291,140771,1,0,0:0:0:0:
156,276,140846,1,0,0:0:0:0:
178,249,140921,1,0,0:0:0:0:
207,230,140996,1,0,0:0:0:0:
241,222,141071,1,0,0:0:0:0:
276,224,141146,1,0,0:0:0:0:
308,237,141221,1,0,0:0:0:0:
334,260,141296,1,0,0:0:0:0:
352,290,141371,1,0,0:0:0:0:
368,320,141446,6,0,L|392:360,3,35
466,286,141746,6,0,L|440:264,3,35
472,176,142046,6,0,L|511:201,3,35
489,90,142346,6,0,L|456:81,3,35
424,88,142646,5,0,0:0:0:0:
408,119,142721,1,0,0:0:0:0:
385,145,142796,1,0,0:0:0:0:
355,163,142871,1,0,0:0:0:0:
321,171,142946,1,0,0:0:0:0:
286,170,143021,1,0,0:0:0:0:
253,159,143096,1,0,0:0:0:0:
225,138,143171,1,0,0:0:0:0:
203,111,143246,1,0,0:0:0:0:
184,80,143321,1,0,0:0:0:0:
184,115,143396,1,0,0:0:0:0:
184,150,143471,1,0,0:0:0:0:
184,185,143546,1,0,0:0:0:0:
184,220,143621,1,0,0:0:0:0:
184,255,143696,1,0,0:0:0:0:
184,290,143771,1,0,0:0:0:0:
184,328,143846,6,0,L|208:368,3,35
288,320,144146,6,0,L|261:297,3,35
328,232,144446,6,0,L|367:257,3,35
337,154,144746,6,0,L|303:144,3,35
272,136,145046,5,0,0:0:0:0:
259,103,145121,1,0,0:0:0:0:
235,78,145196,1,0,0:0:0:0:
204,62,145271,1,0,0:0:0:0:
169,59,145346,1,0,0:0:0:0:
136,69,145421,1,0,0:0:0:0:
108,90,145496,1,0,0:0:0:0:
80,120,145571,1,0,0:0:0:0:
72,160,145646,1,0,0:0:0:0:
80,200,145721,1,0,0:0:0:0:
96,240,145796,1,0,0:0:0:0:
112,270,145871,1,0,0:0:0:0:
137,295,145946,1,0,0:0:0:0:
168,310,146021,1,0,0:0:0:0:
202,315,146096,1,0,0:0:0:0:
237,309,146171,1,0,0:0:0:0:
268,295,146246,6,0,L|300:279,3,35
200,232,146546,6,0,L|173:209,3,35
288,192,146846,6,0,L|312:160,3,35
224,112,147146,6,0,L|199:87,3,35
336,64,147446,6,0,L|336:24,3,35
400,152,147746,6,0,L|456:152,3,35
288,192,148046,6,0,L|288:248,3,35
224,112,148346,6,0,L|190:102,3,35
152,80,148646,5,0,0:0:0:0:
118,71,148721,1,0,0:0:0:0:
83,74,148796,1,0,0:0:0:0:
53,91,148871,1,0,0:0:0:0:
30,117,148946,1,0,0:0:0:0:
19,150,149021,1,0,0:0:0:0:
20,185,149096,1,0,0:0:0:0:
34,217,149171,1,0,0:0:0:0:
59,241,149246,1,0,0:0:0:0:
91,255,149321,1,0,0:0:0:0:
128,256,149396,1,0,0:0:0:0:
131,290,149471,1,0,0:0:0:0:
151,319,149546,1,0,0:0:0:0:
181,335,149621,1,0,0:0:0:0:
216,336,149696,1,0,0:0:0:0:
247,320,149771,1,0,0:0:0:0:
267,292,149846,5,0,0:0:0:0:
272,258,149921,1,0,0:0:0:0:
304,248,149996,1,0,0:0:0:0:
328,223,150071,1,0,0:0:0:0:
339,190,150146,1,0,0:0:0:0:
333,156,150221,1,0,0:0:0:0:
313,128,150296,1,0,0:0:0:0:
282,113,150371,1,0,0:0:0:0:
248,128,150446,1,0,0:0:0:0:
216,96,150521,1,0,0:0:0:0:
189,73,150596,1,0,0:0:0:0:
156,61,150671,1,0,0:0:0:0:
122,64,150746,1,0,0:0:0:0:
91,80,150821,1,0,0:0:0:0:
68,106,150896,1,0,0:0:0:0:
58,139,150971,1,0,0:0:0:0:
61,174,151046,5,0,0:0:0:0:
77,205,151121,1,0,0:0:0:0:
56,240,151196,1,0,0:0:0:0:
36,268,151271,1,0,0:0:0:0:
32,303,151346,1,0,0:0:0:0:
44,335,151421,1,0,0:0:0:0:
69,359,151496,1,0,0:0:0:0:
102,368,151571,1,0,0:0:0:0:
136,361,151646,1,0,0:0:0:0:
163,340,151721,1,0,0:0:0:0:
178,308,151796,1,0,0:0:0:0:
176,274,151871,1,0,0:0:0:0:
176,240,151946,1,0,0:0:0:0:
200,215,152021,1,0,0:0:0:0:
230,196,152096,1,0,0:0:0:0:
263,185,152171,1,0,0:0:0:0:
298,182,152246,5,0,0:0:0:0:
336,192,152321,1,0,0:0:0:0:
376,192,152396,1,0,0:0:0:0:
408,176,152471,1,0,0:0:0:0:
421,143,152546,1,0,0:0:0:0:
423,109,152621,1,0,0:0:0:0:
413,75,152696,1,0,0:0:0:0:
392,47,152771,1,0,0:0:0:0:
362,28,152846,1,0,0:0:0:0:
329,20,152921,1,0,0:0:0:0:
294,24,152996,1,0,0:0:0:0:
263,40,153071,1,0,0:0:0:0:
239,65,153146,1,0,0:0:0:0:
225,97,153221,1,0,0:0:0:0:
224,136,153296,1,0,0:0:0:0:
229,166,153371,1,0,0:0:0:0:
234,196,153446,6,0,L|250:304,1,83.9999974365235
330,360,153746,1,0,0:0:0:0:
443,176,153896,2,0,P|394:117|282:149,1,167.999994873047
140,180,154346,2,0,L|104:276,1,83.9999974365235
264,248,154646,5,0,0:0:0:0:
310,251,154721,1,0,0:0:0:0:
353,239,154796,1,0,0:0:0:0:
388,211,154871,1,0,0:0:0:0:
415,178,154946,2,0,P|445:132|440:58,1,90.9999958343508
274,73,155246,2,0,L|158:49,1,83.9999974365235
64,44,155545,1,0,0:0:0:0:
156,208,155696,1,0,0:0:0:0:
274,73,155846,5,0,0:0:0:0:
306,51,155921,1,0,0:0:0:0:
344,41,155996,1,0,0:0:0:0:
384,37,156071,1,0,0:0:0:0:
422,41,156146,1,0,0:0:0:0:
456,61,156221,1,0,0:0:0:0:
474,95,156296,1,0,0:0:0:0:
484,128,156371,1,0,0:0:0:0:
495,163,156446,1,0,0:0:0:0:
492,201,156521,1,0,0:0:0:0:
477,235,156596,1,0,0:0:0:0:
450,262,156671,1,0,0:0:0:0:
416,277,156746,1,0,0:0:0:0:
380,272,156821,1,0,0:0:0:0:
350,248,156896,1,0,0:0:0:0:
315,234,156971,1,0,0:0:0:0:
278,229,157046,5,0,0:0:0:0:
240,234,157121,1,0,0:0:0:0:
205,248,157196,1,0,0:0:0:0:
175,271,157271,1,0,0:0:0:0:
144,244,157346,1,0,0:0:0:0:
122,213,157421,1,0,0:0:0:0:
109,177,157496,1,0,0:0:0:0:
108,140,157571,1,0,0:0:0:0:
117,103,157646,1,0,0:0:0:0:
136,71,157721,1,0,0:0:0:0:
160,48,157796,1,0,0:0:0:0:
196,27,157871,1,0,0:0:0:0:
237,23,157946,1,0,0:0:0:0:
276,36,158021,1,0,0:0:0:0:
307,65,158096,1,0,0:0:0:0:
322,103,158171,1,0,0:0:0:0:
328,140,158246,6,0,P|324:184|276:240,1,90.9999958343508
68,312,158546,6,0,P|112:321|155:310,1,90.9999958343508
64,92,158846,2,0,L|208:216,1,181.999991668702
336,304,159296,1,0,0:0:0:0:
448,216,159446,5,0,0:0:0:0:
451,170,159521,1,0,0:0:0:0:
439,127,159596,1,0,0:0:0:0:
411,92,159671,1,0,0:0:0:0:
378,65,159746,2,0,P|332:35|258:40,1,90.9999958343508
141,94,160046,5,0,0:0:0:0:
27,176,160196,1,0,0:0:0:0:
149,240,160346,1,0,0:0:0:0:
189,33,160496,1,0,0:0:0:0:
316,104,160646,5,0,0:0:0:0:
339,142,160721,1,0,0:0:0:0:
349,186,160796,1,0,0:0:0:0:
346,232,160871,1,0,0:0:0:0:
329,274,160946,1,0,0:0:0:0:
299,308,161021,1,0,0:0:0:0:
264,336,161096,1,0,0:0:0:0:
227,361,161171,1,0,0:0:0:0:
183,356,161246,1,0,0:0:0:0:
153,323,161321,1,0,0:0:0:0:
144,280,161396,1,0,0:0:0:0:
152,240,161471,1,0,0:0:0:0:
178,203,161546,1,0,0:0:0:0:
185,158,161621,1,0,0:0:0:0:
173,115,161696,1,0,0:0:0:0:
143,81,161771,1,0,0:0:0:0:
104,72,161846,6,0,P|48:72|16:96,1,90.9999958343508
256,200,162146,6,0,P|312:200|344:176,1,90.9999958343508
504,248,162446,6,0,B|414:283|414:283|340:273|340:273|235:317,1,272.999987503052
256,200,163046,6,0,L|357:160,1,83.9999974365235
466,143,163346,1,0,0:0:0:0:
321,67,163496,2,0,L|224:10,2,90.9999958343508
466,143,163946,2,0,P|413:185|370:186,1,90.9999958343508
283,191,164246,5,0,0:0:0:0:
237,188,164321,1,0,0:0:0:0:
194,200,164396,1,0,0:0:0:0:
159,228,164471,1,0,0:0:0:0:
132,261,164546,2,0,P|102:307|107:381,1,90.9999958343508
238,311,164846,2,0,L|354:335,1,83.9999974365235
448,340,165145,1,0,0:0:0:0:
320,208,165296,1,0,0:0:0:0:
238,311,165446,5,0,0:0:0:0:
206,333,165521,1,0,0:0:0:0:
168,343,165596,1,0,0:0:0:0:
128,347,165671,1,0,0:0:0:0:
90,343,165746,1,0,0:0:0:0:
56,323,165821,1,0,0:0:0:0:
38,289,165896,1,0,0:0:0:0:
28,256,165971,1,0,0:0:0:0:
17,221,166046,1,0,0:0:0:0:
20,183,166121,1,0,0:0:0:0:
35,149,166196,1,0,0:0:0:0:
62,122,166271,1,0,0:0:0:0:
96,107,166346,1,0,0:0:0:0:
132,112,166421,1,0,0:0:0:0:
162,136,166496,1,0,0:0:0:0:
197,150,166571,1,0,0:0:0:0:
234,155,166646,5,0,0:0:0:0:
272,150,166721,1,0,0:0:0:0:
307,136,166796,1,0,0:0:0:0:
337,113,166871,1,0,0:0:0:0:
368,140,166946,1,0,0:0:0:0:
390,171,167021,1,0,0:0:0:0:
403,207,167096,1,0,0:0:0:0:
404,244,167171,1,0,0:0:0:0:
395,281,167246,1,0,0:0:0:0:
376,313,167321,1,0,0:0:0:0:
352,336,167396,1,0,0:0:0:0:
316,357,167471,1,0,0:0:0:0:
275,361,167546,1,0,0:0:0:0:
236,348,167621,1,0,0:0:0:0:
205,319,167696,1,0,0:0:0:0:
152,200,167846,5,0,0:0:0:0:
152,45,167996,1,0,0:0:0:0:
285,122,168146,1,0,0:0:0:0:
176,124,168296,5,0,0:0:0:0:
286,14,168446,1,0,0:0:0:0:
326,163,168596,1,0,0:0:0:0:
248,88,168746,5,0,0:0:0:0:
403,87,168896,1,0,0:0:0:0:
326,221,169046,1,0,0:0:0:0:
323,112,169196,5,0,0:0:0:0:
433,222,169346,1,0,0:0:0:0:
284,262,169496,1,0,0:0:0:0:
464,104,169646,1,0,0:0:0:0:
227,178,169796,6,0,L|123:218,2,90.9999958343508
488,118,170246,6,0,B|449:201|449:201|397:290|335:260|304:231|292:179,1,272.999987503052
372,185,170846,2,0,P|303:135|217:215,2,181.999991668702
448,301,171596,2,0,L|359:336,1,90.9999958343508
217,343,171896,5,0,0:0:0:0:
189,325,171971,1,0,0:0:0:0:
164,303,172046,1,0,0:0:0:0:
143,278,172121,1,0,0:0:0:0:
126,250,172196,1,0,0:0:0:0:
112,219,172271,1,0,0:0:0:0:
104,187,172346,1,0,0:0:0:0:
99,155,172421,1,0,0:0:0:0:
100,122,172496,1,0,0:0:0:0:
105,89,172571,1,0,0:0:0:0:
116,57,172646,1,0,0:0:0:0:
64,360,177446,5,0,0:0:0:0:
65,346,177521,1,0,0:0:0:0:
66,333,177596,1,0,0:0:0:0:
67,320,177671,1,0,0:0:0:0:
68,307,177746,1,0,0:0:0:0:
69,294,177821,1,0,0:0:0:0:
70,281,177896,1,0,0:0:0:0:
72,272,177971,1,0,0:0:0:0:
68,250,178046,1,0,0:0:0:0:
71,228,178121,1,0,0:0:0:0:
79,208,178196,1,0,0:0:0:0:
92,191,178271,1,0,0:0:0:0:
110,178,178346,1,0,0:0:0:0:
130,170,178421,1,0,0:0:0:0:
152,168,178496,1,0,0:0:0:0:
179,180,178571,1,0,0:0:0:0:
209,184,178646,5,0,0:0:0:0:
239,179,178721,1,0,0:0:0:0:
267,166,178796,1,0,0:0:0:0:
290,146,178871,1,0,0:0:0:0:
305,121,178946,1,0,0:0:0:0:
312,88,179021,1,0,0:0:0:0:
319,59,179096,1,0,0:0:0:0:
305,33,179171,1,0,0:0:0:0:
272,16,179246,1,0,0:0:0:0:
232,16,179321,1,0,0:0:0:0:
192,32,179396,1,0,0:0:0:0:
160,72,179471,1,0,0:0:0:0:
142,115,179546,1,0,0:0:0:0:
127,160,179621,1,0,0:0:0:0:
126,208,179696,1,0,0:0:0:0:
139,253,179771,1,0,0:0:0:0:
165,293,179846,5,0,0:0:0:0:
202,323,179921,1,0,0:0:0:0:
246,342,179996,1,0,0:0:0:0:
293,346,180071,1,0,0:0:0:0:
340,336,180146,1,0,0:0:0:0:
384,312,180221,1,0,0:0:0:0:
416,280,180296,1,0,0:0:0:0:
443,244,180371,1,0,0:0:0:0:
451,199,180446,1,0,0:0:0:0:
438,156,180521,1,0,0:0:0:0:
407,124,180596,1,0,0:0:0:0:
364,109,180671,1,0,0:0:0:0:
320,115,180746,1,0,0:0:0:0:
283,141,180821,1,0,0:0:0:0:
256,176,180896,1,0,0:0:0:0:
236,225,180971,1,0,0:0:0:0:
196,260,181046,5,0,0:0:0:0:
145,274,181121,1,0,0:0:0:0:
93,262,181196,1,0,0:0:0:0:
48,240,181271,1,0,0:0:0:0:
16,200,181346,1,0,0:0:0:0:
0,144,181421,1,0,0:0:0:0:
16,88,181496,1,0,0:0:0:0:
48,48,181571,1,0,0:0:0:0:
96,32,181646,1,0,0:0:0:0:
152,40,181721,1,0,0:0:0:0:
191,79,181796,1,0,0:0:0:0:
195,134,181871,1,0,0:0:0:0:
162,179,181946,1,0,0:0:0:0:
104,192,182021,1,0,0:0:0:0:
71,144,182096,1,0,0:0:0:0:
111,108,182171,1,0,0:0:0:0:
154,132,182246,6,0,P|154:182|87:182,7,105.000004005432
408,272,183446,2,0,L|408:56,3,210.000008010865
500,228,184646,5,0,0:0:0:0:
507,182,184721,1,0,0:0:0:0:
491,138,184796,1,0,0:0:0:0:
458,107,184871,1,0,0:0:0:0:
414,93,184946,1,0,0:0:0:0:
368,100,185021,1,0,0:0:0:0:
330,127,185096,1,0,0:0:0:0:
309,168,185171,1,0,0:0:0:0:
309,214,185246,1,0,0:0:0:0:
329,256,185321,1,0,0:0:0:0:
346,291,185396,1,0,0:0:0:0:
309,282,185471,1,0,0:0:0:0:
269,285,185546,1,0,0:0:0:0:
233,300,185621,1,0,0:0:0:0:
203,326,185696,1,0,0:0:0:0:
165,336,185771,1,0,0:0:0:0:
120,327,185846,6,0,L|93:282,3,35
152,225,186146,6,0,L|124:179,3,35
48,208,186446,6,0,L|22:166,3,35
80,112,186746,6,0,L|54:70,3,35
80,56,187046,5,0,0:0:0:0:
109,33,187121,1,0,0:0:0:0:
142,19,187196,1,0,0:0:0:0:
178,16,187271,1,0,0:0:0:0:
215,20,187346,1,0,0:0:0:0:
247,36,187421,1,0,0:0:0:0:
276,60,187496,1,0,0:0:0:0:
289,89,187571,1,0,0:0:0:0:
289,126,187646,1,0,0:0:0:0:
289,162,187721,1,0,0:0:0:0:
289,198,187796,1,0,0:0:0:0:
292,235,187871,1,0,0:0:0:0:
310,266,187946,1,0,0:0:0:0:
340,288,188021,1,0,0:0:0:0:
375,295,188096,1,0,0:0:0:0:
415,290,188171,1,0,0:0:0:0:
449,277,188246,6,0,L|490:235,3,35
415,200,188546,6,0,L|390:158,3,35
474,133,188846,6,0,L|507:82,3,35
398,74,189146,6,0,L|373:32,3,35
348,24,189446,5,0,0:0:0:0:
313,15,189521,1,0,0:0:0:0:
276,21,189596,1,0,0:0:0:0:
246,39,189671,1,0,0:0:0:0:
224,70,189746,1,0,0:0:0:0:
216,104,189821,1,0,0:0:0:0:
222,141,189896,1,0,0:0:0:0:
180,124,189971,1,0,0:0:0:0:
145,116,190046,1,0,0:0:0:0:
109,121,190121,1,0,0:0:0:0:
78,140,190196,1,0,0:0:0:0:
56,171,190271,1,0,0:0:0:0:
48,205,190346,1,0,0:0:0:0:
54,242,190421,1,0,0:0:0:0:
71,275,190496,1,0,0:0:0:0:
104,292,190571,1,0,0:0:0:0:
142,284,190646,6,0,L|184:242,3,35
230,334,190946,6,0,L|281:301,3,35
264,225,191246,6,0,L|297:200,3,35
366,290,191546,6,0,L|416:256,3,35
427,246,191846,5,0,0:0:0:0:
450,214,191921,1,0,0:0:0:0:
459,176,191996,1,0,0:0:0:0:
452,137,192071,1,0,0:0:0:0:
432,103,192146,1,0,0:0:0:0:
399,81,192221,1,0,0:0:0:0:
364,65,192296,1,0,0:0:0:0:
349,84,192371,1,0,0:0:0:0:
335,103,192446,1,0,0:0:0:0:
319,121,192521,1,0,0:0:0:0:
304,141,192596,1,0,0:0:0:0:
288,159,192671,1,0,0:0:0:0:
274,178,192746,1,0,0:0:0:0:
260,196,192821,1,0,0:0:0:0:
237,228,192896,1,0,0:0:0:0:
205,250,192971,1,0,0:0:0:0:
166,262,193046,5,0,0:0:0:0:
128,260,193121,1,0,0:0:0:0:
90,247,193196,1,0,0:0:0:0:
66,219,193271,1,0,0:0:0:0:
38,193,193346,1,0,0:0:0:0:
27,154,193421,1,0,0:0:0:0:
37,117,193496,1,0,0:0:0:0:
66,90,193571,1,0,0:0:0:0:
104,81,193646,1,0,0:0:0:0:
147,83,193721,1,0,0:0:0:0:
181,106,193796,1,0,0:0:0:0:
217,119,193871,1,0,0:0:0:0:
257,125,193946,1,0,0:0:0:0:
296,120,194021,1,0,0:0:0:0:
334,109,194096,1,0,0:0:0:0:
367,89,194171,1,0,0:0:0:0:
400,72,194246,6,0,L|441:46,3,35
449,175,194546,6,0,L|423:133,3,35
365,204,194846,6,0,L|323:229,3,35
423,263,195146,6,0,L|449:305,3,35
461,334,195446,5,0,0:0:0:0:
433,356,195521,1,0,0:0:0:0:
398,371,195596,1,0,0:0:0:0:
362,376,195671,1,0,0:0:0:0:
326,373,195746,1,0,0:0:0:0:
291,361,195821,1,0,0:0:0:0:
260,351,195896,1,0,0:0:0:0:
230,330,195971,1,0,0:0:0:0:
204,305,196046,1,0,0:0:0:0:
198,269,196121,1,0,0:0:0:0:
209,236,196196,1,0,0:0:0:0:
237,210,196271,1,0,0:0:0:0:
271,202,196346,1,0,0:0:0:0:
307,212,196421,1,0,0:0:0:0:
332,238,196496,1,0,0:0:0:0:
344,271,196571,1,0,0:0:0:0:
365,309,196646,6,0,L|387:360,3,35
436,275,196946,6,0,L|411:233,3,35
452,163,197246,6,0,L|474:192,3,35
499,95,197546,6,0,L|465:60,3,35,0|0|0|0,3:0|3:0|3:0|3:0,3:0:0:0:
394,24,197846,6,0,L|344:47,3,35,0|0|0|0,3:0|0:0|3:0|0:0,0:0:0:0:
297,99,198146,6,0,L|329:120,3,35
218,187,198446,6,0,L|247:165,3,35
146,225,198746,6,0,L|181:261,3,35,0|0|0|0,3:0|3:0|3:0|3:0,3:0:0:0:
113,200,199046,5,0,0:0:0:0:
85,178,199121,1,0,0:0:0:0:
57,153,199196,1,0,0:0:0:0:
34,124,199271,1,0,0:0:0:0:
12,91,199346,1,0,0:0:0:0:
46,108,199421,1,0,0:0:0:0:
81,117,199496,1,0,0:0:0:0:
117,116,199571,1,0,0:0:0:0:
153,108,199646,1,0,0:0:0:0:
185,91,199721,1,0,0:0:0:0:
212,66,199796,1,0,0:0:0:0:
239,95,199871,1,0,0:0:0:0:
260,126,199946,1,0,0:0:0:0:
284,154,200021,1,0,0:0:0:0:
313,176,200096,5,0,0:0:0:0:
345,194,200171,1,0,0:0:0:0:
379,206,200246,1,0,0:0:0:0:
415,214,200321,1,0,0:0:0:0:
452,215,200396,1,0,0:0:0:0:
495,212,200471,1,0,0:0:0:0:
465,235,200546,1,0,0:0:0:0:
440,261,200621,1,0,0:0:0:0:
420,291,200696,1,0,0:0:0:0:
407,326,200771,1,0,0:0:0:0:
399,361,200846,1,0,0:0:0:0:
253,353,200996,5,0,0:0:0:0:
193,273,201146,1,0,0:0:0:0:
140,183,201296,1,0,0:0:0:0:
94,101,201446,2,0,L|72:58,2,35
192,98,201746,1,0,0:0:0:0:
33,183,201896,1,0,0:0:0:0:
193,273,202046,2,0,L|334:315,1,140
449,332,202496,1,0,0:0:0:0:
448,168,202646,5,0,0:0:0:0:
441,134,202721,1,0,0:0:0:0:
424,104,202796,1,0,0:0:0:0:
399,80,202871,1,0,0:0:0:0:
367,65,202946,1,0,0:0:0:0:
333,60,203021,1,0,0:0:0:0:
298,65,203096,1,0,0:0:0:0:
276,84,203171,1,0,0:0:0:0:
265,108,203246,1,0,0:0:0:0:
257,132,203321,1,0,0:0:0:0:
250,157,203396,1,0,0:0:0:0:
247,183,203471,1,0,0:0:0:0:
246,209,203546,1,0,0:0:0:0:
248,235,203621,1,0,0:0:0:0:
248,256,203696,1,0,0:0:0:0:
248,276,203771,1,0,0:0:0:0:
248,296,203846,6,0,L|272:336,3,35
384,260,204146,6,0,L|360:220,3,35
338,326,204446,6,0,L|356:356,3,35
448,192,204746,6,0,L|424:152,3,35
414,128,205046,5,0,0:0:0:0:
395,98,205121,1,0,0:0:0:0:
377,69,205196,1,0,0:0:0:0:
356,44,205271,1,0,0:0:0:0:
329,78,205346,1,0,0:0:0:0:
299,97,205421,1,0,0:0:0:0:
268,111,205496,1,0,0:0:0:0:
233,119,205571,1,0,0:0:0:0:
199,117,205646,1,0,0:0:0:0:
166,104,205721,1,0,0:0:0:0:
137,84,205796,1,0,0:0:0:0:
113,59,205871,1,0,0:0:0:0:
100,100,205946,1,0,0:0:0:0:
98,135,206021,1,0,0:0:0:0:
84,167,206096,1,0,0:0:0:0:
61,194,206171,1,0,0:0:0:0:
44,224,206246,6,0,L|24:260,3,35
120,288,206546,6,0,L|144:248,3,35
244,280,206846,6,0,L|216:301,3,35
320,336,207146,6,0,L|360:312,3,35
392,296,207446,5,0,0:0:0:0:
420,276,207521,1,0,0:0:0:0:
437,245,207596,1,0,0:0:0:0:
439,211,207671,1,0,0:0:0:0:
427,178,207746,1,0,0:0:0:0:
403,154,207821,1,0,0:0:0:0:
370,141,207896,1,0,0:0:0:0:
336,144,207971,1,0,0:0:0:0:
305,161,208046,1,0,0:0:0:0:
280,188,208121,1,0,0:0:0:0:
256,216,208196,1,0,0:0:0:0:
248,249,208271,1,0,0:0:0:0:
263,280,208346,1,0,0:0:0:0:
295,291,208421,1,0,0:0:0:0:
327,278,208496,1,0,0:0:0:0:
341,247,208571,1,0,0:0:0:0:
340,216,208646,6,0,L|316:176,3,35
248,249,208946,6,0,L|208:273,3,35
308,320,209246,6,0,L|332:360,3,35
400,288,209546,6,0,L|440:264,3,35
468,244,209846,5,0,0:0:0:0:
492,218,209921,1,0,0:0:0:0:
502,185,209996,1,0,0:0:0:0:
500,151,210071,1,0,0:0:0:0:
483,120,210146,1,0,0:0:0:0:
456,98,210221,1,0,0:0:0:0:
423,89,210296,1,0,0:0:0:0:
388,93,210371,1,0,0:0:0:0:
356,108,210446,1,0,0:0:0:0:
334,135,210521,1,0,0:0:0:0:
305,154,210596,1,0,0:0:0:0:
271,162,210671,1,0,0:0:0:0:
236,160,210746,1,0,0:0:0:0:
204,147,210821,1,0,0:0:0:0:
178,124,210896,1,0,0:0:0:0:
160,94,210971,1,0,0:0:0:0:
152,64,211046,6,0,L|144:24,3,35
128,192,211346,6,0,L|104:152,3,35
64,80,211646,6,0,L|44:50,3,35
246,90,211946,6,0,L|240:56,3,35
248,112,212246,1,0,0:0:0:0:
246,126,212321,1,0,0:0:0:0:
245,141,212396,1,0,0:0:0:0:
247,156,212471,1,0,0:0:0:0:
250,171,212546,1,0,0:0:0:0:
255,185,212621,1,0,0:0:0:0:
262,199,212696,1,0,0:0:0:0:
270,211,212771,1,0,0:0:0:0:
288,224,212846,1,0,0:0:0:0:
321,231,212921,1,0,0:0:0:0:
355,223,212996,1,0,0:0:0:0:
381,200,213071,1,0,0:0:0:0:
396,169,213146,1,0,0:0:0:0:
396,134,213221,1,0,0:0:0:0:
381,103,213296,1,0,0:0:0:0:
360,72,213371,1,0,0:0:0:0:
336,48,213446,6,0,L|304:16,3,35
224,64,213746,6,0,L|250:86,3,35
184,152,214046,6,0,L|144:126,3,35
168,232,214346,6,0,L|201:241,3,35
240,248,214646,5,0,0:0:0:0:
252,280,214721,1,0,0:0:0:0:
276,305,214796,1,0,0:0:0:0:
307,321,214871,1,0,0:0:0:0:
342,324,214946,1,0,0:0:0:0:
375,314,215021,1,0,0:0:0:0:
403,293,215096,1,0,0:0:0:0:
432,264,215171,1,0,0:0:0:0:
440,224,215246,1,0,0:0:0:0:
432,184,215321,1,0,0:0:0:0:
416,144,215396,1,0,0:0:0:0:
399,113,215471,1,0,0:0:0:0:
374,88,215546,1,0,0:0:0:0:
343,73,215621,1,0,0:0:0:0:
309,68,215696,1,0,0:0:0:0:
274,74,215771,1,0,0:0:0:0:
232,88,215846,6,0,L|200:104,3,35
312,152,216146,6,0,L|338:174,3,35
224,192,216446,6,0,L|200:224,3,35
288,272,216746,6,0,L|313:297,3,35
176,320,217046,6,0,L|176:360,3,35
112,232,217346,6,0,L|56:232,3,35
224,192,217646,6,0,L|224:136,3,35
288,280,217946,6,0,L|321:289,3,35
360,304,218246,5,0,0:0:0:0:
393,312,218321,1,0,0:0:0:0:
428,309,218396,1,0,0:0:0:0:
458,292,218471,1,0,0:0:0:0:
481,266,218546,1,0,0:0:0:0:
492,233,218621,1,0,0:0:0:0:
491,198,218696,1,0,0:0:0:0:
477,166,218771,1,0,0:0:0:0:
452,142,218846,1,0,0:0:0:0:
420,128,218921,1,0,0:0:0:0:
384,128,218996,1,0,0:0:0:0:
380,93,219071,1,0,0:0:0:0:
360,64,219146,1,0,0:0:0:0:
330,48,219221,1,0,0:0:0:0:
295,47,219296,1,0,0:0:0:0:
264,63,219371,1,0,0:0:0:0:
244,91,219446,5,0,0:0:0:0:
239,125,219521,1,0,0:0:0:0:
208,136,219596,1,0,0:0:0:0:
184,161,219671,1,0,0:0:0:0:
173,194,219746,1,0,0:0:0:0:
179,228,219821,1,0,0:0:0:0:
199,256,219896,1,0,0:0:0:0:
230,271,219971,1,0,0:0:0:0:
264,256,220046,1,0,0:0:0:0:
296,288,220121,1,0,0:0:0:0:
322,310,220196,1,0,0:0:0:0:
355,322,220271,1,0,0:0:0:0:
389,319,220346,1,0,0:0:0:0:
420,303,220421,1,0,0:0:0:0:
443,277,220496,1,0,0:0:0:0:
453,244,220571,1,0,0:0:0:0:
450,209,220646,5,0,0:0:0:0:
434,178,220721,1,0,0:0:0:0:
456,144,220796,1,0,0:0:0:0:
475,115,220871,1,0,0:0:0:0:
479,80,220946,1,0,0:0:0:0:
467,48,221021,1,0,0:0:0:0:
442,24,221096,1,0,0:0:0:0:
409,15,221171,1,0,0:0:0:0:
375,22,221246,1,0,0:0:0:0:
348,43,221321,1,0,0:0:0:0:
333,75,221396,1,0,0:0:0:0:
335,109,221471,1,0,0:0:0:0:
336,144,221546,1,0,0:0:0:0:
312,169,221621,1,0,0:0:0:0:
282,188,221696,1,0,0:0:0:0:
249,199,221771,1,0,0:0:0:0:
214,202,221846,5,0,0:0:0:0:
176,192,221921,1,0,0:0:0:0:
136,192,221996,1,0,0:0:0:0:
104,208,222071,1,0,0:0:0:0:
90,240,222146,1,0,0:0:0:0:
88,274,222221,1,0,0:0:0:0:
98,308,222296,1,0,0:0:0:0:
119,336,222371,1,0,0:0:0:0:
149,355,222446,1,0,0:0:0:0:
182,363,222521,1,0,0:0:0:0:
217,359,222596,5,0,0:0:0:0:
248,343,222671,1,0,0:0:0:0:
272,320,222746,1,0,0:0:0:0:
286,286,222821,1,0,0:0:0:0:
288,248,222896,1,0,0:0:0:0:
288,213,222971,1,0,0:0:0:0:
282,178,223046,6,0,L|264:50,1,105.000004005432
46,143,223346,2,0,B|106:167|106:167|144:235|144:235|226:271,1,210.000008010865
366,287,223795,1,0,0:0:0:0:
449,164,223946,2,0,L|500:62,1,105.000004005432
310,168,224246,5,0,0:0:0:0:
264,165,224321,1,0,0:0:0:0:
221,177,224396,1,0,0:0:0:0:
186,205,224471,1,0,0:0:0:0:
159,238,224546,2,0,P|129:284|134:358,1,90.9999958343508
236,332,224846,2,0,L|373:288,1,105.000004005432
484,227,225145,1,0,0:0:0:0:
312,32,225296,1,0,0:0:0:0:
112,80,225446,5,0,0:0:0:0:
69,101,225521,1,0,0:0:0:0:
45,140,225596,1,0,0:0:0:0:
43,187,225671,1,0,0:0:0:0:
64,229,225746,1,0,0:0:0:0:
103,254,225821,1,0,0:0:0:0:
149,258,225896,1,0,0:0:0:0:
188,257,225971,1,0,0:0:0:0:
206,210,226046,1,0,0:0:0:0:
176,169,226121,1,0,0:0:0:0:
126,172,226196,1,0,0:0:0:0:
84,201,226271,1,0,0:0:0:0:
71,251,226346,1,0,0:0:0:0:
90,299,226421,1,0,0:0:0:0:
133,328,226496,1,0,0:0:0:0:
185,327,226571,1,0,0:0:0:0:
226,296,226646,1,0,0:0:0:0:
256,256,226721,1,0,0:0:0:0:
214,225,226796,1,0,0:0:0:0:
163,230,226871,1,0,0:0:0:0:
127,267,226946,1,0,0:0:0:0:
125,319,227021,1,0,0:0:0:0:
158,358,227096,1,0,0:0:0:0:
208,367,227171,1,0,0:0:0:0:
264,368,227246,1,0,0:0:0:0:
312,344,227321,1,0,0:0:0:0:
344,304,227396,1,0,0:0:0:0:
352,248,227471,1,0,0:0:0:0:
320,200,227546,1,0,0:0:0:0:
280,160,227621,1,0,0:0:0:0:
224,144,227696,1,0,0:0:0:0:
168,160,227771,1,0,0:0:0:0:
108,274,227846,6,0,P|119:324|158:358,1,105.000004005432
352,256,228146,6,0,L|448:192,2,105.000004005432
168,160,228596,2,0,L|64:136,1,105.000004005432
192,56,228895,1,0,0:0:0:0:
80,248,229046,2,0,L|40:360,1,105.000004005432
246,292,229346,5,0,0:0:0:0:
292,295,229421,1,0,0:0:0:0:
335,283,229496,1,0,0:0:0:0:
370,255,229571,1,0,0:0:0:0:
397,222,229646,2,0,P|427:176|422:102,1,90.9999958343508
311,186,229946,2,0,P|265:162|213:160,1,105.000004005432
192,360,230246,5,0,0:0:0:0:
144,327,230321,1,0,0:0:0:0:
104,288,230396,1,0,0:0:0:0:
80,232,230471,1,0,0:0:0:0:
72,176,230546,1,0,0:0:0:0:
80,120,230621,1,0,0:0:0:0:
96,72,230696,1,0,0:0:0:0:
128,32,230771,1,0,0:0:0:0:
184,24,230846,1,0,0:0:0:0:
224,64,230921,1,0,0:0:0:0:
248,112,230996,1,0,0:0:0:0:
272,168,231071,1,0,0:0:0:0:
307,203,231146,1,0,0:0:0:0:
363,198,231221,1,0,0:0:0:0:
405,160,231296,1,0,0:0:0:0:
408,104,231371,1,0,0:0:0:0:
364,66,231446,5,0,0:0:0:0:
309,51,231521,1,0,0:0:0:0:
253,62,231596,1,0,0:0:0:0:
207,96,231671,1,0,0:0:0:0:
176,144,231746,1,0,0:0:0:0:
160,200,231821,1,0,0:0:0:0:
168,256,231896,1,0,0:0:0:0:
200,304,231971,1,0,0:0:0:0:
256,336,232046,1,0,0:0:0:0:
312,336,232121,1,0,0:0:0:0:
367,324,232196,1,0,0:0:0:0:
407,284,232271,1,0,0:0:0:0:
417,228,232346,1,0,0:0:0:0:
394,176,232421,1,0,0:0:0:0:
352,136,232496,1,0,0:0:0:0:
304,128,232571,1,0,0:0:0:0:
256,152,232646,6,0,P|208:184|136:184,1,105.000004005432
216,72,232946,6,0,B|288:40|288:40|368:56|368:56|432:24,1,210.000008010865
320,224,233396,2,0,P|294:256|296:328,1,105.000004005432
280,144,233695,1,0,0:0:0:0:
368,288,233846,2,0,L|480:328,1,105.000004005432
280,144,234146,5,0,0:0:0:0:
255,105,234221,1,0,0:0:0:0:
220,77,234296,1,0,0:0:0:0:
177,65,234371,1,0,0:0:0:0:
134,62,234446,2,0,P|79:64|22:112,1,90.9999958343508
329,222,234746,2,0,P|361:182|351:110,1,105.000004005432
136,64,235046,5,0,0:0:0:0:
99,100,235121,1,0,0:0:0:0:
98,151,235196,1,0,0:0:0:0:
133,188,235271,1,0,0:0:0:0:
184,191,235346,1,0,0:0:0:0:
232,208,235421,1,0,0:0:0:0:
275,234,235496,1,0,0:0:0:0:
293,283,235571,1,0,0:0:0:0:
276,331,235646,1,0,0:0:0:0:
232,358,235721,1,0,0:0:0:0:
181,352,235796,1,0,0:0:0:0:
144,328,235871,1,0,0:0:0:0:
101,298,235946,1,0,0:0:0:0:
76,252,236021,1,0,0:0:0:0:
73,200,236096,1,0,0:0:0:0:
93,152,236171,1,0,0:0:0:0:
133,118,236246,1,0,0:0:0:0:
183,105,236321,1,0,0:0:0:0:
234,115,236396,1,0,0:0:0:0:
272,152,236471,1,0,0:0:0:0:
301,193,236546,1,0,0:0:0:0:
296,244,236621,1,0,0:0:0:0:
258,279,236696,1,0,0:0:0:0:
206,280,236771,1,0,0:0:0:0:
167,247,236846,1,0,0:0:0:0:
168,192,236921,1,0,0:0:0:0:
199,150,236996,1,0,0:0:0:0:
234,115,237071,1,0,0:0:0:0:
290,100,237146,1,0,0:0:0:0:
342,96,237221,1,0,0:0:0:0:
384,120,237296,1,0,0:0:0:0:
416,168,237371,1,0,0:0:0:0:
472,336,237446,5,0,0:0:0:0:
384,200,237596,1,0,0:0:0:0:
480,48,237746,1,0,0:0:0:0:
256,344,237896,1,0,0:0:0:0:
200,184,238046,1,0,0:0:0:0:
272,32,238196,1,0,0:0:0:0:
80,344,238346,1,0,0:0:0:0:
16,184,238496,1,0,0:0:0:0:
96,32,238646,1,0,0:0:0:0:
280,184,238796,1,0,0:0:0:0:
80,344,238946,1,0,0:0:0:0:
336,112,239096,1,0,0:0:0:0:
96,32,239246,6,0,L|232:56,1,105.000004005432
496,192,239546,2,0,L|368:184,1,105.000004005432
80,344,239846,2,0,L|284:296,2,210.000008010865
64,224,240596,6,0,L|24:320,2,52.5000020027161
224,200,240896,2,0,L|288:264,2,52.5000020027161
160,96,241196,2,0,L|232:56,2,52.5000020027161
368,32,241496,1,0,0:0:0:0:
464,176,241646,5,0,0:0:0:0:
441,250,241721,1,0,0:0:0:0:
391,311,241796,1,0,0:0:0:0:
322,347,241871,1,0,0:0:0:0:
244,353,241946,1,0,0:0:0:0:
170,329,242021,1,0,0:0:0:0:
111,278,242096,1,0,0:0:0:0:
76,207,242171,1,0,0:0:0:0:
72,129,242246,1,0,0:0:0:0:
